  0
SECTION
  2
HEADER
  9
$ACADVER
  1
AC1015
  9
$ACADMAINTVER
 70
    20
  9
$DWGCODEPAGE
  3
ANSI_932
  9
$INSBASE
 10
0.0
 20
0.0
 30
0.0
  9
$EXTMIN
 10
82.6720045920265
 20
88.81858980156721
 30
-0.0000000000112498
  9
$EXTMAX
 10
8482.928289660831
 20
6028.999819957367
 30
0.0000000000002956
  9
$LIMMIN
 10
82.80008844952817
 20
88.90916338651733
  9
$LIMMAX
 10
502.8000884495281
 20
385.9091633865173
  9
$ORTHOMODE
 70
     0
  9
$REGENMODE
 70
     1
  9
$FILLMODE
 70
     1
  9
$QTEXTMODE
 70
     0
  9
$MIRRTEXT
 70
     0
  9
$LTSCALE
 40
1.0
  9
$ATTMODE
 70
     1
  9
$TEXTSIZE
 40
2.5
  9
$TRACEWID
 40
1.0
  9
$TEXTSTYLE
  7
Standard
  9
$CLAYER
  8
0
  9
$CELTYPE
  6
ByLayer
  9
$CECOLOR
 62
   256
  9
$CELTSCALE
 40
1.0
  9
$DISPSILH
 70
     0
  9
$DIMSCALE
 40
1.0
  9
$DIMASZ
 40
2.5
  9
$DIMEXO
 40
0.625
  9
$DIMDLI
 40
3.75
  9
$DIMRND
 40
0.0
  9
$DIMDLE
 40
0.0
  9
$DIMEXE
 40
1.25
  9
$DIMTP
 40
0.0
  9
$DIMTM
 40
0.0
  9
$DIMTXT
 40
2.5
  9
$DIMCEN
 40
2.5
  9
$DIMTSZ
 40
0.0
  9
$DIMTOL
 70
     0
  9
$DIMLIM
 70
     0
  9
$DIMTIH
 70
     0
  9
$DIMTOH
 70
     0
  9
$DIMSE1
 70
     0
  9
$DIMSE2
 70
     0
  9
$DIMTAD
 70
     2
  9
$DIMZIN
 70
     8
  9
$DIMBLK
  1

  9
$DIMASO
 70
     1
  9
$DIMSHO
 70
     1
  9
$DIMPOST
  1

  9
$DIMAPOST
  1

  9
$DIMALT
 70
     0
  9
$DIMALTD
 70
     3
  9
$DIMALTF
 40
0.03937007874016
  9
$DIMLFAC
 40
1.0
  9
$DIMTOFL
 70
     1
  9
$DIMTVP
 40
0.0
  9
$DIMTIX
 70
     0
  9
$DIMSOXD
 70
     0
  9
$DIMSAH
 70
     0
  9
$DIMBLK1
  1

  9
$DIMBLK2
  1

  9
$DIMSTYLE
  2
ISO-25
  9
$DIMCLRD
 70
     0
  9
$DIMCLRE
 70
     0
  9
$DIMCLRT
 70
     0
  9
$DIMTFAC
 40
1.0
  9
$DIMGAP
 40
0.625
  9
$DIMJUST
 70
     0
  9
$DIMSD1
 70
     0
  9
$DIMSD2
 70
     0
  9
$DIMTOLJ
 70
     0
  9
$DIMTZIN
 70
     8
  9
$DIMALTZ
 70
     0
  9
$DIMALTTZ
 70
     0
  9
$DIMUPT
 70
     0
  9
$DIMDEC
 70
     2
  9
$DIMTDEC
 70
     2
  9
$DIMALTU
 70
     2
  9
$DIMALTTD
 70
     3
  9
$DIMTXSTY
  7
Standard
  9
$DIMAUNIT
 70
     0
  9
$DIMADEC
 70
     0
  9
$DIMALTRND
 40
0.0
  9
$DIMAZIN
 70
     0
  9
$DIMDSEP
 70
    44
  9
$DIMATFIT
 70
     3
  9
$DIMFRAC
 70
     0
  9
$DIMLDRBLK
  1

  9
$DIMLUNIT
 70
     2
  9
$DIMLWD
 70
    -2
  9
$DIMLWE
 70
    -2
  9
$DIMTMOVE
 70
     0
  9
$LUNITS
 70
     2
  9
$LUPREC
 70
     4
  9
$SKETCHINC
 40
1.0
  9
$FILLETRAD
 40
0.0
  9
$AUNITS
 70
     0
  9
$AUPREC
 70
     0
  9
$MENU
  1
.
  9
$ELEVATION
 40
0.0
  9
$PELEVATION
 40
0.0
  9
$THICKNESS
 40
0.0
  9
$LIMCHECK
 70
     0
  9
$CHAMFERA
 40
0.0
  9
$CHAMFERB
 40
0.0
  9
$CHAMFERC
 40
0.0
  9
$CHAMFERD
 40
0.0
  9
$SKPOLY
 70
     0
  9
$TDCREATE
 40
2454427.395492431
  9
$TDUCREATE
 40
2454427.020492431
  9
$TDUPDATE
 40
2458065.476507165
  9
$TDUUPDATE
 40
2458065.101507165
  9
$TDINDWG
 40
0.4023614236
  9
$TDUSRTIMER
 40
0.4023614236
  9
$USRTIMER
 70
     1
  9
$ANGBASE
 50
0.0
  9
$ANGDIR
 70
     0
  9
$PDMODE
 70
     0
  9
$PDSIZE
 40
0.0
  9
$PLINEWID
 40
0.0
  9
$SPLFRAME
 70
     0
  9
$SPLINETYPE
 70
     6
  9
$SPLINESEGS
 70
     8
  9
$HANDSEED
  5
3A80
  9
$SURFTAB1
 70
     6
  9
$SURFTAB2
 70
     6
  9
$SURFTYPE
 70
     6
  9
$SURFU
 70
     6
  9
$SURFV
 70
     6
  9
$UCSBASE
  2

  9
$UCSNAME
  2

  9
$UCSORG
 10
0.0
 20
0.0
 30
0.0
  9
$UCSXDIR
 10
1.0
 20
0.0
 30
0.0
  9
$UCSYDIR
 10
0.0
 20
1.0
 30
0.0
  9
$UCSORTHOREF
  2

  9
$UCSORTHOVIEW
 70
     0
  9
$UCSORGTOP
 10
0.0
 20
0.0
 30
0.0
  9
$UCSORGBOTTOM
 10
0.0
 20
0.0
 30
0.0
  9
$UCSORGLEFT
 10
0.0
 20
0.0
 30
0.0
  9
$UCSORGRIGHT
 10
0.0
 20
0.0
 30
0.0
  9
$UCSORGFRONT
 10
0.0
 20
0.0
 30
0.0
  9
$UCSORGBACK
 10
0.0
 20
0.0
 30
0.0
  9
$PUCSBASE
  2

  9
$PUCSNAME
  2

  9
$PUCSORG
 10
0.0
 20
0.0
 30
0.0
  9
$PUCSXDIR
 10
1.0
 20
0.0
 30
0.0
  9
$PUCSYDIR
 10
0.0
 20
1.0
 30
0.0
  9
$PUCSORTHOREF
  2

  9
$PUCSORTHOVIEW
 70
     0
  9
$PUCSORGTOP
 10
0.0
 20
0.0
 30
0.0
  9
$PUCSORGBOTTOM
 10
0.0
 20
0.0
 30
0.0
  9
$PUCSORGLEFT
 10
0.0
 20
0.0
 30
0.0
  9
$PUCSORGRIGHT
 10
0.0
 20
0.0
 30
0.0
  9
$PUCSORGFRONT
 10
0.0
 20
0.0
 30
0.0
  9
$PUCSORGBACK
 10
0.0
 20
0.0
 30
0.0
  9
$USERI1
 70
     0
  9
$USERI2
 70
     0
  9
$USERI3
 70
     0
  9
$USERI4
 70
     0
  9
$USERI5
 70
     0
  9
$USERR1
 40
0.0
  9
$USERR2
 40
0.0
  9
$USERR3
 40
0.0
  9
$USERR4
 40
0.0
  9
$USERR5
 40
0.0
  9
$WORLDVIEW
 70
     1
  9
$SHADEDGE
 70
     3
  9
$SHADEDIF
 70
    70
  9
$TILEMODE
 70
     1
  9
$MAXACTVP
 70
    64
  9
$PINSBASE
 10
0.0
 20
0.0
 30
0.0
  9
$PLIMCHECK
 70
     0
  9
$PEXTMIN
 10
0.0
 20
0.0
 30
0.0
  9
$PEXTMAX
 10
0.0
 20
0.0
 30
0.0
  9
$PLIMMIN
 10
0.0
 20
0.0
  9
$PLIMMAX
 10
12.0
 20
9.0
  9
$UNITMODE
 70
     0
  9
$VISRETAIN
 70
     1
  9
$PLINEGEN
 70
     0
  9
$PSLTSCALE
 70
     1
  9
$TREEDEPTH
 70
  3020
  9
$CMLSTYLE
  2
Standard
  9
$CMLJUST
 70
     0
  9
$CMLSCALE
 40
20.0
  9
$PROXYGRAPHICS
 70
     1
  9
$MEASUREMENT
 70
     1
  9
$CELWEIGHT
370
    -1
  9
$ENDCAPS
280
     0
  9
$JOINSTYLE
280
     0
  9
$LWDISPLAY
290
     0
  9
$INSUNITS
 70
     4
  9
$HYPERLINKBASE
  1

  9
$STYLESHEET
  1
monochrome.ctb
  9
$XEDIT
290
     1
  9
$CEPSNTYPE
380
     0
  9
$PSTYLEMODE
290
     1
  9
$FINGERPRINTGUID
  2
{4ECE4D8E-F13A-40A1-9A46-5F0BA8809353}
  9
$VERSIONGUID
  2
{06DC6C1E-6A1A-41C0-9D9C-D96B728E266A}
  9
$EXTNAMES
290
     1
  9
$PSVPSCALE
 40
0.0
  9
$OLESTARTUP
290
     0
  0
ENDSEC
  0
SECTION
  2
CLASSES
  0
CLASS
  1
ACDBDICTIONARYWDFLT
  2
AcDbDictionaryWithDefault
  3
ObjectDBX Classes
 90
        0
280
     0
281
     0
  0
CLASS
  1
DICTIONARYVAR
  2
AcDbDictionaryVar
  3
ObjectDBX Classes
 90
        0
280
     0
281
     0
  0
CLASS
  1
TABLESTYLE
  2
AcDbTableStyle
  3
ObjectDBX Classes
 90
     4095
280
     0
281
     0
  0
CLASS
  1
SORTENTSTABLE
  2
AcDbSortentsTable
  3
ObjectDBX Classes
 90
        0
280
     0
281
     0
  0
CLASS
  1
DIMASSOC
  2
AcDbDimAssoc
  3
"AcDbDimAssoc|Product Desc:     AcDim ARX App For Dimension|Company:          Autodesk, Inc.|WEB Address:      www.autodesk.com"
 90
        0
280
     0
281
     0
  0
CLASS
  1
MATERIAL
  2
AcDbMaterial
  3
ObjectDBX Classes
 90
     1153
280
     0
281
     0
  0
CLASS
  1
VISUALSTYLE
  2
AcDbVisualStyle
  3
ObjectDBX Classes
 90
     4095
280
     0
281
     0
  0
CLASS
  1
SCALE
  2
AcDbScale
  3
ObjectDBX Classes
 90
     1153
280
     0
281
     0
  0
CLASS
  1
MLEADERSTYLE
  2
AcDbMLeaderStyle
  3
ACDB_MLEADERSTYLE_CLASS
 90
     4095
280
     0
281
     0
  0
CLASS
  1
CELLSTYLEMAP
  2
AcDbCellStyleMap
  3
ObjectDBX Classes
 90
     1152
280
     0
281
     0
  0
CLASS
  1
ACDBPLACEHOLDER
  2
AcDbPlaceHolder
  3
ObjectDBX Classes
 90
        0
280
     0
281
     0
  0
CLASS
  1
LAYOUT
  2
AcDbLayout
  3
ObjectDBX Classes
 90
        0
280
     0
281
     0
  0
ENDSEC
  0
SECTION
  2
TABLES
  0
TABLE
  2
VPORT
  5
8
102
{ACAD_XDICTIONARY
360
39AE
102
}
330
0
100
AcDbSymbolTable
 70
     1
  0
VPORT
  5
2FCF
330
8
100
AcDbSymbolTableRecord
100
AcDbViewportTableRecord
  2
*Active
 70
     0
 10
0.0
 20
0.0
 11
1.0
 21
1.0
 12
4282.800147126429
 22
3058.909204879467
 13
0.0
 23
0.0
 14
10.0
 24
10.0
 15
10.0
 25
10.0
 16
0.0
 26
0.0
 36
1.0
 17
0.0
 27
0.0
 37
0.0
 40
5987.148443425216
 41
1.67704280155642
 42
50.0
 43
0.0
 44
0.0
 50
0.0
 51
0.0
 71
     0
 72
  1000
 73
     1
 74
     3
 75
     0
 76
     0
 77
     0
 78
     0
281
     0
 65
     1
110
0.0
120
0.0
130
0.0
111
1.0
121
0.0
131
0.0
112
0.0
122
1.0
132
0.0
 79
     0
146
0.0
1001
ACAD_NAV_VCDISPLAY
1070
     3
  0
ENDTAB
  0
TABLE
  2
LTYPE
  5
5
330
0
100
AcDbSymbolTable
 70
     5
  0
LTYPE
  5
14
330
5
100
AcDbSymbolTableRecord
100
AcDbLinetypeTableRecord
  2
ByBlock
 70
     0
  3

 72
    65
 73
     0
 40
0.0
  0
LTYPE
  5
15
330
5
100
AcDbSymbolTableRecord
100
AcDbLinetypeTableRecord
  2
ByLayer
 70
     0
  3

 72
    65
 73
     0
 40
0.0
  0
LTYPE
  5
16
330
5
100
AcDbSymbolTableRecord
100
AcDbLinetypeTableRecord
  2
Continuous
 70
     0
  3
Solid line
 72
    65
 73
     0
 40
0.0
  0
LTYPE
  5
14E
330
5
100
AcDbSymbolTableRecord
100
AcDbLinetypeTableRecord
  2
CENTER
 70
     0
  3
Center ____ _ ____ _ ____ _ ____ _ ____ _ ____
 72
    65
 73
     4
 40
50.8
 49
31.75
 74
     0
 49
-6.349999999999999
 74
     0
 49
6.349999999999999
 74
     0
 49
-6.349999999999999
 74
     0
  0
LTYPE
  5
185
330
5
100
AcDbSymbolTableRecord
100
AcDbLinetypeTableRecord
  2
DASHEDX2
 70
     0
  3
Dashed (2x) ____  ____  ____  ____  ____  ___
 72
    65
 73
     2
 40
38.1
 49
25.4
 74
     0
 49
-12.7
 74
     0
  0
LTYPE
  5
186
330
5
100
AcDbSymbolTableRecord
100
AcDbLinetypeTableRecord
  2
DASHED
 70
     0
  3
Dashed __ __ __ __ __ __ __ __ __ __ __ __ __ _
 72
    65
 73
     2
 40
19.05
 49
12.7
 74
     0
 49
-6.349999999999999
 74
     0
  0
LTYPE
  5
5E2
330
5
100
AcDbSymbolTableRecord
100
AcDbLinetypeTableRecord
  2
FENCELINE1
 70
     0
  3
Fenceline circle ----0-----0----0-----0----0---
 72
    65
 73
     4
 40
36.83
 49
6.349999999999999
 74
     0
 49
-2.54
 74
     4
 75
   133
340
14D
 46
2.54
 50
0.0
 44
-2.54
 45
0.0
 49
-2.54
 74
     0
 49
25.4
 74
     0
  0
ENDTAB
  0
TABLE
  2
LAYER
  5
2
102
{ACAD_XDICTIONARY
360
101
102
}
330
0
100
AcDbSymbolTable
 70
    11
  0
LAYER
  5
10
102
{ACAD_XDICTIONARY
360
3145
102
}
330
2
100
AcDbSymbolTableRecord
100
AcDbLayerTableRecord
  2
0
 70
     0
 62
     6
  6
Continuous
370
    -3
390
F
  0
LAYER
  5
FC
102
{ACAD_XDICTIONARY
360
3147
102
}
330
2
100
AcDbSymbolTableRecord
100
AcDbLayerTableRecord
  2
S-title
 70
     0
 62
     7
  6
Continuous
370
     9
390
F
1001
AcAecLayerStandard
1000

1000

  0
LAYER
  5
FD
330
2
100
AcDbSymbolTableRecord
100
AcDbLayerTableRecord
  2
DEFPOINTS
 70
     0
 62
     1
  6
Continuous
290
     0
370
    -3
390
F
1001
AcAecLayerStandard
1000

1000

  0
LAYER
  5
FE
102
{ACAD_XDICTIONARY
360
3149
102
}
330
2
100
AcDbSymbolTableRecord
100
AcDbLayerTableRecord
  2
S-mark
 70
     0
 62
     5
  6
Continuous
370
    -3
390
F
  0
LAYER
  5
FF
102
{ACAD_XDICTIONARY
360
314B
102
}
330
2
100
AcDbSymbolTableRecord
100
AcDbLayerTableRecord
  2
S-main
 70
     0
 62
     7
  6
Continuous
370
     9
390
F
1001
AcAecLayerStandard
1000

1000

  0
LAYER
  5
14B
102
{ACAD_XDICTIONARY
360
314D
102
}
330
2
100
AcDbSymbolTableRecord
100
AcDbLayerTableRecord
  2
S-center
 70
     0
 62
     4
  6
CENTER
370
     9
390
F
1001
AcAecLayerStandard
1000

1000

  0
LAYER
  5
14F
102
{ACAD_XDICTIONARY
360
314F
102
}
330
2
100
AcDbSymbolTableRecord
100
AcDbLayerTableRecord
  2
S-assist
 70
     0
 62
    -2
  6
Continuous
370
     9
390
F
1001
AcAecLayerStandard
1000

1000

  0
LAYER
  5
183
102
{ACAD_XDICTIONARY
360
3151
102
}
330
2
100
AcDbSymbolTableRecord
100
AcDbLayerTableRecord
  2
S-size
 70
     0
 62
     7
  6
Continuous
370
     9
390
F
1001
AcAecLayerStandard
1000

1000

  0
LAYER
  5
184
102
{ACAD_XDICTIONARY
360
3153
102
}
330
2
100
AcDbSymbolTableRecord
100
AcDbLayerTableRecord
  2
S-shadow
 70
     0
 62
     4
  6
DASHED
370
     9
390
F
1001
AcAecLayerStandard
1000

1000

  0
LAYER
  5
5E0
102
{ACAD_XDICTIONARY
360
3155
102
}
330
2
100
AcDbSymbolTableRecord
100
AcDbLayerTableRecord
  2
S-D
 70
     0
 62
     3
  6
FENCELINE1
370
     9
390
F
1001
AcAecLayerStandard
1000

1000

  0
LAYER
  5
5E1
102
{ACAD_XDICTIONARY
360
3157
102
}
330
2
100
AcDbSymbolTableRecord
100
AcDbLayerTableRecord
  2
S-\U+03C6
 70
     0
 62
     3
  6
Continuous
370
     9
390
F
1001
AcAecLayerStandard
1000

1000

  0
ENDTAB
  0
TABLE
  2
STYLE
  5
3
330
0
100
AcDbSymbolTable
 70
     2
  0
STYLE
  5
11
330
3
100
AcDbSymbolTableRecord
100
AcDbTextStyleTableRecord
  2
Standard
 70
     0
 40
0.0
 41
1.0
 50
0.0
 71
     0
 42
2.5
  3
txt.shx
  4
extfont2.shx
  0
STYLE
  5
14D
330
3
100
AcDbSymbolTableRecord
100
AcDbTextStyleTableRecord
  2

 70
     1
 40
0.0
 41
1.0
 50
0.0
 71
     0
 42
2.5
  3
ltypeshp.shx
  4

  0
ENDTAB
  0
TABLE
  2
VIEW
  5
6
330
0
100
AcDbSymbolTable
 70
     0
  0
ENDTAB
  0
TABLE
  2
UCS
  5
7
330
0
100
AcDbSymbolTable
 70
     0
  0
ENDTAB
  0
TABLE
  2
APPID
  5
9
330
0
100
AcDbSymbolTable
 70
    18
  0
APPID
  5
12
330
9
100
AcDbSymbolTableRecord
100
AcDbRegAppTableRecord
  2
ACAD
 70
     0
  0
APPID
  5
9E
330
9
100
AcDbSymbolTableRecord
100
AcDbRegAppTableRecord
  2
ACAD_PSEXT
 70
     0
  0
APPID
  5
100
330
9
100
AcDbSymbolTableRecord
100
AcDbRegAppTableRecord
  2
AcAecLayerStandard
 70
     0
  0
APPID
  5
1E4
330
9
100
AcDbSymbolTableRecord
100
AcDbRegAppTableRecord
  2
ACAD_DSTYLE_DIMTEXT_FILL
 70
     0
  0
APPID
  5
1E5
330
9
100
AcDbSymbolTableRecord
100
AcDbRegAppTableRecord
  2
ACAD_DSTYLE_DIMEXT_LENGTH
 70
     0
  0
APPID
  5
1E6
330
9
100
AcDbSymbolTableRecord
100
AcDbRegAppTableRecord
  2
ACAD_DSTYLE_DIMEXT_ENABLED
 70
     0
  0
APPID
  5
1E7
330
9
100
AcDbSymbolTableRecord
100
AcDbRegAppTableRecord
  2
ACAD_DSTYLE_DIM_LINETYPE
 70
     0
  0
APPID
  5
1E8
330
9
100
AcDbSymbolTableRecord
100
AcDbRegAppTableRecord
  2
ACAD_DSTYLE_DIM_EXT1_LINETYPE
 70
     0
  0
APPID
  5
1E9
330
9
100
AcDbSymbolTableRecord
100
AcDbRegAppTableRecord
  2
ACAD_DSTYLE_DIM_EXT2_LINETYPE
 70
     0
  0
APPID
  5
2A5
330
9
100
AcDbSymbolTableRecord
100
AcDbRegAppTableRecord
  2
ACAD_DSTYLE_DIMJOGGED_JOGANGLE_SYMBOL
 70
     0
  0
APPID
  5
309
330
9
100
AcDbSymbolTableRecord
100
AcDbRegAppTableRecord
  2
ACAD_DSTYLE_DIMARC_LENGTH_SYMBOL
 70
     0
  0
APPID
  5
60C
330
9
100
AcDbSymbolTableRecord
100
AcDbRegAppTableRecord
  2
ACAD_EXEMPT_FROM_CAD_STANDARDS
 70
     0
  0
APPID
  5
3162
330
9
100
AcDbSymbolTableRecord
100
AcDbRegAppTableRecord
  2
ACAD_NAV_VCDISPLAY
 70
     0
  0
APPID
  5
374B
330
9
100
AcDbSymbolTableRecord
100
AcDbRegAppTableRecord
  2
GradientColor1ACI
 70
     0
  0
APPID
  5
374C
330
9
100
AcDbSymbolTableRecord
100
AcDbRegAppTableRecord
  2
GradientColor2ACI
 70
     0
  0
APPID
  5
393B
330
9
100
AcDbSymbolTableRecord
100
AcDbRegAppTableRecord
  2
ACAD_DSTYLE_DIMJAG
 70
     0
  0
APPID
  5
393C
330
9
100
AcDbSymbolTableRecord
100
AcDbRegAppTableRecord
  2
ACAD_DSTYLE_DIMTALN
 70
     0
  0
APPID
  5
39E9
330
9
100
AcDbSymbolTableRecord
100
AcDbRegAppTableRecord
  2
ACAD_MLEADERVER
 70
     0
  0
ENDTAB
  0
TABLE
  2
DIMSTYLE
  5
A
330
0
100
AcDbSymbolTable
 70
     1
100
AcDbDimStyleTable
 71
     1
340
27
  0
DIMSTYLE
105
27
102
{ACAD_REACTORS
330
8BC
330
912
330
93C
330
966
330
A86
330
F45
330
FB7
330
1082
330
108B
330
1D50
330
2D84
330
3273
330
338F
330
35C8
330
37DC
330
37FD
102
}
330
A
100
AcDbSymbolTableRecord
100
AcDbDimStyleTableRecord
  2
ISO-25
 70
     0
 41
2.5
 42
0.625
 43
3.75
 44
1.25
 73
     0
 74
     0
 77
     2
 78
     8
140
2.5
141
2.5
143
0.03937007874016
147
0.625
171
     3
172
     1
271
     2
272
     2
274
     3
278
    44
283
     0
284
     8
340
11
1001
ACAD_DSTYLE_DIMEXT_LENGTH
1070
   378
1040
1.25
1001
ACAD_DSTYLE_DIMJOGGED_JOGANGLE_SYMBOL
1070
   384
1040
1.570796326794896
  0
ENDTAB
  0
TABLE
  2
BLOCK_RECORD
  5
1
330
0
100
AcDbSymbolTable
 70
    25
  0
BLOCK_RECORD
  5
1F
102
{ACAD_XDICTIONARY
360
61A
102
}
330
1
100
AcDbSymbolTableRecord
100
AcDbBlockTableRecord
  2
*Model_Space
340
22
  0
BLOCK_RECORD
  5
D2
330
1
100
AcDbSymbolTableRecord
100
AcDbBlockTableRecord
  2
*Paper_Space
340
D3
  0
BLOCK_RECORD
  5
D6
330
1
100
AcDbSymbolTableRecord
100
AcDbBlockTableRecord
  2
*Paper_Space0
340
D7
  0
BLOCK_RECORD
  5
F3
330
1
100
AcDbSymbolTableRecord
100
AcDbBlockTableRecord
  2
AI9-BLK1
340
0
102
{BLKREFS
331
123
102
}
  0
BLOCK_RECORD
  5
F7
330
1
100
AcDbSymbolTableRecord
100
AcDbBlockTableRecord
  2
AI9-BLK2
340
0
102
{BLKREFS
331
F5
102
}
  0
BLOCK_RECORD
  5
7C3
330
1
100
AcDbSymbolTableRecord
100
AcDbBlockTableRecord
  2
*D3
340
0
  0
BLOCK_RECORD
  5
8BD
330
1
100
AcDbSymbolTableRecord
100
AcDbBlockTableRecord
  2
*D4
340
0
  0
BLOCK_RECORD
  5
913
330
1
100
AcDbSymbolTableRecord
100
AcDbBlockTableRecord
  2
*D5
340
0
  0
BLOCK_RECORD
  5
93D
330
1
100
AcDbSymbolTableRecord
100
AcDbBlockTableRecord
  2
*D6
340
0
  0
BLOCK_RECORD
  5
967
330
1
100
AcDbSymbolTableRecord
100
AcDbBlockTableRecord
  2
*D7
340
0
  0
BLOCK_RECORD
  5
A87
330
1
100
AcDbSymbolTableRecord
100
AcDbBlockTableRecord
  2
*D8
340
0
  0
BLOCK_RECORD
  5
F46
330
1
100
AcDbSymbolTableRecord
100
AcDbBlockTableRecord
  2
*D9
340
0
  0
BLOCK_RECORD
  5
FB8
330
1
100
AcDbSymbolTableRecord
100
AcDbBlockTableRecord
  2
*D10
340
0
  0
BLOCK_RECORD
  5
1205
330
1
100
AcDbSymbolTableRecord
100
AcDbBlockTableRecord
  2
*D11
340
0
  0
BLOCK_RECORD
  5
122D
330
1
100
AcDbSymbolTableRecord
100
AcDbBlockTableRecord
  2
*D12
340
0
  0
BLOCK_RECORD
  5
161D
330
1
100
AcDbSymbolTableRecord
100
AcDbBlockTableRecord
  2
*D13
340
0
  0
BLOCK_RECORD
  5
16B8
330
1
100
AcDbSymbolTableRecord
100
AcDbBlockTableRecord
  2
*D14
340
0
  0
BLOCK_RECORD
  5
1D51
330
1
100
AcDbSymbolTableRecord
100
AcDbBlockTableRecord
  2
*D15
340
0
  0
BLOCK_RECORD
  5
2C64
330
1
100
AcDbSymbolTableRecord
100
AcDbBlockTableRecord
  2
_Open30
340
0
  0
BLOCK_RECORD
  5
2D85
330
1
100
AcDbSymbolTableRecord
100
AcDbBlockTableRecord
  2
*D17
340
0
  0
BLOCK_RECORD
  5
3276
330
1
100
AcDbSymbolTableRecord
100
AcDbBlockTableRecord
  2
*D18
340
0
  0
BLOCK_RECORD
  5
3390
330
1
100
AcDbSymbolTableRecord
100
AcDbBlockTableRecord
  2
*D19
340
0
  0
BLOCK_RECORD
  5
352D
102
{ACAD_XDICTIONARY
360
3538
102
}
330
1
100
AcDbSymbolTableRecord
100
AcDbBlockTableRecord
  2
A$C10BE4C18
340
0
1001
ACAD
1000
DesignCenter Data
1002
{
1070
     1
1070
     4
1002
}
  0
BLOCK_RECORD
  5
35C9
330
1
100
AcDbSymbolTableRecord
100
AcDbBlockTableRecord
  2
*D21
340
0
  0
BLOCK_RECORD
  5
37DD
330
1
100
AcDbSymbolTableRecord
100
AcDbBlockTableRecord
  2
*D22
340
0
  0
BLOCK_RECORD
  5
37FE
330
1
100
AcDbSymbolTableRecord
100
AcDbBlockTableRecord
  2
*D23
340
0
  0
ENDTAB
  0
ENDSEC
  0
SECTION
  2
BLOCKS
  0
BLOCK
  5
20
330
1F
100
AcDbEntity
  8
0
100
AcDbBlockBegin
  2
*Model_Space
 70
     0
 10
0.0
 20
0.0
 30
0.0
  3
*Model_Space
  1

  0
ENDBLK
  5
21
330
1F
100
AcDbEntity
  8
0
100
AcDbBlockEnd
  0
BLOCK
  5
D4
330
D2
100
AcDbEntity
 67
     1
  8
0
100
AcDbBlockBegin
  2
*Paper_Space
 70
     0
 10
0.0
 20
0.0
 30
0.0
  3
*Paper_Space
  1

  0
ENDBLK
  5
D5
330
D2
100
AcDbEntity
 67
     1
  8
0
100
AcDbBlockEnd
  0
BLOCK
  5
D8
330
D6
100
AcDbEntity
 67
     1
  8
0
100
AcDbBlockBegin
  2
*Paper_Space0
 70
     0
 10
0.0
 20
0.0
 30
0.0
  3
*Paper_Space0
  1

  0
ENDBLK
  5
D9
330
D6
100
AcDbEntity
 67
     1
  8
0
100
AcDbBlockEnd
  0
BLOCK
  5
F4
330
F3
100
AcDbEntity
  8
S-mark
 62
     7
100
AcDbBlockBegin
  2
AI9-BLK1
 70
     0
 10
0.0
 20
0.0
 30
0.0
  3
AI9-BLK1
  1

  0
INSERT
  5
F5
330
F3
100
AcDbEntity
  8
S-mark
 62
     7
100
AcDbBlockReference
  2
AI9-BLK2
 10
0.0
 20
0.0
 30
0.0
  0
ENDBLK
  5
F6
330
F3
100
AcDbEntity
  8
S-mark
100
AcDbBlockEnd
  0
BLOCK
  5
F8
330
F7
100
AcDbEntity
  8
S-mark
 62
     7
100
AcDbBlockBegin
  2
AI9-BLK2
 70
     0
 10
0.0
 20
0.0
 30
0.0
  3
AI9-BLK2
  1

  0
HATCH
  5
F9
330
F7
100
AcDbEntity
  8
S-mark
 62
     7
100
AcDbHatch
 10
0.0
 20
0.0
 30
0.0
210
0.0
220
0.0
230
1.0
  2
SOLID
 70
     1
 71
     0
 91
        1
 92
        1
 93
        1
 72
     4
 94
        3
 73
     0
 74
     0
 95
       59
 96
       55
 40
0.0
 40
0.0
 40
0.0
 40
0.0
 40
1.0
 40
1.0
 40
1.0
 40
2.0
 40
2.0
 40
2.0
 40
3.0
 40
3.0
 40
3.0
 40
4.0
 40
4.0
 40
4.0
 40
5.0
 40
5.0
 40
5.0
 40
6.0
 40
6.0
 40
6.0
 40
7.0
 40
7.0
 40
7.0
 40
8.0
 40
8.0
 40
8.0
 40
9.0
 40
9.0
 40
9.0
 40
10.0
 40
10.0
 40
10.0
 40
11.0
 40
11.0
 40
11.0
 40
12.0
 40
12.0
 40
12.0
 40
13.0
 40
13.0
 40
13.0
 40
14.0
 40
14.0
 40
14.0
 40
15.0
 40
15.0
 40
15.0
 40
16.0
 40
16.0
 40
16.0
 40
17.0
 40
17.0
 40
17.0
 40
18.0
 40
18.0
 40
18.0
 40
18.0
 10
19.11183946397569
 20
10.62743055555555
 10
19.11183946397569
 20
10.62743055555555
 10
19.13285454644097
 20
10.66274278428819
 10
19.13285454644097
 20
10.66274278428819
 10
19.61275634765625
 20
10.33804253472222
 10
20.1877427842882
 20
10.15114610460069
 10
20.80854899088542
 20
10.15114610460069
 10
22.46667344835069
 20
10.15114610460069
 10
23.81060519748264
 20
11.49525010850694
 10
23.81060519748264
 20
13.1497572157118
 10
23.81060519748264
 20
14.20102810329861
 10
23.26731363932291
 20
15.12879231770833
 10
22.44910346137153
 20
15.66502143012153
 10
22.44910346137153
 20
15.66502143012153
 10
22.45599365234375
 20
15.67914632161458
 10
22.45599365234375
 20
15.67914632161458
 10
22.45599365234375
 20
15.67914632161458
 10
-18.13102077907986
 20
42.28561876085069
 10
-18.13102077907986
 20
42.28561876085069
 10
-12.56770833333333
 20
44.67754855685764
 10
-6.436471896701387
 20
46.0004652235243
 10
0.0017225477430556
 20
46.0004652235243
 10
25.40533989800347
 20
46.0004652235243
 10
46.0004652235243
 20
25.40533989800347
 10
46.0004652235243
 20
0.0017225477430556
 10
46.0004652235243
 20
-14.73036702473958
 10
39.07547878689236
 20
-27.84308946397569
 10
28.30507676866319
 20
-36.26393636067708
 10
28.30507676866319
 20
-36.26393636067708
 10
1.067118326822916
 20
-19.00607503255208
 10
1.067118326822916
 20
-19.00607503255208
 10
1.416451009114583
 20
-18.86482611762152
 10
1.761994086371527
 20
-18.72357720269097
 10
2.107881673177083
 20
-18.57922770182291
 10
5.145077853732638
 20
-17.27732611762152
 10
7.381978352864583
 20
-15.23817409939236
 10
8.923314073350693
 20
-12.3032972547743
 10
10.4367445203993
 20
-9.410450575086803
 10
11.01896565755208
 20
-6.288160536024305
 10
10.21832546657986
 20
-3.092145453559027
 10
9.308131239149304
 20
0.53795166015625
 10
7.399548339843748
 20
3.974089898003471
 10
5.371076117621527
 20
6.95495876736111
 10
4.340992567274304
 20
8.468389214409722
 10
3.278869628906249
 20
10.03470187717014
 10
2.926091851128472
 20
11.85147298177083
 10
2.552298990885416
 20
13.76005588107639
 10
3.416673448350694
 20
16.33888210720486
 10
5.554355197482638
 20
16.90336100260416
 10
7.286549207899304
 20
17.35845811631944
 10
9.106937662760415
 20
16.76228434244791
 10
10.6909925672743
 20
16.05311143663194
 10
10.6909925672743
 20
16.05311143663194
 10
19.11183946397569
 20
10.62743055555555
 10
19.11183946397569
 20
10.62743055555555
 97
        0
 75
     2
 76
     1
 98
        1
 10
0.0
 20
0.0
  0
HATCH
  5
FA
330
F7
100
AcDbEntity
  8
S-mark
 62
     7
100
AcDbHatch
 10
0.0
 20
0.0
 30
0.0
210
0.0
220
0.0
230
1.0
  2
SOLID
 70
     1
 71
     0
 91
        1
 92
        1
 93
        1
 72
     4
 94
        3
 73
     0
 74
     0
 95
       68
 96
       64
 40
0.0
 40
0.0
 40
0.0
 40
0.0
 40
1.0
 40
1.0
 40
1.0
 40
2.0
 40
2.0
 40
2.0
 40
3.0
 40
3.0
 40
3.0
 40
4.0
 40
4.0
 40
4.0
 40
5.0
 40
5.0
 40
5.0
 40
6.0
 40
6.0
 40
6.0
 40
7.0
 40
7.0
 40
7.0
 40
8.0
 40
8.0
 40
8.0
 40
9.0
 40
9.0
 40
9.0
 40
10.0
 40
10.0
 40
10.0
 40
11.0
 40
11.0
 40
11.0
 40
12.0
 40
12.0
 40
12.0
 40
13.0
 40
13.0
 40
13.0
 40
14.0
 40
14.0
 40
14.0
 40
15.0
 40
15.0
 40
15.0
 40
16.0
 40
16.0
 40
16.0
 40
17.0
 40
17.0
 40
17.0
 40
18.0
 40
18.0
 40
18.0
 40
19.0
 40
19.0
 40
19.0
 40
20.0
 40
20.0
 40
20.0
 40
21.0
 40
21.0
 40
21.0
 40
21.0
 10
-23.28161078559027
 20
-10.57454833984375
 10
-23.28161078559027
 20
-10.57454833984375
 10
22.7522718641493
 20
-39.98911810980903
 10
22.7522718641493
 20
-39.98911810980903
 10
16.0426038953993
 20
-43.81696370442708
 10
8.278047688802082
 20
-46.0004652235243
 10
0.0017225477430556
 20
-46.0004652235243
 10
-25.40533989800347
 20
-46.0004652235243
 10
-46.0004652235243
 20
-25.40533989800347
 10
-46.0004652235243
 20
0.0017225477430556
 10
-46.0004652235243
 20
16.32820231119791
 10
-37.49504123263888
 20
30.66875678168403
 10
-24.6715345594618
 20
38.8319105360243
 10
-24.6715345594618
 20
38.8319105360243
 10
-0.4709445529513889
 20
23.24268120659722
 10
-0.4709445529513889
 20
23.24268120659722
 10
-0.4709445529513889
 20
23.24268120659722
 10
-0.5345065646701388
 20
23.14397922092014
 10
-0.5345065646701388
 20
23.14397922092014
 10
-2.495971679687499
 20
22.2654798719618
 10
-4.446756998697916
 20
21.18251410590278
 10
-5.77673611111111
 20
19.44325764973958
 10
-7.515992567274304
 20
17.1679443359375
 10
-7.216097005208332
 20
14.03514675564236
 10
-6.394097222222221
 20
11.46700032552083
 10
-5.882672797309027
 20
9.868992784288193
 10
-5.145250108506943
 20
8.344882541232637
 10
-4.309297688802082
 20
6.89139675564236
 10
-3.501422797309027
 20
5.487348090277777
 10
-2.591228569878472
 20
4.15047878689236
 10
-1.677589246961805
 20
2.816882324218749
 10
-0.7250203450520833
 20
1.434020996093749
 10
0.2451185438368055
 20
0.0475423177083333
 10
1.028188747829861
 20
-1.441255696614583
 10
1.811603461371527
 20
-2.926436360677083
 10
2.421729871961805
 20
-4.549076334635416
 10
2.488909233940971
 20
-6.242340766059027
 10
2.555744086371527
 20
-7.847410753038193
 10
2.097201877170138
 20
-9.456270345052082
 10
1.084688313802083
 20
-10.71924235026041
 10
0.0687296549479167
 20
-11.98221435546875
 10
-1.413005913628472
 20
-12.77940945095486
 10
-3.003951009114583
 20
-13.04054768880208
 10
-4.732527669270832
 20
-13.31925591362847
 10
-6.475229220920137
 20
-12.97336832682291
 10
-8.143861219618054
 20
-12.51482611762152
 10
-8.588450792100694
 20
-12.39493679470486
 10
-9.025805664062499
 20
-12.25713297526041
 10
-9.470395236545137
 20
-12.13379855685764
 10
-9.470395236545137
 20
-12.13379855685764
 10
-9.558589680989582
 20
-12.27504747178819
 10
-9.558589680989582
 20
-12.27504747178819
 10
-9.558589680989582
 20
-12.27504747178819
 10
-19.96553412543402
 20
-5.684924316406249
 10
-19.96553412543402
 20
-5.684924316406249
 10
-20.50520833333333
 20
-5.159547254774304
 10
-21.24263102213542
 20
-4.838464355468749
 10
-22.05395100911458
 20
-4.838464355468749
 10
-23.70845811631944
 20
-4.838464355468749
 10
-25.05256212022569
 20
-6.182396104600694
 10
-25.05256212022569
 20
-7.840520562065971
 10
-25.05256212022569
 20
-9.057672797309026
 10
-24.32581922743056
 20
-10.10532633463541
 10
-23.28161078559027
 20
-10.57454833984375
 97
        0
 75
     2
 76
     1
 98
        1
 10
0.0
 20
0.0
  0
ENDBLK
  5
FB
330
F7
100
AcDbEntity
  8
S-mark
100
AcDbBlockEnd
  0
BLOCK
  5
7CD
330
7C3
100
AcDbEntity
  8
0
100
AcDbBlockBegin
  2
*D3
 70
     1
 10
0.0
 20
0.0
 30
0.0
  3
*D3
  1

  0
LINE
  5
396A
330
7C3
100
AcDbEntity
  8
S-size
 62
     0
370
    -2
100
AcDbLine
 10
1772.800088449528
 20
3678.909163386518
 30
0.0
 11
1772.800088449528
 21
3558.015102445204
 31
0.0
  0
LINE
  5
396B
330
7C3
100
AcDbEntity
  8
S-size
 62
     0
370
    -2
100
AcDbLine
 10
2182.800088449528
 20
3732.559163386517
 30
0.0
 11
2182.800088449528
 21
3558.015102445204
 31
0.0
  0
LINE
  5
396C
330
7C3
100
AcDbEntity
  8
S-size
 62
     0
370
    -2
100
AcDbLine
 10
1787.800088449528
 20
3558.015102445204
 30
0.0
 11
2167.800088449528
 21
3558.015102445204
 31
0.0
  0
SOLID
  5
396D
330
7C3
100
AcDbEntity
  8
S-size
 62
     0
100
AcDbTrace
 10
1787.800088449528
 20
3560.515102445204
 30
0.0
 11
1787.800088449528
 21
3555.515102445204
 31
0.0
 12
1772.800088449528
 22
3558.015102445204
 32
0.0
 13
1772.800088449528
 23
3558.015102445204
 33
0.0
  0
SOLID
  5
396E
330
7C3
100
AcDbEntity
  8
S-size
 62
     0
100
AcDbTrace
 10
2167.800088449528
 20
3560.515102445204
 30
0.0
 11
2167.800088449528
 21
3555.515102445204
 31
0.0
 12
2182.800088449528
 22
3558.015102445204
 32
0.0
 13
2182.800088449528
 23
3558.015102445204
 33
0.0
  0
MTEXT
  5
396F
330
7C3
100
AcDbEntity
  8
S-size
 62
     0
100
AcDbMText
 10
1977.800088449528
 20
3538.015102445205
 30
0.0
 40
20.0
 41
0.0
 71
     5
 72
     1
  1
410
 73
     1
 44
1.0
1001
ACAD
1000
MTEXTBEGIN
1070
    73
1070
     1
1070
    44
1040
1.0
1070
    74
1070
     0
1000
MTEXTEND
  0
POINT
  5
3970
330
7C3
100
AcDbEntity
  8
DEFPOINTS
 62
     0
100
AcDbPoint
 10
1772.800088449528
 20
3708.909163386517
 30
0.0
  0
POINT
  5
3971
330
7C3
100
AcDbEntity
  8
DEFPOINTS
 62
     0
100
AcDbPoint
 10
2182.800088449528
 20
3762.559163386518
 30
0.0
  0
POINT
  5
3972
330
7C3
100
AcDbEntity
  8
DEFPOINTS
 62
     0
100
AcDbPoint
 10
2182.800088449528
 20
3558.015102445204
 30
0.0
  0
ENDBLK
  5
7CE
330
7C3
100
AcDbEntity
  8
0
100
AcDbBlockEnd
  0
BLOCK
  5
8C7
330
8BD
100
AcDbEntity
  8
0
100
AcDbBlockBegin
  2
*D4
 70
     1
 10
0.0
 20
0.0
 30
0.0
  3
*D4
  1

  0
LINE
  5
3892
330
8BD
100
AcDbEntity
  8
S-size
 62
     0
370
    -2
100
AcDbLine
 10
1248.800088449528
 20
4658.909163386517
 30
0.0
 11
1248.800088449528
 21
4710.052572835716
 31
0.0
  0
LINE
  5
3893
330
8BD
100
AcDbEntity
  8
S-size
 62
     0
370
    -2
100
AcDbLine
 10
1352.800088449528
 20
4658.909163386517
 30
0.0
 11
1352.800088449528
 21
4710.052572835716
 31
0.0
  0
LINE
  5
3894
330
8BD
100
AcDbEntity
  8
S-size
 62
     0
370
    -2
100
AcDbLine
 10
1263.800088449528
 20
4710.052572835716
 30
0.0
 11
1337.800088449528
 21
4710.052572835716
 31
0.0
  0
SOLID
  5
3895
330
8BD
100
AcDbEntity
  8
S-size
 62
     0
100
AcDbTrace
 10
1263.800088449528
 20
4712.552572835717
 30
0.0
 11
1263.800088449528
 21
4707.552572835717
 31
0.0
 12
1248.800088449528
 22
4710.052572835716
 32
0.0
 13
1248.800088449528
 23
4710.052572835716
 33
0.0
  0
SOLID
  5
3896
330
8BD
100
AcDbEntity
  8
S-size
 62
     0
100
AcDbTrace
 10
1337.800088449528
 20
4712.552572835717
 30
0.0
 11
1337.800088449528
 21
4707.552572835717
 31
0.0
 12
1352.800088449528
 22
4710.052572835716
 32
0.0
 13
1352.800088449528
 23
4710.052572835716
 33
0.0
  0
MTEXT
  5
3897
330
8BD
100
AcDbEntity
  8
S-size
 62
     0
100
AcDbMText
 10
1300.800088449528
 20
4730.052572835717
 30
0.0
 40
20.0
 41
0.0
 71
     5
 72
     1
  1
104
 73
     1
 44
1.0
1001
ACAD
1000
MTEXTBEGIN
1070
    73
1070
     1
1070
    44
1040
1.0
1070
    74
1070
     0
1000
MTEXTEND
  0
POINT
  5
3898
330
8BD
100
AcDbEntity
  8
DEFPOINTS
 62
     0
100
AcDbPoint
 10
1248.800088449528
 20
4628.909163386517
 30
0.0
  0
POINT
  5
3899
330
8BD
100
AcDbEntity
  8
DEFPOINTS
 62
     0
100
AcDbPoint
 10
1352.800088449528
 20
4628.909163386517
 30
0.0
  0
POINT
  5
389A
330
8BD
100
AcDbEntity
  8
DEFPOINTS
 62
     0
100
AcDbPoint
 10
1352.800088449528
 20
4710.052572835716
 30
0.0
  0
ENDBLK
  5
8C8
330
8BD
100
AcDbEntity
  8
0
100
AcDbBlockEnd
  0
BLOCK
  5
91D
330
913
100
AcDbEntity
  8
0
100
AcDbBlockBegin
  2
*D5
 70
     1
 10
0.0
 20
0.0
 30
0.0
  3
*D5
  1

  0
LINE
  5
31A9
330
913
100
AcDbEntity
  8
S-size
 62
     0
370
    -2
100
AcDbLine
 10
1352.800088449528
 20
3679.087692119619
 30
0.0
 11
1352.800088449528
 21
3604.054145668726
 31
0.0
  0
LINE
  5
31AA
330
913
100
AcDbEntity
  8
S-size
 62
     0
370
    -2
100
AcDbLine
 10
1772.800088449528
 20
3678.909163386581
 30
0.0
 11
1772.800088449528
 21
3604.054145668726
 31
0.0
  0
LINE
  5
31AB
330
913
100
AcDbEntity
  8
S-size
 62
     0
370
    -2
100
AcDbLine
 10
1367.800088449528
 20
3604.054145668726
 30
0.0
 11
1757.800088449528
 21
3604.054145668726
 31
0.0
  0
SOLID
  5
31AC
330
913
100
AcDbEntity
  8
S-size
 62
     0
100
AcDbTrace
 10
1367.800088449528
 20
3606.554145668726
 30
0.0
 11
1367.800088449528
 21
3601.554145668726
 31
0.0
 12
1352.800088449528
 22
3604.054145668726
 32
0.0
 13
1352.800088449528
 23
3604.054145668726
 33
0.0
  0
SOLID
  5
31AD
330
913
100
AcDbEntity
  8
S-size
 62
     0
100
AcDbTrace
 10
1757.800088449528
 20
3606.554145668726
 30
0.0
 11
1757.800088449528
 21
3601.554145668726
 31
0.0
 12
1772.800088449528
 22
3604.054145668726
 32
0.0
 13
1772.800088449528
 23
3604.054145668726
 33
0.0
  0
MTEXT
  5
31AE
330
913
100
AcDbEntity
  8
S-size
 62
     0
100
AcDbMText
 10
1562.800088449528
 20
3584.054145668726
 30
0.0
 40
20.0
 41
0.0
 71
     5
 72
     1
  1
420
 73
     1
 44
1.0
1001
ACAD
1000
MTEXTBEGIN
1070
    73
1070
     1
1070
    44
1040
1.0
1070
    74
1070
     0
1000
MTEXTEND
  0
POINT
  5
31AF
330
913
100
AcDbEntity
  8
DEFPOINTS
 62
     0
100
AcDbPoint
 10
1352.800088449528
 20
3709.087692119619
 30
0.0
  0
POINT
  5
31B0
330
913
100
AcDbEntity
  8
DEFPOINTS
 62
     0
100
AcDbPoint
 10
1772.800088449528
 20
3708.909163386581
 30
0.0
  0
POINT
  5
31B1
330
913
100
AcDbEntity
  8
DEFPOINTS
 62
     0
100
AcDbPoint
 10
1772.800088449528
 20
3604.054145668726
 30
0.0
  0
ENDBLK
  5
91E
330
913
100
AcDbEntity
  8
0
100
AcDbBlockEnd
  0
BLOCK
  5
947
330
93D
100
AcDbEntity
  8
0
100
AcDbBlockBegin
  2
*D6
 70
     1
 10
0.0
 20
0.0
 30
0.0
  3
*D6
  1

  0
LINE
  5
31B2
330
93D
100
AcDbEntity
  8
S-size
 62
     0
370
    -2
100
AcDbLine
 10
1232.800088449529
 20
3678.909163386581
 30
0.0
 11
1232.800088449529
 21
3604.054145668726
 31
0.0
  0
LINE
  5
31B3
330
93D
100
AcDbEntity
  8
S-size
 62
     0
370
    -2
100
AcDbLine
 10
1352.800088449528
 20
3678.909163386581
 30
0.0
 11
1352.800088449528
 21
3604.054145668726
 31
0.0
  0
LINE
  5
31B4
330
93D
100
AcDbEntity
  8
S-size
 62
     0
370
    -2
100
AcDbLine
 10
1247.800088449529
 20
3604.054145668726
 30
0.0
 11
1337.800088449528
 21
3604.054145668726
 31
0.0
  0
SOLID
  5
31B5
330
93D
100
AcDbEntity
  8
S-size
 62
     0
100
AcDbTrace
 10
1247.800088449529
 20
3606.554145668726
 30
0.0
 11
1247.800088449529
 21
3601.554145668726
 31
0.0
 12
1232.800088449529
 22
3604.054145668726
 32
0.0
 13
1232.800088449529
 23
3604.054145668726
 33
0.0
  0
SOLID
  5
31B6
330
93D
100
AcDbEntity
  8
S-size
 62
     0
100
AcDbTrace
 10
1337.800088449528
 20
3606.554145668726
 30
0.0
 11
1337.800088449528
 21
3601.554145668726
 31
0.0
 12
1352.800088449528
 22
3604.054145668726
 32
0.0
 13
1352.800088449528
 23
3604.054145668726
 33
0.0
  0
MTEXT
  5
31B7
330
93D
100
AcDbEntity
  8
S-size
 62
     0
100
AcDbMText
 10
1292.800088449528
 20
3584.054145668726
 30
0.0
 40
20.0
 41
0.0
 71
     5
 72
     1
  1
120
 73
     1
 44
1.0
1001
ACAD
1000
MTEXTBEGIN
1070
    73
1070
     1
1070
    44
1040
1.0
1070
    74
1070
     0
1000
MTEXTEND
  0
POINT
  5
31B8
330
93D
100
AcDbEntity
  8
DEFPOINTS
 62
     0
100
AcDbPoint
 10
1232.800088449529
 20
3708.909163386581
 30
0.0
  0
POINT
  5
31B9
330
93D
100
AcDbEntity
  8
DEFPOINTS
 62
     0
100
AcDbPoint
 10
1352.800088449528
 20
3708.909163386581
 30
0.0
  0
POINT
  5
31BA
330
93D
100
AcDbEntity
  8
DEFPOINTS
 62
     0
100
AcDbPoint
 10
1352.800088449528
 20
3604.054145668726
 30
0.0
  0
ENDBLK
  5
948
330
93D
100
AcDbEntity
  8
0
100
AcDbBlockEnd
  0
BLOCK
  5
971
330
967
100
AcDbEntity
  8
0
100
AcDbBlockBegin
  2
*D7
 70
     1
 10
0.0
 20
0.0
 30
0.0
  3
*D7
  1

  0
LINE
  5
389B
330
967
100
AcDbEntity
  8
S-size
 62
     0
370
    -2
100
AcDbLine
 10
1228.600088449528
 20
4628.909163386517
 30
0.0
 11
1017.296985773308
 21
4628.909163386517
 31
0.0
  0
LINE
  5
389C
330
967
100
AcDbEntity
  8
S-size
 62
     0
370
    -2
100
AcDbLine
 10
1202.800088449528
 20
3708.909163386517
 30
0.0
 11
1017.296985773308
 21
3708.909163386518
 31
0.0
  0
LINE
  5
389D
330
967
100
AcDbEntity
  8
S-size
 62
     0
370
    -2
100
AcDbLine
 10
1017.296985773308
 20
4613.909163386517
 30
0.0
 11
1017.296985773308
 21
3723.909163386518
 31
0.0
  0
SOLID
  5
389E
330
967
100
AcDbEntity
  8
S-size
 62
     0
100
AcDbTrace
 10
1014.796985773308
 20
4613.909163386517
 30
0.0
 11
1019.796985773308
 21
4613.909163386517
 31
0.0
 12
1017.296985773308
 22
4628.909163386517
 32
0.0
 13
1017.296985773308
 23
4628.909163386517
 33
0.0
  0
SOLID
  5
389F
330
967
100
AcDbEntity
  8
S-size
 62
     0
100
AcDbTrace
 10
1014.796985773308
 20
3723.909163386518
 30
0.0
 11
1019.796985773308
 21
3723.909163386518
 31
0.0
 12
1017.296985773308
 22
3708.909163386518
 32
0.0
 13
1017.296985773308
 23
3708.909163386518
 33
0.0
  0
MTEXT
  5
38A0
330
967
100
AcDbEntity
  8
S-size
 62
     0
100
AcDbMText
 10
997.2969857733072
 20
4168.909163386517
 30
0.0
 40
20.0
 41
0.0
 71
     5
 72
     1
  1
920
 11
0.0000000000000001
 21
1.0
 31
0.0
 73
     1
 44
1.0
1001
ACAD
1000
MTEXTBEGIN
1070
    73
1070
     1
1070
    44
1040
1.0
1070
    74
1070
     0
1000
MTEXTEND
  0
POINT
  5
38A1
330
967
100
AcDbEntity
  8
DEFPOINTS
 62
     0
100
AcDbPoint
 10
1258.600088449528
 20
4628.909163386517
 30
0.0
  0
POINT
  5
38A2
330
967
100
AcDbEntity
  8
DEFPOINTS
 62
     0
100
AcDbPoint
 10
1232.800088449528
 20
3708.909163386517
 30
0.0
  0
POINT
  5
38A3
330
967
100
AcDbEntity
  8
DEFPOINTS
 62
     0
100
AcDbPoint
 10
1017.296985773308
 20
3708.909163386518
 30
0.0
  0
ENDBLK
  5
972
330
967
100
AcDbEntity
  8
0
100
AcDbBlockEnd
  0
BLOCK
  5
A8E
330
A87
100
AcDbEntity
  8
0
100
AcDbBlockBegin
  2
*D8
 70
     1
 10
0.0
 20
0.0
 30
0.0
  3
*D8
  1

  0
LINE
  5
AA3
330
A87
100
AcDbEntity
  8
S-size
 62
     0
370
    -2
100
AcDbLine
 10
1446.942224073253
 20
3923.051299010255
 30
0.0
 11
1386.838147672401
 21
3862.947222609392
 31
0.0
  0
MTEXT
  5
AA4
330
A87
100
AcDbEntity
  8
S-size
 62
     0
100
AcDbMText
 10
1408.051351107993
 20
3912.444697292453
 30
0.0
 40
20.0
 41
0.0
 71
     5
 72
     1
  1
R80
 11
0.7071067811864814
 21
0.7071067811866137
 31
0.0
 73
     1
 44
1.0
1001
ACAD
1000
MTEXTBEGIN
1070
    73
1070
     1
1070
    44
1040
1.0
1070
    74
1070
     0
1000
MTEXTEND
  0
SOLID
  5
AA5
330
A87
100
AcDbEntity
  8
S-size
 62
     0
100
AcDbTrace
 10
1385.070380719434
 20
3864.714989562358
 30
0.0
 11
1388.605914625367
 21
3861.179455656426
 31
0.0
 12
1376.231545954604
 22
3852.340620891592
 32
0.0
 13
1376.231545954604
 23
3852.340620891592
 33
0.0
  0
POINT
  5
AA6
330
A87
100
AcDbEntity
  8
DEFPOINTS
 62
     0
100
AcDbPoint
 10
1376.231545954604
 20
3852.340620891592
 30
0.0
  0
POINT
  5
AA7
330
A87
100
AcDbEntity
  8
DEFPOINTS
 62
     0
100
AcDbPoint
 10
1432.800088449524
 20
3908.909163386523
 30
0.0
  0
ENDBLK
  5
A8F
330
A87
100
AcDbEntity
  8
0
100
AcDbBlockEnd
  0
BLOCK
  5
F50
330
F46
100
AcDbEntity
  8
0
100
AcDbBlockBegin
  2
*D9
 70
     1
 10
0.0
 20
0.0
 30
0.0
  3
*D9
  1

  0
LINE
  5
38AE
330
F46
100
AcDbEntity
  8
S-size
 62
     0
370
    -2
100
AcDbLine
 10
2912.800088449527
 20
4658.909163386517
 30
0.0
 11
2912.800088449527
 21
4847.666215951287
 31
0.0
  0
LINE
  5
38AF
330
F46
100
AcDbEntity
  8
S-size
 62
     0
370
    -2
100
AcDbLine
 10
4912.800088449528
 20
4658.909163386517
 30
0.0
 11
4912.800088449528
 21
4847.666215951287
 31
0.0
  0
LINE
  5
38B0
330
F46
100
AcDbEntity
  8
S-size
 62
     0
370
    -2
100
AcDbLine
 10
2927.800088449528
 20
4847.666215951287
 30
0.0
 11
4897.800088449528
 21
4847.666215951287
 31
0.0
  0
SOLID
  5
38B1
330
F46
100
AcDbEntity
  8
S-size
 62
     0
100
AcDbTrace
 10
2927.800088449528
 20
4850.166215951287
 30
0.0
 11
2927.800088449528
 21
4845.166215951287
 31
0.0
 12
2912.800088449527
 22
4847.666215951287
 32
0.0
 13
2912.800088449527
 23
4847.666215951287
 33
0.0
  0
SOLID
  5
38B2
330
F46
100
AcDbEntity
  8
S-size
 62
     0
100
AcDbTrace
 10
4897.800088449528
 20
4850.166215951287
 30
0.0
 11
4897.800088449528
 21
4845.166215951287
 31
0.0
 12
4912.800088449528
 22
4847.666215951287
 32
0.0
 13
4912.800088449528
 23
4847.666215951287
 33
0.0
  0
MTEXT
  5
38B3
330
F46
100
AcDbEntity
  8
S-size
 62
     0
100
AcDbMText
 10
3912.800088449528
 20
4867.666215951287
 30
0.0
 40
20.0
 41
0.0
 71
     5
 72
     1
  1
2000
 73
     1
 44
1.0
1001
ACAD
1000
MTEXTBEGIN
1070
    73
1070
     1
1070
    44
1040
1.0
1070
    74
1070
     0
1000
MTEXTEND
  0
POINT
  5
38B4
330
F46
100
AcDbEntity
  8
DEFPOINTS
 62
     0
100
AcDbPoint
 10
2912.800088449527
 20
4628.909163386517
 30
0.0
  0
POINT
  5
38B5
330
F46
100
AcDbEntity
  8
DEFPOINTS
 62
     0
100
AcDbPoint
 10
4912.800088449528
 20
4628.909163386517
 30
0.0
  0
POINT
  5
38B6
330
F46
100
AcDbEntity
  8
DEFPOINTS
 62
     0
100
AcDbPoint
 10
4912.800088449528
 20
4847.666215951287
 30
0.0
  0
ENDBLK
  5
F51
330
F46
100
AcDbEntity
  8
0
100
AcDbBlockEnd
  0
BLOCK
  5
FC2
330
FB8
100
AcDbEntity
  8
0
100
AcDbBlockBegin
  2
*D10
 70
     1
 10
0.0
 20
0.0
 30
0.0
  3
*D10
  1

  0
LINE
  5
38B7
330
FB8
100
AcDbEntity
  8
S-size
 62
     0
370
    -2
100
AcDbLine
 10
2882.800088449528
 20
3708.909163386517
 30
0.0
 11
2713.983820808939
 21
3708.909163386517
 31
0.0
  0
LINE
  5
38B8
330
FB8
100
AcDbEntity
  8
S-size
 62
     0
370
    -2
100
AcDbLine
 10
2882.800088449528
 20
4628.909163386517
 30
0.0
 11
2713.983820808939
 21
4628.909163386517
 31
0.0
  0
LINE
  5
38B9
330
FB8
100
AcDbEntity
  8
S-size
 62
     0
370
    -2
100
AcDbLine
 10
2713.983820808939
 20
3723.909163386518
 30
0.0
 11
2713.983820808939
 21
4613.909163386517
 31
0.0
  0
SOLID
  5
38BA
330
FB8
100
AcDbEntity
  8
S-size
 62
     0
100
AcDbTrace
 10
2711.483820808939
 20
3723.909163386518
 30
0.0
 11
2716.483820808939
 21
3723.909163386518
 31
0.0
 12
2713.983820808939
 22
3708.909163386517
 32
0.0
 13
2713.983820808939
 23
3708.909163386517
 33
0.0
  0
SOLID
  5
38BB
330
FB8
100
AcDbEntity
  8
S-size
 62
     0
100
AcDbTrace
 10
2711.483820808939
 20
4613.909163386517
 30
0.0
 11
2716.483820808939
 21
4613.909163386517
 31
0.0
 12
2713.983820808939
 22
4628.909163386517
 32
0.0
 13
2713.983820808939
 23
4628.909163386517
 33
0.0
  0
MTEXT
  5
38BC
330
FB8
100
AcDbEntity
  8
S-size
 62
     0
100
AcDbMText
 10
2693.983820808938
 20
4168.909163386518
 30
0.0
 40
20.0
 41
0.0
 71
     5
 72
     1
  1
920
 11
0.0000000000000001
 21
1.0
 31
0.0
 73
     1
 44
1.0
1001
ACAD
1000
MTEXTBEGIN
1070
    73
1070
     1
1070
    44
1040
1.0
1070
    74
1070
     0
1000
MTEXTEND
  0
POINT
  5
38BD
330
FB8
100
AcDbEntity
  8
DEFPOINTS
 62
     0
100
AcDbPoint
 10
2912.800088449528
 20
3708.909163386517
 30
0.0
  0
POINT
  5
38BE
330
FB8
100
AcDbEntity
  8
DEFPOINTS
 62
     0
100
AcDbPoint
 10
2912.800088449527
 20
4628.909163386517
 30
0.0
  0
POINT
  5
38BF
330
FB8
100
AcDbEntity
  8
DEFPOINTS
 62
     0
100
AcDbPoint
 10
2713.983820808939
 20
4628.909163386517
 30
0.0
  0
ENDBLK
  5
FC3
330
FB8
100
AcDbEntity
  8
0
100
AcDbBlockEnd
  0
BLOCK
  5
120F
330
1205
100
AcDbEntity
  8
0
100
AcDbBlockBegin
  2
*D11
 70
     1
 10
0.0
 20
0.0
 30
0.0
  3
*D11
  1

  0
LINE
  5
38C1
330
1205
100
AcDbEntity
  8
S-size
 62
     0
370
    -2
100
AcDbLine
 10
5662.800088449529
 20
4658.909163386517
 30
0.0
 11
5662.800088449529
 21
4847.666215951287
 31
0.0
  0
LINE
  5
38C2
330
1205
100
AcDbEntity
  8
S-size
 62
     0
370
    -2
100
AcDbLine
 10
7662.800088449529
 20
4658.909163386517
 30
0.0
 11
7662.800088449529
 21
4847.666215951287
 31
0.0
  0
LINE
  5
38C3
330
1205
100
AcDbEntity
  8
S-size
 62
     0
370
    -2
100
AcDbLine
 10
5677.800088449528
 20
4847.666215951287
 30
0.0
 11
7647.800088449528
 21
4847.666215951287
 31
0.0
  0
SOLID
  5
38C4
330
1205
100
AcDbEntity
  8
S-size
 62
     0
100
AcDbTrace
 10
5677.800088449528
 20
4850.166215951287
 30
0.0
 11
5677.800088449528
 21
4845.166215951287
 31
0.0
 12
5662.800088449529
 22
4847.666215951287
 32
0.0
 13
5662.800088449529
 23
4847.666215951287
 33
0.0
  0
SOLID
  5
38C5
330
1205
100
AcDbEntity
  8
S-size
 62
     0
100
AcDbTrace
 10
7647.800088449528
 20
4850.166215951287
 30
0.0
 11
7647.800088449528
 21
4845.166215951287
 31
0.0
 12
7662.800088449529
 22
4847.666215951287
 32
0.0
 13
7662.800088449529
 23
4847.666215951287
 33
0.0
  0
MTEXT
  5
38C6
330
1205
100
AcDbEntity
  8
S-size
 62
     0
100
AcDbMText
 10
6662.800088449529
 20
4867.666215951287
 30
0.0
 40
20.0
 41
0.0
 71
     5
 72
     1
  1
2000
 73
     1
 44
1.0
1001
ACAD
1000
MTEXTBEGIN
1070
    73
1070
     1
1070
    44
1040
1.0
1070
    74
1070
     0
1000
MTEXTEND
  0
POINT
  5
38C7
330
1205
100
AcDbEntity
  8
DEFPOINTS
 62
     0
100
AcDbPoint
 10
5662.800088449529
 20
4628.909163386517
 30
0.0
  0
POINT
  5
38C8
330
1205
100
AcDbEntity
  8
DEFPOINTS
 62
     0
100
AcDbPoint
 10
7662.800088449529
 20
4628.909163386517
 30
0.0
  0
POINT
  5
38C9
330
1205
100
AcDbEntity
  8
DEFPOINTS
 62
     0
100
AcDbPoint
 10
7662.800088449529
 20
4847.666215951287
 30
0.0
  0
ENDBLK
  5
1210
330
1205
100
AcDbEntity
  8
0
100
AcDbBlockEnd
  0
BLOCK
  5
1237
330
122D
100
AcDbEntity
  8
0
100
AcDbBlockBegin
  2
*D12
 70
     1
 10
0.0
 20
0.0
 30
0.0
  3
*D12
  1

  0
LINE
  5
38CA
330
122D
100
AcDbEntity
  8
S-size
 62
     0
370
    -2
100
AcDbLine
 10
5632.800088449529
 20
3708.909163386517
 30
0.0
 11
5463.983820808938
 21
3708.909163386517
 31
0.0
  0
LINE
  5
38CB
330
122D
100
AcDbEntity
  8
S-size
 62
     0
370
    -2
100
AcDbLine
 10
5632.800088449529
 20
4628.909163386517
 30
0.0
 11
5463.983820808938
 21
4628.909163386517
 31
0.0
  0
LINE
  5
38CC
330
122D
100
AcDbEntity
  8
S-size
 62
     0
370
    -2
100
AcDbLine
 10
5463.983820808938
 20
3723.909163386518
 30
0.0
 11
5463.983820808938
 21
4613.909163386517
 31
0.0
  0
SOLID
  5
38CD
330
122D
100
AcDbEntity
  8
S-size
 62
     0
100
AcDbTrace
 10
5461.483820808939
 20
3723.909163386518
 30
0.0
 11
5466.483820808939
 21
3723.909163386518
 31
0.0
 12
5463.983820808938
 22
3708.909163386517
 32
0.0
 13
5463.983820808938
 23
3708.909163386517
 33
0.0
  0
SOLID
  5
38CE
330
122D
100
AcDbEntity
  8
S-size
 62
     0
100
AcDbTrace
 10
5461.483820808939
 20
4613.909163386517
 30
0.0
 11
5466.483820808939
 21
4613.909163386517
 31
0.0
 12
5463.983820808938
 22
4628.909163386517
 32
0.0
 13
5463.983820808938
 23
4628.909163386517
 33
0.0
  0
MTEXT
  5
38CF
330
122D
100
AcDbEntity
  8
S-size
 62
     0
100
AcDbMText
 10
5443.983820808938
 20
4168.909163386518
 30
0.0
 40
20.0
 41
0.0
 71
     5
 72
     1
  1
920
 11
0.0000000000000001
 21
1.0
 31
0.0
 73
     1
 44
1.0
1001
ACAD
1000
MTEXTBEGIN
1070
    73
1070
     1
1070
    44
1040
1.0
1070
    74
1070
     0
1000
MTEXTEND
  0
POINT
  5
38D0
330
122D
100
AcDbEntity
  8
DEFPOINTS
 62
     0
100
AcDbPoint
 10
5662.800088449529
 20
3708.909163386517
 30
0.0
  0
POINT
  5
38D1
330
122D
100
AcDbEntity
  8
DEFPOINTS
 62
     0
100
AcDbPoint
 10
5662.800088449529
 20
4628.909163386517
 30
0.0
  0
POINT
  5
38D2
330
122D
100
AcDbEntity
  8
DEFPOINTS
 62
     0
100
AcDbPoint
 10
5463.983820808938
 20
4628.909163386517
 30
0.0
  0
ENDBLK
  5
1238
330
122D
100
AcDbEntity
  8
0
100
AcDbBlockEnd
  0
BLOCK
  5
1627
330
161D
100
AcDbEntity
  8
0
100
AcDbBlockBegin
  2
*D13
 70
     1
 10
0.0
 20
0.0
 30
0.0
  3
*D13
  1

  0
LINE
  5
397A
330
161D
100
AcDbEntity
  8
S-size
 62
     0
370
    -2
100
AcDbLine
 10
2944.450088449528
 20
1908.909163386517
 30
0.0
 11
2816.617525703445
 21
1908.909163386517
 31
0.0
  0
LINE
  5
397B
330
161D
100
AcDbEntity
  8
S-size
 62
     0
370
    -2
100
AcDbLine
 10
2882.800088449528
 20
2318.909163386518
 30
0.0
 11
2816.617525703445
 21
2318.909163386518
 31
0.0
  0
LINE
  5
397C
330
161D
100
AcDbEntity
  8
S-size
 62
     0
370
    -2
100
AcDbLine
 10
2816.617525703445
 20
1923.909163386517
 30
0.0
 11
2816.617525703445
 21
2303.909163386517
 31
0.0
  0
SOLID
  5
397D
330
161D
100
AcDbEntity
  8
S-size
 62
     0
100
AcDbTrace
 10
2814.117525703445
 20
1923.909163386517
 30
0.0
 11
2819.117525703445
 21
1923.909163386517
 31
0.0
 12
2816.617525703445
 22
1908.909163386517
 32
0.0
 13
2816.617525703445
 23
1908.909163386517
 33
0.0
  0
SOLID
  5
397E
330
161D
100
AcDbEntity
  8
S-size
 62
     0
100
AcDbTrace
 10
2814.117525703445
 20
2303.909163386517
 30
0.0
 11
2819.117525703445
 21
2303.909163386517
 31
0.0
 12
2816.617525703445
 22
2318.909163386518
 32
0.0
 13
2816.617525703445
 23
2318.909163386518
 33
0.0
  0
MTEXT
  5
397F
330
161D
100
AcDbEntity
  8
S-size
 62
     0
100
AcDbMText
 10
2796.617525703445
 20
2113.909163386518
 30
0.0
 40
20.0
 41
0.0
 71
     5
 72
     1
  1
410
 11
0.0000000000000001
 21
1.0
 31
0.0
 73
     1
 44
1.0
1001
ACAD
1000
MTEXTBEGIN
1070
    73
1070
     1
1070
    44
1040
1.0
1070
    74
1070
     0
1000
MTEXTEND
  0
POINT
  5
3980
330
161D
100
AcDbEntity
  8
DEFPOINTS
 62
     0
100
AcDbPoint
 10
2974.450088449528
 20
1908.909163386517
 30
0.0
  0
POINT
  5
3981
330
161D
100
AcDbEntity
  8
DEFPOINTS
 62
     0
100
AcDbPoint
 10
2912.800088449528
 20
2318.909163386518
 30
0.0
  0
POINT
  5
3982
330
161D
100
AcDbEntity
  8
DEFPOINTS
 62
     0
100
AcDbPoint
 10
2816.617525703445
 20
2318.909163386518
 30
0.0
  0
ENDBLK
  5
1628
330
161D
100
AcDbEntity
  8
0
100
AcDbBlockEnd
  0
BLOCK
  5
16C2
330
16B8
100
AcDbEntity
  8
0
100
AcDbBlockBegin
  2
*D14
 70
     1
 10
0.0
 20
0.0
 30
0.0
  3
*D14
  1

  0
LINE
  5
3983
330
16B8
100
AcDbEntity
  8
S-size
 62
     0
370
    -2
100
AcDbLine
 10
2944.450088449528
 20
1908.909163386517
 30
0.0
 11
2765.091739396893
 21
1908.909163386517
 31
0.0
  0
LINE
  5
3984
330
16B8
100
AcDbEntity
  8
S-size
 62
     0
370
    -2
100
AcDbLine
 10
2882.800088449528
 20
2858.909163386517
 30
0.0
 11
2765.091739396893
 21
2858.909163386517
 31
0.0
  0
LINE
  5
3985
330
16B8
100
AcDbEntity
  8
S-size
 62
     0
370
    -2
100
AcDbLine
 10
2765.091739396893
 20
1923.909163386517
 30
0.0
 11
2765.091739396893
 21
2843.909163386518
 31
0.0
  0
SOLID
  5
3986
330
16B8
100
AcDbEntity
  8
S-size
 62
     0
100
AcDbTrace
 10
2762.591739396893
 20
1923.909163386517
 30
0.0
 11
2767.591739396893
 21
1923.909163386517
 31
0.0
 12
2765.091739396893
 22
1908.909163386517
 32
0.0
 13
2765.091739396893
 23
1908.909163386517
 33
0.0
  0
SOLID
  5
3987
330
16B8
100
AcDbEntity
  8
S-size
 62
     0
100
AcDbTrace
 10
2762.591739396893
 20
2843.909163386518
 30
0.0
 11
2767.591739396893
 21
2843.909163386518
 31
0.0
 12
2765.091739396893
 22
2858.909163386517
 32
0.0
 13
2765.091739396893
 23
2858.909163386517
 33
0.0
  0
MTEXT
  5
3988
330
16B8
100
AcDbEntity
  8
S-size
 62
     0
100
AcDbMText
 10
2745.091739396892
 20
2383.909163386518
 30
0.0
 40
20.0
 41
0.0
 71
     5
 72
     1
  1
950
 11
0.0000000000000001
 21
1.0
 31
0.0
 73
     1
 44
1.0
1001
ACAD
1000
MTEXTBEGIN
1070
    73
1070
     1
1070
    44
1040
1.0
1070
    74
1070
     0
1000
MTEXTEND
  0
POINT
  5
3989
330
16B8
100
AcDbEntity
  8
DEFPOINTS
 62
     0
100
AcDbPoint
 10
2974.450088449528
 20
1908.909163386517
 30
0.0
  0
POINT
  5
398A
330
16B8
100
AcDbEntity
  8
DEFPOINTS
 62
     0
100
AcDbPoint
 10
2912.800088449528
 20
2858.909163386517
 30
0.0
  0
POINT
  5
398B
330
16B8
100
AcDbEntity
  8
DEFPOINTS
 62
     0
100
AcDbPoint
 10
2765.091739396893
 20
2858.909163386517
 30
0.0
  0
ENDBLK
  5
16C3
330
16B8
100
AcDbEntity
  8
0
100
AcDbBlockEnd
  0
BLOCK
  5
1D5B
330
1D51
100
AcDbEntity
  8
0
100
AcDbBlockBegin
  2
*D15
 70
     1
 10
0.0
 20
0.0
 30
0.0
  3
*D15
  1

  0
LINE
  5
35E9
330
1D51
100
AcDbEntity
  8
S-size
 62
     0
370
    -2
100
AcDbLine
 10
2912.800088449528
 20
2888.909163386518
 30
0.0
 11
2912.800088449528
 21
3017.333001882744
 31
0.0
  0
LINE
  5
35EA
330
1D51
100
AcDbEntity
  8
S-size
 62
     0
370
    -2
100
AcDbLine
 10
4912.800088449529
 20
2888.909163386518
 30
0.0
 11
4912.800088449529
 21
3017.333001882744
 31
0.0
  0
LINE
  5
35EB
330
1D51
100
AcDbEntity
  8
S-size
 62
     0
370
    -2
100
AcDbLine
 10
2927.800088449528
 20
3017.333001882744
 30
0.0
 11
4897.800088449528
 21
3017.333001882744
 31
0.0
  0
SOLID
  5
35EC
330
1D51
100
AcDbEntity
  8
S-size
 62
     0
100
AcDbTrace
 10
2927.800088449528
 20
3019.833001882744
 30
0.0
 11
2927.800088449528
 21
3014.833001882744
 31
0.0
 12
2912.800088449528
 22
3017.333001882744
 32
0.0
 13
2912.800088449528
 23
3017.333001882744
 33
0.0
  0
SOLID
  5
35ED
330
1D51
100
AcDbEntity
  8
S-size
 62
     0
100
AcDbTrace
 10
4897.800088449528
 20
3019.833001882744
 30
0.0
 11
4897.800088449528
 21
3014.833001882744
 31
0.0
 12
4912.800088449529
 22
3017.333001882744
 32
0.0
 13
4912.800088449529
 23
3017.333001882744
 33
0.0
  0
MTEXT
  5
35EE
330
1D51
100
AcDbEntity
  8
S-size
 62
     0
100
AcDbMText
 10
3912.800088449529
 20
3037.333001882744
 30
0.0
 40
20.0
 41
0.0
 71
     5
 72
     1
  1
2000
 73
     1
 44
1.0
1001
ACAD
1000
MTEXTBEGIN
1070
    73
1070
     1
1070
    44
1040
1.0
1070
    74
1070
     0
1000
MTEXTEND
  0
POINT
  5
35EF
330
1D51
100
AcDbEntity
  8
DEFPOINTS
 62
     0
100
AcDbPoint
 10
2912.800088449528
 20
2858.909163386517
 30
0.0
  0
POINT
  5
35F0
330
1D51
100
AcDbEntity
  8
DEFPOINTS
 62
     0
100
AcDbPoint
 10
4912.800088449529
 20
2858.909163386517
 30
0.0
  0
POINT
  5
35F1
330
1D51
100
AcDbEntity
  8
DEFPOINTS
 62
     0
100
AcDbPoint
 10
4912.800088449529
 20
3017.333001882744
 30
0.0
  0
ENDBLK
  5
1D5C
330
1D51
100
AcDbEntity
  8
0
100
AcDbBlockEnd
  0
BLOCK
  5
2C68
330
2C64
100
AcDbEntity
  8
0
100
AcDbBlockBegin
  2
_Open30
 70
     0
 10
0.0
 20
0.0
 30
0.0
  3
_Open30
  1

  0
LINE
  5
2C65
330
2C64
100
AcDbEntity
  8
0
  6
ByBlock
 62
     0
370
    -2
100
AcDbLine
 10
-1.0
 20
0.26794919
 30
0.0
 11
0.0
 21
0.0
 31
0.0
  0
LINE
  5
2C66
330
2C64
100
AcDbEntity
  8
0
  6
ByBlock
 62
     0
370
    -2
100
AcDbLine
 10
0.0
 20
0.0
 30
0.0
 11
-1.0
 21
-0.26794919
 31
0.0
  0
LINE
  5
2C67
330
2C64
100
AcDbEntity
  8
0
  6
ByBlock
 62
     0
370
    -2
100
AcDbLine
 10
0.0
 20
0.0
 30
0.0
 11
-1.0
 21
0.0
 31
0.0
  0
ENDBLK
  5
2C69
330
2C64
100
AcDbEntity
  8
0
100
AcDbBlockEnd
  0
BLOCK
  5
2D8F
330
2D85
100
AcDbEntity
  8
0
100
AcDbBlockBegin
  2
*D17
 70
     1
 10
0.0
 20
0.0
 30
0.0
  3
*D17
  1

  0
LINE
  5
3598
330
2D85
100
AcDbEntity
  8
S-size
 62
     0
370
    -2
100
AcDbLine
 10
1232.800088449528
 20
3678.909163386518
 30
0.0
 11
1232.800088449528
 21
3558.015102445204
 31
0.0
  0
LINE
  5
3599
330
2D85
100
AcDbEntity
  8
S-size
 62
     0
370
    -2
100
AcDbLine
 10
1772.800088449528
 20
3678.909163386518
 30
0.0
 11
1772.800088449528
 21
3558.015102445204
 31
0.0
  0
LINE
  5
359A
330
2D85
100
AcDbEntity
  8
S-size
 62
     0
370
    -2
100
AcDbLine
 10
1247.800088449528
 20
3558.015102445204
 30
0.0
 11
1757.800088449528
 21
3558.015102445204
 31
0.0
  0
SOLID
  5
359B
330
2D85
100
AcDbEntity
  8
S-size
 62
     0
100
AcDbTrace
 10
1247.800088449528
 20
3560.515102445204
 30
0.0
 11
1247.800088449528
 21
3555.515102445204
 31
0.0
 12
1232.800088449528
 22
3558.015102445204
 32
0.0
 13
1232.800088449528
 23
3558.015102445204
 33
0.0
  0
SOLID
  5
359C
330
2D85
100
AcDbEntity
  8
S-size
 62
     0
100
AcDbTrace
 10
1757.800088449528
 20
3560.515102445204
 30
0.0
 11
1757.800088449528
 21
3555.515102445204
 31
0.0
 12
1772.800088449528
 22
3558.015102445204
 32
0.0
 13
1772.800088449528
 23
3558.015102445204
 33
0.0
  0
MTEXT
  5
359D
330
2D85
100
AcDbEntity
  8
S-size
 62
     0
100
AcDbMText
 10
1502.800088449528
 20
3538.015102445205
 30
0.0
 40
20.0
 41
0.0
 71
     5
 72
     1
  1
540
 73
     1
 44
1.0
1001
ACAD
1000
MTEXTBEGIN
1070
    73
1070
     1
1070
    44
1040
1.0
1070
    74
1070
     0
1000
MTEXTEND
  0
POINT
  5
359E
330
2D85
100
AcDbEntity
  8
DEFPOINTS
 62
     0
100
AcDbPoint
 10
1232.800088449528
 20
3708.909163386517
 30
0.0
  0
POINT
  5
359F
330
2D85
100
AcDbEntity
  8
DEFPOINTS
 62
     0
100
AcDbPoint
 10
1772.800088449528
 20
3708.909163386517
 30
0.0
  0
POINT
  5
35A0
330
2D85
100
AcDbEntity
  8
DEFPOINTS
 62
     0
100
AcDbPoint
 10
1772.800088449528
 20
3558.015102445204
 30
0.0
  0
ENDBLK
  5
2D90
330
2D85
100
AcDbEntity
  8
0
100
AcDbBlockEnd
  0
BLOCK
  5
3277
330
3276
100
AcDbEntity
  8
0
100
AcDbBlockBegin
  2
*D18
 70
     1
 10
0.0
 20
0.0
 30
0.0
  3
*D18
  1

  0
LINE
  5
3282
330
3276
100
AcDbEntity
  8
S-size
 62
     0
370
    -2
100
AcDbLine
 10
2882.800088449528
 20
3708.909163386517
 30
0.0
 11
2771.301621613384
 21
3708.909163386517
 31
0.0
  0
LINE
  5
3283
330
3276
100
AcDbEntity
  8
S-size
 62
     0
370
    -2
100
AcDbLine
 10
2882.800088449528
 20
3828.909163386518
 30
0.0
 11
2771.301621613384
 21
3828.909163386518
 31
0.0
  0
LINE
  5
3284
330
3276
100
AcDbEntity
  8
S-size
 62
     0
370
    -2
100
AcDbLine
 10
2771.301621613384
 20
3723.909163386518
 30
0.0
 11
2771.301621613384
 21
3813.909163386517
 31
0.0
  0
SOLID
  5
3285
330
3276
100
AcDbEntity
  8
S-size
 62
     0
100
AcDbTrace
 10
2768.801621613383
 20
3723.909163386518
 30
0.0
 11
2773.801621613384
 21
3723.909163386518
 31
0.0
 12
2771.301621613384
 22
3708.909163386517
 32
0.0
 13
2771.301621613384
 23
3708.909163386517
 33
0.0
  0
SOLID
  5
3286
330
3276
100
AcDbEntity
  8
S-size
 62
     0
100
AcDbTrace
 10
2768.801621613383
 20
3813.909163386517
 30
0.0
 11
2773.801621613384
 21
3813.909163386517
 31
0.0
 12
2771.301621613384
 22
3828.909163386518
 32
0.0
 13
2771.301621613384
 23
3828.909163386518
 33
0.0
  0
MTEXT
  5
3287
330
3276
100
AcDbEntity
  8
S-size
 62
     0
100
AcDbMText
 10
2751.301621613383
 20
3768.909163386518
 30
0.0
 40
20.0
 41
0.0
 71
     5
 72
     1
  1
120
 11
0.0000000000000001
 21
1.0
 31
0.0
 73
     1
 44
1.0
1001
ACAD
1000
MTEXTBEGIN
1070
    73
1070
     1
1070
    44
1040
1.0
1070
    74
1070
     0
1000
MTEXTEND
  0
POINT
  5
3288
330
3276
100
AcDbEntity
  8
DEFPOINTS
 62
     0
100
AcDbPoint
 10
2912.800088449528
 20
3708.909163386517
 30
0.0
  0
POINT
  5
3289
330
3276
100
AcDbEntity
  8
DEFPOINTS
 62
     0
100
AcDbPoint
 10
2912.800088449528
 20
3828.909163386518
 30
0.0
  0
POINT
  5
328A
330
3276
100
AcDbEntity
  8
DEFPOINTS
 62
     0
100
AcDbPoint
 10
2771.301621613384
 20
3828.909163386518
 30
0.0
  0
ENDBLK
  5
3278
330
3276
100
AcDbEntity
  8
0
100
AcDbBlockEnd
  0
BLOCK
  5
3391
330
3390
100
AcDbEntity
  8
0
100
AcDbBlockBegin
  2
*D19
 70
     1
 10
0.0
 20
0.0
 30
0.0
  3
*D19
  1

  0
LINE
  5
35B0
330
3390
100
AcDbEntity
  8
S-assist
 62
     0
370
    -2
100
AcDbLine
 10
1562.800088449528
 20
3828.909163386518
 30
0.0
 11
1568.534935197233
 21
3828.909163386518
 31
0.0
  0
LINE
  5
35B1
330
3390
100
AcDbEntity
  8
S-assist
 62
     0
370
    -2
100
AcDbLine
 10
1382.800088449528
 20
4128.909163386517
 30
0.0
 11
1568.534935197233
 21
4128.909163386517
 31
0.0
  0
LINE
  5
35B2
330
3390
100
AcDbEntity
  8
S-assist
 62
     0
370
    -2
100
AcDbLine
 10
1568.534935197233
 20
3843.909163386518
 30
0.0
 11
1568.534935197233
 21
4113.909163386517
 31
0.0
  0
SOLID
  5
35B3
330
3390
100
AcDbEntity
  8
S-assist
 62
     0
100
AcDbTrace
 10
1566.034935197232
 20
3843.909163386518
 30
0.0
 11
1571.034935197233
 21
3843.909163386518
 31
0.0
 12
1568.534935197233
 22
3828.909163386518
 32
0.0
 13
1568.534935197233
 23
3828.909163386518
 33
0.0
  0
SOLID
  5
35B4
330
3390
100
AcDbEntity
  8
S-assist
 62
     0
100
AcDbTrace
 10
1566.034935197232
 20
4113.909163386517
 30
0.0
 11
1571.034935197233
 21
4113.909163386517
 31
0.0
 12
1568.534935197233
 22
4128.909163386517
 32
0.0
 13
1568.534935197233
 23
4128.909163386517
 33
0.0
  0
MTEXT
  5
35B5
330
3390
100
AcDbEntity
  8
S-assist
 62
     0
100
AcDbMText
 10
1588.534935197232
 20
3978.909163386518
 30
0.0
 40
20.0
 41
0.0
 71
     5
 72
     1
  1
300
 11
0.0000000000000001
 21
1.0
 31
0.0
 73
     1
 44
1.0
1001
ACAD
1000
MTEXTBEGIN
1070
    73
1070
     1
1070
    44
1040
1.0
1070
    74
1070
     0
1000
MTEXTEND
  0
POINT
  5
35B6
330
3390
100
AcDbEntity
  8
DEFPOINTS
 62
     0
100
AcDbPoint
 10
1532.800088449528
 20
3828.909163386518
 30
0.0
  0
POINT
  5
35B7
330
3390
100
AcDbEntity
  8
DEFPOINTS
 62
     0
100
AcDbPoint
 10
1352.800088449528
 20
4128.909163386517
 30
0.0
  0
POINT
  5
35B8
330
3390
100
AcDbEntity
  8
DEFPOINTS
 62
     0
100
AcDbPoint
 10
1568.534935197233
 20
4128.909163386517
 30
0.0
  0
ENDBLK
  5
3392
330
3390
100
AcDbEntity
  8
0
100
AcDbBlockEnd
  0
BLOCK
  5
353A
330
352D
100
AcDbEntity
  8
0
100
AcDbBlockBegin
  2
A$C10BE4C18
 70
     0
 10
0.0
 20
0.0
 30
0.0
  3
A$C10BE4C18
  1

  0
LWPOLYLINE
  5
352E
330
352D
100
AcDbEntity
  8
S-assist
100
AcDbPolyline
 90
        4
 70
     1
 43
0.0
 10
941.9999783379839
 20
0.0000058396399254
 10
1031.999978337984
 20
0.0000058396399254
 10
1031.999978337984
 20
90.00000583963993
 10
941.9999783379839
 20
90.00000583963993
  0
LWPOLYLINE
  5
352F
330
352D
100
AcDbEntity
  8
S-assist
100
AcDbPolyline
 90
        4
 70
     1
 43
0.0
 10
1031.999978337984
 20
0.0000058396399254
 10
1244.999978337984
 20
0.0000058396399254
 10
1244.999978337984
 20
213.0000058396399
 10
1031.999978337984
 20
213.0000058396399
  0
LWPOLYLINE
  5
3530
330
352D
100
AcDbEntity
  8
S-assist
100
AcDbPolyline
 90
        4
 70
     1
 43
0.0
 10
1244.999978337984
 20
0.0000058396399254
 10
1457.999978337984
 20
0.0000058396399254
 10
1457.999978337984
 20
213.0000058396399
 10
1244.999978337984
 20
213.0000058396399
  0
LWPOLYLINE
  5
3531
330
352D
100
AcDbEntity
  8
S-assist
100
AcDbPolyline
 90
        4
 70
     1
 43
0.0
 10
1457.999978337984
 20
0.0000058396399254
 10
1670.999978337984
 20
0.0000058396399254
 10
1670.999978337984
 20
213.0000058396399
 10
1457.999978337984
 20
213.0000058396399
  0
LWPOLYLINE
  5
3532
330
352D
100
AcDbEntity
  8
S-assist
100
AcDbPolyline
 90
        4
 70
     1
 43
0.0
 10
1670.999978337984
 20
0.0000058396399254
 10
1883.999978337984
 20
0.0000058396399254
 10
1883.999978337984
 20
213.0000058396399
 10
1670.999978337984
 20
213.0000058396399
  0
LWPOLYLINE
  5
3533
330
352D
100
AcDbEntity
  8
S-assist
100
AcDbPolyline
 90
        4
 70
     1
 43
0.0
 10
941.9999783379839
 20
0.0000058396399254
 10
851.9999783379839
 20
0.0000058396399254
 10
851.9999783379839
 20
90.00000583963993
 10
941.9999783379839
 20
90.00000583963993
  0
LWPOLYLINE
  5
3534
330
352D
100
AcDbEntity
  8
S-assist
100
AcDbPolyline
 90
        4
 70
     1
 43
0.0
 10
851.9999783379839
 20
0.0000058396399254
 10
638.9999783379835
 20
0.0000058396399254
 10
638.9999783379835
 20
213.0000058396399
 10
851.9999783379839
 20
213.0000058396399
  0
LWPOLYLINE
  5
3535
330
352D
100
AcDbEntity
  8
S-assist
100
AcDbPolyline
 90
        4
 70
     1
 43
0.0
 10
638.9999783379835
 20
0.0000058396399254
 10
425.9999783379835
 20
0.0000058396399254
 10
425.9999783379835
 20
213.0000058396399
 10
638.9999783379835
 20
213.0000058396399
  0
LWPOLYLINE
  5
3536
330
352D
100
AcDbEntity
  8
S-assist
100
AcDbPolyline
 90
        4
 70
     1
 43
0.0
 10
425.9999783379835
 20
0.0000058396399254
 10
212.9999783379835
 20
0.0000058396399254
 10
212.9999783379835
 20
213.0000058396399
 10
425.9999783379835
 20
213.0000058396399
  0
LWPOLYLINE
  5
3537
330
352D
100
AcDbEntity
  8
S-assist
100
AcDbPolyline
 90
        4
 70
     1
 43
0.0
 10
212.9999783379835
 20
0.0000058396399254
 10
-0.0000216620164792
 20
0.0000058396399254
 10
-0.0000216620164792
 20
213.0000058396399
 10
212.9999783379835
 20
213.0000058396399
  0
ENDBLK
  5
353B
330
352D
100
AcDbEntity
  8
0
100
AcDbBlockEnd
  0
BLOCK
  5
35CA
330
35C9
100
AcDbEntity
  8
0
100
AcDbBlockBegin
  2
*D21
 70
     1
 10
0.0
 20
0.0
 30
0.0
  3
*D21
  1

  0
LINE
  5
35E0
330
35C9
100
AcDbEntity
  8
S-size
 62
     0
370
    -2
100
AcDbLine
 10
2882.800088449528
 20
2318.909163386518
 30
0.0
 11
2816.617525703445
 21
2318.909163386518
 31
0.0
  0
LINE
  5
35E1
330
35C9
100
AcDbEntity
  8
S-size
 62
     0
370
    -2
100
AcDbLine
 10
2882.800088449528
 20
2858.909163386517
 30
0.0
 11
2816.617525703445
 21
2858.909163386517
 31
0.0
  0
LINE
  5
35E2
330
35C9
100
AcDbEntity
  8
S-size
 62
     0
370
    -2
100
AcDbLine
 10
2816.617525703445
 20
2333.909163386517
 30
0.0
 11
2816.617525703445
 21
2843.909163386518
 31
0.0
  0
SOLID
  5
35E3
330
35C9
100
AcDbEntity
  8
S-size
 62
     0
100
AcDbTrace
 10
2814.117525703445
 20
2333.909163386517
 30
0.0
 11
2819.117525703445
 21
2333.909163386517
 31
0.0
 12
2816.617525703445
 22
2318.909163386518
 32
0.0
 13
2816.617525703445
 23
2318.909163386518
 33
0.0
  0
SOLID
  5
35E4
330
35C9
100
AcDbEntity
  8
S-size
 62
     0
100
AcDbTrace
 10
2814.117525703445
 20
2843.909163386518
 30
0.0
 11
2819.117525703445
 21
2843.909163386518
 31
0.0
 12
2816.617525703445
 22
2858.909163386517
 32
0.0
 13
2816.617525703445
 23
2858.909163386517
 33
0.0
  0
MTEXT
  5
35E5
330
35C9
100
AcDbEntity
  8
S-size
 62
     0
100
AcDbMText
 10
2796.617525703445
 20
2588.909163386518
 30
0.0
 40
20.0
 41
0.0
 71
     5
 72
     1
  1
540
 11
0.0000000000000001
 21
1.0
 31
0.0
 73
     1
 44
1.0
1001
ACAD
1000
MTEXTBEGIN
1070
    73
1070
     1
1070
    44
1040
1.0
1070
    74
1070
     0
1000
MTEXTEND
  0
POINT
  5
35E6
330
35C9
100
AcDbEntity
  8
DEFPOINTS
 62
     0
100
AcDbPoint
 10
2912.800088449528
 20
2318.909163386518
 30
0.0
  0
POINT
  5
35E7
330
35C9
100
AcDbEntity
  8
DEFPOINTS
 62
     0
100
AcDbPoint
 10
2912.800088449528
 20
2858.909163386517
 30
0.0
  0
POINT
  5
35E8
330
35C9
100
AcDbEntity
  8
DEFPOINTS
 62
     0
100
AcDbPoint
 10
2816.617525703445
 20
2858.909163386517
 30
0.0
  0
ENDBLK
  5
35CB
330
35C9
100
AcDbEntity
  8
0
100
AcDbBlockEnd
  0
BLOCK
  5
37DE
330
37DD
100
AcDbEntity
  8
0
100
AcDbBlockBegin
  2
*D22
 70
     1
 10
0.0
 20
0.0
 30
0.0
  3
*D22
  1

  0
LINE
  5
37F4
330
37DD
100
AcDbEntity
  8
S-size
 62
     0
370
    -2
100
AcDbLine
 10
1202.800088449528
 20
3708.909163386517
 30
0.0
 11
1058.505757008472
 21
3708.909163386517
 31
0.0
  0
LINE
  5
37F5
330
37DD
100
AcDbEntity
  8
S-size
 62
     0
370
    -2
100
AcDbLine
 10
1202.800088449528
 20
3828.909163386517
 30
0.0
 11
1058.505757008472
 21
3828.909163386517
 31
0.0
  0
LINE
  5
37F6
330
37DD
100
AcDbEntity
  8
S-size
 62
     0
370
    -2
100
AcDbLine
 10
1058.505757008472
 20
3723.909163386518
 30
0.0
 11
1058.505757008472
 21
3813.909163386517
 31
0.0
  0
SOLID
  5
37F7
330
37DD
100
AcDbEntity
  8
S-size
 62
     0
100
AcDbTrace
 10
1056.005757008472
 20
3723.909163386518
 30
0.0
 11
1061.005757008472
 21
3723.909163386518
 31
0.0
 12
1058.505757008472
 22
3708.909163386517
 32
0.0
 13
1058.505757008472
 23
3708.909163386517
 33
0.0
  0
SOLID
  5
37F8
330
37DD
100
AcDbEntity
  8
S-size
 62
     0
100
AcDbTrace
 10
1056.005757008472
 20
3813.909163386517
 30
0.0
 11
1061.005757008472
 21
3813.909163386517
 31
0.0
 12
1058.505757008472
 22
3828.909163386517
 32
0.0
 13
1058.505757008472
 23
3828.909163386517
 33
0.0
  0
MTEXT
  5
37F9
330
37DD
100
AcDbEntity
  8
S-size
 62
     0
100
AcDbMText
 10
1038.505757008471
 20
3768.909163386517
 30
0.0
 40
20.0
 41
0.0
 71
     5
 72
     1
  1
120
 11
0.0000000000000001
 21
1.0
 31
0.0
 73
     1
 44
1.0
1001
ACAD
1000
MTEXTBEGIN
1070
    73
1070
     1
1070
    44
1040
1.0
1070
    74
1070
     0
1000
MTEXTEND
  0
POINT
  5
37FA
330
37DD
100
AcDbEntity
  8
DEFPOINTS
 62
     0
100
AcDbPoint
 10
1232.800088449528
 20
3708.909163386517
 30
0.0
  0
POINT
  5
37FB
330
37DD
100
AcDbEntity
  8
DEFPOINTS
 62
     0
100
AcDbPoint
 10
1232.800088449528
 20
3828.909163386517
 30
0.0
  0
POINT
  5
37FC
330
37DD
100
AcDbEntity
  8
DEFPOINTS
 62
     0
100
AcDbPoint
 10
1058.505757008472
 20
3828.909163386517
 30
0.0
  0
ENDBLK
  5
37DF
330
37DD
100
AcDbEntity
  8
0
100
AcDbBlockEnd
  0
BLOCK
  5
37FF
330
37FE
100
AcDbEntity
  8
0
100
AcDbBlockBegin
  2
*D23
 70
     1
 10
0.0
 20
0.0
 30
0.0
  3
*D23
  1

  0
LINE
  5
3880
330
37FE
100
AcDbEntity
  8
S-size
 62
     0
370
    -2
100
AcDbLine
 10
1202.800088449528
 20
3828.909163386518
 30
0.0
 11
1058.505757008472
 21
3828.909163386518
 31
0.0
  0
LINE
  5
3881
330
37FE
100
AcDbEntity
  8
S-size
 62
     0
370
    -2
100
AcDbLine
 10
1228.600088449528
 20
4628.909163386517
 30
0.0
 11
1058.505757008472
 21
4628.909163386517
 31
0.0
  0
LINE
  5
3882
330
37FE
100
AcDbEntity
  8
S-size
 62
     0
370
    -2
100
AcDbLine
 10
1058.505757008472
 20
3843.909163386518
 30
0.0
 11
1058.505757008472
 21
4613.909163386517
 31
0.0
  0
SOLID
  5
3883
330
37FE
100
AcDbEntity
  8
S-size
 62
     0
100
AcDbTrace
 10
1056.005757008472
 20
3843.909163386518
 30
0.0
 11
1061.005757008472
 21
3843.909163386518
 31
0.0
 12
1058.505757008472
 22
3828.909163386518
 32
0.0
 13
1058.505757008472
 23
3828.909163386518
 33
0.0
  0
SOLID
  5
3884
330
37FE
100
AcDbEntity
  8
S-size
 62
     0
100
AcDbTrace
 10
1056.005757008472
 20
4613.909163386517
 30
0.0
 11
1061.005757008472
 21
4613.909163386517
 31
0.0
 12
1058.505757008472
 22
4628.909163386517
 32
0.0
 13
1058.505757008472
 23
4628.909163386517
 33
0.0
  0
MTEXT
  5
3885
330
37FE
100
AcDbEntity
  8
S-size
 62
     0
100
AcDbMText
 10
1038.505757008471
 20
4228.909163386517
 30
0.0
 40
20.0
 41
0.0
 71
     5
 72
     1
  1
800
 11
0.0000000000000001
 21
1.0
 31
0.0
 73
     1
 44
1.0
1001
ACAD
1000
MTEXTBEGIN
1070
    73
1070
     1
1070
    44
1040
1.0
1070
    74
1070
     0
1000
MTEXTEND
  0
POINT
  5
3886
330
37FE
100
AcDbEntity
  8
DEFPOINTS
 62
     0
100
AcDbPoint
 10
1232.800088449528
 20
3828.909163386518
 30
0.0
  0
POINT
  5
3887
330
37FE
100
AcDbEntity
  8
DEFPOINTS
 62
     0
100
AcDbPoint
 10
1258.600088449528
 20
4628.909163386517
 30
0.0
  0
POINT
  5
3888
330
37FE
100
AcDbEntity
  8
DEFPOINTS
 62
     0
100
AcDbPoint
 10
1058.505757008472
 20
4628.909163386517
 30
0.0
  0
ENDBLK
  5
3800
330
37FE
100
AcDbEntity
  8
0
100
AcDbBlockEnd
  0
ENDSEC
  0
SECTION
  2
ENTITIES
  0
INSERT
  5
123
330
1F
100
AcDbEntity
  8
S-title
 62
     7
100
AcDbBlockReference
  2
AI9-BLK1
 10
6432.800088449528
 20
438.9091633865173
 30
0.0
 41
2.304000000003725
 42
2.304000000000314
 43
2.304
  0
LWPOLYLINE
  5
126
330
1F
100
AcDbEntity
  8
DEFPOINTS
100
AcDbPolyline
 90
        4
 70
     1
 43
0.0
 10
82.80008844952817
 20
88.90916338651733
 10
8482.800088449527
 20
88.90916338651733
 10
8482.800088449527
 20
6028.909163386518
 10
82.80008844952817
 20
6028.909163386518
  0
LWPOLYLINE
  5
127
330
1F
100
AcDbEntity
  8
S-title
100
AcDbPolyline
 90
        4
 70
     1
 43
0.0
 10
8282.800088449528
 20
288.9091633865173
 10
6282.800088449529
 20
288.9091633865173
 10
6282.800088449529
 20
588.9091633865173
 10
8282.800088449528
 20
588.9091633865173
  0
LWPOLYLINE
  5
128
330
1F
100
AcDbEntity
  8
S-title
100
AcDbPolyline
 90
        4
 70
     1
 43
0.0
 10
6282.800088449529
 20
588.9091633865173
 10
6582.800088449528
 20
588.9091633865173
 10
6582.800088449528
 20
788.9091633865173
 10
6282.800088449529
 20
788.9091633865173
  0
LWPOLYLINE
  5
129
330
1F
100
AcDbEntity
  8
S-title
100
AcDbPolyline
 90
        4
 70
     1
 43
0.0
 10
6282.800088449529
 20
788.9091633865173
 10
6582.800088449528
 20
788.9091633865173
 10
6582.800088449528
 20
988.9091633865174
 10
6282.800088449529
 20
988.9091633865174
  0
LWPOLYLINE
  5
132
330
1F
100
AcDbEntity
  8
S-title
100
AcDbPolyline
 90
        4
 70
     1
 43
0.0
 10
7782.800088449528
 20
788.9091633865173
 10
7982.800088449528
 20
788.9091633865173
 10
7982.800088449528
 20
988.9091633865174
 10
7782.800088449528
 20
988.9091633865174
  0
LWPOLYLINE
  5
133
330
1F
100
AcDbEntity
  8
S-title
100
AcDbPolyline
 90
        4
 70
     1
 43
0.0
 10
7782.800088449528
 20
588.9091633865173
 10
6582.800088449528
 20
588.9091633865173
 10
6582.800088449528
 20
788.9091633865173
 10
7782.800088449528
 20
788.9091633865173
  0
LWPOLYLINE
  5
134
330
1F
100
AcDbEntity
  8
S-title
100
AcDbPolyline
 90
        4
 70
     1
 43
0.0
 10
7782.800088449528
 20
788.9091633865173
 10
6582.800088449528
 20
788.9091633865173
 10
6582.800088449528
 20
988.9091633865174
 10
7782.800088449528
 20
988.9091633865174
  0
MTEXT
  5
135
330
1F
100
AcDbEntity
  8
S-title
100
AcDbMText
 10
7882.800088449528
 20
888.9091633865174
 30
0.0
 40
50.0
 41
200.0
 71
     5
 72
     5
  1
{\fHGSeikaishotaiPRO|b0|i0|c128|p66;縮尺}
 73
     1
 44
1.0
1001
ACAD
1000
MTEXTBEGIN
1070
    73
1070
     1
1070
    44
1040
1.0
1070
    74
1070
     0
1000
MTEXTEND
  0
LWPOLYLINE
  5
136
330
1F
100
AcDbEntity
  8
S-title
100
AcDbPolyline
 90
        4
 70
     1
 43
0.0
 10
7982.800088449528
 20
788.9091633865173
 10
8282.800088449528
 20
788.9091633865173
 10
8282.800088449528
 20
988.9091633865174
 10
7982.800088449528
 20
988.9091633865174
  0
MTEXT
  5
137
330
1F
100
AcDbEntity
  8
S-title
100
AcDbMText
 10
8132.800088449528
 20
888.9091633865174
 30
0.0
 40
50.0
 41
300.0
 71
     5
 72
     5
  1
1：20
 73
     1
 44
1.0
1001
ACAD
1000
MTEXTBEGIN
1070
    73
1070
     1
1070
    44
1040
1.0
1070
    74
1070
     0
1000
MTEXTEND
  0
MTEXT
  5
138
330
1F
100
AcDbEntity
  8
S-title
100
AcDbMText
 10
6432.800088449528
 20
888.9091633865174
 30
0.0
 40
50.0
 41
300.0
 71
     5
 72
     5
  1
{\fHGSeikaishotaiPRO|b0|i0|c128|p66;製品名}
 73
     1
 44
1.0
1001
ACAD
1000
MTEXTBEGIN
1070
    73
1070
     1
1070
    44
1040
1.0
1070
    74
1070
     0
1000
MTEXTEND
  0
MTEXT
  5
139
330
1F
100
AcDbEntity
  8
S-title
100
AcDbMText
 10
6432.800088449528
 20
688.9091633865173
 30
0.0
 40
50.0
 41
300.0
 71
     5
 72
     5
  1
{\fHGSeikaishotaiPRO|b0|i0|c128|p66;規格}
 73
     1
 44
1.0
1001
ACAD
1000
MTEXTBEGIN
1070
    73
1070
     1
1070
    44
1040
1.0
1070
    74
1070
     0
1000
MTEXTEND
  0
LWPOLYLINE
  5
163
330
1F
100
AcDbEntity
  8
S-title
100
AcDbPolyline
 90
        4
 70
     1
 43
0.0
 10
482.8000884495281
 20
288.9091633865173
 10
8282.800088449528
 20
288.9091633865173
 10
8282.800088449528
 20
5828.909163386517
 10
482.8000884495281
 20
5828.909163386517
  0
MTEXT
  5
604
330
1F
100
AcDbEntity
  8
S-title
100
AcDbMText
 10
7182.800088449528
 20
888.9091633865174
 30
0.0
 40
60.0
 41
1200.0
 71
     5
 72
     5
  1
水路用L型
 73
     1
 44
1.0
1001
ACAD
1000
MTEXTBEGIN
1070
    73
1070
     1
1070
    44
1040
1.0
1070
    74
1070
     0
1000
MTEXTEND
  0
MTEXT
  5
606
330
1F
100
AcDbEntity
  8
S-title
100
AcDbMText
 10
7182.800088449528
 20
688.9091633865173
 30
0.0
 40
60.0
 41
1200.0
 71
     5
 72
     5
  1
800 1種（標準）
 73
     1
 44
1.0
1001
ACAD
1000
MTEXTBEGIN
1070
    73
1070
     1
1070
    44
1040
1.0
1070
    74
1070
     0
1000
MTEXTEND
  0
LWPOLYLINE
  5
608
330
1F
100
AcDbEntity
  8
S-assist
100
AcDbPolyline
 90
        4
 70
     1
 43
0.0
 10
1232.800088449528
 20
4828.909163386517
 10
1352.800088449528
 20
4828.909163386517
 10
1352.800088449528
 20
3708.909163386517
 10
1232.800088449528
 20
3708.909163386517
  0
LWPOLYLINE
  5
609
102
{ACAD_REACTORS
330
33A6
102
}
330
1F
100
AcDbEntity
  8
S-assist
100
AcDbPolyline
 90
        4
 70
     1
 43
0.0
 10
1352.800088449528
 20
3708.909163386517
 10
1772.800088449528
 20
3708.909163386517
 10
1772.800088449528
 20
3828.909163386518
 10
1352.800088449528
 20
3828.909163386518
  0
LWPOLYLINE
  5
60A
330
1F
100
AcDbEntity
  8
S-assist
100
AcDbPolyline
 90
        4
 70
     1
 43
0.0
 10
1352.800088449528
 20
4828.909163386517
 10
1252.800088449528
 20
4828.909163386517
 10
1252.800088449528
 20
4928.909163386517
 10
1352.800088449528
 20
4928.909163386517
  0
LINE
  5
612
330
1F
100
AcDbEntity
  8
S-main
100
AcDbLine
 10
1258.600088449528
 20
4628.909163386517
 30
0.0
 11
1342.800088449528
 21
4628.909163386517
 31
0.0
  0
LINE
  5
613
102
{ACAD_REACTORS
330
33A6
102
}
330
1F
100
AcDbEntity
  8
S-main
100
AcDbLine
 10
1352.800088449528
 20
4618.909163386518
 30
0.0
 11
1352.800088449528
 21
3908.909163386516
 31
0.0
  0
LINE
  5
614
330
1F
100
AcDbEntity
  8
S-main
100
AcDbLine
 10
1432.800088449527
 20
3828.909163386517
 30
0.0
 11
1772.800088449528
 21
3828.909163386518
 31
0.0
  0
LINE
  5
615
330
1F
100
AcDbEntity
  8
S-main
100
AcDbLine
 10
1772.800088449528
 20
3828.909163386518
 30
0.0
 11
1772.800088449528
 21
3708.909163386517
 31
0.0
  0
LINE
  5
616
102
{ACAD_REACTORS
330
2D9B
102
}
330
1F
100
AcDbEntity
  8
S-main
100
AcDbLine
 10
1772.800088449528
 20
3708.909163386517
 30
0.0
 11
1232.800088449528
 21
3708.909163386517
 31
0.0
  0
LINE
  5
617
330
1F
100
AcDbEntity
  8
S-main
100
AcDbLine
 10
1232.800088449528
 20
3828.909163386518
 30
0.0
 11
1248.600088449528
 21
4618.909163386514
 31
0.0
  0
ARC
  5
618
102
{ACAD_REACTORS
330
A97
102
}
330
1F
100
AcDbEntity
  8
S-main
100
AcDbCircle
 10
1432.800088449527
 20
3908.909163386516
 30
0.0
 40
79.99999999999886
100
AcDbArc
 50
179.9999999999996
 51
270.0
  0
LWPOLYLINE
  5
619
330
1F
100
AcDbEntity
  8
S-assist
100
AcDbPolyline
 90
        4
 70
     1
 43
0.0
 10
1772.800088449528
 20
3708.909163386517
 10
1832.800088449528
 20
3708.909163386517
 10
1832.800088449528
 20
3768.909163386517
 10
1772.800088449528
 20
3768.909163386517
  0
LWPOLYLINE
  5
61C
330
1F
100
AcDbEntity
  8
S-assist
100
AcDbPolyline
 90
        4
 70
     1
 43
0.0
 10
1772.800088449528
 20
3768.909163386517
 10
1779.150088449528
 20
3768.909163386517
 10
1779.150088449528
 20
3775.259163386517
 10
1772.800088449528
 20
3775.259163386517
  0
LWPOLYLINE
  5
61F
330
1F
100
AcDbEntity
  8
S-main
100
AcDbPolyline
 90
        4
 70
     1
 43
0.0
 10
2912.800088449527
 20
4628.909163386517
 10
4912.800088449529
 20
4628.909163386517
 10
4912.800088449529
 20
3708.909163386517
 10
2912.800088449528
 20
3708.909163386517
  0
LWPOLYLINE
  5
622
330
1F
100
AcDbEntity
  8
S-assist
100
AcDbPolyline
 90
        4
 70
     1
 43
0.0
 10
482.8000884495281
 20
5828.909163386517
 10
1232.800088449528
 20
5828.909163386517
 10
1232.800088449528
 20
4828.909163386517
 10
482.8000884495281
 20
4828.909163386517
  0
LWPOLYLINE
  5
624
330
1F
100
AcDbEntity
  8
S-assist
100
AcDbPolyline
 90
        4
 70
     1
 43
0.0
 10
2162.800088449528
 20
5828.909163386517
 10
2912.800088449528
 20
5828.909163386517
 10
2912.800088449528
 20
4828.909163386517
 10
2162.800088449528
 20
4828.909163386517
  0
LWPOLYLINE
  5
625
330
1F
100
AcDbEntity
  8
S-assist
100
AcDbPolyline
 90
        4
 70
     1
 43
0.0
 10
4912.800088449529
 20
5828.909163386517
 10
5662.800088449529
 20
5828.909163386517
 10
5662.800088449529
 20
4828.909163386517
 10
4912.800088449529
 20
4828.909163386517
  0
LWPOLYLINE
  5
626
330
1F
100
AcDbEntity
  8
S-assist
100
AcDbPolyline
 90
        4
 70
     1
 43
0.0
 10
2162.800088449528
 20
4828.909163386517
 10
1232.800088449528
 20
4828.909163386517
 10
1232.800088449528
 20
3708.909163386517
 10
2162.800088449528
 20
3708.909163386517
  0
LWPOLYLINE
  5
62D
102
{ACAD_REACTORS
330
FCE
102
}
330
1F
100
AcDbEntity
  8
S-assist
100
AcDbPolyline
 90
        4
 70
     1
 43
0.0
 10
2162.800088449528
 20
3708.909163386517
 10
2912.800088449528
 20
3708.909163386517
 10
2912.800088449528
 20
2958.909163386517
 10
2162.800088449528
 20
2958.909163386517
  0
LWPOLYLINE
  5
62E
102
{ACAD_REACTORS
330
35DF
102
}
330
1F
100
AcDbEntity
  8
S-main
100
AcDbPolyline
 90
        4
 70
     1
 43
0.0
 10
2912.800088449528
 20
2858.909163386517
 10
4912.800088449529
 20
2858.909163386517
 10
4912.800088449529
 20
2318.909163386518
 10
2912.800088449528
 20
2318.909163386518
  0
LINE
  5
648
330
1F
100
AcDbEntity
  8
S-center
100
AcDbLine
 10
1342.800088449528
 20
3828.909163386518
 30
0.0
 11
1362.800088449528
 21
3828.909163386518
 31
0.0
  0
LINE
  5
649
330
1F
100
AcDbEntity
  8
S-center
100
AcDbLine
 10
1352.800088449528
 20
3818.909163386518
 30
0.0
 11
1352.800088449528
 21
3838.909163386517
 31
0.0
  0
LWPOLYLINE
  5
6B0
330
1F
100
AcDbEntity
  8
S-assist
100
AcDbPolyline
 90
        4
 70
     1
 43
0.0
 10
2182.800088449528
 20
3708.909163386517
 10
2122.800088449528
 20
3708.909163386517
 10
2122.800088449528
 20
3768.909163386517
 10
2182.800088449528
 20
3768.909163386517
  0
LWPOLYLINE
  5
6B1
330
1F
100
AcDbEntity
  8
S-assist
100
AcDbPolyline
 90
        4
 70
     1
 43
0.0
 10
2182.800088449528
 20
3768.909163386517
 10
2122.800088449528
 20
3768.909163386517
 10
2122.800088449528
 20
3828.909163386518
 10
2182.800088449528
 20
3828.909163386518
  0
LINE
  5
73D
330
1F
100
AcDbEntity
  8
S-assist
100
AcDbLine
 10
1306.05387642494
 20
3782.16295136193
 30
0.0
 11
1411.053876424939
 21
3887.162951361929
 31
0.0
  0
LWPOLYLINE
  5
73F
330
1F
100
AcDbEntity
  8
S-assist
100
AcDbPolyline
 90
        4
 70
     1
 43
0.0
 10
1356.308812394672
 20
3832.417887331661
 10
1358.55387642494
 20
3830.172823301394
 10
1360.798940455207
 20
3832.417887331661
 10
1358.55387642494
 20
3834.662951361929
  0
DIMENSION
  5
8BC
330
1F
100
AcDbEntity
  8
S-size
100
AcDbDimension
  2
*D4
 10
1352.800088449528
 20
4710.052572835716
 30
0.0
 11
1300.800088449528
 21
4730.052572835717
 31
0.0
 70
    32
 71
     5
 42
104.0
  3
ISO-25
100
AcDbAlignedDimension
 13
1248.800088449528
 23
4628.909163386517
 33
0.0
 14
1352.800088449528
 24
4628.909163386517
 34
0.0
100
AcDbRotatedDimension
1001
ACAD
1000
DSTYLE
1002
{
1070
    41
1040
15.0
1070
    42
1040
30.0
1070
    44
1040
0.0
1070
   140
1040
20.0
1070
   147
1040
10.0
1070
   271
1070
     0
1002
}
  0
DIMENSION
  5
912
330
1F
100
AcDbEntity
  8
S-size
100
AcDbDimension
  2
*D5
 10
1772.800088449528
 20
3604.054145668726
 30
0.0
 11
1562.800088449528
 21
3584.054145668726
 31
0.0
 70
    32
 71
     5
 42
420.0
  3
ISO-25
100
AcDbAlignedDimension
 13
1352.800088449528
 23
3709.087692119619
 33
0.0
 14
1772.800088449528
 24
3708.909163386581
 34
0.0
100
AcDbRotatedDimension
1001
ACAD
1000
DSTYLE
1002
{
1070
    41
1040
15.0
1070
    42
1040
30.0
1070
    44
1040
0.0
1070
   140
1040
20.0
1070
   147
1040
10.0
1070
   271
1070
     0
1002
}
  0
DIMENSION
  5
93C
330
1F
100
AcDbEntity
  8
S-size
100
AcDbDimension
  2
*D6
 10
1352.800088449528
 20
3604.054145668726
 30
0.0
 11
1292.800088449528
 21
3584.054145668726
 31
0.0
 70
    32
 71
     5
 42
119.9999999999988
  3
ISO-25
100
AcDbAlignedDimension
 13
1232.800088449529
 23
3708.909163386581
 33
0.0
 14
1352.800088449528
 24
3708.909163386581
 34
0.0
100
AcDbRotatedDimension
1001
ACAD
1000
DSTYLE
1002
{
1070
    41
1040
15.0
1070
    42
1040
30.0
1070
    44
1040
0.0
1070
   140
1040
20.0
1070
   147
1040
10.0
1070
   271
1070
     0
1002
}
  0
DIMENSION
  5
966
330
1F
100
AcDbEntity
  8
S-size
100
AcDbDimension
  2
*D7
 10
1017.296985773308
 20
3708.909163386518
 30
0.0
 11
997.2969857733072
 21
4168.909163386517
 31
0.0
 70
    32
 71
     5
 42
919.9999999999995
  3
ISO-25
100
AcDbAlignedDimension
 13
1258.600088449528
 23
4628.909163386517
 33
0.0
 14
1232.800088449528
 24
3708.909163386517
 34
0.0
 50
90.0
100
AcDbRotatedDimension
1001
ACAD
1000
DSTYLE
1002
{
1070
    41
1040
15.0
1070
    42
1040
30.0
1070
    44
1040
0.0
1070
   140
1040
20.0
1070
   147
1040
10.0
1070
   271
1070
     0
1002
}
  0
DIMENSION
  5
A86
102
{ACAD_XDICTIONARY
360
A90
102
}
102
{ACAD_REACTORS
330
A97
102
}
330
1F
100
AcDbEntity
  8
S-size
100
AcDbDimension
  2
*D8
 10
1432.800088449524
 20
3908.909163386523
 30
0.0
 11
1422.193486731725
 21
3898.302561668724
 31
0.0
 70
   164
 71
     5
 42
80.00000000000227
  3
ISO-25
100
AcDbRadialDimension
 15
1376.231545954604
 25
3852.340620891592
 35
0.0
 40
0.0
1001
ACAD
1000
DSTYLE
1002
{
1070
    41
1040
15.0
1070
    42
1040
30.0
1070
    44
1040
0.0
1070
   140
1040
20.0
1070
   147
1040
10.0
1070
   271
1070
     0
1002
}
  0
LWPOLYLINE
  5
ACB
330
1F
100
AcDbEntity
  8
S-assist
100
AcDbPolyline
 90
        4
 70
     1
 43
0.0
 10
2912.800088449528
 20
5028.909163386518
 10
4912.800088449529
 20
5028.909163386518
 10
4912.800088449529
 20
5128.909163386517
 10
2912.800088449528
 20
5128.909163386517
  0
LWPOLYLINE
  5
ACC
330
1F
100
AcDbEntity
  8
S-assist
100
AcDbPolyline
 90
        4
 70
     1
 43
0.0
 10
2912.800088449528
 20
5128.909163386517
 10
4912.800088449529
 20
5128.909163386517
 10
4912.800088449529
 20
5228.909163386518
 10
2912.800088449528
 20
5228.909163386518
  0
LWPOLYLINE
  5
ACD
330
1F
100
AcDbEntity
  8
S-assist
100
AcDbPolyline
 90
        4
 70
     1
 43
0.0
 10
2912.800088449528
 20
5228.909163386518
 10
4912.800088449529
 20
5228.909163386518
 10
4912.800088449529
 20
5328.909163386517
 10
2912.800088449528
 20
5328.909163386517
  0
LWPOLYLINE
  5
ACE
330
1F
100
AcDbEntity
  8
S-assist
100
AcDbPolyline
 90
        4
 70
     1
 43
0.0
 10
2912.800088449528
 20
5328.909163386517
 10
4912.800088449529
 20
5328.909163386517
 10
4912.800088449529
 20
5428.909163386517
 10
2912.800088449528
 20
5428.909163386517
  0
LWPOLYLINE
  5
AD2
330
1F
100
AcDbEntity
  8
S-assist
100
AcDbPolyline
 90
        4
 70
     1
 43
0.0
 10
5662.800088449529
 20
5128.909163386517
 10
7662.800088449529
 20
5128.909163386517
 10
7662.800088449529
 20
5228.909163386518
 10
5662.800088449529
 20
5228.909163386518
  0
LWPOLYLINE
  5
AD3
330
1F
100
AcDbEntity
  8
S-assist
100
AcDbPolyline
 90
        4
 70
     1
 43
0.0
 10
5662.800088449529
 20
5228.909163386518
 10
7662.800088449529
 20
5228.909163386518
 10
7662.800088449529
 20
5328.909163386517
 10
5662.800088449529
 20
5328.909163386517
  0
LWPOLYLINE
  5
AD4
330
1F
100
AcDbEntity
  8
S-assist
100
AcDbPolyline
 90
        4
 70
     1
 43
0.0
 10
5662.800088449529
 20
5328.909163386517
 10
7662.800088449529
 20
5328.909163386517
 10
7662.800088449529
 20
5428.909163386517
 10
5662.800088449529
 20
5428.909163386517
  0
LWPOLYLINE
  5
ADE
330
1F
100
AcDbEntity
  8
S-assist
100
AcDbPolyline
 90
        4
 70
     1
 43
0.0
 10
2912.800088449528
 20
3258.909163386518
 10
4912.800088449529
 20
3258.909163386518
 10
4912.800088449529
 20
3358.909163386517
 10
2912.800088449528
 20
3358.909163386517
  0
LWPOLYLINE
  5
ADF
330
1F
100
AcDbEntity
  8
S-assist
100
AcDbPolyline
 90
        4
 70
     1
 43
0.0
 10
2912.800088449528
 20
3358.909163386517
 10
4912.800088449529
 20
3358.909163386517
 10
4912.800088449529
 20
3458.909163386517
 10
2912.800088449528
 20
3458.909163386517
  0
LWPOLYLINE
  5
AE0
330
1F
100
AcDbEntity
  8
S-assist
100
AcDbPolyline
 90
        4
 70
     1
 43
0.0
 10
2912.800088449528
 20
3458.909163386517
 10
4912.800088449529
 20
3458.909163386517
 10
4912.800088449529
 20
3558.909163386517
 10
2912.800088449528
 20
3558.909163386517
  0
MTEXT
  5
AE7
330
1F
100
AcDbEntity
  8
S-size
100
AcDbMText
 10
3912.800088449529
 20
5378.909163386517
 30
0.0
 40
50.0
 41
2000.0
 71
     5
 72
     5
  1
正面図（内側）
 73
     1
 44
1.0
1001
ACAD
1000
MTEXTBEGIN
1070
    73
1070
     1
1070
    44
1040
1.0
1070
    74
1070
     0
1000
MTEXTEND
1000
ACAD_MTEXT_DEFINED_HEIGHT_BEGIN
1070
    46
1040
100.0
1000
ACAD_MTEXT_DEFINED_HEIGHT_END
  0
MTEXT
  5
AE8
330
1F
100
AcDbEntity
  8
S-size
100
AcDbMText
 10
6662.800088449529
 20
5378.909163386517
 30
0.0
 40
50.0
 41
2000.0
 71
     5
 72
     5
  1
背面図（外側）
 73
     1
 44
1.0
1001
ACAD
1000
MTEXTBEGIN
1070
    73
1070
     1
1070
    44
1040
1.0
1070
    74
1070
     0
1000
MTEXTEND
1000
ACAD_MTEXT_DEFINED_HEIGHT_BEGIN
1070
    46
1040
100.0
1000
ACAD_MTEXT_DEFINED_HEIGHT_END
  0
MTEXT
  5
AE9
330
1F
100
AcDbEntity
  8
S-size
100
AcDbMText
 10
3912.800088449529
 20
3408.909163386518
 30
0.0
 40
50.0
 41
2000.0
 71
     5
 72
     5
  1
平面図
 73
     1
 44
1.0
1001
ACAD
1000
MTEXTBEGIN
1070
    73
1070
     1
1070
    44
1040
1.0
1070
    74
1070
     0
1000
MTEXTEND
1000
ACAD_MTEXT_DEFINED_HEIGHT_BEGIN
1070
    46
1040
100.0
1000
ACAD_MTEXT_DEFINED_HEIGHT_END
  0
LWPOLYLINE
  5
AEC
330
1F
100
AcDbEntity
  8
S-assist
100
AcDbPolyline
 90
        4
 70
     1
 43
0.0
 10
2912.800088449528
 20
3708.909163386517
 10
4912.800088449529
 20
3708.909163386517
 10
4912.800088449529
 20
3828.909163386518
 10
2912.800088449528
 20
3828.909163386518
  0
LINE
  5
AEF
330
1F
100
AcDbEntity
  8
S-main
100
AcDbLine
 10
2917.800088449529
 20
3828.909163386518
 30
0.0
 11
4907.800088449529
 21
3828.909163386518
 31
0.0
  0
LINE
  5
B09
330
1F
100
AcDbEntity
  8
S-center
100
AcDbLine
 10
3912.800088449529
 20
3678.909163386518
 30
0.0
 11
3912.800088449529
 21
4658.909163386517
 31
0.0
  0
DIMENSION
  5
F45
330
1F
100
AcDbEntity
  8
S-size
100
AcDbDimension
  2
*D9
 10
4912.800088449528
 20
4847.666215951287
 30
0.0
 11
3912.800088449528
 21
4867.666215951287
 31
0.0
 70
    32
 71
     5
 42
2000.0
  3
ISO-25
100
AcDbAlignedDimension
 13
2912.800088449527
 23
4628.909163386517
 33
0.0
 14
4912.800088449528
 24
4628.909163386517
 34
0.0
100
AcDbRotatedDimension
1001
ACAD
1000
DSTYLE
1002
{
1070
    41
1040
15.0
1070
    42
1040
30.0
1070
    44
1040
0.0
1070
   140
1040
20.0
1070
   147
1040
10.0
1070
   271
1070
     0
1002
}
  0
DIMENSION
  5
FB7
102
{ACAD_XDICTIONARY
360
FC4
102
}
102
{ACAD_REACTORS
330
FCE
102
}
330
1F
100
AcDbEntity
  8
S-size
100
AcDbDimension
  2
*D10
 10
2713.983820808939
 20
4628.909163386517
 30
0.0
 11
2693.983820808938
 21
4168.909163386518
 31
0.0
 70
    32
 71
     5
 42
920.0000000000004
  3
ISO-25
100
AcDbAlignedDimension
 13
2912.800088449528
 23
3708.909163386517
 33
0.0
 14
2912.800088449527
 24
4628.909163386517
 34
0.0
 50
90.0
100
AcDbRotatedDimension
1001
ACAD
1000
DSTYLE
1002
{
1070
    41
1040
15.0
1070
    42
1040
30.0
1070
    44
1040
0.0
1070
   140
1040
20.0
1070
   147
1040
10.0
1070
   271
1070
     0
1002
}
  0
LWPOLYLINE
  5
1017
330
1F
100
AcDbEntity
  8
S-assist
100
AcDbPolyline
 90
        4
 70
     1
 43
0.0
 10
5662.800088449529
 20
3708.909163386517
 10
7662.800088449529
 20
3708.909163386517
 10
7662.800088449529
 20
3828.909163386518
 10
5662.800088449529
 20
3828.909163386518
  0
LWPOLYLINE
  5
101A
330
1F
100
AcDbEntity
  8
S-main
100
AcDbPolyline
 90
        4
 70
     1
 43
0.0
 10
5662.800088449529
 20
4628.909163386517
 10
7662.800088449529
 20
4628.909163386517
 10
7662.800088449529
 20
3708.909163386517
 10
5662.800088449529
 20
3708.909163386517
  0
LINE
  5
1021
330
1F
100
AcDbEntity
  8
S-center
100
AcDbLine
 10
6662.800088449529
 20
3678.909163386518
 30
0.0
 11
6662.800088449529
 21
4658.909163386517
 31
0.0
  0
DIMENSION
  5
1082
330
1F
100
AcDbEntity
  8
S-size
100
AcDbDimension
  2
*D11
 10
7662.800088449529
 20
4847.666215951287
 30
0.0
 11
6662.800088449529
 21
4867.666215951287
 31
0.0
 70
    32
 71
     5
 42
2000.0
  3
ISO-25
100
AcDbAlignedDimension
 13
5662.800088449529
 23
4628.909163386517
 33
0.0
 14
7662.800088449529
 24
4628.909163386517
 34
0.0
100
AcDbRotatedDimension
1001
ACAD
1000
DSTYLE
1002
{
1070
    41
1040
15.0
1070
    42
1040
30.0
1070
    44
1040
0.0
1070
   140
1040
20.0
1070
   147
1040
10.0
1070
   271
1070
     0
1002
}
  0
DIMENSION
  5
108B
330
1F
100
AcDbEntity
  8
S-size
100
AcDbDimension
  2
*D12
 10
5463.983820808938
 20
4628.909163386517
 30
0.0
 11
5443.983820808938
 21
4168.909163386518
 31
0.0
 70
    32
 71
     5
 42
919.9999999999995
  3
ISO-25
100
AcDbAlignedDimension
 13
5662.800088449529
 23
3708.909163386517
 33
0.0
 14
5662.800088449529
 24
4628.909163386517
 34
0.0
 50
90.0
100
AcDbRotatedDimension
1001
ACAD
1000
DSTYLE
1002
{
1070
    41
1040
15.0
1070
    42
1040
30.0
1070
    44
1040
0.0
1070
   140
1040
20.0
1070
   147
1040
10.0
1070
   271
1070
     0
1002
}
  0
LWPOLYLINE
  5
15E0
330
1F
100
AcDbEntity
  8
S-assist
100
AcDbPolyline
 90
        4
 70
     1
 43
0.0
 10
2286.308812394672
 20
2835.403627454464
 10
2284.063748364405
 20
2833.158563424197
 10
2286.308812394672
 20
2830.913499393929
 10
2288.55387642494
 20
2833.158563424197
  0
LWPOLYLINE
  5
15E1
330
1F
100
AcDbEntity
  8
S-assist
100
AcDbPolyline
 90
        4
 70
     1
 43
0.0
 10
2162.978617182634
 20
2958.909163386517
 10
2162.978617182634
 20
2833.158563424196
 10
2288.55387642494
 20
2833.158563424196
 10
2288.55387642494
 20
2958.909163386517
  0
LINE
  5
15F2
330
1F
100
AcDbEntity
  8
S-center
100
AcDbLine
 10
3912.800088449529
 20
2888.90916338645
 30
0.0
 11
3912.800088449529
 21
1878.909163386517
 31
0.0
  0
LWPOLYLINE
  5
1603
330
1F
100
AcDbEntity
  8
S-assist
100
AcDbPolyline
 90
        4
 70
     1
 43
0.0
 10
2972.800088449528
 20
2318.909163386518
 10
2972.800088449528
 20
2312.559163386517
 10
2979.150088449528
 20
2312.559163386517
 10
2979.150088449528
 20
2318.909163386518
  0
LWPOLYLINE
  5
1617
330
1F
100
AcDbEntity
  8
S-assist
100
AcDbPolyline
 90
        4
 70
     1
 43
0.0
 10
2912.800088449528
 20
2318.909163386518
 10
4912.800088449529
 20
2318.909163386518
 10
4912.800088449529
 20
2338.909163386517
 10
2912.800088449528
 20
2338.909163386517
  0
LWPOLYLINE
  5
1618
330
1F
100
AcDbEntity
  8
S-assist
100
AcDbPolyline
 90
        4
 70
     1
 43
0.0
 10
2912.800088449528
 20
2338.909163386517
 10
3242.800088449528
 20
2338.909163386517
 10
3242.800088449528
 20
2668.909163386518
 10
2912.800088449528
 20
2668.909163386518
  0
LWPOLYLINE
  5
1619
330
1F
100
AcDbEntity
  8
S-assist
100
AcDbPolyline
 90
        4
 70
     1
 43
0.0
 10
2912.800088449528
 20
2668.909163386518
 10
2962.800088449528
 20
2668.909163386518
 10
2962.800088449528
 20
2718.909163386518
 10
2912.800088449528
 20
2718.909163386518
  0
DIMENSION
  5
1D50
330
1F
100
AcDbEntity
  8
S-size
100
AcDbDimension
  2
*D15
 10
4912.800088449529
 20
3017.333001882744
 30
0.0
 11
3912.800088449529
 21
3037.333001882744
 31
0.0
 70
    32
 71
     5
 42
2000.0
  3
ISO-25
100
AcDbAlignedDimension
 13
2912.800088449528
 23
2858.909163386517
 33
0.0
 14
4912.800088449529
 24
2858.909163386517
 34
0.0
100
AcDbRotatedDimension
1001
ACAD
1000
DSTYLE
1002
{
1070
    41
1040
15.0
1070
    42
1040
30.0
1070
    44
1040
0.0
1070
   140
1040
20.0
1070
   147
1040
10.0
1070
   271
1070
     0
1002
}
  0
LWPOLYLINE
  5
2AC7
330
1F
100
AcDbEntity
  8
S-assist
100
AcDbPolyline
 90
        4
 70
     1
 43
0.0
 10
6582.800088449528
 20
988.9091633865174
 10
7782.800088449528
 20
988.9091633865174
 10
7782.800088449528
 20
1088.909163386517
 10
6582.800088449528
 20
1088.909163386517
  0
LWPOLYLINE
  5
2AC8
330
1F
100
AcDbEntity
  8
S-assist
100
AcDbPolyline
 90
        4
 70
     1
 43
0.0
 10
6582.800088449528
 20
1088.909163386517
 10
7782.800088449528
 20
1088.909163386517
 10
7782.800088449528
 20
1188.909163386517
 10
6582.800088449528
 20
1188.909163386517
  0
LWPOLYLINE
  5
2AC9
330
1F
100
AcDbEntity
  8
S-assist
100
AcDbPolyline
 90
        4
 70
     1
 43
0.0
 10
6582.800088449528
 20
1188.909163386517
 10
7782.800088449528
 20
1188.909163386517
 10
7782.800088449528
 20
1288.909163386517
 10
6582.800088449528
 20
1288.909163386517
  0
LWPOLYLINE
  5
2ACA
330
1F
100
AcDbEntity
  8
S-assist
100
AcDbPolyline
 90
        4
 70
     1
 43
0.0
 10
6582.800088449528
 20
1288.909163386517
 10
7782.800088449528
 20
1288.909163386517
 10
7782.800088449528
 20
1388.909163386517
 10
6582.800088449528
 20
1388.909163386517
  0
MTEXT
  5
2ACF
330
1F
100
AcDbEntity
  8
S-size
100
AcDbMText
 10
7182.800088449528
 20
1338.909163386517
 30
0.0
 40
50.0
 41
1200.0
 71
     5
 72
     5
  1
参考質量730kg
 73
     1
 44
1.0
1001
ACAD
1000
MTEXTBEGIN
1070
    73
1070
     1
1070
    44
1040
1.0
1070
    74
1070
     0
1000
MTEXTEND
  0
LINE
  5
2D81
330
1F
100
AcDbEntity
  8
S-main
100
AcDbLine
 10
2912.800088449465
 20
2838.90916338645
 30
0.0
 11
4912.800088449465
 21
2838.90916338645
 31
0.0
  0
LINE
  5
2D82
330
1F
100
AcDbEntity
  8
S-main
100
AcDbLine
 10
2917.800088449592
 20
2738.90916338645
 30
0.0
 11
4907.800088449464
 21
2738.90916338645
 31
0.0
  0
DIMENSION
  5
2D84
102
{ACAD_XDICTIONARY
360
2D91
102
}
102
{ACAD_REACTORS
330
2D9B
102
}
330
1F
100
AcDbEntity
  8
S-size
100
AcDbDimension
  2
*D17
 10
1772.800088449528
 20
3558.015102445204
 30
0.0
 11
1502.800088449528
 21
3538.015102445205
 31
0.0
 70
    32
 71
     5
 42
540.0
  3
ISO-25
100
AcDbAlignedDimension
 13
1232.800088449528
 23
3708.909163386517
 33
0.0
 14
1772.800088449528
 24
3708.909163386517
 34
0.0
100
AcDbRotatedDimension
1001
ACAD
1000
DSTYLE
1002
{
1070
    41
1040
15.0
1070
    42
1040
30.0
1070
    44
1040
0.0
1070
   140
1040
20.0
1070
   147
1040
10.0
1070
   271
1070
     0
1002
}
  0
LWPOLYLINE
  5
31BB
330
1F
100
AcDbEntity
  8
S-assist
100
AcDbPolyline
 90
        4
 70
     1
 43
0.0
 10
1352.800088449528
 20
3708.909163386517
 10
1082.800088449528
 20
3708.909163386517
 10
1082.800088449528
 20
3828.909163386518
 10
1352.800088449528
 20
3828.909163386517
  0
LWPOLYLINE
  5
31FF
330
1F
100
AcDbEntity
  8
S-assist
100
AcDbPolyline
 90
        4
 70
     1
 43
0.0
 10
2912.800088449528
 20
2858.909163386517
 10
4912.800088449529
 20
2858.909163386517
 10
4912.800088449529
 20
3008.909163386518
 10
2912.800088449528
 20
3008.909163386518
  0
LWPOLYLINE
  5
3244
102
{ACAD_REACTORS
330
33A6
330
37F3
102
}
330
1F
100
AcDbEntity
  8
S-assist
100
AcDbPolyline
 90
        4
 70
     1
 43
0.0
 10
1232.800088449528
 20
3828.909163386517
 10
1532.800088449528
 20
3828.909163386517
 10
1532.800088449528
 20
4128.909163386517
 10
1232.800088449528
 20
4128.909163386517
  0
LINE
  5
3251
330
1F
100
AcDbEntity
  8
S-assist
100
AcDbLine
 10
1239.365745015185
 20
4153.909163386518
 30
0.0
 11
1352.800088449528
 21
4153.909163386518
 31
0.0
  0
LINE
  5
3252
330
1F
100
AcDbEntity
  8
S-assist
100
AcDbLine
 10
1238.355644005084
 20
4103.909163386517
 30
0.0
 11
1352.800088449528
 21
4103.909163386517
 31
0.0
  0
DIMENSION
  5
3273
330
1F
100
AcDbEntity
  8
S-size
100
AcDbDimension
  2
*D18
 10
2771.301621613384
 20
3828.909163386518
 30
0.0
 11
2751.301621613383
 21
3768.909163386518
 31
0.0
 70
    32
 71
     5
 42
120.0
  3
ISO-25
100
AcDbAlignedDimension
 13
2912.800088449528
 23
3708.909163386517
 33
0.0
 14
2912.800088449528
 24
3828.909163386518
 34
0.0
 50
90.0
100
AcDbRotatedDimension
1001
ACAD
1000
DSTYLE
1002
{
1070
    41
1040
15.0
1070
    42
1040
30.0
1070
    44
1040
0.0
1070
   140
1040
20.0
1070
   147
1040
10.0
1070
   271
1070
     0
1002
}
  0
CIRCLE
  5
32D4
330
1F
100
AcDbEntity
  8
S-assist
100
AcDbCircle
 10
3912.800088449529
 20
4128.909163386517
 30
0.0
 40
25.0
  0
LWPOLYLINE
  5
32D7
330
1F
100
AcDbEntity
  8
S-assist
100
AcDbPolyline
 90
        4
 70
     1
 43
0.0
 10
2912.800088449528
 20
3708.909163386517
 10
3912.800088449529
 20
3708.909163386517
 10
3912.800088449529
 20
4128.909163386517
 10
2912.800088449528
 20
4128.909163386517
  0
LEADER
  5
32E7
330
1F
100
AcDbEntity
  8
S-assist
100
AcDbLeader
  3
ISO-25
 76
     3
 10
3930.043189825845
 20
4147.01097144334
 30
0.0
 10
4020.08319429219
 20
4241.534969343387
 30
0.0
 10
4360.888670903915
 20
4241.534969343388
 30
0.0
1001
ACAD
1000
DSTYLE
1002
{
1070
   341
1005
2C64
1070
    41
1040
15.0
1070
    42
1040
20.0
1070
    44
1040
0.0
1070
   140
1040
20.0
1070
   147
1040
10.0
1070
   271
1070
     0
1002
}
  0
MTEXT
  5
32E8
330
1F
100
AcDbEntity
  8
S-assist
100
AcDbMText
 10
4020.08319429219
 20
4272.145528174013
 30
0.0
 40
40.0
 41
340.805476611725
 71
     4
 72
     5
  1
ウイープホール
 73
     1
 44
1.0
1001
ACAD
1000
MTEXTBEGIN
1070
    73
1070
     1
1070
    44
1040
1.0
1070
    74
1070
     0
1000
MTEXTEND
1000
ACAD_MTEXT_DEFINED_HEIGHT_BEGIN
1070
    46
1040
61.22111766124817
1000
ACAD_MTEXT_DEFINED_HEIGHT_END
  0
LINE
  5
32ED
330
1F
100
AcDbEntity
  8
S-assist
100
AcDbLine
 10
3867.800088449529
 20
4128.909163386517
 30
0.0
 11
3957.800088449528
 21
4128.909163386517
 31
0.0
  0
CIRCLE
  5
32EE
330
1F
100
AcDbEntity
  8
S-assist
100
AcDbCircle
 10
6662.800088449529
 20
4128.909163386517
 30
0.0
 40
25.0
  0
LINE
  5
32EF
330
1F
100
AcDbEntity
  8
S-assist
100
AcDbLine
 10
6617.800088449529
 20
4128.909163386517
 30
0.0
 11
6707.800088449528
 21
4128.909163386517
 31
0.0
  0
LWPOLYLINE
  5
32F0
330
1F
100
AcDbEntity
  8
S-assist
100
AcDbPolyline
 90
        4
 70
     1
 43
0.0
 10
3912.800088449529
 20
2738.90916338645
 10
3937.800088449529
 20
2738.90916338645
 10
3937.800088449529
 20
2858.90916338645
 10
3912.800088449529
 20
2858.90916338645
  0
LINE
  5
32F1
330
1F
100
AcDbEntity
  8
S-assist
100
AcDbLine
 10
3937.800088449529
 20
2738.90916338645
 30
0.0
 11
3937.800088449529
 21
2858.90916338645
 31
0.0
  0
LINE
  5
32F2
330
1F
100
AcDbEntity
  8
S-assist
100
AcDbLine
 10
3887.800088449529
 20
2738.90916338645
 30
0.0
 11
3887.800088449529
 21
2858.90916338645
 31
0.0
  0
LWPOLYLINE
  5
3351
330
1F
100
AcDbEntity
  8
S-D
100
AcDbPolyline
 90
        4
 70
     1
 43
0.0
 10
1772.800088449528
 20
3762.559163386518
 10
2182.800088449528
 20
3762.559163386518
 10
2182.800088449528
 20
3775.259163386517
 10
1772.800088449528
 20
3775.259163386517
  0
LWPOLYLINE
  5
335B
330
1F
100
AcDbEntity
  8
S-assist
100
AcDbPolyline
 90
        4
 70
     1
 43
0.0
 10
2912.800088449528
 20
2318.909163386518
 10
4912.800088449529
 20
2318.909163386518
 10
4912.800088449529
 20
1578.909163386517
 10
2912.800088449528
 20
1578.909163386517
  0
DIMENSION
  5
338F
102
{ACAD_XDICTIONARY
360
339C
102
}
102
{ACAD_REACTORS
330
33A6
102
}
330
1F
100
AcDbEntity
  8
S-assist
100
AcDbDimension
  2
*D19
 10
1568.534935197233
 20
4128.909163386517
 30
0.0
 11
1588.534935197232
 21
3978.909163386518
 31
0.0
 70
    32
 71
     5
 42
299.9999999999996
  3
ISO-25
100
AcDbAlignedDimension
 13
1532.800088449528
 23
3828.909163386518
 33
0.0
 14
1352.800088449528
 24
4128.909163386517
 34
0.0
 50
90.0
100
AcDbRotatedDimension
1001
ACAD
1000
DSTYLE
1002
{
1070
    41
1040
15.0
1070
    42
1040
30.0
1070
    44
1040
0.0
1070
   140
1040
20.0
1070
   147
1040
10.0
1070
   271
1070
     0
1002
}
  0
LWPOLYLINE
  5
33FE
330
1F
100
AcDbEntity
  8
S-assist
100
AcDbPolyline
 90
        4
 70
     1
 43
0.0
 10
2912.800088449527
 20
4828.909163386517
 10
2917.800088449527
 20
4828.909163386517
 10
2917.800088449527
 20
3828.909163386526
 10
2912.800088449529
 20
3828.909163386518
  0
LWPOLYLINE
  5
33FF
330
1F
100
AcDbEntity
  8
S-assist
100
AcDbPolyline
 90
        4
 70
     1
 43
0.0
 10
2912.800088449528
 20
2318.909163386518
 10
2917.800088449592
 20
2318.909163386518
 10
2917.800088449592
 20
2738.90916338645
 10
2912.799930779837
 20
2738.909163386451
  0
LINE
  5
3400
330
1F
100
AcDbEntity
  8
S-main
100
AcDbLine
 10
2917.800088449529
 20
3828.909163386518
 30
0.0
 11
2920.300088449529
 21
3803.909163386517
 31
0.0
  0
LINE
  5
3401
330
1F
100
AcDbEntity
  8
S-main
100
AcDbLine
 10
2920.300088449529
 20
3803.909163386517
 30
0.0
 11
2912.800088449529
 21
3803.909163386517
 31
0.0
  0
LINE
  5
3402
330
1F
100
AcDbEntity
  8
S-main
100
AcDbLine
 10
2917.800088449592
 20
2738.90916338645
 30
0.0
 11
2920.299930779687
 21
2763.909179152939
 31
0.0
  0
LINE
  5
3403
330
1F
100
AcDbEntity
  8
S-main
100
AcDbLine
 10
2920.299930779687
 20
2763.909179152939
 30
0.0
 11
2912.799930779837
 21
2763.909131851983
 31
0.0
  0
LWPOLYLINE
  5
3404
330
1F
100
AcDbEntity
  8
S-assist
100
AcDbPolyline
 90
        4
 70
     1
 43
0.0
 10
4912.800088449529
 20
4828.909163386517
 10
4907.800088449529
 20
4828.909163386517
 10
4907.800088449529
 20
3828.909163386526
 10
4912.800088449529
 20
3828.909163386518
  0
LINE
  5
3405
330
1F
100
AcDbEntity
  8
S-main
100
AcDbLine
 10
4907.800088449526
 20
3828.909163386518
 30
0.0
 11
4905.300088449529
 21
3803.909163386517
 31
0.0
  0
LINE
  5
3406
330
1F
100
AcDbEntity
  8
S-main
100
AcDbLine
 10
4905.300088449529
 20
3803.909163386517
 30
0.0
 11
4912.800088449527
 21
3803.909163386517
 31
0.0
  0
LWPOLYLINE
  5
3407
330
1F
100
AcDbEntity
  8
S-assist
100
AcDbPolyline
 90
        4
 70
     1
 43
0.0
 10
4912.800088449529
 20
2318.909163386518
 10
4907.800088449402
 20
2318.909163386518
 10
4907.800088449402
 20
2738.90916338645
 10
4912.800088449465
 20
2738.90916338645
  0
LINE
  5
3408
330
1F
100
AcDbEntity
  8
S-main
100
AcDbLine
 10
4907.800088449335
 20
2738.909163387734
 30
0.0
 11
4905.300246119242
 21
2763.909179154223
 31
0.0
  0
LINE
  5
3409
330
1F
100
AcDbEntity
  8
S-main
100
AcDbLine
 10
4905.300246119242
 20
2763.909179154223
 30
0.0
 11
4912.800246119093
 21
2763.909131853266
 31
0.0
  0
LINE
  5
340A
330
1F
100
AcDbEntity
  8
S-main
100
AcDbLine
 10
1327.80008844953
 20
4628.909163386517
 30
0.0
 11
1327.80008844953
 21
3908.909163386516
 31
0.0
  0
LINE
  5
340B
330
1F
100
AcDbEntity
  8
S-main
100
AcDbLine
 10
1432.800088449527
 20
3803.909163386517
 30
0.0
 11
1772.800088449528
 21
3803.909163386517
 31
0.0
  0
ARC
  5
340C
330
1F
100
AcDbEntity
  8
S-main
100
AcDbCircle
 10
1432.800088449523
 20
3908.909163386514
 30
0.0
 40
104.9999999999963
100
AcDbArc
 50
180.0
 51
270.0
  0
LWPOLYLINE
  5
3483
330
1F
100
AcDbEntity
  8
S-assist
100
AcDbPolyline
 90
        4
 70
     1
 43
0.0
 10
1352.800088449528
 20
4628.909163386517
 10
1342.800088449528
 20
4628.909163386517
 10
1342.800088449528
 20
4618.909163386518
 10
1352.800088449528
 20
4618.909163386518
  0
LWPOLYLINE
  5
3484
330
1F
100
AcDbEntity
  8
S-assist
100
AcDbPolyline
 90
        4
 70
     1
 43
0.0
 10
1258.600088449528
 20
4628.909163386517
 10
1248.600088449528
 20
4628.909163386517
 10
1248.600088449528
 20
4618.909163386518
 10
1258.600088449528
 20
4618.909163386518
  0
LINE
  5
34DC
102
{ACAD_REACTORS
330
3814
102
}
330
1F
100
AcDbEntity
  8
S-main
100
AcDbLine
 10
1248.600088449528
 20
4618.909163386518
 30
0.0
 11
1258.600088449528
 21
4628.909163386517
 31
0.0
  0
LINE
  5
34DD
330
1F
100
AcDbEntity
  8
S-main
100
AcDbLine
 10
1342.800088449528
 20
4628.909163386517
 30
0.0
 11
1352.800088449528
 21
4618.909163386518
 31
0.0
  0
LINE
  5
34DE
330
1F
100
AcDbEntity
  8
S-assist
100
AcDbLine
 10
1248.600088449528
 20
4628.909163386517
 30
0.0
 11
1258.600088449528
 21
4618.909163386518
 31
0.0
  0
LINE
  5
34DF
330
1F
100
AcDbEntity
  8
S-assist
100
AcDbLine
 10
1342.800088449528
 20
4618.909163386518
 30
0.0
 11
1352.800088449528
 21
4628.909163386517
 31
0.0
  0
MTEXT
  5
34E8
330
1F
100
AcDbEntity
  8
S-size
100
AcDbMText
 10
1402.735562987836
 20
4677.757617960923
 30
0.0
 40
20.0
 41
49.87094052007297
 71
     5
 72
     5
  1
C10
 73
     1
 44
1.0
1001
ACAD
1000
MTEXTBEGIN
1070
    73
1070
     1
1070
    44
1040
1.0
1070
    74
1070
     0
1000
MTEXTEND
1000
ACAD_MTEXT_DEFINED_HEIGHT_BEGIN
1070
    46
1040
36.00820554940947
1000
ACAD_MTEXT_DEFINED_HEIGHT_END
  0
LEADER
  5
34E9
330
1F
100
AcDbEntity
  8
S-size
100
AcDbLeader
  3
ISO-25
 76
     3
 10
1347.800088449528
 20
4623.909163386517
 30
0.0
 10
1377.8000927278
 20
4659.753515186213
 30
0.0
 10
1427.671033247873
 20
4659.753515186213
 30
0.0
1001
ACAD
1000
DSTYLE
1002
{
1070
   341
1005
2C64
1070
    41
1040
15.0
1070
    42
1040
20.0
1070
    44
1040
0.0
1070
   140
1040
20.0
1070
   147
1040
10.0
1070
   271
1070
     0
1002
}
  0
MTEXT
  5
34EA
330
1F
100
AcDbEntity
  8
S-size
100
AcDbMText
 10
1198.66461391122
 20
4677.757617960923
 30
0.0
 40
20.0
 41
49.87094052007297
 71
     5
 72
     5
  1
C10
 73
     1
 44
1.0
1001
ACAD
1000
MTEXTBEGIN
1070
    73
1070
     1
1070
    44
1040
1.0
1070
    74
1070
     0
1000
MTEXTEND
1000
ACAD_MTEXT_DEFINED_HEIGHT_BEGIN
1070
    46
1040
36.00820554940947
1000
ACAD_MTEXT_DEFINED_HEIGHT_END
  0
LEADER
  5
34EB
330
1F
100
AcDbEntity
  8
S-size
100
AcDbLeader
  3
ISO-25
 76
     3
 10
1253.600088449528
 20
4623.909163386517
 30
0.0
 10
1223.600084171256
 20
4659.753515186213
 30
0.0
 10
1173.729143651183
 20
4659.753515186213
 30
0.0
211
-1.0
221
0.0
231
0.0
1001
ACAD
1000
DSTYLE
1002
{
1070
   341
1005
2C64
1070
    41
1040
15.0
1070
    42
1040
20.0
1070
    44
1040
0.0
1070
   140
1040
20.0
1070
   147
1040
10.0
1070
   271
1070
     0
1002
}
  0
LWPOLYLINE
  5
34EC
330
1F
100
AcDbEntity
  8
S-main
100
AcDbPolyline
 90
        4
 70
     1
 43
0.0
 10
2917.800088449526
 20
4628.909163386517
 10
4907.800088449526
 20
4628.909163386517
 10
4907.800088449526
 20
4618.909163386518
 10
2917.800088449526
 20
4618.909163386518
  0
LINE
  5
34ED
330
1F
100
AcDbEntity
  8
S-main
100
AcDbLine
 10
2917.800088449529
 20
3828.909163386518
 30
0.0
 11
2917.800088449527
 21
4618.909163386518
 31
0.0
  0
LINE
  5
34EE
330
1F
100
AcDbEntity
  8
S-main
100
AcDbLine
 10
4907.800088449529
 20
3828.909163386518
 30
0.0
 11
4907.800088449526
 21
4618.909163386518
 31
0.0
  0
LINE
  5
34EF
330
1F
100
AcDbEntity
  8
S-main
100
AcDbLine
 10
4907.800088449402
 20
2318.909163386518
 30
0.0
 11
4907.800088449399
 21
2739.05414668397
 31
0.0
  0
LINE
  5
34F0
330
1F
100
AcDbEntity
  8
S-main
100
AcDbLine
 10
2917.800088449592
 20
2738.90916338645
 30
0.0
 11
2917.800088449592
 21
2318.909163386518
 31
0.0
  0
LWPOLYLINE
  5
34FA
330
1F
100
AcDbEntity
  8
S-main
100
AcDbPolyline
 90
        4
 70
     1
 43
0.0
 10
2912.800088449528
 20
2838.90916338645
 10
4912.800088449529
 20
2838.90916338645
 10
4912.800088449529
 20
2828.90916338645
 10
2912.800088449528
 20
2828.90916338645
  0
LWPOLYLINE
  5
34FB
330
1F
100
AcDbEntity
  8
S-assist
100
AcDbPolyline
 90
        4
 70
     1
 43
0.0
 10
2912.799930779837
 20
2748.90916338645
 10
4912.799930779836
 20
2748.90916338645
 10
4912.799930779836
 20
2738.909163386451
 10
2912.799930779837
 20
2738.909163386451
  0
LINE
  5
34FC
330
1F
100
AcDbEntity
  8
S-main
100
AcDbLine
 10
2918.800024751011
 20
2748.90916338645
 30
0.0
 11
4906.800152148047
 21
2748.90916338645
 31
0.0
  0
LWPOLYLINE
  5
3510
330
1F
100
AcDbEntity
  8
S-main
100
AcDbPolyline
 90
        4
 70
     1
 43
0.0
 10
5662.800088449529
 20
4628.909163386517
 10
7662.800088449529
 20
4628.909163386517
 10
7662.800088449529
 20
4618.909163386518
 10
5662.800088449529
 20
4618.909163386518
  0
LWPOLYLINE
  5
35B9
330
1F
100
AcDbEntity
  8
S-assist
100
AcDbPolyline
 90
        4
 70
     1
 43
0.0
 10
5662.800088449529
 20
4828.909163386517
 10
5762.800088449528
 20
4828.909163386517
 10
5762.800088449528
 20
4528.909163386518
 10
5662.800088449529
 20
4528.909163386518
  0
CIRCLE
  5
35BA
330
1F
100
AcDbEntity
  8
S-main
100
AcDbCircle
 10
5762.800088449528
 20
4528.909163386518
 30
0.0
 40
6.0
  0
CIRCLE
  5
35BB
330
1F
100
AcDbEntity
  8
S-main
100
AcDbCircle
 10
5762.800088449528
 20
4528.909163386518
 30
0.0
 40
8.0
  0
LWPOLYLINE
  5
35BC
330
1F
100
AcDbEntity
  8
S-assist
100
AcDbPolyline
 90
        4
 70
     1
 43
0.0
 10
7662.800088449529
 20
4828.909163386517
 10
7562.800088449529
 20
4828.909163386517
 10
7562.800088449529
 20
4528.909163386518
 10
7662.800088449529
 20
4528.909163386518
  0
CIRCLE
  5
35BD
330
1F
100
AcDbEntity
  8
S-main
100
AcDbCircle
 10
7562.800088449529
 20
4528.909163386518
 30
0.0
 40
6.0
  0
CIRCLE
  5
35BE
330
1F
100
AcDbEntity
  8
S-main
100
AcDbCircle
 10
7562.800088449529
 20
4528.909163386518
 30
0.0
 40
8.0
  0
DIMENSION
  5
35C8
102
{ACAD_XDICTIONARY
360
35D5
102
}
102
{ACAD_REACTORS
330
35DF
102
}
330
1F
100
AcDbEntity
  8
S-size
100
AcDbDimension
  2
*D21
 10
2816.617525703445
 20
2858.909163386517
 30
0.0
 11
2796.617525703445
 21
2588.909163386518
 31
0.0
 70
    32
 71
     5
 42
540.0
  3
ISO-25
100
AcDbAlignedDimension
 13
2912.800088449528
 23
2318.909163386518
 33
0.0
 14
2912.800088449528
 24
2858.909163386517
 34
0.0
 50
90.0
100
AcDbRotatedDimension
1001
ACAD
1000
DSTYLE
1002
{
1070
    41
1040
15.0
1070
    42
1040
30.0
1070
    44
1040
0.0
1070
   140
1040
20.0
1070
   147
1040
10.0
1070
   271
1070
     0
1002
}
  0
LWPOLYLINE
  5
367D
330
1F
100
AcDbEntity
  8
S-assist
100
AcDbPolyline
 90
        4
 70
     1
 43
0.0
 10
4012.800088449528
 20
1818.909163386517
 10
4225.800088449529
 20
1818.909163386517
 10
4225.800088449529
 20
2031.909163386517
 10
4012.800088449528
 20
2031.909163386517
  0
LWPOLYLINE
  5
367E
330
1F
100
AcDbEntity
  8
S-assist
100
AcDbPolyline
 90
        4
 70
     1
 43
0.0
 10
4225.800088449529
 20
1818.909163386517
 10
4438.800088449528
 20
1818.909163386517
 10
4438.800088449528
 20
2031.909163386517
 10
4225.800088449529
 20
2031.909163386517
  0
LWPOLYLINE
  5
367F
330
1F
100
AcDbEntity
  8
S-assist
100
AcDbPolyline
 90
        4
 70
     1
 43
0.0
 10
4438.800088449528
 20
1818.909163386517
 10
4651.800088449529
 20
1818.909163386517
 10
4651.800088449529
 20
2031.909163386517
 10
4438.800088449528
 20
2031.909163386517
  0
LWPOLYLINE
  5
3680
330
1F
100
AcDbEntity
  8
S-assist
100
AcDbPolyline
 90
        4
 70
     1
 43
0.0
 10
4651.800088449529
 20
1818.909163386517
 10
4864.800088449529
 20
1818.909163386517
 10
4864.800088449529
 20
2031.909163386517
 10
4651.800088449529
 20
2031.909163386517
  0
LEADER
  5
3681
330
1F
100
AcDbEntity
  8
S-size
100
AcDbLeader
  3
ISO-25
 76
     2
 10
4871.150088449529
 20
2066.898875153009
 30
0.0
 10
5101.286547818348
 20
2066.898875153009
 30
0.0
1001
ACAD
1000
DSTYLE
1002
{
1070
    41
1040
15.0
1070
    42
1040
20.0
1070
    44
1040
0.0
1070
   140
1040
20.0
1070
   147
1040
10.0
1070
   271
1070
     0
1070
   341
1005
2C64
1002
}
  0
MTEXT
  5
3682
330
1F
100
AcDbEntity
  8
S-size
100
AcDbMText
 10
5012.043318133938
 20
2095.070117091305
 30
0.0
 40
30.0
 41
178.4864593688198
 71
     5
 72
     5
  1
D13-10
 73
     1
 44
1.0
1001
ACAD
1000
MTEXTBEGIN
1070
    73
1070
     1
1070
    44
1040
1.0
1070
    74
1070
     0
1000
MTEXTEND
1000
ACAD_MTEXT_DEFINED_HEIGHT_BEGIN
1070
    46
1040
56.34248387659045
1000
ACAD_MTEXT_DEFINED_HEIGHT_END
  0
LEADER
  5
3683
330
1F
100
AcDbEntity
  8
S-size
100
AcDbLeader
  3
ISO-25
 76
     2
 10
4658.150088449529
 20
2066.898875153009
 30
0.0
 10
4871.150088449529
 20
2066.898875153009
 30
0.0
1001
ACAD
1000
DSTYLE
1002
{
1070
    41
1040
15.0
1070
    42
1040
20.0
1070
    44
1040
0.0
1070
   140
1040
20.0
1070
   147
1040
10.0
1070
   271
1070
     0
1070
   341
1005
2C64
1002
}
  0
LEADER
  5
3684
330
1F
100
AcDbEntity
  8
S-size
100
AcDbLeader
  3
ISO-25
 76
     2
 10
4445.150088449529
 20
2066.898875153009
 30
0.0
 10
4658.150088449529
 20
2066.898875153009
 30
0.0
1001
ACAD
1000
DSTYLE
1002
{
1070
    41
1040
15.0
1070
    42
1040
20.0
1070
    44
1040
0.0
1070
   140
1040
20.0
1070
   147
1040
10.0
1070
   271
1070
     0
1070
   341
1005
2C64
1002
}
  0
LEADER
  5
3685
330
1F
100
AcDbEntity
  8
S-size
100
AcDbLeader
  3
ISO-25
 76
     2
 10
4232.150088449529
 20
2066.898875153009
 30
0.0
 10
4445.150088449529
 20
2066.898875153009
 30
0.0
1001
ACAD
1000
DSTYLE
1002
{
1070
    41
1040
15.0
1070
    42
1040
20.0
1070
    44
1040
0.0
1070
   140
1040
20.0
1070
   147
1040
10.0
1070
   271
1070
     0
1070
   341
1005
2C64
1002
}
  0
LEADER
  5
3686
330
1F
100
AcDbEntity
  8
S-size
100
AcDbLeader
  3
ISO-25
 76
     2
 10
4019.150088449529
 20
2066.898875153009
 30
0.0
 10
4232.150088449529
 20
2066.898875153009
 30
0.0
1001
ACAD
1000
DSTYLE
1002
{
1070
    41
1040
15.0
1070
    42
1040
20.0
1070
    44
1040
0.0
1070
   140
1040
20.0
1070
   147
1040
10.0
1070
   271
1070
     0
1070
   341
1005
2C64
1002
}
  0
LEADER
  5
3687
330
1F
100
AcDbEntity
  8
S-size
100
AcDbLeader
  3
ISO-25
 76
     2
 10
3839.150088449528
 20
2066.898875153009
 30
0.0
 10
4019.150088449528
 20
2066.898875153009
 30
0.0
1001
ACAD
1000
DSTYLE
1002
{
1070
    41
1040
15.0
1070
    42
1040
20.0
1070
    44
1040
0.0
1070
   140
1040
20.0
1070
   147
1040
10.0
1070
   271
1070
     0
1070
   341
1005
2C64
1002
}
  0
LEADER
  5
3688
330
1F
100
AcDbEntity
  8
S-size
100
AcDbLeader
  3
ISO-25
 76
     2
 10
3626.150088449529
 20
2066.898875153009
 30
0.0
 10
3839.150088449528
 20
2066.898875153009
 30
0.0
1001
ACAD
1000
DSTYLE
1002
{
1070
    41
1040
15.0
1070
    42
1040
20.0
1070
    44
1040
0.0
1070
   140
1040
20.0
1070
   147
1040
10.0
1070
   271
1070
     0
1070
   341
1005
2C64
1002
}
  0
LEADER
  5
3689
330
1F
100
AcDbEntity
  8
S-size
100
AcDbLeader
  3
ISO-25
 76
     2
 10
3413.150088449528
 20
2066.898875153009
 30
0.0
 10
3626.150088449529
 20
2066.898875153009
 30
0.0
1001
ACAD
1000
DSTYLE
1002
{
1070
    41
1040
15.0
1070
    42
1040
20.0
1070
    44
1040
0.0
1070
   140
1040
20.0
1070
   147
1040
10.0
1070
   271
1070
     0
1070
   341
1005
2C64
1002
}
  0
LEADER
  5
368A
330
1F
100
AcDbEntity
  8
S-size
100
AcDbLeader
  3
ISO-25
 76
     2
 10
3200.150088449528
 20
2066.898875153009
 30
0.0
 10
3413.150088449528
 20
2066.898875153009
 30
0.0
1001
ACAD
1000
DSTYLE
1002
{
1070
    41
1040
15.0
1070
    42
1040
20.0
1070
    44
1040
0.0
1070
   140
1040
20.0
1070
   147
1040
10.0
1070
   271
1070
     0
1070
   341
1005
2C64
1002
}
  0
LEADER
  5
368B
330
1F
100
AcDbEntity
  8
S-size
100
AcDbLeader
  3
ISO-25
 76
     2
 10
2987.150088449528
 20
2066.898875153009
 30
0.0
 10
3200.150088449528
 20
2066.898875153009
 30
0.0
1001
ACAD
1000
DSTYLE
1002
{
1070
    41
1040
15.0
1070
    42
1040
20.0
1070
    44
1040
0.0
1070
   140
1040
20.0
1070
   147
1040
10.0
1070
   271
1070
     0
1070
   341
1005
2C64
1002
}
  0
LWPOLYLINE
  5
3693
330
1F
100
AcDbEntity
  8
S-assist
100
AcDbPolyline
 90
        4
 70
     1
 43
0.0
 10
3832.800088449528
 20
1818.909163386517
 10
3619.800088449528
 20
1818.909163386517
 10
3619.800088449528
 20
2031.909163386517
 10
3832.800088449528
 20
2031.909163386517
  0
LWPOLYLINE
  5
3694
330
1F
100
AcDbEntity
  8
S-assist
100
AcDbPolyline
 90
        4
 70
     1
 43
0.0
 10
3619.800088449528
 20
1818.909163386517
 10
3406.800088449528
 20
1818.909163386517
 10
3406.800088449528
 20
2031.909163386517
 10
3619.800088449528
 20
2031.909163386517
  0
LWPOLYLINE
  5
3695
330
1F
100
AcDbEntity
  8
S-assist
100
AcDbPolyline
 90
        4
 70
     1
 43
0.0
 10
3406.800088449528
 20
1818.909163386517
 10
3193.800088449528
 20
1818.909163386517
 10
3193.800088449528
 20
2031.909163386517
 10
3406.800088449528
 20
2031.909163386517
  0
LWPOLYLINE
  5
3696
330
1F
100
AcDbEntity
  8
S-assist
100
AcDbPolyline
 90
        4
 70
     1
 43
0.0
 10
3193.800088449528
 20
1818.909163386517
 10
2980.800088449528
 20
1818.909163386517
 10
2980.800088449528
 20
2031.909163386517
 10
3193.800088449528
 20
2031.909163386517
  0
LWPOLYLINE
  5
369B
330
1F
100
AcDbEntity
  8
S-D
100
AcDbPolyline
 90
        4
 70
     1
 43
0.0
 10
2987.150088449528
 20
2318.909163386518
 10
2987.150088449528
 20
1908.909163386517
 10
2974.450088449528
 20
1908.909163386517
 10
2974.450088449528
 20
2318.909163386518
  0
LWPOLYLINE
  5
36F5
330
1F
100
AcDbEntity
  8
S-assist
100
AcDbPolyline
 90
        4
 70
     1
 43
0.0
 10
1772.800088449528
 20
3708.909163386517
 10
2272.800088449528
 20
3708.909163386517
 10
2272.800088449528
 20
3828.909163386518
 10
1772.800088449528
 20
3828.909163386518
  0
LWPOLYLINE
  5
3705
330
1F
100
AcDbEntity
  8
S-assist
100
AcDbPolyline
 90
        4
 70
     1
 43
0.0
 10
2912.800088449528
 20
2318.909163386518
 10
4912.800088449529
 20
2318.909163386518
 10
4912.800088449529
 20
1818.909163386517
 10
2912.800088449528
 20
1818.909163386517
  0
LWPOLYLINE
  5
3706
330
1F
100
AcDbEntity
  8
S-assist
100
AcDbPolyline
 90
        4
 70
     1
 43
0.0
 10
3912.800088449529
 20
2318.909163386518
 10
3922.800088449528
 20
2318.909163386518
 10
3922.800088449528
 20
2328.909163386517
 10
3912.800088449529
 20
2328.909163386517
  0
LWPOLYLINE
  5
3719
330
1F
100
AcDbEntity
  8
S-D
100
AcDbPolyline
 90
        4
 70
     1
 43
0.0
 10
3200.150088449528
 20
2318.909163386518
 10
3200.150088449528
 20
1908.909163386517
 10
3187.450088449527
 20
1908.909163386517
 10
3187.450088449527
 20
2318.909163386518
  0
LWPOLYLINE
  5
371A
330
1F
100
AcDbEntity
  8
S-D
100
AcDbPolyline
 90
        4
 70
     1
 43
0.0
 10
3413.150088449528
 20
2318.909163386518
 10
3413.150088449528
 20
1908.909163386517
 10
3400.450088449527
 20
1908.909163386517
 10
3400.450088449527
 20
2318.909163386518
  0
LWPOLYLINE
  5
371B
330
1F
100
AcDbEntity
  8
S-D
100
AcDbPolyline
 90
        4
 70
     1
 43
0.0
 10
3626.150088449529
 20
2318.909163386518
 10
3626.150088449529
 20
1908.909163386517
 10
3613.450088449527
 20
1908.909163386517
 10
3613.450088449527
 20
2318.909163386518
  0
LWPOLYLINE
  5
371C
330
1F
100
AcDbEntity
  8
S-D
100
AcDbPolyline
 90
        4
 70
     1
 43
0.0
 10
3839.150088449529
 20
2318.909163386518
 10
3839.150088449529
 20
1908.909163386517
 10
3826.450088449528
 20
1908.909163386517
 10
3826.450088449528
 20
2318.909163386518
  0
LWPOLYLINE
  5
371D
330
1F
100
AcDbEntity
  8
S-D
100
AcDbPolyline
 90
        4
 70
     1
 43
0.0
 10
4019.150088449528
 20
2318.909163386518
 10
4019.150088449528
 20
1908.909163386517
 10
4006.450088449528
 20
1908.909163386517
 10
4006.450088449528
 20
2318.909163386518
  0
LWPOLYLINE
  5
371E
330
1F
100
AcDbEntity
  8
S-D
100
AcDbPolyline
 90
        4
 70
     1
 43
0.0
 10
4232.150088449529
 20
2318.909163386518
 10
4232.150088449529
 20
1908.909163386517
 10
4219.450088449528
 20
1908.909163386517
 10
4219.450088449528
 20
2318.909163386518
  0
LWPOLYLINE
  5
371F
330
1F
100
AcDbEntity
  8
S-D
100
AcDbPolyline
 90
        4
 70
     1
 43
0.0
 10
4445.150088449529
 20
2318.909163386518
 10
4445.150088449529
 20
1908.909163386517
 10
4432.450088449528
 20
1908.909163386517
 10
4432.450088449528
 20
2318.909163386518
  0
LWPOLYLINE
  5
3720
330
1F
100
AcDbEntity
  8
S-D
100
AcDbPolyline
 90
        4
 70
     1
 43
0.0
 10
4658.150088449529
 20
2318.909163386518
 10
4658.150088449529
 20
1908.909163386517
 10
4645.450088449528
 20
1908.909163386517
 10
4645.450088449528
 20
2318.909163386518
  0
LWPOLYLINE
  5
3721
330
1F
100
AcDbEntity
  8
S-D
100
AcDbPolyline
 90
        4
 70
     1
 43
0.0
 10
4871.150088449529
 20
2318.909163386518
 10
4871.150088449529
 20
1908.909163386517
 10
4858.450088449528
 20
1908.909163386517
 10
4858.450088449528
 20
2318.909163386518
  0
LWPOLYLINE
  5
3722
330
1F
100
AcDbEntity
  8
S-assist
100
AcDbPolyline
 90
        4
 70
     1
 43
0.0
 10
3832.800088449528
 20
1908.909163386517
 10
3912.800088449529
 20
1908.909163386517
 10
3912.800088449529
 20
1988.909163386517
 10
3832.800088449528
 20
1988.909163386517
  0
LWPOLYLINE
  5
3723
330
1F
100
AcDbEntity
  8
S-assist
100
AcDbPolyline
 90
        4
 70
     1
 43
0.0
 10
3912.800088449529
 20
1908.909163386517
 10
4012.800088449528
 20
1908.909163386517
 10
4012.800088449528
 20
2008.909163386517
 10
3912.800088449529
 20
2008.909163386517
  0
LWPOLYLINE
  5
372D
330
1F
100
AcDbEntity
  8
S-assist
100
AcDbPolyline
 90
        4
 70
     1
 43
0.0
 10
3912.800088449529
 20
2318.909163386518
 10
4012.800088449528
 20
2318.909163386518
 10
4012.800088449528
 20
2418.909163386518
 10
3912.800088449529
 20
2418.909163386518
  0
CIRCLE
  5
372E
330
1F
100
AcDbEntity
  8
S-main
100
AcDbCircle
 10
3912.800088449529
 20
2418.909163386518
 30
0.0
 40
10.0
  0
CIRCLE
  5
3747
102
{ACAD_REACTORS
330
374D
102
}
330
1F
100
AcDbEntity
  8
S-D
100
AcDbCircle
 10
4864.800088449529
 20
3768.909163386517
 30
0.0
 40
6.349999999999909
  0
HATCH
  5
374D
330
1F
100
AcDbEntity
  8
S-D
100
AcDbHatch
 10
0.0
 20
0.0
 30
0.0
210
0.0
220
0.0
230
1.0
  2
SOLID
 70
     1
 71
     1
 91
        1
 92
        1
 93
        1
 72
     2
 10
4864.800088449529
 20
3768.909163386517
 40
6.349999999999909
 50
0.0
 51
360.0
 73
     1
 97
        1
330
3747
 75
     1
 76
     1
 98
        1
 10
916.7562398198697
 20
1.168942542710283
1001
GradientColor1ACI
1070
     5
1001
GradientColor2ACI
1070
     2
1001
ACAD
1010
0.0
1020
0.0
1030
0.0
  0
LWPOLYLINE
  5
374E
330
1F
100
AcDbEntity
  8
S-assist
100
AcDbPolyline
 90
        4
 70
     1
 43
0.0
 10
3832.800088449528
 20
3708.909163386517
 10
3912.800088449529
 20
3708.909163386517
 10
3912.800088449529
 20
3788.909163386517
 10
3832.800088449528
 20
3788.909163386517
  0
LWPOLYLINE
  5
374F
330
1F
100
AcDbEntity
  8
S-assist
100
AcDbPolyline
 90
        4
 70
     1
 43
0.0
 10
3912.800088449529
 20
3708.909163386517
 10
4012.800088449528
 20
3708.909163386517
 10
4012.800088449528
 20
3808.909163386518
 10
3912.800088449529
 20
3808.909163386518
  0
LWPOLYLINE
  5
3750
330
1F
100
AcDbEntity
  8
S-assist
100
AcDbPolyline
 90
        4
 70
     1
 43
0.0
 10
4012.800088449528
 20
3708.909163386517
 10
4225.800088449529
 20
3708.909163386517
 10
4225.800088449529
 20
3921.909163386518
 10
4012.800088449528
 20
3921.909163386518
  0
LWPOLYLINE
  5
3751
330
1F
100
AcDbEntity
  8
S-assist
100
AcDbPolyline
 90
        4
 70
     1
 43
0.0
 10
4225.800088449529
 20
3708.909163386517
 10
4438.800088449528
 20
3708.909163386517
 10
4438.800088449528
 20
3921.909163386518
 10
4225.800088449529
 20
3921.909163386518
  0
LWPOLYLINE
  5
3752
330
1F
100
AcDbEntity
  8
S-assist
100
AcDbPolyline
 90
        4
 70
     1
 43
0.0
 10
4438.800088449528
 20
3708.909163386517
 10
4651.800088449529
 20
3708.909163386517
 10
4651.800088449529
 20
3921.909163386518
 10
4438.800088449528
 20
3921.909163386518
  0
LWPOLYLINE
  5
3753
330
1F
100
AcDbEntity
  8
S-assist
100
AcDbPolyline
 90
        4
 70
     1
 43
0.0
 10
4651.800088449529
 20
3708.909163386517
 10
4864.800088449529
 20
3708.909163386517
 10
4864.800088449529
 20
3921.909163386518
 10
4651.800088449529
 20
3921.909163386518
  0
LWPOLYLINE
  5
3754
330
1F
100
AcDbEntity
  8
S-assist
100
AcDbPolyline
 90
        4
 70
     1
 43
0.0
 10
3832.800088449528
 20
3708.909163386517
 10
3619.800088449528
 20
3708.909163386517
 10
3619.800088449528
 20
3921.909163386518
 10
3832.800088449528
 20
3921.909163386518
  0
LWPOLYLINE
  5
3755
330
1F
100
AcDbEntity
  8
S-assist
100
AcDbPolyline
 90
        4
 70
     1
 43
0.0
 10
3619.800088449528
 20
3708.909163386517
 10
3406.800088449528
 20
3708.909163386517
 10
3406.800088449528
 20
3921.909163386518
 10
3619.800088449528
 20
3921.909163386518
  0
LWPOLYLINE
  5
3756
330
1F
100
AcDbEntity
  8
S-assist
100
AcDbPolyline
 90
        4
 70
     1
 43
0.0
 10
3406.800088449528
 20
3708.909163386517
 10
3193.800088449528
 20
3708.909163386517
 10
3193.800088449528
 20
3921.909163386518
 10
3406.800088449528
 20
3921.909163386518
  0
LWPOLYLINE
  5
3757
330
1F
100
AcDbEntity
  8
S-assist
100
AcDbPolyline
 90
        4
 70
     1
 43
0.0
 10
3193.800088449528
 20
3708.909163386517
 10
2980.800088449528
 20
3708.909163386517
 10
2980.800088449528
 20
3921.909163386518
 10
3193.800088449528
 20
3921.909163386518
  0
LWPOLYLINE
  5
3758
330
1F
100
AcDbEntity
  8
S-assist
100
AcDbPolyline
 90
        4
 70
     1
 43
0.0
 10
2912.800088449528
 20
3708.909163386517
 10
4912.800088449529
 20
3708.909163386517
 10
4912.800088449529
 20
3768.909163386517
 10
2912.800088449528
 20
3768.909163386517
  0
HATCH
  5
3759
330
1F
100
AcDbEntity
  8
S-D
100
AcDbHatch
 10
0.0
 20
0.0
 30
0.0
210
0.0
220
0.0
230
1.0
  2
SOLID
 70
     1
 71
     1
 91
        1
 92
        1
 93
        1
 72
     2
 10
4651.800088449529
 20
3768.909163386517
 40
6.349999999999909
 50
0.0
 51
360.0
 73
     1
 97
        1
330
375A
 75
     1
 76
     1
 98
        1
 10
703.7562398198697
 20
1.168942542710283
1001
GradientColor1ACI
1070
     5
1001
GradientColor2ACI
1070
     2
1001
ACAD
1010
0.0
1020
0.0
1030
0.0
  0
CIRCLE
  5
375A
102
{ACAD_REACTORS
330
3759
102
}
330
1F
100
AcDbEntity
  8
S-D
100
AcDbCircle
 10
4651.800088449529
 20
3768.909163386517
 30
0.0
 40
6.349999999999909
  0
HATCH
  5
375B
330
1F
100
AcDbEntity
  8
S-D
100
AcDbHatch
 10
0.0
 20
0.0
 30
0.0
210
0.0
220
0.0
230
1.0
  2
SOLID
 70
     1
 71
     1
 91
        1
 92
        1
 93
        1
 72
     2
 10
4438.800088449528
 20
3768.909163386517
 40
6.349999999999909
 50
0.0
 51
360.0
 73
     1
 97
        1
330
375C
 75
     1
 76
     1
 98
        1
 10
490.7562398198697
 20
1.168942542710283
1001
GradientColor1ACI
1070
     5
1001
GradientColor2ACI
1070
     2
1001
ACAD
1010
0.0
1020
0.0
1030
0.0
  0
CIRCLE
  5
375C
102
{ACAD_REACTORS
330
375B
102
}
330
1F
100
AcDbEntity
  8
S-D
100
AcDbCircle
 10
4438.800088449528
 20
3768.909163386517
 30
0.0
 40
6.349999999999909
  0
HATCH
  5
375D
330
1F
100
AcDbEntity
  8
S-D
100
AcDbHatch
 10
0.0
 20
0.0
 30
0.0
210
0.0
220
0.0
230
1.0
  2
SOLID
 70
     1
 71
     1
 91
        1
 92
        1
 93
        1
 72
     2
 10
4225.800088449529
 20
3768.909163386517
 40
6.349999999999909
 50
0.0
 51
360.0
 73
     1
 97
        1
330
375E
 75
     1
 76
     1
 98
        1
 10
277.7562398198697
 20
1.168942542710283
1001
GradientColor1ACI
1070
     5
1001
GradientColor2ACI
1070
     2
1001
ACAD
1010
0.0
1020
0.0
1030
0.0
  0
CIRCLE
  5
375E
102
{ACAD_REACTORS
330
375D
102
}
330
1F
100
AcDbEntity
  8
S-D
100
AcDbCircle
 10
4225.800088449529
 20
3768.909163386517
 30
0.0
 40
6.349999999999909
  0
HATCH
  5
375F
330
1F
100
AcDbEntity
  8
S-D
100
AcDbHatch
 10
0.0
 20
0.0
 30
0.0
210
0.0
220
0.0
230
1.0
  2
SOLID
 70
     1
 71
     1
 91
        1
 92
        1
 93
        1
 72
     2
 10
4012.800088449528
 20
3768.909163386517
 40
6.349999999999909
 50
0.0
 51
360.0
 73
     1
 97
        1
330
3760
 75
     1
 76
     1
 98
        1
 10
64.75623981986927
 20
1.168942542710283
1001
GradientColor1ACI
1070
     5
1001
GradientColor2ACI
1070
     2
1001
ACAD
1010
0.0
1020
0.0
1030
0.0
  0
CIRCLE
  5
3760
102
{ACAD_REACTORS
330
375F
102
}
330
1F
100
AcDbEntity
  8
S-D
100
AcDbCircle
 10
4012.800088449528
 20
3768.909163386517
 30
0.0
 40
6.349999999999909
  0
HATCH
  5
3761
330
1F
100
AcDbEntity
  8
S-D
100
AcDbHatch
 10
0.0
 20
0.0
 30
0.0
210
0.0
220
0.0
230
1.0
  2
SOLID
 70
     1
 71
     1
 91
        1
 92
        1
 93
        1
 72
     2
 10
3832.800088449528
 20
3768.909163386517
 40
6.349999999999909
 50
0.0
 51
360.0
 73
     1
 97
        1
330
3762
 75
     1
 76
     1
 98
        1
 10
-115.2437601801307
 20
1.168942542710283
1001
GradientColor1ACI
1070
     5
1001
GradientColor2ACI
1070
     2
1001
ACAD
1010
0.0
1020
0.0
1030
0.0
  0
CIRCLE
  5
3762
102
{ACAD_REACTORS
330
3761
102
}
330
1F
100
AcDbEntity
  8
S-D
100
AcDbCircle
 10
3832.800088449528
 20
3768.909163386517
 30
0.0
 40
6.349999999999909
  0
HATCH
  5
3763
330
1F
100
AcDbEntity
  8
S-D
100
AcDbHatch
 10
0.0
 20
0.0
 30
0.0
210
0.0
220
0.0
230
1.0
  2
SOLID
 70
     1
 71
     1
 91
        1
 92
        1
 93
        1
 72
     2
 10
3619.800088449528
 20
3768.909163386517
 40
6.349999999999909
 50
0.0
 51
360.0
 73
     1
 97
        1
330
3764
 75
     1
 76
     1
 98
        1
 10
-328.2437601801312
 20
1.168942542710283
1001
GradientColor1ACI
1070
     5
1001
GradientColor2ACI
1070
     2
1001
ACAD
1010
0.0
1020
0.0
1030
0.0
  0
CIRCLE
  5
3764
102
{ACAD_REACTORS
330
3763
102
}
330
1F
100
AcDbEntity
  8
S-D
100
AcDbCircle
 10
3619.800088449528
 20
3768.909163386517
 30
0.0
 40
6.349999999999909
  0
HATCH
  5
3765
330
1F
100
AcDbEntity
  8
S-D
100
AcDbHatch
 10
0.0
 20
0.0
 30
0.0
210
0.0
220
0.0
230
1.0
  2
SOLID
 70
     1
 71
     1
 91
        1
 92
        1
 93
        1
 72
     2
 10
3406.800088449528
 20
3768.909163386517
 40
6.349999999999909
 50
0.0
 51
360.0
 73
     1
 97
        1
330
3766
 75
     1
 76
     1
 98
        1
 10
-541.2437601801311
 20
1.168942542710283
1001
GradientColor1ACI
1070
     5
1001
GradientColor2ACI
1070
     2
1001
ACAD
1010
0.0
1020
0.0
1030
0.0
  0
CIRCLE
  5
3766
102
{ACAD_REACTORS
330
3765
102
}
330
1F
100
AcDbEntity
  8
S-D
100
AcDbCircle
 10
3406.800088449528
 20
3768.909163386517
 30
0.0
 40
6.349999999999909
  0
HATCH
  5
3767
330
1F
100
AcDbEntity
  8
S-D
100
AcDbHatch
 10
0.0
 20
0.0
 30
0.0
210
0.0
220
0.0
230
1.0
  2
SOLID
 70
     1
 71
     1
 91
        1
 92
        1
 93
        1
 72
     2
 10
3193.800088449528
 20
3768.909163386517
 40
6.349999999999909
 50
0.0
 51
360.0
 73
     1
 97
        1
330
3768
 75
     1
 76
     1
 98
        1
 10
-754.2437601801311
 20
1.168942542710283
1001
GradientColor1ACI
1070
     5
1001
GradientColor2ACI
1070
     2
1001
ACAD
1010
0.0
1020
0.0
1030
0.0
  0
CIRCLE
  5
3768
102
{ACAD_REACTORS
330
3767
102
}
330
1F
100
AcDbEntity
  8
S-D
100
AcDbCircle
 10
3193.800088449528
 20
3768.909163386517
 30
0.0
 40
6.349999999999909
  0
HATCH
  5
3769
330
1F
100
AcDbEntity
  8
S-D
100
AcDbHatch
 10
0.0
 20
0.0
 30
0.0
210
0.0
220
0.0
230
1.0
  2
SOLID
 70
     1
 71
     1
 91
        1
 92
        1
 93
        1
 72
     2
 10
2980.800088449528
 20
3768.909163386517
 40
6.349999999999909
 50
0.0
 51
360.0
 73
     1
 97
        1
330
376A
 75
     1
 76
     1
 98
        1
 10
-967.2437601801311
 20
1.168942542710283
1001
GradientColor1ACI
1070
     5
1001
GradientColor2ACI
1070
     2
1001
ACAD
1010
0.0
1020
0.0
1030
0.0
  0
CIRCLE
  5
376A
102
{ACAD_REACTORS
330
3769
102
}
330
1F
100
AcDbEntity
  8
S-D
100
AcDbCircle
 10
2980.800088449528
 20
3768.909163386517
 30
0.0
 40
6.349999999999909
  0
LINE
  5
37DB
102
{ACAD_REACTORS
330
37F3
330
3814
102
}
330
1F
100
AcDbEntity
  8
S-main
100
AcDbLine
 10
1232.800088449528
 20
3828.909163386518
 30
0.0
 11
1232.800088449528
 21
3708.909163386517
 31
0.0
  0
DIMENSION
  5
37DC
102
{ACAD_XDICTIONARY
360
37E9
102
}
102
{ACAD_REACTORS
330
37F3
102
}
330
1F
100
AcDbEntity
  8
S-size
100
AcDbDimension
  2
*D22
 10
1058.505757008472
 20
3828.909163386517
 30
0.0
 11
1038.505757008471
 21
3768.909163386517
 31
0.0
 70
    32
 71
     5
 42
119.9999999999995
  3
ISO-25
100
AcDbAlignedDimension
 13
1232.800088449528
 23
3708.909163386517
 33
0.0
 14
1232.800088449528
 24
3828.909163386517
 34
0.0
 50
90.0
100
AcDbRotatedDimension
1001
ACAD
1000
DSTYLE
1002
{
1070
    41
1040
15.0
1070
    42
1040
30.0
1070
    44
1040
0.0
1070
   140
1040
20.0
1070
   147
1040
10.0
1070
   271
1070
     0
1002
}
  0
DIMENSION
  5
37FD
102
{ACAD_XDICTIONARY
360
380A
102
}
102
{ACAD_REACTORS
330
3814
102
}
330
1F
100
AcDbEntity
  8
S-size
100
AcDbDimension
  2
*D23
 10
1058.505757008472
 20
4628.909163386517
 30
0.0
 11
1038.505757008471
 21
4228.909163386517
 31
0.0
 70
    32
 71
     5
 42
799.9999999999995
  3
ISO-25
100
AcDbAlignedDimension
 13
1232.800088449528
 23
3828.909163386518
 33
0.0
 14
1258.600088449528
 24
4628.909163386517
 34
0.0
 50
90.0
100
AcDbRotatedDimension
1001
ACAD
1000
DSTYLE
1002
{
1070
    41
1040
15.0
1070
    42
1040
30.0
1070
    44
1040
0.0
1070
   140
1040
20.0
1070
   147
1040
10.0
1070
   271
1070
     0
1002
}
  0
LWPOLYLINE
  5
385D
330
1F
100
AcDbEntity
  8
S-assist
100
AcDbPolyline
 90
        4
 70
     1
 43
0.0
 10
1352.800088449528
 20
4828.909163386517
 10
1152.800088449528
 20
4828.909163386517
 10
1152.800088449528
 20
4628.909163386517
 10
1352.800088449528
 20
4628.909163386517
  0
LINE
  5
387F
330
1F
100
AcDbEntity
  8
S-assist
100
AcDbLine
 10
1252.800088449528
 20
4828.909163386517
 30
0.0
 11
1232.800088449528
 21
3828.909163386517
 31
0.0
  0
LWPOLYLINE
  5
38A4
330
1F
100
AcDbEntity
  8
S-assist
100
AcDbPolyline
 90
        4
 70
     1
 43
0.0
 10
2912.800088449528
 20
4828.909163386517
 10
4912.800088449529
 20
4828.909163386517
 10
4912.800088449529
 20
4628.909163386517
 10
2912.800088449528
 20
4628.909163386517
  0
LWPOLYLINE
  5
38C0
330
1F
100
AcDbEntity
  8
S-assist
100
AcDbPolyline
 90
        4
 70
     1
 43
0.0
 10
5662.800088449529
 20
4828.909163386517
 10
7662.800088449529
 20
4828.909163386517
 10
7662.800088449529
 20
4628.909163386517
 10
5662.800088449529
 20
4628.909163386517
  0
LINE
  5
3917
330
1F
100
AcDbEntity
  8
S-shadow
100
AcDbLine
 10
5662.800088449529
 20
3828.909163386518
 30
0.0
 11
7662.800088449529
 21
3828.909163386518
 31
0.0
  0
MTEXT
  5
3947
330
1F
100
AcDbEntity
  8
S-size
100
AcDbMText
 10
7182.385498857236
 20
491.753675467956
 30
0.0
 40
120.0
 41
1199.999999999999
 71
     5
 72
     5
  1
新生興産株式会社
 73
     1
 44
1.0
1001
ACAD
1000
MTEXTBEGIN
1070
    73
1070
     1
1070
    44
1040
1.0
1070
    74
1070
     0
1000
MTEXTEND
1000
ACAD_MTEXT_DEFINED_HEIGHT_BEGIN
1070
    46
1040
199.9999999999935
1000
ACAD_MTEXT_DEFINED_HEIGHT_END
  0
MTEXT
  5
3948
330
1F
100
AcDbEntity
  8
S-size
100
AcDbMText
 10
7551.482804453214
 20
340.8108289404863
 30
0.0
 40
60.0
 41
1462.634567992632
 71
     5
 72
     5
  1
SHINSEI KOUSAN CO.,LTD
 73
     1
 44
1.0
1001
ACAD
1000
MTEXTBEGIN
1070
    73
1070
     1
1070
    44
1040
1.0
1070
    74
1070
     0
1000
MTEXTEND
1000
ACAD_MTEXT_DEFINED_HEIGHT_BEGIN
1070
    46
1040
103.8033338847638
1000
ACAD_MTEXT_DEFINED_HEIGHT_END
  0
LWPOLYLINE
  5
3969
330
1F
100
AcDbEntity
  8
S-assist
100
AcDbPolyline
 90
        4
 70
     1
 43
0.0
 10
1772.800088449528
 20
3708.909163386517
 10
2182.800088449528
 20
3708.909163386517
 10
2182.800088449528
 20
4118.909163386518
 10
1772.800088449528
 20
4118.909163386518
  0
LWPOLYLINE
  5
3979
330
1F
100
AcDbEntity
  8
S-assist
100
AcDbPolyline
 90
        4
 70
     1
 43
0.0
 10
2912.800088449528
 20
2318.909163386518
 10
4912.800088449529
 20
2318.909163386518
 10
4912.800088449529
 20
1908.909163386517
 10
2912.800088449528
 20
1908.909163386517
  0
MTEXT
  5
39FA
330
1F
100
AcDbEntity
  8
S-title
100
AcDbMText
 10
6492.229422534862
 20
2265.193217959565
 30
0.0
 40
70.0
 41
1200.0
 71
     1
 72
     5
  1
・突き出し筋は設計条件により\P　異なります\P・浮上防止可能\P・ウイープホール取付可能
 73
     1
 44
1.0
1001
ACAD
1000
MTEXTBEGIN
1070
    73
1070
     1
1070
    44
1040
1.0
1070
    74
1070
     0
1000
MTEXTEND
1000
ACAD_MTEXT_DEFINED_HEIGHT_BEGIN
1070
    46
1040
300.0
1000
ACAD_MTEXT_DEFINED_HEIGHT_END
  0
ENDSEC
  0
SECTION
  2
OBJECTS
  0
DICTIONARY
  5
C
330
0
100
AcDbDictionary
281
     1
  3
ACAD_2007HEADERVARS_RT
350
3A44
  3
ACAD_CIP_PREVIOUS_PRODUCT_INFO
350
301B
  3
ACAD_COLOR
350
6B
  3
ACAD_GROUP
350
D
  3
ACAD_LAYOUT
350
1A
  3
ACAD_MATERIAL
350
6A
  3
ACAD_MLEADERSTYLE
350
3014
  3
ACAD_MLINESTYLE
350
17
  3
ACAD_PLOTSETTINGS
350
19
  3
ACAD_PLOTSTYLENAME
350
E
  3
ACAD_SCALELIST
350
3002
  3
ACAD_TABLESTYLE
350
7E
  3
ACAD_VISUALSTYLE
350
2FE9
  3
ACDB_RECOMPOSE_DATA
350
3A42
  3
AcDbVariableDictionary
350
5E
  3
DWGPROPS
350
3A43
  0
DICTIONARY
  5
39AE
330
8
100
AcDbDictionary
280
     1
281
     1
  0
DICTIONARY
  5
101
330
2
100
AcDbDictionary
280
     1
281
     1
  3
ACAD_LAYERFILTERS
360
AF1
  3
ACAD_LAYERSTATES
360
102
  3
ACLYDICTIONARY
360
AF0
  0
DICTIONARY
  5
3145
330
10
100
AcDbDictionary
280
     1
281
     1
  3
ADSK_XREC_LAYER_RECONCILED
360
3146
  0
DICTIONARY
  5
3147
330
FC
100
AcDbDictionary
280
     1
281
     1
  3
ADSK_XREC_LAYER_RECONCILED
360
3148
  0
DICTIONARY
  5
3149
330
FE
100
AcDbDictionary
280
     1
281
     1
  3
ADSK_XREC_LAYER_RECONCILED
360
314A
  0
DICTIONARY
  5
314B
330
FF
100
AcDbDictionary
280
     1
281
     1
  3
ADSK_XREC_LAYER_RECONCILED
360
314C
  0
DICTIONARY
  5
314D
330
14B
100
AcDbDictionary
280
     1
281
     1
  3
ADSK_XREC_LAYER_RECONCILED
360
314E
  0
DICTIONARY
  5
314F
330
14F
100
AcDbDictionary
280
     1
281
     1
  3
ADSK_XREC_LAYER_RECONCILED
360
3150
  0
DICTIONARY
  5
3151
330
183
100
AcDbDictionary
280
     1
281
     1
  3
ADSK_XREC_LAYER_RECONCILED
360
3152
  0
DICTIONARY
  5
3153
330
184
100
AcDbDictionary
280
     1
281
     1
  3
ADSK_XREC_LAYER_RECONCILED
360
3154
  0
DICTIONARY
  5
3155
330
5E0
100
AcDbDictionary
280
     1
281
     1
  3
ADSK_XREC_LAYER_RECONCILED
360
3156
  0
DICTIONARY
  5
3157
330
5E1
100
AcDbDictionary
280
     1
281
     1
  3
ADSK_XREC_LAYER_RECONCILED
360
3158
  0
DICTIONARY
  5
61A
330
1F
100
AcDbDictionary
280
     1
281
     1
  3
ACAD_SORTENTS
360
61B
  0
DICTIONARY
  5
3538
330
352D
100
AcDbDictionary
280
     1
281
     1
  3
ACAD_SORTENTS
360
3539
  0
DICTIONARY
  5
A90
330
A86
100
AcDbDictionary
280
     1
281
     1
  3
ACAD_DIMASSOC
360
A97
  0
DICTIONARY
  5
FC4
330
FB7
100
AcDbDictionary
280
     1
281
     1
  3
ACAD_DIMASSOC
360
FCE
  0
DICTIONARY
  5
2D91
330
2D84
100
AcDbDictionary
280
     1
281
     1
  3
ACAD_DIMASSOC
360
2D9B
  0
DICTIONARY
  5
339C
330
338F
100
AcDbDictionary
280
     1
281
     1
  3
ACAD_DIMASSOC
360
33A6
  0
DICTIONARY
  5
35D5
330
35C8
100
AcDbDictionary
280
     1
281
     1
  3
ACAD_DIMASSOC
360
35DF
  0
DICTIONARY
  5
37E9
330
37DC
100
AcDbDictionary
280
     1
281
     1
  3
ACAD_DIMASSOC
360
37F3
  0
DICTIONARY
  5
380A
330
37FD
100
AcDbDictionary
280
     1
281
     1
  3
ACAD_DIMASSOC
360
3814
  0
DICTIONARY
  5
3A44
102
{ACAD_REACTORS
330
C
102
}
330
C
100
AcDbDictionary
281
     1
  3
DIMFXL
350
3A45
  3
DIMJOGANG
350
3A46
  0
XRECORD
  5
301B
102
{ACAD_REACTORS
330
C
102
}
330
C
100
AcDbXrecord
280
     1
300
ACD
300
2012
300
ACD_F_S
  0
DICTIONARY
  5
6B
102
{ACAD_REACTORS
330
C
102
}
330
C
100
AcDbDictionary
281
     1
  0
DICTIONARY
  5
D
102
{ACAD_REACTORS
330
C
102
}
330
C
100
AcDbDictionary
281
     1
  0
DICTIONARY
  5
1A
102
{ACAD_REACTORS
330
C
102
}
330
C
100
AcDbDictionary
281
     1
  3
Model
350
22
  3
レイアウト1
350
D3
  3
レイアウト2
350
D7
  0
DICTIONARY
  5
6A
102
{ACAD_REACTORS
330
C
102
}
330
C
100
AcDbDictionary
281
     1
  3
ByBlock
350
2FD9
  3
ByLayer
350
2FD1
  3
Global
350
2FE1
  0
DICTIONARY
  5
3014
102
{ACAD_REACTORS
330
C
102
}
330
C
100
AcDbDictionary
281
     1
  3
Standard
350
3015
  0
DICTIONARY
  5
17
102
{ACAD_REACTORS
330
C
102
}
330
C
100
AcDbDictionary
281
     1
  3
Standard
350
18
  0
DICTIONARY
  5
19
102
{ACAD_REACTORS
330
C
102
}
330
C
100
AcDbDictionary
281
     1
  0
ACDBDICTIONARYWDFLT
  5
E
102
{ACAD_REACTORS
330
C
102
}
330
C
100
AcDbDictionary
281
     1
  3
Normal
350
F
100
AcDbDictionaryWithDefault
340
F
  0
DICTIONARY
  5
3002
102
{ACAD_REACTORS
330
C
102
}
330
C
100
AcDbDictionary
281
     1
  3
A0
350
3003
  3
A1
350
3004
  3
A2
350
3005
  3
A3
350
3006
  3
A4
350
3007
  3
A5
350
3008
  3
A6
350
3009
  3
A7
350
300A
  3
A8
350
300B
  3
A9
350
300C
  3
B0
350
300D
  3
B1
350
300E
  3
B2
350
300F
  3
B3
350
3010
  3
B4
350
3011
  3
B5
350
3012
  3
B6
350
3013
  0
DICTIONARY
  5
7E
102
{ACAD_REACTORS
330
C
102
}
330
C
100
AcDbDictionary
281
     1
  3
Standard
350
7F
  0
DICTIONARY
  5
2FE9
102
{ACAD_REACTORS
330
C
102
}
330
C
100
AcDbDictionary
281
     1
  3
2dWireframe
350
2FEF
  3
Basic
350
2FEE
  3
Brighten
350
2FF5
  3
ColorChange
350
2FF9
  3
Conceptual
350
2FF2
  3
Dim
350
2FF4
  3
EdgeColorOff
350
3001
  3
Facepattern
350
2FF8
  3
Flat
350
2FEA
  3
FlatWithEdges
350
2FEB
  3
Gouraud
350
2FEC
  3
GouraudWithEdges
350
2FED
  3
Hidden
350
2FF1
  3
JitterOff
350
2FFF
  3
Linepattern
350
2FF7
  3
OverhangOff
350
3000
  3
Realistic
350
2FF3
  3
Shaded
350
2FFE
  3
Shaded with edges
350
2FFD
  3
Shades of Gray
350
2FFA
  3
Sketchy
350
2FFB
  3
Thicken
350
2FF6
  3
Wireframe
350
2FF0
  3
X-Ray
350
2FFC
  0
XRECORD
  5
3A42
102
{ACAD_REACTORS
330
C
102
}
330
C
100
AcDbXrecord
280
     1
 90
        1
330
7F
  0
DICTIONARY
  5
5E
102
{ACAD_REACTORS
330
C
102
}
330
C
100
AcDbDictionary
281
     1
  3
CANNOSCALE
350
32A5
  3
CMLEADERSTYLE
350
32A3
  3
CTABLESTYLE
350
84
  3
DIMASSOC
350
5F
  3
HIDETEXT
350
63
  3
INDEXCTL
350
39EB
  3
LAYEREVAL
350
32A7
  3
LAYERNOTIFY
350
32A8
  3
LIGHTINGUNITS
350
32A6
  3
MSLTSCALE
350
32A4
  3
SORTENTS
350
39EA
  3
XCLIPFRAME
350
3A3E
  0
XRECORD
  5
3A43
102
{ACAD_REACTORS
330
C
102
}
330
C
100
AcDbXrecord
280
     1
  1
DWGPROPS COOKIE
  2

  3

  4

  6

  7

  8
tom
  9

300
=
301
=
302
=
303
=
304
=
305
=
306
=
307
=
308
=
309
=
 40
0.4023612500000001
 41
2454427.395492431
 42
2458065.476507165
  1

 90
        0
  0
DICTIONARY
  5
AF1
102
{ACAD_REACTORS
330
101
102
}
330
101
100
AcDbDictionary
281
     1
  0
DICTIONARY
  5
102
102
{ACAD_REACTORS
330
101
102
}
330
101
100
AcDbDictionary
281
     1
  0
DICTIONARY
  5
AF0
102
{ACAD_REACTORS
330
101
102
}
330
101
100
AcDbDictionary
281
     1
1001
ACAD
1000
<All
  0
XRECORD
  5
3146
102
{ACAD_REACTORS
330
3145
102
}
330
3145
100
AcDbXrecord
280
     1
290
     1
  0
XRECORD
  5
3148
102
{ACAD_REACTORS
330
3147
102
}
330
3147
100
AcDbXrecord
280
     1
290
     1
  0
XRECORD
  5
314A
102
{ACAD_REACTORS
330
3149
102
}
330
3149
100
AcDbXrecord
280
     1
290
     1
  0
XRECORD
  5
314C
102
{ACAD_REACTORS
330
314B
102
}
330
314B
100
AcDbXrecord
280
     1
290
     1
  0
XRECORD
  5
314E
102
{ACAD_REACTORS
330
314D
102
}
330
314D
100
AcDbXrecord
280
     1
290
     1
  0
XRECORD
  5
3150
102
{ACAD_REACTORS
330
314F
102
}
330
314F
100
AcDbXrecord
280
     1
290
     1
  0
XRECORD
  5
3152
102
{ACAD_REACTORS
330
3151
102
}
330
3151
100
AcDbXrecord
280
     1
290
     1
  0
XRECORD
  5
3154
102
{ACAD_REACTORS
330
3153
102
}
330
3153
100
AcDbXrecord
280
     1
290
     1
  0
XRECORD
  5
3156
102
{ACAD_REACTORS
330
3155
102
}
330
3155
100
AcDbXrecord
280
     1
290
     1
  0
XRECORD
  5
3158
102
{ACAD_REACTORS
330
3157
102
}
330
3157
100
AcDbXrecord
280
     1
290
     1
  0
SORTENTSTABLE
  5
61B
102
{ACAD_REACTORS
330
61A
102
}
330
61A
100
AcDbSortentsTable
330
1F
331
AE7
  5
31BB
331
374E
  5
3755
331
37FD
  5
3947
331
AEF
  5
31BF
331
3756
  5
375D
331
34EA
  5
35BD
331
375E
  5
3764
331
3766
  5
37DC
331
38A4
  5
607
331
32EE
  5
621
331
3947
  5
3969
331
613
  5
12B4
331
34FA
  5
3681
331
371F
  5
374E
331
3680
  5
368C
331
35B9
  5
61F
331
3688
  5
3719
331
3403
  5
34EB
331
385D
  5
614
331
135
  5
E12
331
340B
  5
34FA
331
FB7
  5
31D4
331
3747
  5
3754
331
32D7
  5
AEF
331
32E7
  5
625
331
AE0
  5
B08
331
3483
  5
AE9
331
AE8
  5
31BD
331
912
  5
2F2B
331
604
  5
FEA
331
374F
  5
3756
331
3757
  5
375E
331
34EB
  5
35BE
331
375F
  5
3765
331
1017
  5
31D5
331
3767
  5
37FD
331
32EF
  5
622
331
3948
  5
3979
331
614
  5
12D6
331
34FB
  5
8DD
331
61C
  5
1619
331
126
  5
B28
331
3720
  5
374F
331
3681
  5
368D
331
35BA
  5
3684
331
624
  5
1725
331
3689
  5
371A
331
3404
  5
AE7
331
136
  5
E33
331
340C
  5
34FB
331
2D84
  5
340B
331
338F
  5
34DF
331
3251
  5
340C
331
3484
  5
AEB
331
AE9
  5
31BE
331
3750
  5
3757
331
34DC
  5
34FC
331
34EC
  5
35C8
331
3758
  5
615
331
3760
  5
3766
331
32E8
  5
626
331
32F0
  5
AED
331
3969
  5
135
331
B09
  5
31D2
331
615
  5
12D9
331
3768
  5
385D
331
3719
  5
3722
331
127
  5
C72
331
34FC
  5
3682
331
3721
  5
3750
331
3682
  5
368E
331
8BC
  5
2F2A
331
625
  5
1D34
331
AD2
  5
B03
331
35BB
  5
3685
331
368A
  5
371B
331
62D
  5
2D82
331
137
  5
E54
331
3405
  5
34EC
331
387F
  5
609
331
3252
  5
3483
331
1617
  5
AFE
331
3979
  5
134
331
606
  5
1023
331
3751
  5
3758
331
73D
  5
2F24
331
34DD
  5
3510
331
3759
  5
375F
331
34ED
  5
367C
331
3761
  5
3767
331
32F1
  5
34DC
331
3351
  5
34DE
331
15E0
  5
338A
331
31BB
  5
AF8
331
93C
  5
2F2C
331
616
  5
1603
331
3769
  5
387F
331
1021
  5
31D7
331
128
  5
C8A
331
ACB
  5
B09
331
371A
  5
3723
331
3683
  5
3696
331
626
  5
B11
331
AD3
  5
B04
331
33FE
  5
AE8
331
35BC
  5
61D
331
3722
  5
616
331
368B
  5
371C
331
62E
  5
2D83
331
3406
  5
34ED
331
3693
  5
371D
331
1618
  5
AFF
331
138
  5
E6C
331
369B
  5
3721
331
3752
  5
3759
331
34DE
  5
354C
331
375A
  5
3760
331
34EE
  5
367D
331
3762
  5
3768
331
3917
  5
3948
331
3273
  5
3484
331
2AC7
  5
AFA
331
32F2
  5
34DD
331
2ACF
  5
3408
331
15E1
  5
338B
331
101A
  5
31D6
331
617
  5
1604
331
376A
  5
38A4
331
61F
  5
161A
331
129
  5
CD2
331
ACC
  5
B0A
331
371B
  5
372D
331
3684
  5
3697
331
35BD
  5
3686
331
1082
  5
31D8
331
AD4
  5
B05
331
33FF
  5
8F5
331
3723
  5
617
331
3407
  5
AD1
331
3694
  5
371E
331
38C0
  5
606
331
1D50
  5
3407
331
3244
  5
AF2
331
1619
  5
B00
331
139
  5
E84
331
608
  5
1035
331
AEC
  5
B02
331
3753
  5
375A
331
73F
  5
2F26
331
34DF
  5
354D
331
375B
  5
3761
331
34EF
  5
367E
331
3763
  5
3769
331
2AC8
  5
AFB
331
335B
  5
AEC
331
618
  5
1618
331
371C
  5
372E
331
ACD
  5
B0B
331
367D
  5
3689
331
37DB
  5
38C0
331
3685
  5
3698
331
35BE
  5
3687
331
132
  5
CEA
331
3400
  5
34E8
331
108B
  5
3389
331
966
  5
2F8A
331
3408
  5
34EE
331
3695
  5
371F
331
15F2
  5
338C
331
32D4
  5
624
331
648
  5
2D84
331
6B0
  5
B0D
331
A86
  5
3052
331
609
  5
12AA
331
3754
  5
375B
331
34E8
  5
35BB
331
36F5
  5
61C
331
375C
  5
3762
331
34F0
  5
3680
331
3705
  5
619
331
3764
  5
376A
331
2AC9
  5
AFC
331
123
  5
B26
331
619
  5
B1C
331
371D
  5
3749
331
367E
  5
368A
331
3510
  5
3683
331
F45
  5
31D3
331
ACE
  5
B0C
331
3686
  5
3699
331
3401
  5
34E9
331
37DC
  5
3917
331
133
  5
D02
331
372D
  5
3751
331
3409
  5
34EF
331
ADE
  5
B06
331
3696
  5
3720
331
2D81
  5
3409
331
1603
  5
3404
331
649
  5
2F1F
331
6B1
  5
B0E
331
374D
  5
3753
331
60A
  5
12AD
331
163
  5
EFB
331
3755
  5
375C
331
34E9
  5
35BC
331
375D
  5
3763
331
3706
  5
618
331
3765
  5
37DB
331
2ACA
  5
AFD
331
32ED
  5
8BC
331
612
  5
12AE
331
371E
  5
374D
331
367F
  5
368B
331
622
  5
161B
331
3687
  5
3706
331
35C8
  5
3688
331
3402
  5
34EA
331
134
  5
D1A
331
372E
  5
3752
331
340A
  5
34F0
331
ADF
  5
B07
331
2D82
  5
340A
331
31FF
  5
AF7
  0
SORTENTSTABLE
  5
3539
102
{ACAD_REACTORS
330
3538
102
}
330
3538
100
AcDbSortentsTable
330
352D
  0
DIMASSOC
  5
A97
102
{ACAD_REACTORS
330
A90
102
}
330
A90
100
AcDbDimAssoc
330
A86
 90
        2
 70
     0
 71
     0
  1
AcDbOsnapPointRef
 72
     3
331
618
 73
     2
 91
        0
 40
0.0
 10
0.0
 20
0.0
 30
0.0
 75
     0
  0
DIMASSOC
  5
FCE
102
{ACAD_REACTORS
330
FC4
102
}
330
FC4
100
AcDbDimAssoc
330
FB7
 90
        1
 70
     0
 71
     0
  1
AcDbOsnapPointRef
 72
     1
331
62D
 73
     2
 91
        1
 40
1.0
 10
0.0
 20
0.0
 30
2.000000000000000E+50
 75
     0
  0
DIMASSOC
  5
2D9B
102
{ACAD_REACTORS
330
2D91
102
}
330
2D91
100
AcDbDimAssoc
330
2D84
 90
        2
 70
     0
 71
     0
  1
AcDbOsnapPointRef
 72
    13
331
616
 73
     2
 91
        0
 40
0.0
 10
0.0
 20
0.0
 30
2.000000000000000E+50
 75
     0
  0
DIMASSOC
  5
33A6
102
{ACAD_REACTORS
330
339C
102
}
330
339C
100
AcDbDimAssoc
330
338F
 90
        3
 70
     0
 71
     0
  1
AcDbOsnapPointRef
 72
     6
331
609
 73
     2
 91
        3
 40
0.5714285714285714
 10
0.0
 20
0.0
 30
0.0
332
3244
 74
     2
 92
        2
 75
     0
  1
AcDbOsnapPointRef
 72
     6
331
613
 73
     2
 91
        0
 40
0.7608695652173902
 10
0.0
 20
0.0
 30
0.0
332
3244
 74
     2
 92
        3
 75
     0
  0
DIMASSOC
  5
35DF
102
{ACAD_REACTORS
330
35D5
102
}
330
35D5
100
AcDbDimAssoc
330
35C8
 90
        1
 70
     0
 71
     0
  1
AcDbOsnapPointRef
 72
     1
331
62E
 73
     2
 91
        3
 40
1.0
 10
0.0
 20
0.0
 30
2.000000000000000E+50
 75
     0
  0
DIMASSOC
  5
37F3
102
{ACAD_REACTORS
330
37E9
102
}
330
37E9
100
AcDbDimAssoc
330
37DC
 90
        3
 70
     0
 71
     0
  1
AcDbOsnapPointRef
 72
     1
331
37DB
 73
     2
 91
        0
 40
1.0
 10
0.0
 20
0.0
 30
2.000000000000000E+50
 75
     0
  1
AcDbOsnapPointRef
 72
    13
331
3244
 73
     2
 91
        1
 40
0.0
 10
0.0
 20
0.0
 30
2.000000000000000E+50
 75
     0
  0
DIMASSOC
  5
3814
102
{ACAD_REACTORS
330
380A
102
}
330
380A
100
AcDbDimAssoc
330
37FD
 90
        3
 70
     0
 71
     0
  1
AcDbOsnapPointRef
 72
    13
331
37DB
 73
     2
 91
        0
 40
0.0
 10
0.0
 20
0.0
 30
2.000000000000000E+50
 75
     0
  1
AcDbOsnapPointRef
 72
     1
331
34DC
 73
     2
 91
        0
 40
0.9999999999999998
 10
0.0
 20
0.0
 30
2.000000000000000E+50
 75
     0
  0
XRECORD
  5
3A45
102
{ACAD_REACTORS
330
3A44
102
}
330
3A44
100
AcDbXrecord
280
     1
 40
1.25
  0
XRECORD
  5
3A46
102
{ACAD_REACTORS
330
3A44
102
}
330
3A44
100
AcDbXrecord
280
     1
 40
1.570796326794896
  0
LAYOUT
  5
22
102
{ACAD_XDICTIONARY
360
3160
102
}
102
{ACAD_REACTORS
330
1A
102
}
330
1A
100
AcDbPlotSettings
  1

  2
RICOH MP C4503 JPN RPCS
  4
A3
  6

 40
5.873749732971191
 41
5.873747825622558
 42
5.873748779296875
 43
5.873748779296875
 44
296.9259948730469
 45
419.9466552734374
 46
-5.910751819610595
 47
-5.900420665740966
 48
82.80008844952817
 49
88.90916338651733
140
8482.800088449527
141
6028.909163386518
142
1.0
143
20.0
 70
 11956
 72
     1
 73
     1
 74
     4
  7
monochrome.ctb
 75
    22
147
0.05
148
-82.80008844952817
149
-88.90916338651733
100
AcDbLayout
  1
Model
 70
     1
 71
     0
 10
0.0
 20
0.0
 11
12.0
 21
9.0
 12
0.0
 22
0.0
 32
0.0
 14
0.0
 24
0.0
 34
0.0
 15
0.0
 25
0.0
 35
0.0
146
0.0
 13
0.0
 23
0.0
 33
0.0
 16
1.0
 26
0.0
 36
0.0
 17
0.0
 27
1.0
 37
0.0
 76
     0
330
1F
331
2FCF
1001
ACAD_PSEXT
1000
RICOH MP C4503 JPN RPCS
1000
RICOH MP C4503 JPN RPCS
1000
192.168.11.111
1000
RPCS Driver (For Windows)
1070
     0
  0
LAYOUT
  5
D3
102
{ACAD_XDICTIONARY
360
3A49
102
}
102
{ACAD_REACTORS
330
1A
102
}
330
1A
100
AcDbPlotSettings
  1

  2
C:\Documents and Settings\basas\Application Data\Autodesk\AutoCAD 2005\R16.1\enu\plotters\Default Windows System Printer.pc3
  4

  6

 40
0.0
 41
0.0
 42
0.0
 43
0.0
 44
0.0
 45
0.0
 46
0.0
 47
0.0
 48
0.0
 49
0.0
140
0.0
141
0.0
142
1.0
143
1.0
 70
   688
 72
     0
 73
     0
 74
     5
  7
monochrome.ctb
 75
    16
147
1.0
148
0.0
149
0.0
100
AcDbLayout
  1
レイアウト1
 70
     1
 71
     1
 10
0.0
 20
0.0
 11
12.0
 21
9.0
 12
0.0
 22
0.0
 32
0.0
 14
0.0
 24
0.0
 34
0.0
 15
0.0
 25
0.0
 35
0.0
146
0.0
 13
0.0
 23
0.0
 33
0.0
 16
1.0
 26
0.0
 36
0.0
 17
0.0
 27
1.0
 37
0.0
 76
     0
330
D2
  0
LAYOUT
  5
D7
102
{ACAD_XDICTIONARY
360
3A4B
102
}
102
{ACAD_REACTORS
330
1A
102
}
330
1A
100
AcDbPlotSettings
  1

  2
C:\Documents and Settings\basas\Application Data\Autodesk\AutoCAD 2005\R16.1\enu\plotters\Default Windows System Printer.pc3
  4

  6

 40
0.0
 41
0.0
 42
0.0
 43
0.0
 44
0.0
 45
0.0
 46
0.0
 47
0.0
 48
0.0
 49
0.0
140
0.0
141
0.0
142
1.0
143
1.0
 70
   688
 72
     0
 73
     0
 74
     5
  7
monochrome.ctb
 75
    16
147
1.0
148
0.0
149
0.0
100
AcDbLayout
  1
レイアウト2
 70
     1
 71
     2
 10
0.0
 20
0.0
 11
12.0
 21
9.0
 12
0.0
 22
0.0
 32
0.0
 14
0.0
 24
0.0
 34
0.0
 15
0.0
 25
0.0
 35
0.0
146
0.0
 13
0.0
 23
0.0
 33
0.0
 16
1.0
 26
0.0
 36
0.0
 17
0.0
 27
1.0
 37
0.0
 76
     0
330
D6
  0
MATERIAL
  5
2FD9
102
{ACAD_XDICTIONARY
360
2FDA
102
}
102
{ACAD_REACTORS
330
6A
102
}
330
6A
100
AcDbMaterial
  1
ByBlock
 72
     0
 43
0.0008202099737533
 43
0.0
 43
0.0
 43
0.0
 43
0.0
 43
0.0008202099737533
 43
0.0
 43
0.0
 43
0.0
 43
0.0
 43
1.0
 43
0.0
 43
0.0
 43
0.0
 43
0.0
 43
1.0
 77
     0
 47
0.0008202099737533
 47
0.0
 47
0.0
 47
0.0
 47
0.0
 47
0.0008202099737533
 47
0.0
 47
0.0
 47
0.0
 47
0.0
 47
1.0
 47
0.0
 47
0.0
 47
0.0
 47
0.0
 47
1.0
171
     0
 49
0.0008202099737533
 49
0.0
 49
0.0
 49
0.0
 49
0.0
 49
0.0008202099737533
 49
0.0
 49
0.0
 49
0.0
 49
0.0
 49
1.0
 49
0.0
 49
0.0
 49
0.0
 49
0.0
 49
1.0
175
     0
142
0.0008202099737533
142
0.0
142
0.0
142
0.0
142
0.0
142
0.0008202099737533
142
0.0
142
0.0
142
0.0
142
0.0
142
1.0
142
0.0
142
0.0
142
0.0
142
0.0
142
1.0
179
     0
144
0.0008202099737533
144
0.0
144
0.0
144
0.0
144
0.0
144
0.0008202099737533
144
0.0
144
0.0
144
0.0
144
0.0
144
1.0
144
0.0
144
0.0
144
0.0
144
0.0
144
1.0
147
0.0008202099737533
147
0.0
147
0.0
147
0.0
147
0.0
147
0.0008202099737533
147
0.0
147
0.0
147
0.0
147
0.0
147
1.0
147
0.0
147
0.0
147
0.0
147
0.0
147
1.0
  0
MATERIAL
  5
2FD1
102
{ACAD_XDICTIONARY
360
2FD2
102
}
102
{ACAD_REACTORS
330
6A
102
}
330
6A
100
AcDbMaterial
  1
ByLayer
 72
     0
 43
0.0008202099737533
 43
0.0
 43
0.0
 43
0.0
 43
0.0
 43
0.0008202099737533
 43
0.0
 43
0.0
 43
0.0
 43
0.0
 43
1.0
 43
0.0
 43
0.0
 43
0.0
 43
0.0
 43
1.0
 77
     0
 47
0.0008202099737533
 47
0.0
 47
0.0
 47
0.0
 47
0.0
 47
0.0008202099737533
 47
0.0
 47
0.0
 47
0.0
 47
0.0
 47
1.0
 47
0.0
 47
0.0
 47
0.0
 47
0.0
 47
1.0
171
     0
 49
0.0008202099737533
 49
0.0
 49
0.0
 49
0.0
 49
0.0
 49
0.0008202099737533
 49
0.0
 49
0.0
 49
0.0
 49
0.0
 49
1.0
 49
0.0
 49
0.0
 49
0.0
 49
0.0
 49
1.0
175
     0
142
0.0008202099737533
142
0.0
142
0.0
142
0.0
142
0.0
142
0.0008202099737533
142
0.0
142
0.0
142
0.0
142
0.0
142
1.0
142
0.0
142
0.0
142
0.0
142
0.0
142
1.0
179
     0
144
0.0008202099737533
144
0.0
144
0.0
144
0.0
144
0.0
144
0.0008202099737533
144
0.0
144
0.0
144
0.0
144
0.0
144
1.0
144
0.0
144
0.0
144
0.0
144
0.0
144
1.0
147
0.0008202099737533
147
0.0
147
0.0
147
0.0
147
0.0
147
0.0008202099737533
147
0.0
147
0.0
147
0.0
147
0.0
147
1.0
147
0.0
147
0.0
147
0.0
147
0.0
147
1.0
  0
MATERIAL
  5
2FE1
102
{ACAD_XDICTIONARY
360
2FE2
102
}
102
{ACAD_REACTORS
330
6A
102
}
330
6A
100
AcDbMaterial
  1
Global
 72
     0
 43
0.0008202099737533
 43
0.0
 43
0.0
 43
0.0
 43
0.0
 43
0.0008202099737533
 43
0.0
 43
0.0
 43
0.0
 43
0.0
 43
1.0
 43
0.0
 43
0.0
 43
0.0
 43
0.0
 43
1.0
 77
     0
 47
0.0008202099737533
 47
0.0
 47
0.0
 47
0.0
 47
0.0
 47
0.0008202099737533
 47
0.0
 47
0.0
 47
0.0
 47
0.0
 47
1.0
 47
0.0
 47
0.0
 47
0.0
 47
0.0
 47
1.0
171
     0
 49
0.0008202099737533
 49
0.0
 49
0.0
 49
0.0
 49
0.0
 49
0.0008202099737533
 49
0.0
 49
0.0
 49
0.0
 49
0.0
 49
1.0
 49
0.0
 49
0.0
 49
0.0
 49
0.0
 49
1.0
175
     0
142
0.0008202099737533
142
0.0
142
0.0
142
0.0
142
0.0
142
0.0008202099737533
142
0.0
142
0.0
142
0.0
142
0.0
142
1.0
142
0.0
142
0.0
142
0.0
142
0.0
142
1.0
179
     0
144
0.0008202099737533
144
0.0
144
0.0
144
0.0
144
0.0
144
0.0008202099737533
144
0.0
144
0.0
144
0.0
144
0.0
144
1.0
144
0.0
144
0.0
144
0.0
144
0.0
144
1.0
147
0.0008202099737533
147
0.0
147
0.0
147
0.0
147
0.0
147
0.0008202099737533
147
0.0
147
0.0
147
0.0
147
0.0
147
1.0
147
0.0
147
0.0
147
0.0
147
0.0
147
1.0
  0
MLEADERSTYLE
  5
3015
102
{ACAD_XDICTIONARY
360
3A40
102
}
102
{ACAD_REACTORS
330
3014
102
}
330
3014
100
AcDbMLeaderStyle
170
     2
171
     1
172
     0
 90
        2
 40
0.0
 41
0.0
173
     1
 91
-1056964608
340
14
 92
       -2
290
     1
 42
2.0
291
     1
 43
0.36
  3
Standard
 44
4.0
300

342
11
174
     1
178
     6
175
     1
176
     0
 93
-1056964608
 45
4.0
292
     0
297
     0
 46
4.0
 94
-1056964608
 47
1.0
 49
1.0
140
1.0
293
     1
141
0.0
294
     1
177
     0
142
1.0
295
     0
296
     0
143
0.125
1001
ACAD_MLEADERVER
1070
     2
  0
MLINESTYLE
  5
18
102
{ACAD_REACTORS
330
17
102
}
330
17
100
AcDbMlineStyle
  2
STANDARD
 70
     0
  3

 62
   256
 51
90.0
 52
90.0
 71
     2
 49
0.5
 62
   256
  6
BYLAYER
 49
-0.5
 62
   256
  6
BYLAYER
  0
ACDBPLACEHOLDER
  5
F
102
{ACAD_REACTORS
330
E
102
}
330
E
  0
SCALE
  5
3003
102
{ACAD_REACTORS
330
3002
102
}
330
3002
100
AcDbScale
 70
     0
300
1:1
140
1.0
141
1.0
290
     1
  0
SCALE
  5
3004
102
{ACAD_REACTORS
330
3002
102
}
330
3002
100
AcDbScale
 70
     0
300
1:2
140
1.0
141
2.0
290
     0
  0
SCALE
  5
3005
102
{ACAD_REACTORS
330
3002
102
}
330
3002
100
AcDbScale
 70
     0
300
1:4
140
1.0
141
4.0
290
     0
  0
SCALE
  5
3006
102
{ACAD_REACTORS
330
3002
102
}
330
3002
100
AcDbScale
 70
     0
300
1:5
140
1.0
141
5.0
290
     0
  0
SCALE
  5
3007
102
{ACAD_REACTORS
330
3002
102
}
330
3002
100
AcDbScale
 70
     0
300
1:8
140
1.0
141
8.0
290
     0
  0
SCALE
  5
3008
102
{ACAD_REACTORS
330
3002
102
}
330
3002
100
AcDbScale
 70
     0
300
1:10
140
1.0
141
10.0
290
     0
  0
SCALE
  5
3009
102
{ACAD_REACTORS
330
3002
102
}
330
3002
100
AcDbScale
 70
     0
300
1:16
140
1.0
141
16.0
290
     0
  0
SCALE
  5
300A
102
{ACAD_REACTORS
330
3002
102
}
330
3002
100
AcDbScale
 70
     0
300
1:20
140
1.0
141
20.0
290
     0
  0
SCALE
  5
300B
102
{ACAD_REACTORS
330
3002
102
}
330
3002
100
AcDbScale
 70
     0
300
1:30
140
1.0
141
30.0
290
     0
  0
SCALE
  5
300C
102
{ACAD_REACTORS
330
3002
102
}
330
3002
100
AcDbScale
 70
     0
300
1:40
140
1.0
141
40.0
290
     0
  0
SCALE
  5
300D
102
{ACAD_REACTORS
330
3002
102
}
330
3002
100
AcDbScale
 70
     0
300
1:50
140
1.0
141
50.0
290
     0
  0
SCALE
  5
300E
102
{ACAD_REACTORS
330
3002
102
}
330
3002
100
AcDbScale
 70
     0
300
1:100
140
1.0
141
100.0
290
     0
  0
SCALE
  5
300F
102
{ACAD_REACTORS
330
3002
102
}
330
3002
100
AcDbScale
 70
     0
300
2:1
140
2.0
141
1.0
290
     0
  0
SCALE
  5
3010
102
{ACAD_REACTORS
330
3002
102
}
330
3002
100
AcDbScale
 70
     0
300
4:1
140
4.0
141
1.0
290
     0
  0
SCALE
  5
3011
102
{ACAD_REACTORS
330
3002
102
}
330
3002
100
AcDbScale
 70
     0
300
8:1
140
8.0
141
1.0
290
     0
  0
SCALE
  5
3012
102
{ACAD_REACTORS
330
3002
102
}
330
3002
100
AcDbScale
 70
     0
300
10:1
140
10.0
141
1.0
290
     0
  0
SCALE
  5
3013
102
{ACAD_REACTORS
330
3002
102
}
330
3002
100
AcDbScale
 70
     0
300
100:1
140
100.0
141
1.0
290
     0
  0
TABLESTYLE
  5
7F
102
{ACAD_XDICTIONARY
360
39A5
102
}
102
{ACAD_REACTORS
330
7E
102
}
330
7E
100
AcDbTableStyle
  3
Standard
 70
     0
 71
     0
 40
1.5
 41
1.5
280
     0
281
     0
  7
Standard
140
4.5
170
     2
 62
     0
 63
     7
283
     0
274
    -2
284
     1
 64
     0
275
    -2
285
     1
 65
     0
276
    -2
286
     1
 66
     0
277
    -2
287
     1
 67
     0
278
    -2
288
     1
 68
     0
279
    -2
289
     1
 69
     0
  7
Standard
140
6.0
170
     5
 62
     0
 63
     7
283
     0
274
    -2
284
     1
 64
     0
275
    -2
285
     1
 65
     0
276
    -2
286
     1
 66
     0
277
    -2
287
     1
 67
     0
278
    -2
288
     1
 68
     0
279
    -2
289
     1
 69
     0
  7
Standard
140
4.5
170
     5
 62
     0
 63
     7
283
     0
274
    -2
284
     1
 64
     0
275
    -2
285
     1
 65
     0
276
    -2
286
     1
 66
     0
277
    -2
287
     1
 67
     0
278
    -2
288
     1
 68
     0
279
    -2
289
     1
 69
     0
  0
VISUALSTYLE
  5
2FEF
102
{ACAD_XDICTIONARY
360
3A5A
102
}
102
{ACAD_REACTORS
330
2FE9
102
}
330
2FE9
100
AcDbVisualStyle
  2
2dWireframe
 70
     4
 71
     0
 72
     2
 73
     0
 90
        0
 40
-0.6
 41
-30.0
 62
     5
 63
     7
 74
     1
 91
        4
 64
     7
 65
   257
 75
     1
175
     1
 42
1.0
 92
        0
 66
   257
 43
1.0
 76
     1
 77
     6
 78
     2
 67
     7
 79
     5
170
     0
171
     0
290
     0
174
     0
 93
        1
 44
0.0
173
     0
291
     0
 45
0.0
1001
ACAD
1000
AcDbSavedByObjectVersion
1070
     0
  0
VISUALSTYLE
  5
2FEE
102
{ACAD_XDICTIONARY
360
3A58
102
}
102
{ACAD_REACTORS
330
2FE9
102
}
330
2FE9
100
AcDbVisualStyle
  2
Basic
 70
     7
 71
     1
 72
     0
 73
     1
 90
        0
 40
-0.6
 41
-30.0
 62
     5
 63
     7
 74
     0
 91
        4
 64
     7
 65
   257
 75
     1
175
     1
 42
1.0
 92
        8
 66
     7
 43
1.0
 76
     1
 77
     6
 78
     2
 67
     7
 79
     5
170
     0
171
     0
290
     0
174
     0
 93
        1
 44
0.0
173
     0
291
     1
 45
0.0
1001
ACAD
1000
AcDbSavedByObjectVersion
1070
     0
  0
VISUALSTYLE
  5
2FF5
102
{ACAD_XDICTIONARY
360
3A66
102
}
102
{ACAD_REACTORS
330
2FE9
102
}
330
2FE9
100
AcDbVisualStyle
  2
Brighten
 70
    12
 71
     2
 72
     2
 73
     0
 90
        0
 40
-0.6
 41
-30.0
 62
     5
 63
     7
 74
     1
 91
        4
 64
     7
 65
   257
 75
     1
175
     1
 42
1.0
 92
        8
 66
     7
 43
1.0
 76
     1
 77
     6
 78
     2
 67
     7
 79
     5
170
     0
171
     0
290
     0
174
     0
 93
        1
 44
50.0
173
     0
291
     1
 45
0.0
1001
ACAD
1000
AcDbSavedByObjectVersion
1070
     0
  0
VISUALSTYLE
  5
2FF9
102
{ACAD_XDICTIONARY
360
3A6E
102
}
102
{ACAD_REACTORS
330
2FE9
102
}
330
2FE9
100
AcDbVisualStyle
  2
ColorChange
 70
    16
 71
     2
 72
     2
 73
     3
 90
        0
 40
-0.6
 41
-30.0
 62
     5
 63
     8
 74
     1
 91
        4
 64
     7
 65
   257
 75
     1
175
     1
 42
1.0
 92
        8
 66
     8
 43
1.0
 76
     1
 77
     6
 78
     2
 67
     7
 79
     5
170
     0
171
     0
290
     0
174
     0
 93
        1
 44
0.0
173
     0
291
     1
 45
0.0
1001
ACAD
1000
AcDbSavedByObjectVersion
1070
     0
  0
VISUALSTYLE
  5
2FF2
102
{ACAD_XDICTIONARY
360
3A60
102
}
102
{ACAD_REACTORS
330
2FE9
102
}
330
2FE9
100
AcDbVisualStyle
  2
Conceptual
 70
     9
 71
     3
 72
     2
 73
     0
 90
        0
 40
-0.6
 41
-30.0
 62
     5
 63
     7
 74
     2
 91
        2
 64
     7
 65
   257
 75
     1
175
     1
 42
179.0
 92
        8
 66
     7
 43
1.0
 76
     1
 77
     6
 78
     2
 67
     7
 79
     3
170
     0
171
     0
290
     0
174
     0
 93
        1
 44
0.0
173
     0
291
     0
 45
0.0
1001
ACAD
1000
AcDbSavedByObjectVersion
1070
     0
  0
VISUALSTYLE
  5
2FF4
102
{ACAD_XDICTIONARY
360
3A64
102
}
102
{ACAD_REACTORS
330
2FE9
102
}
330
2FE9
100
AcDbVisualStyle
  2
Dim
 70
    11
 71
     2
 72
     2
 73
     0
 90
        0
 40
-0.6
 41
-30.0
 62
     5
 63
     7
 74
     1
 91
        4
 64
     7
 65
   257
 75
     1
175
     1
 42
1.0
 92
        8
 66
     7
 43
1.0
 76
     1
 77
     6
 78
     2
 67
     7
 79
     5
170
     0
171
     0
290
     0
174
     0
 93
        1
 44
-50.0
173
     0
291
     1
 45
0.0
1001
ACAD
1000
AcDbSavedByObjectVersion
1070
     0
  0
VISUALSTYLE
  5
3001
102
{ACAD_XDICTIONARY
360
3A7E
102
}
102
{ACAD_REACTORS
330
2FE9
102
}
330
2FE9
100
AcDbVisualStyle
  2
EdgeColorOff
 70
    22
 71
     2
 72
     2
 73
     0
 90
        0
 40
-0.6
 41
-30.0
 62
     5
 63
     7
 74
     1
 91
        4
 64
     7
 65
   257
 75
     1
175
     1
 42
1.0
 92
        8
 66
     7
 43
1.0
 76
     1
 77
     6
 78
     2
 67
     7
 79
     5
170
     0
171
     0
290
     0
174
     0
 93
        1
 44
0.0
173
     0
291
     1
 45
0.0
1001
ACAD
1000
AcDbSavedByObjectVersion
1070
     0
  0
VISUALSTYLE
  5
2FF8
102
{ACAD_XDICTIONARY
360
3A6C
102
}
102
{ACAD_REACTORS
330
2FE9
102
}
330
2FE9
100
AcDbVisualStyle
  2
Facepattern
 70
    15
 71
     2
 72
     2
 73
     0
 90
        0
 40
-0.6
 41
-30.0
 62
     5
 63
     7
 74
     1
 91
        4
 64
     7
 65
   257
 75
     1
175
     1
 42
1.0
 92
        8
 66
     7
 43
1.0
 76
     1
 77
     6
 78
     2
 67
     7
 79
     5
170
     0
171
     0
290
     0
174
     0
 93
        1
 44
0.0
173
     0
291
     1
 45
0.0
1001
ACAD
1000
AcDbSavedByObjectVersion
1070
     0
  0
VISUALSTYLE
  5
2FEA
102
{ACAD_XDICTIONARY
360
3A50
102
}
102
{ACAD_REACTORS
330
2FE9
102
}
330
2FE9
100
AcDbVisualStyle
  2
Flat
 70
     0
 71
     2
 72
     1
 73
     1
 90
        2
 40
-0.6
 41
30.0
 62
     5
 63
     7
 74
     0
 91
        0
 64
     7
 65
   257
 75
     1
175
     1
 42
1.0
 92
        8
 66
     7
 43
1.0
 76
     1
 77
     6
 78
     2
 67
     7
 79
     5
170
     0
171
     0
290
     0
174
     0
 93
       13
 44
0.0
173
     0
291
     1
 45
0.0
1001
ACAD
1000
AcDbSavedByObjectVersion
1070
     0
  0
VISUALSTYLE
  5
2FEB
102
{ACAD_XDICTIONARY
360
3A52
102
}
102
{ACAD_REACTORS
330
2FE9
102
}
330
2FE9
100
AcDbVisualStyle
  2
FlatWithEdges
 70
     1
 71
     2
 72
     1
 73
     1
 90
        2
 40
-0.6
 41
30.0
 62
     5
 63
     7
 74
     1
 91
        0
 64
     7
 65
   257
 75
     1
175
     1
 42
1.0
 92
        0
 66
   257
 43
1.0
 76
     1
 77
     6
 78
     2
 67
     7
 79
     5
170
     0
171
     0
290
     0
174
     0
 93
       13
 44
0.0
173
     0
291
     1
 45
0.0
1001
ACAD
1000
AcDbSavedByObjectVersion
1070
     0
  0
VISUALSTYLE
  5
2FEC
102
{ACAD_XDICTIONARY
360
3A54
102
}
102
{ACAD_REACTORS
330
2FE9
102
}
330
2FE9
100
AcDbVisualStyle
  2
Gouraud
 70
     2
 71
     2
 72
     2
 73
     1
 90
        2
 40
-0.6
 41
30.0
 62
     5
 63
     7
 74
     0
 91
        0
 64
     7
 65
   257
 75
     1
175
     1
 42
1.0
 92
        0
 66
     7
 43
1.0
 76
     1
 77
     6
 78
     2
 67
     7
 79
     5
170
     0
171
     0
290
     0
174
     0
 93
       13
 44
0.0
173
     0
291
     1
 45
0.0
1001
ACAD
1000
AcDbSavedByObjectVersion
1070
     0
  0
VISUALSTYLE
  5
2FED
102
{ACAD_XDICTIONARY
360
3A56
102
}
102
{ACAD_REACTORS
330
2FE9
102
}
330
2FE9
100
AcDbVisualStyle
  2
GouraudWithEdges
 70
     3
 71
     2
 72
     2
 73
     1
 90
        2
 40
-0.6
 41
30.0
 62
     5
 63
     7
 74
     1
 91
        0
 64
     7
 65
   257
 75
     1
175
     1
 42
1.0
 92
        0
 66
   257
 43
1.0
 76
     1
 77
     6
 78
     2
 67
     7
 79
     5
170
     0
171
     0
290
     0
174
     0
 93
       13
 44
0.0
173
     0
291
     1
 45
0.0
1001
ACAD
1000
AcDbSavedByObjectVersion
1070
     0
  0
VISUALSTYLE
  5
2FF1
102
{ACAD_XDICTIONARY
360
3A5E
102
}
102
{ACAD_REACTORS
330
2FE9
102
}
330
2FE9
100
AcDbVisualStyle
  2
Hidden
 70
     6
 71
     1
 72
     2
 73
     2
 90
        0
 40
-0.6
 41
-30.0
 62
     5
 63
     7
 74
     2
 91
        2
 64
     7
 65
   257
 75
     2
175
     1
 42
40.0
 92
        0
 66
   257
 43
1.0
 76
     1
 77
     6
 78
     2
 67
     7
 79
     3
170
     0
171
     0
290
     0
174
     0
 93
        1
 44
0.0
173
     0
291
     0
 45
0.0
1001
ACAD
1000
AcDbSavedByObjectVersion
1070
     0
  0
VISUALSTYLE
  5
2FFF
102
{ACAD_XDICTIONARY
360
3A7A
102
}
102
{ACAD_REACTORS
330
2FE9
102
}
330
2FE9
100
AcDbVisualStyle
  2
JitterOff
 70
    20
 71
     2
 72
     2
 73
     0
 90
        0
 40
-0.6
 41
-30.0
 62
     5
 63
     7
 74
     1
 91
        4
 64
     7
 65
   257
 75
     1
175
     1
 42
1.0
 92
       10
 66
     7
 43
1.0
 76
     1
 77
     6
 78
     2
 67
     7
 79
     5
170
     0
171
     0
290
     0
174
     0
 93
        1
 44
0.0
173
     0
291
     1
 45
0.0
1001
ACAD
1000
AcDbSavedByObjectVersion
1070
     0
  0
VISUALSTYLE
  5
2FF7
102
{ACAD_XDICTIONARY
360
3A6A
102
}
102
{ACAD_REACTORS
330
2FE9
102
}
330
2FE9
100
AcDbVisualStyle
  2
Linepattern
 70
    14
 71
     2
 72
     2
 73
     0
 90
        0
 40
-0.6
 41
-30.0
 62
     5
 63
     7
 74
     1
 91
        4
 64
     7
 65
   257
 75
     7
175
     7
 42
1.0
 92
        8
 66
     7
 43
1.0
 76
     1
 77
     6
 78
     2
 67
     7
 79
     5
170
     0
171
     0
290
     0
174
     0
 93
        1
 44
0.0
173
     0
291
     1
 45
0.0
1001
ACAD
1000
AcDbSavedByObjectVersion
1070
     0
  0
VISUALSTYLE
  5
3000
102
{ACAD_XDICTIONARY
360
3A7C
102
}
102
{ACAD_REACTORS
330
2FE9
102
}
330
2FE9
100
AcDbVisualStyle
  2
OverhangOff
 70
    21
 71
     2
 72
     2
 73
     0
 90
        0
 40
-0.6
 41
-30.0
 62
     5
 63
     7
 74
     1
 91
        4
 64
     7
 65
   257
 75
     1
175
     1
 42
1.0
 92
        9
 66
     7
 43
1.0
 76
     1
 77
     6
 78
     2
 67
     7
 79
     5
170
     0
171
     0
290
     0
174
     0
 93
        1
 44
0.0
173
     0
291
     1
 45
0.0
1001
ACAD
1000
AcDbSavedByObjectVersion
1070
     0
  0
VISUALSTYLE
  5
2FF3
102
{ACAD_XDICTIONARY
360
3A62
102
}
102
{ACAD_REACTORS
330
2FE9
102
}
330
2FE9
100
AcDbVisualStyle
  2
Realistic
 70
     8
 71
     2
 72
     2
 73
     0
 90
        2
 40
-0.6
 41
30.0
 62
     5
 63
     7
 74
     0
 91
        0
 64
     7
 65
   257
 75
     1
175
     1
 42
1.0
 92
        8
 66
   257
 43
1.0
 76
     1
 77
     6
 78
     2
 67
     7
 79
     3
170
     0
171
     0
290
     0
174
     0
 93
       13
 44
0.0
173
     0
291
     0
 45
0.0
1001
ACAD
1000
AcDbSavedByObjectVersion
1070
     0
  0
VISUALSTYLE
  5
2FFE
102
{ACAD_XDICTIONARY
360
3A78
102
}
102
{ACAD_REACTORS
330
2FE9
102
}
330
2FE9
100
AcDbVisualStyle
  2
Shaded
 70
    27
 71
     2
 72
     2
 73
     1
 90
        2
 40
-0.6
 41
30.0
 62
     5
 63
     7
 74
     0
 91
        4
 64
     7
 65
   257
 75
     1
175
     1
 42
1.0
 92
        8
 66
   257
 43
1.0
 76
     1
 77
     6
 78
     2
 67
     8
 79
     3
170
     0
171
     0
290
     0
174
     0
 93
        5
 44
0.0
173
     0
291
     0
 45
0.0
1001
ACAD
1000
AcDbSavedByObjectVersion
1070
     0
  0
VISUALSTYLE
  5
2FFD
102
{ACAD_XDICTIONARY
360
3A76
102
}
102
{ACAD_REACTORS
330
2FE9
102
}
330
2FE9
100
AcDbVisualStyle
  2
Shaded with edges
 70
    26
 71
     2
 72
     2
 73
     1
 90
        2
 40
-0.6
 41
30.0
 62
     5
 63
     7
 74
     1
 91
       10
 64
     7
 65
   257
 75
     2
175
     1
 42
1.0
 92
        8
 66
   257
 43
1.0
 76
     1
 77
     6
 78
     2
 67
     7
 79
     3
170
     0
171
     0
290
     0
174
     0
 93
        5
 44
0.0
173
     0
291
     0
 45
0.0
1001
ACAD
1000
AcDbSavedByObjectVersion
1070
     0
  0
VISUALSTYLE
  5
2FFA
102
{ACAD_XDICTIONARY
360
3A70
102
}
102
{ACAD_REACTORS
330
2FE9
102
}
330
2FE9
100
AcDbVisualStyle
  2
Shades of Gray
 70
    23
 71
     2
 72
     2
 73
     3
 90
        0
 40
-0.6
 41
-30.0
 62
     5
 63
     7
 74
     2
 91
        2
 64
     7
 65
     7
 75
     1
175
     1
 42
40.0
 92
        8
 66
     7
 43
1.0
 76
     1
 77
     6
 78
     2
 67
     7
 79
     3
170
     0
171
     0
290
     0
174
     0
 93
        1
 44
0.0
173
     0
291
     0
 45
0.0
1001
ACAD
1000
AcDbSavedByObjectVersion
1070
     0
  0
VISUALSTYLE
  5
2FFB
102
{ACAD_XDICTIONARY
360
3A72
102
}
102
{ACAD_REACTORS
330
2FE9
102
}
330
2FE9
100
AcDbVisualStyle
  2
Sketchy
 70
    24
 71
     1
 72
     2
 73
     2
 90
        0
 40
-0.6
 41
-30.0
 62
     5
 63
     7
 74
     2
 91
        2
 64
     7
 65
     7
 75
     1
175
     1
 42
40.0
 92
       11
 66
     7
 43
1.0
 76
     1
 77
     6
 78
     2
 67
     7
 79
     6
170
     0
171
     0
290
     0
174
     0
 93
        1
 44
0.0
173
     0
291
     0
 45
0.0
1001
ACAD
1000
AcDbSavedByObjectVersion
1070
     0
  0
VISUALSTYLE
  5
2FF6
102
{ACAD_XDICTIONARY
360
3A68
102
}
102
{ACAD_REACTORS
330
2FE9
102
}
330
2FE9
100
AcDbVisualStyle
  2
Thicken
 70
    13
 71
     2
 72
     2
 73
     0
 90
        0
 40
-0.6
 41
-30.0
 62
     5
 63
     7
 74
     1
 91
        4
 64
     7
 65
   257
 75
     1
175
     1
 42
1.0
 92
       12
 66
     7
 43
1.0
 76
     1
 77
     6
 78
     2
 67
     7
 79
     5
170
     0
171
     0
290
     0
174
     0
 93
        1
 44
0.0
173
     0
291
     1
 45
0.0
1001
ACAD
1000
AcDbSavedByObjectVersion
1070
     0
  0
VISUALSTYLE
  5
2FF0
102
{ACAD_XDICTIONARY
360
3A5C
102
}
102
{ACAD_REACTORS
330
2FE9
102
}
330
2FE9
100
AcDbVisualStyle
  2
Wireframe
 70
     5
 71
     0
 72
     2
 73
     0
 90
        0
 40
-0.6
 41
-30.0
 62
     5
 63
     7
 74
     1
 91
        4
 64
     7
 65
   257
 75
     1
175
     1
 42
1.0
 92
        0
 66
   257
 43
1.0
 76
     1
 77
     6
 78
     2
 67
     7
 79
     3
170
     0
171
     0
290
     0
174
     0
 93
        1
 44
0.0
173
     0
291
     0
 45
0.0
1001
ACAD
1000
AcDbSavedByObjectVersion
1070
     0
  0
VISUALSTYLE
  5
2FFC
102
{ACAD_XDICTIONARY
360
3A74
102
}
102
{ACAD_REACTORS
330
2FE9
102
}
330
2FE9
100
AcDbVisualStyle
  2
X-Ray
 70
    25
 71
     2
 72
     2
 73
     1
 90
        1
 40
0.5
 41
-30.0
 62
     5
 63
     7
 74
     1
 91
        0
 64
     7
 65
   257
 75
     1
175
     1
 42
1.0
 92
        8
 66
     7
 43
1.0
 76
     1
 77
     6
 78
     2
 67
     7
 79
     3
170
     0
171
     0
290
     0
174
     0
 93
       13
 44
0.0
173
     0
291
     0
 45
0.0
1001
ACAD
1000
AcDbSavedByObjectVersion
1070
     0
  0
DICTIONARYVAR
  5
32A5
102
{ACAD_REACTORS
330
5E
102
}
330
5E
100
DictionaryVariables
280
     0
  1
1:1
  0
DICTIONARYVAR
  5
32A3
102
{ACAD_REACTORS
330
5E
102
}
330
5E
100
DictionaryVariables
280
     0
  1
STANDARD
  0
DICTIONARYVAR
  5
84
102
{ACAD_REACTORS
330
5E
102
}
330
5E
100
DictionaryVariables
280
     0
  1
STANDARD
  0
DICTIONARYVAR
  5
5F
102
{ACAD_REACTORS
330
5E
102
}
330
5E
100
DictionaryVariables
280
     0
  1
2
  0
DICTIONARYVAR
  5
63
102
{ACAD_REACTORS
330
5E
102
}
330
5E
100
DictionaryVariables
280
     0
  1
1
  0
DICTIONARYVAR
  5
39EB
102
{ACAD_REACTORS
330
5E
102
}
330
5E
100
DictionaryVariables
280
     0
  1
0
  0
DICTIONARYVAR
  5
32A7
102
{ACAD_REACTORS
330
5E
102
}
330
5E
100
DictionaryVariables
280
     0
  1
1
  0
DICTIONARYVAR
  5
32A8
102
{ACAD_REACTORS
330
5E
102
}
330
5E
100
DictionaryVariables
280
     0
  1
15
  0
DICTIONARYVAR
  5
32A6
102
{ACAD_REACTORS
330
5E
102
}
330
5E
100
DictionaryVariables
280
     0
  1
0
  0
DICTIONARYVAR
  5
32A4
102
{ACAD_REACTORS
330
5E
102
}
330
5E
100
DictionaryVariables
280
     0
  1
0
  0
DICTIONARYVAR
  5
39EA
102
{ACAD_REACTORS
330
5E
102
}
330
5E
100
DictionaryVariables
280
     0
  1
127
  0
DICTIONARYVAR
  5
3A3E
102
{ACAD_REACTORS
330
5E
102
}
330
5E
100
DictionaryVariables
280
     0
  1
2
  0
DICTIONARY
  5
3160
330
22
100
AcDbDictionary
280
     1
281
     1
  3
ACAD_XREC_ROUNDTRIP
360
3A47
  3
ADSK_XREC_LAYOUTTHUMBNAIL
360
3161
  0
DICTIONARY
  5
3A49
330
D3
100
AcDbDictionary
280
     1
281
     1
  3
ACAD_XREC_ROUNDTRIP
360
3A4A
  0
DICTIONARY
  5
3A4B
330
D7
100
AcDbDictionary
280
     1
281
     1
  3
ACAD_XREC_ROUNDTRIP
360
3A4C
  0
DICTIONARY
  5
2FDA
330
2FD9
100
AcDbDictionary
280
     1
281
     1
  3
ACAD_XREC_ROUNDTRIP
360
3A4E
  3
BUMPTILE
360
2FDC
  3
DIFFUSETILE
360
2FDB
  3
OPACITYTILE
360
2FDF
  3
REFLECTIONTILE
360
2FDE
  3
REFRACTIONTILE
360
2FE0
  3
SPECULARTILE
360
2FDD
  0
DICTIONARY
  5
2FD2
330
2FD1
100
AcDbDictionary
280
     1
281
     1
  3
ACAD_XREC_ROUNDTRIP
360
3A4D
  3
BUMPTILE
360
2FD4
  3
DIFFUSETILE
360
2FD3
  3
OPACITYTILE
360
2FD7
  3
REFLECTIONTILE
360
2FD6
  3
REFRACTIONTILE
360
2FD8
  3
SPECULARTILE
360
2FD5
  0
DICTIONARY
  5
2FE2
330
2FE1
100
AcDbDictionary
280
     1
281
     1
  3
ACAD_XREC_ROUNDTRIP
360
3A4F
  3
BUMPTILE
360
2FE4
  3
DIFFUSETILE
360
2FE3
  3
OPACITYTILE
360
2FE7
  3
REFLECTIONTILE
360
2FE6
  3
REFRACTIONTILE
360
2FE8
  3
SPECULARTILE
360
2FE5
  0
DICTIONARY
  5
3A40
330
3015
100
AcDbDictionary
280
     1
281
     1
  3
ACAD_XREC_ROUNDTRIP
360
3A41
  0
DICTIONARY
  5
39A5
330
7F
100
AcDbDictionary
280
     1
281
     1
  3
ACAD_ROUNDTRIP_2008_TABLESTYLE_CELLSTYLEMAP
360
3A3F
  3
ACAD_XREC_ROUNDTRIP
360
3A48
  0
DICTIONARY
  5
3A5A
330
2FEF
100
AcDbDictionary
280
     1
281
     1
  3
ACAD_XREC_ROUNDTRIP
360
3A5B
  0
DICTIONARY
  5
3A58
330
2FEE
100
AcDbDictionary
280
     1
281
     1
  3
ACAD_XREC_ROUNDTRIP
360
3A59
  0
DICTIONARY
  5
3A66
330
2FF5
100
AcDbDictionary
280
     1
281
     1
  3
ACAD_XREC_ROUNDTRIP
360
3A67
  0
DICTIONARY
  5
3A6E
330
2FF9
100
AcDbDictionary
280
     1
281
     1
  3
ACAD_XREC_ROUNDTRIP
360
3A6F
  0
DICTIONARY
  5
3A60
330
2FF2
100
AcDbDictionary
280
     1
281
     1
  3
ACAD_XREC_ROUNDTRIP
360
3A61
  0
DICTIONARY
  5
3A64
330
2FF4
100
AcDbDictionary
280
     1
281
     1
  3
ACAD_XREC_ROUNDTRIP
360
3A65
  0
DICTIONARY
  5
3A7E
330
3001
100
AcDbDictionary
280
     1
281
     1
  3
ACAD_XREC_ROUNDTRIP
360
3A7F
  0
DICTIONARY
  5
3A6C
330
2FF8
100
AcDbDictionary
280
     1
281
     1
  3
ACAD_XREC_ROUNDTRIP
360
3A6D
  0
DICTIONARY
  5
3A50
330
2FEA
100
AcDbDictionary
280
     1
281
     1
  3
ACAD_XREC_ROUNDTRIP
360
3A51
  0
DICTIONARY
  5
3A52
330
2FEB
100
AcDbDictionary
280
     1
281
     1
  3
ACAD_XREC_ROUNDTRIP
360
3A53
  0
DICTIONARY
  5
3A54
330
2FEC
100
AcDbDictionary
280
     1
281
     1
  3
ACAD_XREC_ROUNDTRIP
360
3A55
  0
DICTIONARY
  5
3A56
330
2FED
100
AcDbDictionary
280
     1
281
     1
  3
ACAD_XREC_ROUNDTRIP
360
3A57
  0
DICTIONARY
  5
3A5E
330
2FF1
100
AcDbDictionary
280
     1
281
     1
  3
ACAD_XREC_ROUNDTRIP
360
3A5F
  0
DICTIONARY
  5
3A7A
330
2FFF
100
AcDbDictionary
280
     1
281
     1
  3
ACAD_XREC_ROUNDTRIP
360
3A7B
  0
DICTIONARY
  5
3A6A
330
2FF7
100
AcDbDictionary
280
     1
281
     1
  3
ACAD_XREC_ROUNDTRIP
360
3A6B
  0
DICTIONARY
  5
3A7C
330
3000
100
AcDbDictionary
280
     1
281
     1
  3
ACAD_XREC_ROUNDTRIP
360
3A7D
  0
DICTIONARY
  5
3A62
330
2FF3
100
AcDbDictionary
280
     1
281
     1
  3
ACAD_XREC_ROUNDTRIP
360
3A63
  0
DICTIONARY
  5
3A78
330
2FFE
100
AcDbDictionary
280
     1
281
     1
  3
ACAD_XREC_ROUNDTRIP
360
3A79
  0
DICTIONARY
  5
3A76
330
2FFD
100
AcDbDictionary
280
     1
281
     1
  3
ACAD_XREC_ROUNDTRIP
360
3A77
  0
DICTIONARY
  5
3A70
330
2FFA
100
AcDbDictionary
280
     1
281
     1
  3
ACAD_XREC_ROUNDTRIP
360
3A71
  0
DICTIONARY
  5
3A72
330
2FFB
100
AcDbDictionary
280
     1
281
     1
  3
ACAD_XREC_ROUNDTRIP
360
3A73
  0
DICTIONARY
  5
3A68
330
2FF6
100
AcDbDictionary
280
     1
281
     1
  3
ACAD_XREC_ROUNDTRIP
360
3A69
  0
DICTIONARY
  5
3A5C
330
2FF0
100
AcDbDictionary
280
     1
281
     1
  3
ACAD_XREC_ROUNDTRIP
360
3A5D
  0
DICTIONARY
  5
3A74
330
2FFC
100
AcDbDictionary
280
     1
281
     1
  3
ACAD_XREC_ROUNDTRIP
360
3A75
  0
XRECORD
  5
3A47
102
{ACAD_REACTORS
330
3160
102
}
330
3160
100
AcDbXrecord
280
     1
102
SHADEPLOT
 70
     0
102
SHADEPLOTRESLEVEL
 70
     2
102
SHADEPLOTCUSTOMDPI
 70
   300
  0
XRECORD
  5
3161
102
{ACAD_REACTORS
330
3160
102
}
330
3160
100
AcDbXrecord
280
     1
310
280000000001000098000000010008000000000000980000000000000000000000010000000000003028210000000000C8C8C8000000000000000000000000000000000000000000000000000000000000000000330000006600000099000000CC000000FF00000000330000333300006633000099330000CC330000FF3300
310
0000660000336600006666000099660000CC660000FF66000000990000339900006699000099990000CC990000FF99000000CC000033CC000066CC000099CC0000CCCC0000FFCC000000FF000033FF000066FF000099FF0000CCFF0000FFFF000000003300330033006600330099003300CC003300FF003300003333003333
310
33006633330099333300CC333300FF33330000663300336633006666330099663300CC663300FF66330000993300339933006699330099993300CC993300FF99330000CC330033CC330066CC330099CC3300CCCC3300FFCC330000FF330033FF330066FF330099FF3300CCFF3300FFFF330000006600330066006600660099
310
006600CC006600FF00660000336600333366006633660099336600CC336600FF33660000666600336666006666660099666600CC666600FF66660000996600339966006699660099996600CC996600FF99660000CC660033CC660066CC660099CC6600CCCC6600FFCC660000FF660033FF660066FF660099FF6600CCFF6600
310
FFFF660000009900330099006600990099009900CC009900FF00990000339900333399006633990099339900CC339900FF33990000669900336699006666990099669900CC669900FF66990000999900339999006699990099999900CC999900FF99990000CC990033CC990066CC990099CC9900CCCC9900FFCC990000FF99
310
0033FF990066FF990099FF9900CCFF9900FFFF99000000CC003300CC006600CC009900CC00CC00CC00FF00CC000033CC003333CC006633CC009933CC00CC33CC00FF33CC000066CC003366CC006666CC009966CC00CC66CC00FF66CC000099CC003399CC006699CC009999CC00CC99CC00FF99CC0000CCCC0033CCCC0066CC
310
CC0099CCCC00CCCCCC00FFCCCC0000FFCC0033FFCC0066FFCC0099FFCC00CCFFCC00FFFFCC000000FF003300FF006600FF009900FF00CC00FF00FF00FF000033FF003333FF006633FF009933FF00CC33FF00FF33FF000066FF003366FF006666FF009966FF00CC66FF00FF66FF000099FF003399FF006699FF009999FF00CC
310
99FF00FF99FF0000CCFF0033CCFF0066CCFF0099CCFF00CCCCFF00FFCCFF0000FFFF0033FFFF0066FFFF0099FFFF00CCFFFF00FFFFFF00000000000D0D0D001A1A1A00282828003535350043434300505050005D5D5D006B6B6B00787878008686860093939300A1A1A100AEAEAE00BBBBBB00C9C9C900D6D6D600E4E4E400
310
F1F1F100FFFFFF000000000000000000000000000000000000000000000000000000000000000000000000000000000000000000000000000000000000000000000000000000000000000000000000000000000000000000000000000000000000000000000000000000000000000000000000000000000000000000000000
310
00000000000000000000000000000000000000000000000000000000000000000000000000000000000000000000000000000000000000000000000000000000000000000000000000000000000000000000000000000000000000000000000000000000000000000000000000000000000000000000000000000000000000
310
0000000000000000000000000000000000000000000000000000000000000000000000000000000000000000000000000000000000000000000000000000000000000000000000BEBEBEBEBEBEBEBEBEBEBEBEBEBEBEBEBEBEBEBEBEBEBEBEBEBEBEBEBEBEBEBEBEBEBEBEBEBEBEBEBEBEBEBEBEBEBEBEBEBEBEBEBEBEBEBE
310
BEBEBEBEBEBEBEBEBEBEBEBEBEBEBEBEBEBEBEBEBEBEBEBEBEBEBEBEBEBEBEBEBEBEBEBEBEBEBEBEBEBEBEBEBEBEBEBEBEBEBEBEBEBEBEBEBEBEBEBEBEBEBEBEBEBEBEBEBEBEBEBEBEBEBEBEBEBEBEBEBEBEBEBEBEBEBEBEBEBEBEBEBEBEBEBEBEBEBEBEBEBEBEBEBEBEBEBEBEBEBEBEBEBEBEBEBEBEBEBEBEBEBEBEBEBEBE
310
BEBEBEBEBEBEBEBEBEBEBEBEBEBEBEBEBEBEBEBEBEBEBEBEBEBEBEBEBEBEBE000000000000000000000000000000000000000000000000000000000000000000000000000000000000BE0000000000000000000000000000000000000000000000000000000000000000000000000000000000000000000000000000000000
310
00000000000000000000000000000000000000000000000000000000000000000000000000000000000000000000000000000000000000000000000000000000000000000000000000000000000000000000000000000000000000000000000000000000000000000000000000000000000000000000000000000000000000
310
0000000000000000000000000000000000000000000000000000000000000000BE000000000000000000000000000000000000000000000000000000000000000000000000000000000000BE000000000000000000000000000000000000000000000000000000000000000000000000000000000000000000000000000000
310
00000000000000000000000000000000000000000000000000000000000000000000000000000000000000000000000000000000000000000000000000000000000000000000000000000000000000000000000000000000000000000000000000000000000000000000000000000000000000000000000000000000000000
310
00000000000000000000000000000000000000000000000000000000000000000000BE000000000000000000000000000000000000000000000000000000000000000000000000000000000000BE00000000000000000000000000000000000000000000000000000000000000000000000000000000000000000000000000
310
00000000000000000000000000000000000000000000000000000000000000000000000000000000000000000000000000000000000000000000000000000000000000000000000000000000000000000000000000000000000000000000000000000000000000000000000000000000000000000000000000000000000000
310
000000000000000000000000000000000000000000000000000000000000000000000000BE000000000000000000000000000000000000000000000000000000000000000000000000000000000000BE0000000000000000000000000000000000000000000000000000000000000000000000000000000000000000000000
310
00000000000000000000000000000000000000000000000000000000000000000000000000000000000000000000000000000000000000000000000000000000000000000000000000000000000000000000000000000000000000000000000000000000000000000000000000000000000000000000000000000000000000
310
0000000000000000000000000000000000000000000000000000000000000000000000000000BE000000000000000000000000000000000000000000000000000000000000000000000000000000000000BE000000000000000000F5F5F5F5F5F5F5F5F5F5F5F5F5F5F5F5F5F5F5F5F5F5F5F5F5F5F5F5F5F5F5F5F5F5F5F5
310
F5F5F5F5F5F5F5F5F5F5F5F5F5F5F5F5F5F5F5F5F5F5F5F5F5F5F5F5F5F5F5F5F5F5F5F5F5F5F5F5F5F5F5F5F5F5F5F5F5F5F5F5F5F5F5F5F5F5F5F5F5F5F5F5F5F5F5F5F5F5F5F5F5F5F5F5F5F5F5F5F5F5F5F5F5F5F5F5F5F5F5F5F5F5F5F5F5F5F5F5F5F5F5F5F5F5F5F5F5F5F5F5F5F5F5F5F5F5F5F5F5F5F5F5F5F5F5
310
F5F5F5F5F5F5F5F5F5F5F5F5F5F5F5F5F5F5F5F5F5F5F5F5F5F5F5F5F5F5F5F5F5F5F5F500000000BE000000000000000000000000000000000000000000000000000000000000000000000000000000000000BE000000000000000000F5000000000000000000000000000000000000000000000000000000000000000000
310
0000000000000000000000000000000000000000000000000000000000000000000000000000000000000000000000000000000000000000000000000000000000000000000000000000000000000000000000000000000000000000000000000000000000000000000000000000000000F500F5F5F5F5F500000000000000
310
000000F5F5F5F5F5F5F5F5F5F50000F5F5F5F5F5F5F5F5F500F5F5F5F5F5F500F5F5F50000F500000000BE000000000000000000000000000000000000000000000000000000000000000000000000000000000000BE000000000000000000F500000000000000000000000000000000000000000000000000000000000000
310
00000000000000000000000000000000000000000000000000000000000000000000000000000000000000000000000000000000000000000000000000000000000000000000000000000000000000000000000000000000000000000000000000000000000000000000000000000000000000F500F5F5F5F5F5F500000000
310
0000000000F5F5F5F5F5F5F5F5F5F5F500F5F5F5F5F5F5F5F5F500F5F5F5F500F5F5F5F5F50000F500000000BE000000000000000000000000000000000000000000000000000000000000000000000000000000000000BE000000000000000000F50000000000000000000000000000000000000000000000000000000000
310
000000000000000000000000000000000000000000000000000000000000000000000000000000000000000000000000000000000000000000000000000000000000000000000000000000000000000000000000000000000000000000000000000000000000000000000000000000000000000000F5F5F5F5F5F5F5F500F5
310
F5F500F5F5F5F5F500F5F5F5F5F5F5F500F50000F5F5F5F500F5F5F500000000000000000000000000F500000000BE000000000000000000000000000000000000000000000000000000000000000000000000000000000000BE000000000000000000F5000000000000000000000000000000000000000000000000000000
310
0000000000000000000000000000000000000000000000000000000000000000000000000000000000000000000000000000000000000000000000000000000000000000000000000000000000000000000000000000000000000000000000000000000000000000000000000000000000000000000000F5F5F5F5F5F5F5F5
310
00F5F5F500F5F5F5F5F5F5F5F5F5F500F5F5F500F5F5F5F5F5F5F5F5F50000000000000000000000000000F500000000BE000000000000000000000000000000000000000000000000000000000000000000000000000000000000BE000000000000000000F500000000000000000000000000000000000000000000000000
310
00000000000000000000000000000000000000000000000000000000000000000000000000000000000000000000000000000000000000000000000000000000000000000000000000000000000000000000000000000000000000000000000000000000000000000000000000000000000000000000000000F500F5F5F5F5
310
F5F500F5F5F5F5F5F5F5F5F5F5F5F5F5F5F5F5F5F5F5F5F500F5F5F5F5F5F5F500000000000000000000000000F500000000BE000000000000000000000000000000000000000000000000000000000000000000000000000000000000BE000000000000000000F50000000000000000000000000000000000000000000000
310
000000000000000000000000000000000000000000000000000000000000000000000000000000000000000000000000000000000000000000000000000000000000000000000000000000000000000000000000000000000000000000000000000000000000000000000000000000000000000000000000000000F500F5F5
310
F5F5F50000F5F5F500F5F500F5F5F5F5F5F5F5F5F5F5F5F5F5F5F500F5F500F5F50000000000000000000000000000F500000000BE000000000000000000000000000000000000000000000000000000000000000000000000000000000000BE000000000000000000F5000000000000000000000000000000000000000000
310
0000000000000000000000000000000000000000000000000000000000000000000000000000000000000000000000000000000000000000000000000000000000000000000000000000000000000000000000000000000000000000000000000000000000000000000000000000000000000000000000000000000000F5F5
310
F5F5F5F5F5F5F5F5F5F5F5F5F5F5F5F5F5F5F5F5F5F5F5F5F5F5F5F5F5F5F5F5F5F5F5F5F5F5F5F5F5F5F5F5F5F5F5F5F5F500000000BE000000000000000000000000000000000000000000000000000000000000000000000000000000000000BE000000000000000000F500000000000000000000000000000000000000
310
00000000000000000000000000000000000000000000000000000000000000000000000000000000000000000000000000000000000000000000000000000000000000000000000000000000000000000000000000000000000000000000000000000000000000000000000000000000000000000000000000000000000000
310
F500000000000000F50000000000000000000000000000000000000000000000000000000000F5000000000000000000000000F500000000BE000000000000000000000000000000000000000000000000000000000000000000000000000000000000BE000000000000000000F50000000000000000000000000000000000
310
00000000000000000000000000000000000000000000000000000000000000000000000000000000000000000000000000000000000000000000000000000000000000000000000000000000000000000000000000000000000000000000000000000000000000000000000000000000000000000000000000000000000000
310
0000F500F5F5F5F50000F5000000000000F5F5F5F5F500F5F5F500F5F5F5F5F5F500000000000000F5000000000000000000000000F500000000BE000000000000000000000000000000000000000000000000000000000000000000000000000000000000BE000000000000000000F5000000000000000000000000000000
310
00000000000000000000000000000000000000000000000000000000000000000000000000000000000000000000000000000000000000000000000000000000000000000000000000000000000000000000000000000000000000000000000000000000000000000000000000000000000000000000000000000000000000
310
00000000F500F5F5F5F50000F5000000000000F5F5F5F5F500F5F5F500F5F5F5F5F5F500000000000000F5000000000000000000000000F500000000BE000000000000000000000000000000000000000000000000000000000000000000000000000000000000BE000000000000000000F500000000000000000000000000
310
00000000000000000000000000000000000000000000000000000000000000000000000000000000000000000000000000000000000000000000000000000000000000000000000000000000000000000000000000000000000000000000000000000000000000000000000000000000000000000000000000000000000000
310
000000000000F500000000000000F50000000000000000000000000000000000000000000000000000000000F5000000000000000000000000F500000000BE000000000000000000000000000000000000000000000000000000000000000000000000000000000000BE000000000000000000F50000000000000000000000
310
00000000000000000000000000000000000000000000000000000000000000000000000000000000000000000000000000000000000000000000000000000000000000000000000000000000000000000000000000000000000000000000000000000000000000000000000000000000000000000000000000000000000000
310
0000000000000000F5F5F5F5F5F5F5F5F5F5F5F5F5F5F5F5F5F5F5F5F5F5F5F5F5F5F5F5F5F5F5F5F5F5F5F5F5F5F5F5F5F5F5F5F5F5F5F5F5F5F5F500000000BE000000000000000000000000000000000000000000000000000000000000000000000000000000000000BE000000000000000000F5000000000000000000
310
00000000000000000000000000000000000000000000000000000000000000000000000000000000000000000000000000000000000000000000000000000000000000000000000000000000000000000000000000000000000000000000000000000000000000000000000000000000000000000000000000000000000000
310
00000000000000000000F500000000000000F50000000000000000000000000000000000000000000000000000000000F500000000F500000000000000F500000000BE000000000000000000000000000000000000000000000000000000000000000000000000000000000000BE000000000000000000F500000000000000
310
00000000000000000000000000000000000000000000000000000000000000000000000000000000000000000000000000000000000000000000000000000000000000000000000000000000000000000000000000000000000000000000000000000000000000000000000000000000000000000000000000000000000000
310
000000000000000000000000F5F5F5F5F5F5F500F500000000000000000000F5F5F5F5F5F5F5F5F500000000000000000000F5F5F5F5F5F500F5F5F5F5F500F500000000BE000000000000000000000000000000000000000000000000000000000000000000000000000000000000BE000000000000000000F50000000000
310
00000000000000000000000000000000000000000000000000000000000000000000000000000000000000000000000000000000000000000000000000000000000000000000000000000000000000000000000000000000000000000000000000000000000000000000000000000000000000000000000000000000000000
310
0000000000000000000000000000F5F5F5F5F5F5F500F500000000000000000000F5F5F5F5F5F500F5F500000000000000000000F5F5F5F5F5F500F500F5F5F500F500000000BE000000000000000000000000000000000000000000000000000000000000000000000000000000000000BE000000000000000000F5000000
310
00000000000000000000000000000000000000000000000000000000000000000000000000000000000000000000000000000000000000000000000000000000000000000000000000000000000000000000000000000000000000000000000000000000000000000000000000000000000000000000000000000000000000
310
00000000000000000000000000000000F500000000000000F50000000000000000000000F500F500F50000F500000000000000000000F500000000F500000000000000F500000000BE000000000000000000000000000000000000000000000000000000000000000000000000000000000000BE000000000000000000F500
310
00000000000000000000000000000000000000000000000000000000000000000000000000000000000000000000000000000000000000000000000000000000000000000000000000000000000000000000000000000000000000000000000000000000000000000000000000000000000000000000000000000000000000
310
000000000000000000000000000000000000F5F5F5F5F5F5F5F5F5F5F5F5F5F5F5F5F5F5F5F5F5F5F5F5F5F5F5F5F5F5F5F5F5F5F5F5F5F5F5F5F5F5F5F5F5F5F5F5F5F5F5F500000000BE000000000000000000000000000000000000000000000000000000000000000000000000000000000000BE000000000000000000
310
F5000000000000000000000000000000000000000000000000000000000000000000000000000000000000000000000000000000000000000000000000000000000000000000000000000000000000000000000000000000000000000000000000000000000000000000000000000000000000000000000000000000000000
310
0000000000000000000000000000000000000000000000000000000000000000000000000000000000000000000000000000000000000000000000000000000000000000000000F500000000BE000000000000000000000000000000000000000000000000000000000000000000000000000000000000BE00000000000000
310
0000F500000000000000000000000000000000000000000000000000000000000000000000000000000000000000000000000000000000000000000000000000000000000000000000000000000000000000000000000000000000000000000000000000000000000000000000000000000000000000000000000000000000
310
00000000000000000000000000000000000000000000000000000000000000000000000000000000000000000000000000000000000000000000000000000000000000000000000000F500000000BE000000000000000000000000000000000000000000000000000000000000000000000000000000000000BE0000000000
310
00000000F50000000000000000000000000000000000000000000000000000000000000000000000000000000000000000000000000000000000000000000000000000000000000000000000000000000000000000000000000000000000000000000000000000000000000000000000000000000000000000000000000000
310
000000000000000000000000000000000000000000000000000000000000000000000000000000000000000000000000000000000000000000000000000000000000000000000000000000F500000000BE000000000000000000000000000000000000000000000000000000000000000000000000000000000000BE000000
310
000000000000F5000000000000000000000000000000000000000000000000000000000000000000000000000000000000000000000000000000000000000000000000000000000000000000000000000000000000000000000000000000000000000000000000000000000000000000000000000000000000000000000000
310
0000000000000000000000000000000000000000000000000000000000000000000000000000000000000000000000000000000000000000000000000000000000000000000000000000000000F500000000BE000000000000000000000000000000000000000000000000000000000000000000000000000000000000BE00
310
0000000000000000F500000000000000000000000000000000000000000000000000000000000000000000000000000000000000000000000000000000000000000000000000000000000000000000000000000000000000000000000000000000000000000000000000000000000000000000000000000000000000000000
310
00000000000000000000000000000000000000000000000000000000000000000000000000000000000000000000000000000000000000000000000000000000000000000000000000000000000000F500000000BE000000000000000000000000000000000000000000000000000000000000000000000000000000000000
310
BE000000000000000000F50000000000000000000000000000000000000000000000000000000000000000000000000000000000000000000000000000000000000000000000000000000000000000000000000000000000000000000000000000000000000000000000000000000000000000000000000000000000000000
310
000000000000000000000000000000000000000000000000000000000000000000000000000000000000000000000000000000000000000000000000000000000000000000000000000000000000000000F500000000BE00000000000000000000000000000000000000000000000000000000000000000000000000000000
310
0000BE000000000000000000F5000000000000000000000000000000000000000000000000000000000000000000000000000000000000000000000000000000000000000000000000000000000000000000000000000000000000000000000000000000000000000000000000000000000000000000000000000000000000
310
0000000000000000000000000000000000000000000000000000000000000000000000000000000000000000000000000000000000000000000000000000000000000000000000000000000000000000000000F500000000BE0000000000000000000000000000000000000000000000000000000000000000000000000000
310
00000000BE000000000000000000F500000000000000000000000000000000000000000000000000000000000000000000000000000000000000000000000000000000000000000000000000000000000000000000000000000000000000000000000000000000000000000000000000000000000000000000000000000000
310
0000000000000000000000000000000000000000000000000000000000000000000000000000000000000000000000000000000000000000000000000000F5F5000000000000000000000000000000000000000000F500000000BE000000000000000000000000000000000000000000000000000000000000000000000000
310
000000000000BE000000000000000000F50000000000000000000000000000000000000000000000000000000000000000000000000000000000000000000000000000000000000000000000000000000000000000000000000000000000000000000000000000000000000000000000000000000000000000000000000000
310
0000000000000000000000000000000000000000000000000000000000000000000000000000000000000000000000000000000000F5F5F5F5F5F5F5F5F5F5F5F5F5000000000000000000000000000000000000000000F500000000BE00000000000000000000000000000000000000000000000000000000000000000000
310
0000000000000000BE000000000000000000F5000000000000000000000000000000000000000000000000000000000000000000000000000000000000000000000000000000000000000000000000000000000000000000000000000000000000000000000000000000000000000000000000000000000000000000000000
310
00000000000000000000000000000000000000000000000000000000000000000000000000000000000000000000000000000000000000F5F5F5F5F5F5F5F5F5F5F5F5F5000000000000000000000000000000000000000000F500000000BE0000000000000000000000000000000000000000000000000000000000000000
310
00000000000000000000BE000000000000000000F500000000000000000000000000000000000000000000000000000000000000000000000000000000000000000000000000000000000000000000000000000000000000000000000000000000000000000000000000000000000000000000000000000000000000000000
310
00000000000000000000000000000000000000000000000000000000000000000000000000000000000000000000000000000000000000000000000000000000000000000000000000000000000000000000000000000000000000F500000000BE000000000000000000000000000000000000000000000000000000000000
310
000000000000000000000000BE000000000000000000F50000000000000000000000000000000000000000000000000000000000000000000000000000000000000000000000000000000000000000000000000000000000000000000000000000000000000000000000000000000000000000000000000000000000000000
310
000000000000000000000000000000000000000000000000000000000000000000000000000000000000000000000000000000000000000000000000000000000000000000000000000000000000000000000000000000000000000000F500000000BE00000000000000000000000000000000000000000000000000000000
310
0000000000000000000000000000BE000000000000000000F5000000000000000000000000000000000000000000000000000000000000000000000000000000000000000000000000000000000000000000000000000000000000000000000000000000000000000000000000000000000000000000000000000000000000
310
0000000000000000000000000000000000000000000000000000000000000000000000000000000000000000000000000000000000000000000000000000000000000000000000000000000000000000000000000000000000000000000000F500000000BE0000000000000000000000000000000000000000000000000000
310
00000000000000000000000000000000BE000000000000000000F500000000000000000000000000000000000000000000000000000000000000000000000000000000000000000000000000000000000000000000000000000000000000000000000000000000000000000000000000000000000000000000000000000000
310
00000000000000000000000000000000000000000000000000000000000000000000000000000000000000000000000000000000000000000000000000000000000000000000000000000000000000000000000000000000000000000000000000F500000000BE000000000000000000000000000000000000000000000000
310
000000000000000000000000000000000000BE000000000000000000F50000000000000000000000000000000000000000000000000000000000000000000000000000000000000000000000000000000000000000000000000000000000000000000000000000000000000000000000000000000000000000000000000000
310
000000000000000000000000000000000000000000000000000000000000000000000000000000000000000000000000000000000000000000000000000000000000000000000000000000000000000000000000000000000000000000000000000000F500000000BE00000000000000000000000000000000000000000000
310
0000000000000000000000000000000000000000BE000000000000000000F5000000000000000000000000000000000000000000000000000000000000000000000000000000000000000000000000000000000000000000000000000000000000000000000000000000000000000000000000000000000000000000000000
310
0000000000000000000000000000000000000000000000000000000000000000000000000000000000000000000000000000000000000000000000000000000000000000000000000000000000000000000000000000000000000000000000000000000000F500000000BE0000000000000000000000000000000000000000
310
00000000000000000000000000000000000000000000BE000000000000000000F500000000000000000000000000000000000000000000000000000000000000000000000000000000000000000000000000000000000000000000000000000000000000000000000000000000000000000000000000000000000000000000
310
00000000000000000000000000000000000000000000000000000000000000000000000000000000000000000000000000000000000000000000000000000000000000000000000000000000000000000000000000000000000000000000000000000000000000F500000000BE000000000000000000000000000000000000
310
000000000000000000000000000000000000000000000000BE000000000000000000F50000000000000000000000000000000000000000000000000000000000000000000000000000000000000000000000000000000000000000000000000000000000000000000000000000000000000000000000000000000000000000
310
000000000000000000000000000000000000000000000000000000000000000000000000000000000000000000000000000000000000000000000000000000000000000000000000000000000000000000000000000000000000000000000000000000000000000000F500000000BE00000000000000000000000000000000
310
0000000000000000000000000000000000000000000000000000BE000000000000000000F5000000000000000000000000000000000000000000000000000000000000000000000000000000000000000000000000000000000000000000000000000000000000000000000000000000000000000000000000000000000000
310
0000000000000000000000000000000000000000000000000000000000000000000000000000000000000000000000000000000000000000000000000000000000000000000000000000000000000000000000000000000000000000000000000000000000000000000000F500000000BE0000000000000000000000000000
310
00000000000000000000000000000000000000000000000000000000BE000000000000000000F500000000000000000000000000000000000000000000000000000000000000000000000000000000000000000000000000000000000000000000000000000000000000000000000000000000000000000000000000000000
310
00000000000000000000000000000000000000000000000000000000000000000000000000000000000000000000000000000000000000000000000000000000000000000000000000000000000000000000000000000000000000000000000000000000000000000000000000F500000000BE000000000000000000000000
310
000000000000000000000000000000000000000000000000000000000000BE000000000000000000F50000000000000000000000000000000000000000000000000000000000000000000000000000000000000000000000000000000000000000000000000000000000000000000000000000000000000000000000000000
310
000000000000000000000000000000000000000000000000000000000000000000000000000000000000000000000000000000000000000000000000000000000000000000000000000000000000000000000000000000000000000000000000000000000000000000000000000000F500000000BE00000000000000000000
310
0000000000000000000000000000000000000000000000000000000000000000BE000000000000000000F5000000000000000000000000000000000000000000000000000000000000000000000000000000000000000000000000000000000000000000000000000000000000000000000000000000000000000000000000
310
0000000000000000000000000000000000000000000000000000000000000000000000000000000000000000000000000000000000000000000000000000000000000000000000000000000000000000000000000000000000000000000000000000000000000000000000000000000000F500000000BE0000000000000000
310
00000000000000000000000000000000000000000000000000000000000000000000BE000000000000000000F5000000000000000000000000000000000000000000000000000000000000000000000000000000000000000000000000000000000000000000F5F5F5F5F52828000000002800000000280000000028280000
310
000028002D0028280000000028000000002828000000002800000000280000000000000000000000000000000000000000000000000000000000000000000000000000000000000000000000000000000000000000000000000000000000000000000000000000000000000000000000000000F500000000BE000000000000
310
000000000000000000000000000000000000000000000000000000000000000000000000BE000000000000000000F5000000000000000000000000000000000000000000000000000000000000000000000000000000000000000000000000000000000000000000F5F5000000282800000000280000000028000000002828
310
0000000028002D0028280000000028000000002828000000002800000000282800000000000000000000000000000000000000000000000000000000000000000000000000000000000000000000000000000000000000000000000000000000000000000000000000000000000000000000000000F500000000BE00000000
310
0000000000000000000000000000000000000000000000000000000000000000000000000000BE000000000000000000F5000000000000000000000000000000000000000000000000000000000000000000000000000000000000000000000000000000000000000000F5F500000028280000000028000000002800000000
310
28280000000028002D0028280000000028000000002828000000002800000000282800000000000000000000000000000000000000000000000000000000000000000000000000000000000000000000000000000000000000000000000000000000000000000000000000000000000000000000000000F500000000BE0000
310
00000000000000000000000000000000000000000000000000000000000000000000000000000000BE000000000000000000F5000000000000000000000000000000000000000000000000000000000000000000000000000000000000000000000000000000000000000000F5F50000002828000000002800000000280000
310
000028280000000028002D0028280000000028000000002828000000002800000000282800000000000000000000000000000000000000000000000000000000000000000000000000000000000000000000000000000000000000000000000000000000000000000000000000000000000000000000000000F500000000BE
310
000000000000000000000000000000000000000000000000000000000000000000000000000000000000BE000000000000000000F5000000000000000000000000000000000000000000000000000000000000000000000000000000000000000000000000000000000000000000F5F50000002828F5F5F5F528F5F5F5F528
310
F5F5F5F52828F5F5F5F528F5F5F52828F5F5F5F528F5F5F5F52828F5F5F5F528F5F5F5F52828F5F5F5F5F50000000000000000000000000000000000000000000000000000000000000000000000000000000000000000000000000000000000000000000000000000000000000000000000000000000000000000F5000000
310
00BE000000000000000000000000000000000000000000000000000000000000000000000000000000000000BE000000000000000000F5000000000000000000000000000000000000000000000000000000000000000000000000000000000000000000000000000000000000000000F5F500000028280000000028000000
310
0028F500000028280000000028F52D0028280000000028F500000028280000000028000000002828F5F5F5F5F50000000000000000000000000000000000000000000000000000000000000000000000000000000000000000000000000000000000000000000000000000000000000000000000000000000000000000F500
310
000000BE000000000000000000000000000000000000000000000000000000000000000000000000000000000000BE000000000000000000F5000000000000000000000000000000000000000000000000000000000000000000000000000000000000000000000000000000000000000000F5F50000002828000000002800
310
000000280000000028280000000028002D00282800000000280000000028280000000028000000002828F5F5F5F5F50000000000000000000000000000000000000000000000000000000000000000000000000000000000000000000000000000000000000000000000000000000000000000000000000000000000000000
310
F500000000BE000000000000000000000000000000000000000000000000000000000000000000000000000000000000BE000000000000000000F5000000000000000000000000000000000000000000000000000000000000000000000000000000000000000000000000000000000000000000F5F5000000282800000000
310
2800000000280000000028280000000028002D002828000000002800000000282800000000280000000028280000000000000000000000000000000000000000000000000000000000000000000000000000000000000000000000000000000000000000000000000000000000000000000000000000000000000000000000
310
0000F500000000BE000000000000000000000000000000000000000000000000000000000000000000000000000000000000BE000000000000000000F5000000000000000000000000000000000000000000000000000000000000000000000000000000000000000000000000000000000000000000F5F500000028280000
310
00002800000000280000000028280000000028002D00282800000000280000000028280000000028000000002828000000000000000000000000000000000000000000000000000000000000000000000000000000000000000000000000000000000000000000000000000000000000000000000000000000000000000000
310
00000000F500000000BE000000000000000000000000000000000000000000000000000000000000000000000000000000000000BE000000000000000000F5000000000000000000000000000000000000000000000000000000000000000000000000000000000000000000000000000000000000000000F5F50000002828
310
000000002800000000280000000028280000000028002D0028280000000028000000002828000000002800000000282800000000000000000000000000000000000000000000000000000000000000000000000000000000000000000000000000000000000000000000000000000000000000000000000000000000000000
310
000000000000F500000000BE000000000000000000000000000000000000000000000000000000000000000000000000000000000000BE000000000000000000F5000000000000000000000000000000000000000000000000000000000000000000000000000000000000000000000000000000000000000000F5F5000000
310
2828000000002800000000280000000028280000000028002D002828000000002800000000282800000000280000000028280000000000000000000000000000000000000000000000000000000000000000000000000000000000000000000000000000000000000000000000000000000000000000000000000000000000
310
0000000000000000F500000000BE000000000000000000000000000000000000000000000000000000000000000000000000000000000000BE000000000000000000F5000000000000000000000000000000000000000000000000000000000000000000000000000000000000000000000000000000000000000000F5F5F5
310
F5F52828F5F5F5F528F5F5F5F528F5F5F5F52828F5F5F5F528F52DF52828F5F5F5F528F5F5F5F52828F5F5F5F528F5F5F5F52828F50000000000000000000000000000000000000000000000000000000000000000000000000000000000000000000000000000000000000000000000000000000000000000000000000000
310
00000000000000000000F500000000BE000000000000000000000000000000000000000000000000000000000000000000000000000000000000BE000000000000000000F50000000000000000000000000000000000000000000000000000000000000000000000000000000000000000000000000000000000000000F5F5
310
F50000F50000000000000000000000000000000000000000000000002D000000000000000000000000000000000000000000000000F5F5000000000000000000000000000000000000000000000000000000000000000000000000000000000000000000000000000000000000000000000000000000000000000000000000
310
000000000000000000000000F500000000BE000000000000000000000000000000000000000000000000000000000000000000000000000000000000BE000000000000000000F50000000000000000000000000000000000000000000000000000000000000000000000000000000000000000000000000000000000000000
310
F5F5F50000F5000000000000000000000000000000000000000000000000F5000000000000000000000000000000000000000000000000F5F500000000000000000000000000000000000000000000000000000000000000000000000000000000000000000000000000000000000000000000000000000000000000000000
310
0000000000000000000000000000F500000000BE000000000000000000000000000000000000000000000000000000000000000000000000000000000000BE000000000000000000F5000000000000000000000000000000000000000000000000000000000000000000000000000000000000000000000000000000000000
310
000000F5F50000F5000000000000000000000000000000000000000000000000F5000000000000000000000000000000000000000000000000F5F50000000000000000000000000000000000000000000000000000000000000000000000000000000000000000000000000000000000000000000000000000000000000000
310
00000000000000000000000000000000F500000000BE000000000000000000000000000000000000000000000000000000000000000000000000000000000000BE000000000000000000F500000000000000000000000000000000000000000000000000000000000000000000000000000000000000000000000000000000
310
0000000000F5F50000F50000000000000000000000000000000000000000000000002D000000000000000000000000000000000000000000000000F5F5000000000000000000000000000000000000000000000000000000000000000000000000000000000000000000000000000000000000000000000000000000000000
310
000000000000000000000000000000000000F500000000BE000000000000000000000000000000000000000000000000000000000000000000000000000000000000BE000000000000000000F50000000000000000000000000000000000000000000000000000000000000000000000000000000000000000000000000000
310
00000000000000F5F50000F50000000000000000000000000000000000000000000000002D000000000000000000000000000000000000000000000000F5F500000000000000000000000000000000000000000000000000000000000000000000000000000000000000000000000000000000000000000000000000000000
310
0000000000000000000000000000000000000000F500000000BE000000000000000000000000000000000000000000000000000000000000000000000000000000000000BE000000000000000000F5000000000000000000000000000000000000000000000000000000000000000000000000000000000000000000000000
310
000000000000000000F5F50000F50000000000000000000000000000000000000000000000002D000000000000000000000000000000000000000000000000F5F50000000000000000000000000000000000000000000000000000000000000000000000000000000000000000000000000000000000000000000000000000
310
00000000000000000000000000000000000000000000F500000000BE000000000000000000000000000000000000000000000000000000000000000000000000000000000000BE000000000000000000F500000000000000000000000000000000000000000000000000000000000000000000000000000000000000000000
310
0000000000000000000000F5F50000F50000000000000000000000000000000000000000000000002D000000000000000000000000000000000000000000000000F5F5000000000000000000000000000000000000000000000000000000000000000000000000000000000000000000000000000000000000000000000000
310
000000000000000000000000000000000000000000000000F500000000BE000000000000000000000000000000000000000000000000000000000000000000000000000000000000BE000000000000000000F50000000000000000000000000000000000000000000000000000000000000000000000000000000000000000
310
00000000000000000000000000F5F50000F50000000000000000000000000000000000000000000000002D000000000000000000000000000000000000000000000000F5F500000000000000000000000000000000000000000000000000000000000000000000000000000000000000000000000000000000000000000000
310
0000000000000000000000000000000000000000000000000000F500000000BE000000000000000000000000000000000000000000000000000000000000000000000000000000000000BE000000000000000000F5000000000000000000000000000000000000000000000000000000000000000000000000000000000000
310
000000000000000000000000000000F5F50000F50000000000000000000000000000000000000000000000002D000000000000000000000000000000000000000000000000F5F50000000000000000000000000000000000000000000000000000000000000000000000000000000000000000000000000000000000000000
310
00000000000000000000000000000000000000000000000000000000F500000000BE000000000000000000000000000000000000000000000000000000000000000000000000000000000000BE000000000000000000F500000000000000000000000000000000000000000000000000000000000000000000000000000000
310
0000000000000000000000000000000000F5F50000F5F5F5F5F5F5F5F5F5F5F5F5F5F5F5F5F5F5F5F5F5F5F5F5F5F5F5F5F5F5F5F5F5F5F5F5F5F5F5F5F5F5F5F5F5F5F5F5F5F5F5F5000000000000000000000000000000000000000000000000000000000000000000000000000000000000000000000000000000000000
310
000000000000000000000000000000000000000000000000000000000000F500000000BE000000000000000000000000000000000000000000000000000000000000000000000000000000000000BE000000000000000000F50000000000000000000000000000000000000000000000000000000000000000000000000000
310
00000000000000000000000000000000000000F5F50000F5F5F5F5F5F5F5F5F5F5F5F5F5F5F5F5F5F5F5F5F5F5F5F5F5F5F5F5F5F5F5F5F5F5F5F5F5F5F5F5F5F5F5F5F5F5F5F5F5F5F5F500000000000000000000000000000000000000000000000000000000000000000000000000000000000000000000000000000000
310
0000000000000000000000000000000000000000000000000000000000000000F500000000BE000000000000000000000000000000000000000000000000000000000000000000000000000000000000BE000000000000000000F5000000000000000000000000000000000000000000000000000000000000000000000000
310
000000000000000000000000000000000000000000F5F50000F50000000000000000000000000000000000000000000000002D00000000000000000000000000000000000000000000000000F50000000000000000000000000000000000000000000000000000000000000000000000000000000000000000000000000000
310
00000000000000000000000000000000000000000000000000000000000000000000F500000000BE000000000000000000000000000000000000000000000000000000000000000000000000000000000000BE000000000000000000F500000000000000000000000000000000000000000000000000000000000000000000
310
0000000000000000000000000000000000000000000000F5F5F5F5F5F5F5F5F5F5F5F5F5F5F5F5F5F5F5F5F5F5F5F5F5F5F5F5F5F5F5F5F5F5F5F5F5F5F5F5F5F5F5F5F5F5F5F5F5F5F5F5F5F5F5F5000000000000000000000000000000000000000000000000000000000000000000000000000000000000000000000000
310
000000000000000000000000000000000000000000000000000000000000000000000000F500000000BE000000000000000000000000000000000000000000000000000000000000000000000000000000000000BE000000000000000000F50000000000000000000000000000000000000000000000000000000000000000
310
0000000000000000000000000000000000000000000000000000000000F50000000000000000000000000000000000000000000000002D00000000000000000000000000000000000000000000000000F500000000000000000000000000000000000000000000000000000000000000000000000000000000000000000000
310
0000000000000000000000000000000000000000000000000000000000000000000000000000F500000000BE000000000000000000000000000000000000000000000000000000000000000000000000000000000000BE000000000000000000F5000000000000000000000000000000000000000000000000000000000000
310
00000000000000000000000000000000000000000000000000000000000000F50000000000000000000000000000000000000000000000000000000000000000000000000000000000000000000000000000F50000000000000000000000000000000000000000000000000000000000000000000000000000000000000000
310
00000000000000000000000000000000000000000000000000000000000000000000000000000000F500000000BE000000000000000000000000000000000000000000000000000000000000000000000000000000000000BE000000000000000000F500000000000000000000000000000000000000000000000000000000
310
000000000000000000000000000000000000000000000000000000000000000000F50000000000000000000000000000000000000000000000000000000000000000000000000000000000000000000000000000F5000000000000000000000000000000000000000000000000000000000000000000000000000000000000
310
000000000000000000000000000000000000000000000000000000000000000000000000000000000000F500000000BE000000000000000000000000000000000000000000000000000000000000000000000000000000000000BE000000000000000000F50000000000000000000000000000000000000000000000000000
310
0000000000000000000000000000000000000000000000000000000000000000000000F5F5F5F5F5F5F5F5F5F5F5F5F5F5F5F5F5F5F5F5F5F5F5F5F5F5F5F5F5F5F5F5F5F5F5F5F5F5F5F5F5F5F5F5F5F5F5F5F5F5F5F500000000000000000000000000000000000000000000000000000000000000000000000000000000
310
0000000000000000000000000000000000000000000000000000000000000000000000000000000000000000F500000000BE000000000000000000000000000000000000000000000000000000000000000000000000000000000000BE000000000000000000F5000000000000000000000000000000000000000000000000
310
00000000000000000000000000000000000000000000000000000000000000000000000000F50000000000000000000000000000000000000000000000F5F5F50000000000000000000000000000000000000000000000F5000000000000000000000000000000000000000000000000000000000000000000000000000000
310
00000000000000000000000000000000000000000000000000000000000000000000000000000000000000000000F500000000BE000000000000000000000000000000000000000000000000000000000000000000000000000000000000BE000000000000000000F500000000000000000000000000000000000000000000
310
00000000000000000000000000000000000000000000000000000000000000000000000000000000000000000000000000000000000000000000000000000000000000000000000000000000000000000000000000000000000000000000000000000000000000000000000000000000000000000000000000000000000000
310
000000000000000000000000000000000000000000000000000000000000000000000000000000000000000000000000F500000000BE000000000000000000000000000000000000000000000000000000000000000000000000000000000000BE000000000000000000F50000000000000000000000000000000000000000
310
00000000000000000000000000000000000000000000000000000000000000000000000000000000000000000000000000000000000000000000000000000000000000000000000000000000000000000000000000000000000000000000000000000000000000000000000000000000000000000000000000000000000000
310
0000000000000000000000000000000000000000000000000000000000000000000000000000000000000000000000000000F500000000BE000000000000000000000000000000000000000000000000000000000000000000000000000000000000BE000000000000000000F5000000000000000000000000000000000000
310
00000000000000000000000000000000000000000000000000000000000000000000000000000000000000000000000000000000000000000000000000000000000000000000000000000000000000000000000000000000000000000000000000000000000000000000000000000000000000000000000000000000000000
310
00000000000000000000000000000000000000000000000000000000000000000000000000000000000000000000000000000000F500000000BE000000000000000000000000000000000000000000000000000000000000000000000000000000000000BE000000000000000000F500000000000000000000000000000000
310
00000000000000000000000000000000000000000000000000000000000000000000000000000000000000000000000000000000000000000000000000000000000000000000000000000000000000000000000000000000000000000000000000000000000000000000000000000000000000000000000000000000000000
310
000000000000000000000000000000000000000000000000000000000000000000000000000000000000000000000000000000000000F500000000BE000000000000000000000000000000000000000000000000000000000000000000000000000000000000BE000000000000000000F50000000000000000000000000000
310
00000000000000000000000000000000000000000000000000000000000000000000000000000000000000000000000000000000000000000000000000000000000000000000000000000000000000000000000000000000000000000000000000000000000000000000000000000000000000000000000000000000000000
310
0000000000000000000000000000000000000000000000000000000000000000000000000000000000000000000000000000000000000000F500000000BE000000000000000000000000000000000000000000000000000000000000000000000000000000000000BE000000000000000000F5000000000000000000000000
310
00000000000000000000000000000000000000000000000000000000000000000000000000000000000000000000000000000000000000000000000000000000000000000000000000000000000000000000000000000000000000000000000000000000000000000000000000000000000000000000000000000000000000
310
00000000000000000000000000000000000000000000000000000000000000000000000000000000000000000000000000000000000000000000F500000000BE000000000000000000000000000000000000000000000000000000000000000000000000000000000000BE000000000000000000F500000000000000000000
310
00000000000000000000000000000000000000000000000000000000000000000000000000000000000000000000000000000000000000000000000000000000000000000000000000000000000000000000000000000000000000000000000000000000000000000000000000000000000000000000000000000000000000
310
000000000000000000000000000000000000000000000000000000000000000000000000000000000000000000000000000000000000000000000000F500000000BE000000000000000000000000000000000000000000000000000000000000000000000000000000000000BE000000000000000000F50000000000000000
310
00000000000000000000000000000000000000000000000000000000000000000000000000000000000000000000000000000000000000000000000000000000000000000000000000000000000000000000000000000000000000000000000000000000000000000000000000000000000000000000000000000000000000
310
0000000000000000000000000000000000000000000000000000000000000000000000000000000000000000000000000000000000000000000000000000F500000000BE000000000000000000000000000000000000000000000000000000000000000000000000000000000000BE000000000000000000F5000000000000
310
000000000000000000000000000000000000000000000000000000000000000000000000000000000000000000000000000000000000000000000000000000000000000000000000000000000000F5F5F5F5F50000000000000000000000000000000000000000000000000000000000000000000000000000000000000000
310
00000000000000000000000000000000000000000000000000000000000000000000000000000000000000000000000000000000000000000000000000000000F500000000BE000000000000000000000000000000000000000000000000000000000000000000000000000000000000BE000000000000000000F500000000
310
0000000000000000000000000000000000000000000000000000000000000000000000000000000000000000000000000000000000000000000000000000000000000000000000000000000000000000F5F5F5F5F5000000000000000000000000000000000000000000000000000000000000000000000000000000000000
310
000000000000000000000000000000000000000000000000000000000000000000000000000000000000000000000000000000000000000000000000000000000000F500000000BE000000000000000000000000000000000000000000000000000000000000000000000000000000000000BE000000000000000000F50000
310
00000000000000000000000000000000000000000000000000000000000000000000000000000000000000000000000000000000000000000000000000000000000000000000000000000000000000000000000000000000000000000000000000000000000000000000000000000000000000000000000000000000000000
310
0000000000000000000000000000000000000000000000000000000000000000000000000000000000000000000000000000000000000000000000000000000000000000F500000000BE000000000000000000000000000000000000000000000000000000000000000000000000000000000000BE000000000000000000F5
310
000000000000000000000000000000000000000000000000F5F5F500000000000000000000F5F500000000000000000000000000000000000000000000000000000000000000000000000000000000000000000000000000000000000000000000000000000000000000000000000000000000000000000000000000000000
310
00000000000000000000000000000000000000000000000000000000000000000000000000000000000000000000000000000000000000000000000000000000000000000000F500000000BE000000000000000000000000000000000000000000000000000000000000000000000000000000000000BE0000000000000000
310
00F5000000000000000000000000000000000000F5F5F5F5F5F5F5F5F5F5F5F5F5F5F5F5F5F5F5F5F5F5F5F5F500000000000000000000000000000000000000000000000000000000000000000000000000000000000000000000000000000000000000000000000000000000000000000000000000000000000000000000
310
000000000000000000000000000000000000000000000000000000000000000000000000000000000000000000000000000000000000000000000000000000000000000000000000F500000000BE000000000000000000000000000000000000000000000000000000000000000000000000000000000000BE000000000000
310
000000F5000000000000000000000000000000000000F5F5F5F5F5F5F5F5F5F5F5F5F5F5F5000000000000000000F50000000000000000000000000000000000000000000000000000000000000000000000000000000000000000000000000000000000000000000000000000000000000000000000000000000000000000
310
0000000000000000000000000000000000000000000000000000000000000000000000000000000000000000000000000000000000000000000000000000000000000000000000000000F500000000BE000000000000000000000000000000000000000000000000000000000000000000000000000000000000BE00000000
310
0000000000F5000000000000000000000000000000000000F50000F500000000000000000000F5000000000000000000F5000000000000000000000000000000000000000000000000000000000000000000000000000000000000000000000000000000000000000000000000000000000000000000000000000000000000
310
00000000000000000000000000000000000000000000000000000000000000000000000000000000000000000000000000000000000000000000000000000000000000000000000000000000F500000000BE000000000000000000000000000000000000000000000000000000000000000000000000000000000000BE0000
310
00000000000000F5000000000000000000000000000000000000F50000F500000000000000000000F5000000000000000000F5000000000000000000000000000000000000000000000000000000000000000000000000000000000000002D0000000000000000000000000000000000000000000000000000000000000000
310
000000000000000000000000000000000000000000000000000000000000000000000000002D00000000000000000000000000000000000000000000000000000000000000000000000000000000F500000000BE000000000000000000000000000000000000000000000000000000000000000000000000000000000000BE
310
000000000000000000F5000000000000000000000000F5F5F5F5F5F5F5F5F5F5F5F5F5F5F5F5F5F5F5F5F5000000000000000000F500000000000000000000000000F5F5F5F5F5F5F5F5F5F5F5F5F5F5F5F5F5F5F5F5F5F5F5F5F5F5F5F5F5F52DF5F5F5F5F5F5F5F5F5F5F5F5F5F5F5F5F5F5F5F5F5F5F5F5F5F500000000
310
0000000000000000F5F5F5F5F5F5F5F5F5F5F5F5F5F5F5F5F5F5F5F5F5F5F5F5F5F5F5F5F5F5F52DF5F5F5F5F5F5F5F5F5F5F5F5F5F5F5F5F5F5F5F5F5F5F5F5F5000000000000000000000000000000F500000000BE0000000000000000000000000000000000000000000000000000000000000000000000000000000000
310
00BE000000000000000000F500000000000000000000000000F5F5000000F500000000000000000000000000282828282828282828282800000000000000000000000000F5F5000000F52828000000002800000000280000000028280000000028002D00282800000000280000000028280000000028000000002800F50000
310
0000000000000000000000F500000000F50000000000000000000000000000000000000000000000002D000000000000000000000000000000000000000000000000F5000000000000000000000000000000F500000000BE000000000000000000000000000000000000000000000000000000000000000000000000000000
310
000000BE000000000000000000F500000000000000000000000000F5F5000000F5000000F5F5F5F5F5F5F5F5F5F5F52828282828282828282800000000000000000000000000F5F5000000F52828000000002800000000280000000000280000000028002D000028000000002800000000282800000000280000000028F5F5
310
00000000000000000000000000F500000000F50000000000000000000000000000000000000000000000002D000000000000000000000000000000000000000000000000F5000000000000000000000000000000F500000000BE00000000000000000000000000000000000000000000000000000000000000000000000000
310
0000000000BE000000000000000000F500000000000000000000000000F5F5F5F5F5F50000F5F5F5F5F5F5F5F5F5F5F5F50000000000000000000000000000000000000000000000F5F5F5F5F5F5F5F5F5F5F5F5F5F5F5F5F5F5F5F5F5F5F5F5F5F5F5F5F5F52DF5F5F5F5F5F5F5F5F5F5F5F5F5F5F5F5F5F5F5F5F5F5F5F5
310
F5F500000000000000000000000000F5000000002D2D2D2D2D2D2D2D2D2D2D2D2D2D2D2D2D2D2D2D2D2D2D2D2D2D2D2D2D2D2D2D2D2D2D2D2D2D2D2D2D2D2D2D2D2D2D2D2D2D2D000000000000000000000000000000F500000000BE0000000000000000000000000000000000000000000000000000000000000000000000
310
00000000000000BE000000000000000000F500000000000000000000000000F5F5000000F500F5F5F5000000000000000000000000000000000000000000000000000000000000000000F500000000F50000000000000000000000000000000000000000000000002D00000000000000000000000000000000000000000000
310
0000F5F500000000000000000000000000F500000000F50000000000000000000000000000000000000000000000002D000000000000000000000000000000000000000000000000F5000000000000000000000000000000F500000000BE000000000000000000000000000000000000000000000000000000000000000000
310
000000000000000000BE000000000000000000F500000000000000000000000000F5F5000000F500F5F5F5F50000000000000000000000000000000000000000000000000000000000000000F500000000F50000000000000000000000000000000000000000000000002D0000000000000000000000000000000000000000
310
00000000F5F500000000000000000000000000F500000000F50000000000000000000000000000000000000000000000002D000000000000000000000000000000000000000000000000F5000000000000000000000000000000F500000000BE00000000000000000000000000000000000000000000000000000000000000
310
0000000000000000000000BE000000000000000000F500000000000000000000000000F5F5000000F500F5F500F50000000000000000000000000000000000000000000000000000000000000000F500000000F50000000000000000000000000000000000000000000000002D000000000000000000000000000000000000
310
000000000000F5F500000000000000000000000000F500000000F50000000000000000000000000000000000000000000000002D000000000000000000000000000000000000000000000000F5000000000000000000000000000000F500000000BE0000000000000000000000000000000000000000000000000000000000
310
00000000000000000000000000BE000000000000000000F500000000000000000000000000F5F5000000F500F5F500000000000000000000000000000000000000000000000000000000000000000000F500000000F50000000000000000000000000000000000000000000000002D00000000000000000000000000000000
310
0000000000000000F5F500000000000000000000000000F500000000F50000000000000000000000000000000000000000000000002D000000000000000000000000000000000000000000000000F5000000000000000000000000000000F500000000BE000000000000000000000000000000000000000000000000000000
310
000000000000000000000000000000BE000000000000000000F500000000000000000000000000F5F5000000F500F5F500000000000000000000000000000000000000000000000000000000000000000000F500000000F50000000000000000000000000000000000000000000000002D0000000000000000000000000000
310
00000000000000000000F5F500000000000000000000000000F500000000F50000000000000000000000000000000000000000000000002D000000000000000000000000000000000000000000000000F5000000000000000000000000000000F500000000BE00000000000000000000000000000000000000000000000000
310
0000000000000000000000000000000000BE000000000000000000F500000000000000000000000000F5F5000000F500F5F500000000000000000000000000000000000000000000000000000000000000000000F500000000F50000000000000000000000000000000000000000000000002D000000000000000000000000
310
000000000000000000000000F5F500000000000000000000000000F500000000F50000000000000000000000000000000000000000000000002D000000000000000000000000000000000000000000000000F5000000000000000000000000000000F500000000BE0000000000000000000000000000000000000000000000
310
00000000000000000000000000000000000000BE000000000000000000F500000000000000000000000000F5F5000000F500F5F500000000000000000000000000000000000000000000000000000000000000000000F500000000F50000000000000000000000000000000000000000000000002D00000000000000000000
310
0000000000000000000000000000F5F500000000000000000000000000F500000000F50000000000000000000000000000000000000000000000002D000000000000000000000000000000000000000000000000F5000000000000000000000000000000F500000000BE000000000000000000000000000000000000000000
310
000000000000000000000000000000000000000000BE000000000000000000F5000000000000000000000000F5F5F5000000F500F5F5000000000000000000000000000000000000000000000000000000000000000000F5F500000000F50000000000000000000000000000000000000000000000002D0000000000000000
310
00000000000000000000000000000000F5F5000000000000000000000000F5F500000000F50000000000000000000000000000000000000000000000002D000000000000000000000000000000000000000000000000F5000000000000000000000000000000F500000000BE00000000000000000000000000000000000000
310
0000000000000000000000000000000000000000000000BE000000000000000000F5000000000000000000000000F5F5F5000000F500F5F5000000000000000000000000000000000000000000000000000000000000000000F5F500000000F50000000000000000000000000000000000000000000000002D000000000000
310
000000000000000000000000000000000000F5F5000000000000000000000000F5F500000000F50000000000000000000000000000000000000000000000002D000000000000000000000000000000000000000000000000F5000000000000000000000000000000F500000000BE0000000000000000000000000000000000
310
00000000000000000000000000000000000000000000000000BE000000000000000000F500000000000000000000000000F5F5000000F500F5F500000000000000000000000000000000000000000000000000000000000000000000F500000000F50000000000000000000000000000000000000000000000002D00000000
310
0000000000000000000000000000000000000000F5F500000000000000000000000000F500000000F50000000000000000000000000000000000000000000000002D000000000000000000000000000000000000000000000000F5000000000000000000000000000000F500000000BE000000000000000000000000000000
310
000000000000000000000000000000000000000000000000000000BE000000000000000000F500000000000000000000000000F5F5000000F500F5F500000000000000000000000000000000000000000000000000000000000000000000F500000000F50000000000000000000000000000000000000000000000002D0000
310
00000000000000000000000000000000000000000000F5F500000000000000000000000000F500000000F50000000000000000000000000000000000000000000000002D000000000000000000000000000000000000000000000000F5000000000000000000000000000000F500000000BE00000000000000000000000000
310
0000000000000000000000000000000000000000000000000000000000BE000000000000000000F500000000000000000000000000F5F5000000F500F5F500000000000000000000000000000000000000000000000000000000000000000000F500000000F50000000000000000000000000000000000000000000000002D
310
000000000000000000000000000000000000000000000000F5F500000000000000000000000000F500000000F50000000000000000000000000000000000000000000000002D000000000000000000000000000000000000000000000000F5000000000000000000000000000000F500000000BE0000000000000000000000
310
00000000000000000000000000000000000000000000000000000000000000BE000000000000000000F500000000000000000000000000F5F5000000F500F5F500000000000000000000000000000000000000000000000000000000000000000000F500000000F50000000000000000000000000000000000000000000000
310
002D000000000000000000000000000000000000000000000000F5F500000000000000000000000000F500000000F50000000000000000000000000000000000000000000000002D000000000000000000000000000000000000000000000000F5000000000000000000000000000000F500000000BE000000000000000000
310
000000000000000000000000000000000000000000000000000000000000000000BE000000000000000000F500000000000000000000000000F5F5000000F500F5F500000000000000000000000000000000000000000000000000000000000000000000F500000000F5000000000000000000000000000000000000000000
310
0000002D000000000000000000000000000000000000000000000000F5F500000000000000000000000000F500000000F50000000000000000000000000000000000000000000000002D000000000000000000000000000000000000000000000000F5000000000000000000000000000000F500000000BE00000000000000
310
0000000000000000000000000000000000000000000000000000000000000000000000BE000000000000000000F500000000000000000000000000F5F5000000F500F5F500000000000000000000000000000000000000000000000000000000000000000000F500000000F500000000000000000000000000000000000000
310
00000000002D000000000000000000000000000000000000000000000000F5F500000000000000000000000000F500000000F50000000000000000000000000000000000000000000000002D000000000000000000000000000000000000000000000000F5000000000000000000000000000000F500000000BE0000000000
310
00000000000000000000000000000000000000000000000000000000000000000000000000BE000000000000000000F500000000000000000000000000F5F5000000F500F5F500000000000000000000000000000000000000000000000000000000000000000000F500000000F50000000000000000000000000000000000
310
000000000000002D000000000000000000000000000000000000000000000000F5F500000000000000000000000000F500000000F50000000000000000000000000000000000000000000000002D000000000000000000000000000000000000000000000000F5000000000000000000000000000000F500000000BE000000
310
000000000000000000000000000000000000000000000000000000000000000000000000000000BE000000000000000000F500000000000000000000000000F5F5000000F500F5F500000000000000000000000000000000000000000000000000000000000000000000F500000000F5000000000000000000000000000000
310
0000000000000000002D000000000000000000000000000000000000000000000000F5F500000000000000000000000000F500000000F500F5000000000000000000000000000000000000000000002D00000000000000000000000000000000000000000000F500F5000000000000000000000000000000F500000000BE00
310
0000000000000000000000000000000000000000000000000000000000000000000000000000000000BE000000000000000000F500000000000000000000000000F5F5000000F500F5F500000000000000000000000000000000000000000000000000000000000000000000F500000000F500000000000000000000000000
310
00000000000000000000002D000000000000000000000000000000000000000000000000F5F500000000000000000000000000F500000000F500F5000000000000000000000000000000000000000000002D00000000000000000000000000000000000000000000F500F5000000000000000000000000000000F500000000
310
BE000000000000000000000000000000000000000000000000000000000000000000000000000000000000BE000000000000000000F500000000000000000000000000F5F5000000F500F5F500000000000000000000000000000000000000000000000000000000000000000000F500000000F50000000000000000000000
310
000000000000000000000000002D000000000000000000000000000000000000000000000000F5F500000000000000000000000000F500000000F50000000000000000000000000000000000000000000000002D000000000000000000000000000000000000000000000000F5000000000000000000000000000000F50000
310
0000BE000000000000000000000000000000000000000000000000000000000000000000000000000000000000BE000000000000000000F5000000000000000000000000F5F5F5F5F5F5F5F5F5F500000000000000000000000000000000000000000000000000000000000000000000F5F5F5F5F5F5F5F5F5F5F5F5F5F5F5
310
F5F5F5F5F5F5F5F5F5F5F5F5F5F5F5F5F5F5F5F5F5F5F5F5F5F5F5F5F5F5F5F5F5F5F5F5F5F5F5F5F5F5000000000000000000000000F5F5F5F5F5F5F5F5F5F5F5F5F5F5F5F5F5F5F5F5F5F5F5F5F5F5F5F5F5F5F5F5F5F5F5F5F5F5F5F5F5F5F5F5F5F5F5F5F5F5F5F5F5F5F5F5F5000000000000000000000000000000F5
310
00000000BE000000000000000000000000000000000000000000000000000000000000000000000000000000000000BE000000000000000000F50000000000000000000000000000000000F5F50000F5F5F500000000000000000000000000000000000000000000000000000000000000000000000000F500000000000000
310
00000000000000000000000000000000002D00000000000000000000000000000000000000000000000000F5000000000000000000000000000000000000F50000000000000000000000000000000000000000000000002D000000000000000000000000000000000000000000000000F50000000000000000000000000000
310
00F500000000BE000000000000000000000000000000000000000000000000000000000000000000000000000000000000BE000000000000000000F50000000000000000000000000000000000F5F5F5F5F5F5F500000000000000000000000000000000000000000000000000000000000000000000000000F50000000000
310
000000000000000000000000000000000000000000000000000000000000000000000000000000000000000000F5000000000000000000000000000000000000F500000000000000000000000000000000000000000000000000000000000000000000000000000000000000000000000000F5000000000000000000000000
310
000000F500000000BE000000000000000000000000000000000000000000000000000000000000000000000000000000000000BE000000000000000000F500000000000000000000000000000000000000F5F500000000000000000000000000000000000000000000000000000000000000000000000000000000F5000000
310
0000000000000000000000000000000000000000000000000000000000000000000000000000000000000000000000F5000000000000000000000000000000000000F500000000000000000000000000000000000000000000000000000000000000000000000000000000000000000000000000F500000000000000000000
310
0000000000F500000000BE000000000000000000000000000000000000000000000000000000000000000000000000000000000000BE000000000000000000F500000000000000000000000000000000000000000000000000000000000000000000000000000000000000000000000000000000000000000000000000F500
310
00000000000000000000000000000000000000000000000000000000000000000000000000000000000000000000000000F5000000000000000000000000000000000000F500000000000000000000000000000000000000000000000000000000000000000000000000000000000000000000000000F50000000000000000
310
00000000000000F500000000BE000000000000000000000000000000000000000000000000000000000000000000000000000000000000BE000000000000000000F500000000000000000000000000000000000000000000000000000000000000000000000000000000000000000000000000000000000000000000000000
310
F50000000000000000000000000000000000000000000000000000000000000000000000000000000000000000000000000000F5000000000000000000000000000000000000F500000000000000000000000000000000000000000000000000000000000000000000000000000000000000000000000000F5000000000000
310
000000000000000000F500000000BE000000000000000000000000000000000000000000000000000000000000000000000000000000000000BE000000000000000000F50000000000000000000000000000000000000000000000000000000000000000000000000000000000000000000000000000000000000000000000
310
0000F5F5F5F5F5F5F5F5F5F5F5F5F5F5F5F5F5F5F5F5F5F5F5F5F5F5F5F5F5F5F5F5F5F5F5F5F5F5F5F5F5F5F5F5F5F5F5F5F5F5F5F5000000000000000000000000000000000000F5F5F5F5F5F5F5F5F5F5F5F5F5F5F5F5F5F5F5F5F5F5F5F5F5F5F5F5F5F5F5F5F5F5F5F5F5F5F5F5F5F5F5F5F5F5F5F5F5F5F500000000
310
0000000000000000000000F500000000BE000000000000000000000000000000000000000000000000000000000000000000000000000000000000BE000000000000000000F5000000000000000000000000000000000000000000000000000000000000000000000000000000000000000000000000000000000000000000
310
00000000000000000000000000000000000000000000000000000000000000000000000000000000000000000000000000000000000000000000000000000000000000000000000000000000000000000000000000000000000000000000000000000000000000000000000000000000000000000000000000000000000000
310
00000000000000000000000000F500000000BE000000000000000000000000000000000000000000000000000000000000000000000000000000000000BE000000000000000000F500000000000000000000000000000000000000000000000000000000000000000000000000000000000000000000000000000000000000
310
00000000000000000000000000000000000000000000000000000000000000000000000000000000000000000000000000000000000000000000000000000000000000000000000000000000000000000000000000000000000000000000000000000000000000000000000000000000000000000000000000000000000000
310
000000000000000000000000000000F500000000BE000000000000000000000000000000000000000000000000000000000000000000000000000000000000BE000000000000000000F50000000000000000000000000000000000000000000000000000000000000000000000000000000000000000000000000000000000
310
00000000000000000000000000000000000000000000000000000000000000000000000000000000000000000000000000000000000000000000000000000000000000000000000000000000000000000000000000000000000000000000000000000000000000000000000000000000000000000000000000000000000000
310
0000000000000000000000000000000000F500000000BE000000000000000000000000000000000000000000000000000000000000000000000000000000000000BE000000000000000000F5000000000000000000000000000000000000000000000000000000000000000000000000000000000000000000000000000000
310
00000000000000000000000000000000000000000000000000000000000000000000000000000000000000000000000000000000000000000000000000000000000000000000000000000000000000000000000000000000000000000000000000000000000000000000000000000000000000000000000000000000000000
310
00000000000000000000000000000000000000F500000000BE000000000000000000000000000000000000000000000000000000000000000000000000000000000000BE000000000000000000F500000000000000000000000000000000000000000000000000000000000000000000000000000000000000000000000000
310
00000000000000000000000000000000000000000000000000000000000000000000000000000000000000000000000000000000000000000000000000000000000000000000000000000000000000000000000000000000000000000000000000000000000000000000000000000000000000000000000000000000000000
310
000000000000000000000000000000000000000000F500000000BE000000000000000000000000000000000000000000000000000000000000000000000000000000000000BE000000000000000000F50000000000000000000000000000000000000000000000000000000000000000000000000000000000000000000000
310
00000000000000000000000000000000000000000000000000000000000000000000000000000000000000000000000000000000000000000000000000000000000000000000000000000000000000000000000000000000000000000000000000000000000000000000000000000000000000000000000000000000000000
310
0000000000000000000000000000000000000000000000F500000000BE000000000000000000000000000000000000000000000000000000000000000000000000000000000000BE000000000000000000F5000000000000000000000000000000000000000000000000000000000000000000000000000000000000000000
310
00000000000000000000000000000000000000000000000000000000000000000000000000000000000000000000000000000000000000000000000000000000000000000000000000000000000000000000000000000000000000000000000000000000000000000000000000000000000000000000000000000000000000
310
00000000000000000000000000000000000000000000000000F500000000BE000000000000000000000000000000000000000000000000000000000000000000000000000000000000BE000000000000000000F500000000000000000000000000000000000000000000000000000000000000000000000000000000000000
310
00000000000000000000000000000000000000000000000000000000000000000000000000000000000000000000000000000000000000000000000000000000000000000000000000000000000000000000000000000000000000000000000000000000000000000000000000000000000000000000000000000000000000
310
000000000000000000000000000000000000000000000000000000F500000000BE000000000000000000000000000000000000000000000000000000000000000000000000000000000000BE000000000000000000F50000000000000000000000000000000000000000000000000000000000000000000000000000000000
310
00000000000000000000000000000000000000000000000000000000000000000000000000000000000000000000000000000000000000000000000000000000000000000000000000000000000000000000000000000000000000000000000000000000000000000000000000000000000000000000000000000000000000
310
0000000000000000000000000000000000000000000000000000000000F500000000BE000000000000000000000000000000000000000000000000000000000000000000000000000000000000BE000000000000000000F5000000000000000000000000000000000000000000000000000000000000000000000000000000
310
00000000000000000000000000000000000000000000000000000000000000000000000000000000000000000000000000000000000000000000000000000000000000000000000000000000000000000000000000000000000000000000000000000000000000000000000000000000000000000000000000000000000000
310
00000000000000000000000000000000000000000000000000000000000000F500000000BE000000000000000000000000000000000000000000000000000000000000000000000000000000000000BE000000000000000000F500000000000000000000000000000000000000000000000000000000000000000000000000
310
00000000000000000000000000000000000000000000000000000000000000000000000000000000000000000000000000000000000000000000000000000000000000000000000000000000000000000000000000000000000000000000000000000000000000000000000000000000000000000000000000000000000000
310
000000000000000000000000000000000000000000000000000000000000000000F500000000BE000000000000000000000000000000000000000000000000000000000000000000000000000000000000BE000000000000000000F50000000000000000000000000000000000000000000000000000000000000000000000
310
00000000000000000000000000000000000000000000000000000000000000000000000000000000000000000000F5F5F5F5F500F5F5F5F5000000000000000000000000000000000000000000000000000000000000000000000000000000000000000000000000000000000000000000000000F5F5F5F5F5F5F5F5F5F500
310
0000000000000000000000000000000000000000000000000000000000000000000000F500000000BE000000000000000000000000000000000000000000000000000000000000000000000000000000000000BE000000000000000000F5000000000000000000000000000000000000000000000000000000000000000000
310
000000000000000000000000000000000000000000000000000000000000000000000000000000000000000000000000F5F5F5F5F5F5F5F5F5F5F50000000000000000000000000000000000000000000000000000000000000000000000000000000000000000000000000000000000000000000000F5F5F5F5F5F5F5F5F5
310
F5000000000000000000000000000000000000000000000000000000000000000000000000F500000000BE000000000000000000000000000000000000000000000000000000000000000000000000000000000000BE000000000000000000F500000000000000000000000000000000000000000000000000000000000000
310
0000000000000000000000000000000000000000000000000000000000000000000000000000000000000000000000000000F5F5F5F5F500F5F5F5F5000000000000000000000000000000000000000000000000000000000000000000000000000000000000000000000000000000000000000000000000F5F5F5F5F5F5F5
310
F5F5F5000000000000000000000000000000000000000000000000000000000000000000000000F500000000BE000000000000000000000000000000000000000000000000000000000000000000000000000000000000BE000000000000000000F50000000000000000000000000000000000000000000000000000000000
310
00000000000000000000000000000000000000000000000000000000000000000000000000000000000000000000000000000000000000000000000000000000000000000000000000000000000000000000000000000000000000000000000000000000000000000000000000000000000000000000000000000000000000
310
0000000000000000000000000000000000000000000000000000000000000000000000000000000000F500000000BE000000000000000000000000000000000000000000000000000000000000000000000000000000000000BE000000000000000000F5000000000000000000000000000000000000000000000000000000
310
00000000000000000000000000000000000000000000000000000000000000000000000000000000000000000000000000000000000000000000000000000000000000000000000000000000000000000000000000000000000000000000000000000000000000000000000000000000000000000000000000000000000000
310
00000000000000000000000000000000000000000000000000000000000000000000000000000000000000F500000000BE000000000000000000000000000000000000000000000000000000000000000000000000000000000000BE000000000000000000F500000000000000000000000000000000000000000000000000
310
00000000000000000000000000000000000000000000000000000000000000000000000000000000000000000000000000000000000000000000000000000000000000000000000000000000000000000000000000000000000000000000000000000000000000000000000000000000000000000000000000000000000000
310
000000000000000000000000000000000000000000000000000000000000000000000000000000000000000000F500000000BE000000000000000000000000000000000000000000000000000000000000000000000000000000000000BE000000000000000000F50000000000000000000000000000000000000000000000
310
00000000000000000000000000000000000000000000000000000000000000000000000000000000000000000000000000000000000000000000000000000000000000000000000000000000000000000000000000000000000000000000000000000000000000000000000000000000000000000000000000000000000000
310
0000000000000000000000000000000000000000000000000000000000000000000000000000000000000000000000F500000000BE000000000000000000000000000000000000000000000000000000000000000000000000000000000000BE000000000000000000F5000000000000000000000000000000000000000000
310
00000000000000000000000000000000000000000000000000000000000000000000000000000000000000000000000000000000000000000000000000000000000000000000000000000000000000000000000000000000000000000000000000000000000000000000000000000000000000000000000000000000000000
310
00000000000000000000000000000000000000000000000000000000000000000000000000000000000000000000000000F500000000BE000000000000000000000000000000000000000000000000000000000000000000000000000000000000BE000000000000000000F500000000000000000000000000000000000000
310
00000000000000000000000000000000000000000000000000000000000000000000000000000000000000000000000000000000000000000000000000000000000000000000000000000000000000000000000000000000000000000000000000000000000000000000000000000000000000000000000000000000000000
310
000000000000000000000000000000000000000000000000000000000000000000000000000000000000000000000000000000F500000000BE000000000000000000000000000000000000000000000000000000000000000000000000000000000000BE000000000000000000F50000000000000000000000000000000000
310
00000000000000000000000000000000000000000000000000000000000000000000000000000000000000000000000000000000000000000000000000000000000000000000000000000000000000000000000000000000000000000000000000000000000000000000000000000000000000000000000000000000000000
310
0000000000000000000000000000000000000000000000000000000000000000000000000000000000000000000000000000000000F500000000BE000000000000000000000000000000000000000000000000000000000000000000000000000000000000BE000000000000000000F5000000000000000000000000000000
310
00000000000000000000000000000000000000000000000000000000000000000000000000000000000000000000000000000000000000000000000000000000000000000000000000000000000000000000000000000000000000000000000000000000000000000000000000000000000000000000000000000000000000
310
00000000000000000000000000000000000000000000000000000000000000000000000000000000000000000000000000000000000000F500000000BE000000000000000000000000000000000000000000000000000000000000000000000000000000000000BE000000000000000000F500000000000000000000000000
310
00000000000000000000000000000000000000000000000000000000000000000000000000000000000000000000000000000000000000000000000000000000000000000000000000000000000000000000000000000000000000000000000000000000000000000000000000000000000000000000000000000000000000
310
000000000000000000000000000000000000000000000000000000000000000000000000000000000000000000000000000000000000000000F500000000BE000000000000000000000000000000000000000000000000000000000000000000000000000000000000BE000000000000000000F5F5F5F5F5F5F5F5F5F5F5F5
310
F5F5F5F5F5F5F5F5F5F5F5F5F5F5F5F5F5F5F5F5F5F5F5F5F5F5F5F5F5F5F5F5F5F5F5F5F5F5F5F5F5F5F5F5F5F5F5F5F5F5F5F5F5F5F5F5F5F5F5F5F5F5F5F5F5F5F5F5F5F5F5F5F5F5F5F5F5F5F5F5F5F5F5F5F5F5F5F5F5F5F5F5F5F5F5F5F5F5F5F5F5F5F5F5F5F5F5F5F5F5F5F5F5F5F5F5F5F5F5F5F5F5F5F5F5F5F5
310
F5F5F5F5F5F5F5F5F5F5F5F5F5F5F5F5F5F5F5F5F5F5F5F5F5F5F5F5F5F5F5F5F5F5F5F5F5F5F5F5F5F5F5F5F5F5F5F5F5F5F5F5F5F5F5F5F5F5F5F500000000BE000000000000000000000000000000000000000000000000000000000000000000000000000000000000BE00000000000000000000000000000000000000
310
00000000000000000000000000000000000000000000000000000000000000000000000000000000000000000000000000000000000000000000000000000000000000000000000000000000000000000000000000000000000000000000000000000000000000000000000000000000000000000000000000000000000000
310
000000000000000000000000000000000000000000000000000000000000000000000000000000000000000000000000000000000000000000000000000000000000BE000000000000000000000000000000000000000000000000000000000000000000000000000000000000BE0000000000000000000000000000000000
310
00000000000000000000000000000000000000000000000000000000000000000000000000000000000000000000000000000000000000000000000000000000000000000000000000000000000000000000000000000000000000000000000000000000000000000000000000000000000000000000000000000000000000
310
0000000000000000000000000000000000000000000000000000000000000000000000000000000000000000000000000000000000000000000000000000000000000000BE000000000000000000000000000000000000000000000000000000000000000000000000000000000000BE000000000000000000000000000000
310
00000000000000000000000000000000000000000000000000000000000000000000000000000000000000000000000000000000000000000000000000000000000000000000000000000000000000000000000000000000000000000000000000000000000000000000000000000000000000000000000000000000000000
310
00000000000000000000000000000000000000000000000000000000000000000000000000000000000000000000000000000000000000000000000000000000000000000000BE000000000000000000000000000000000000000000000000000000000000000000000000000000000000BE00000000000000000000000000
310
00000000000000000000000000000000000000000000000000000000000000000000000000000000000000000000000000000000000000000000000000000000000000000000000000000000000000000000000000000000000000000000000000000000000000000000000000000000000000000000000000000000000000
310
000000000000000000000000000000000000000000000000000000000000000000000000000000000000000000000000000000000000000000000000000000000000000000000000BE000000000000000000000000000000000000000000000000000000000000000000000000000000000000BEBEBEBEBEBEBEBEBEBEBEBE
310
BEBEBEBEBEBEBEBEBEBEBEBEBEBEBEBEBEBEBEBEBEBEBEBEBEBEBEBEBEBEBEBEBEBEBEBEBEBEBEBEBEBEBEBEBEBEBEBEBEBEBEBEBEBEBEBEBEBEBEBEBEBEBEBEBEBEBEBEBEBEBEBEBEBEBEBEBEBEBEBEBEBEBEBEBEBEBEBEBEBEBEBEBEBEBEBEBEBEBEBEBEBEBEBEBEBEBEBEBEBEBEBEBEBEBEBEBEBEBEBEBEBEBEBEBEBEBE
310
BEBEBEBEBEBEBEBEBEBEBEBEBEBEBEBEBEBEBEBEBEBEBEBEBEBEBEBEBEBEBEBEBEBEBEBEBEBEBEBEBEBEBEBEBEBEBEBEBEBEBEBEBEBEBEBEBEBEBEBEBEBEBEBEBEBEBEBEBEBEBEBEBEBEBE00000000000000000000000000000000000000000000000000000000000000000000000000000000000000000000000000000000
310
00000000000000000000000000000000000000000000000000000000000000000000000000000000000000000000000000000000000000000000000000000000000000000000000000000000000000000000000000000000000000000000000000000000000000000000000000000000000000000000000000000000000000
310
0000000000000000000000000000000000000000000000000000000000000000000000000000000000000000000000000000000000000000000000000000000000000000000000000000000000000000000000000000000000000000000000000000
  0
XRECORD
  5
3A4A
102
{ACAD_REACTORS
330
3A49
102
}
330
3A49
100
AcDbXrecord
280
     1
102
SHADEPLOT
 70
     0
102
SHADEPLOTRESLEVEL
 70
     2
102
SHADEPLOTCUSTOMDPI
 70
   300
  0
XRECORD
  5
3A4C
102
{ACAD_REACTORS
330
3A4B
102
}
330
3A4B
100
AcDbXrecord
280
     1
102
SHADEPLOT
 70
     0
102
SHADEPLOTRESLEVEL
 70
     2
102
SHADEPLOTCUSTOMDPI
 70
   300
  0
XRECORD
  5
3A4E
102
{ACAD_REACTORS
330
2FDA
102
}
330
2FDA
100
AcDbXrecord
280
     1
102
MATERIAL
148
0.0
149
0.0
149
0.0
 93
        0
 94
      127
282
     0
 72
     0
 77
     0
171
     0
175
     0
179
     0
273
     0
  0
XRECORD
  5
2FDC
102
{ACAD_REACTORS
330
2FDA
102
}
330
2FDA
100
AcDbXrecord
280
     1
270
     1
271
     1
  0
XRECORD
  5
2FDB
102
{ACAD_REACTORS
330
2FDA
102
}
330
2FDA
100
AcDbXrecord
280
     1
270
     1
271
     1
  0
XRECORD
  5
2FDF
102
{ACAD_REACTORS
330
2FDA
102
}
330
2FDA
100
AcDbXrecord
280
     1
270
     1
271
     1
  0
XRECORD
  5
2FDE
102
{ACAD_REACTORS
330
2FDA
102
}
330
2FDA
100
AcDbXrecord
280
     1
270
     1
271
     1
  0
XRECORD
  5
2FE0
102
{ACAD_REACTORS
330
2FDA
102
}
330
2FDA
100
AcDbXrecord
280
     1
270
     1
271
     1
  0
XRECORD
  5
2FDD
102
{ACAD_REACTORS
330
2FDA
102
}
330
2FDA
100
AcDbXrecord
280
     1
270
     1
271
     1
  0
XRECORD
  5
3A4D
102
{ACAD_REACTORS
330
2FD2
102
}
330
2FD2
100
AcDbXrecord
280
     1
102
MATERIAL
148
0.0
149
0.0
149
0.0
 93
        0
 94
      127
282
     0
 72
     0
 77
     0
171
     0
175
     0
179
     0
273
     0
  0
XRECORD
  5
2FD4
102
{ACAD_REACTORS
330
2FD2
102
}
330
2FD2
100
AcDbXrecord
280
     1
270
     1
271
     1
  0
XRECORD
  5
2FD3
102
{ACAD_REACTORS
330
2FD2
102
}
330
2FD2
100
AcDbXrecord
280
     1
270
     1
271
     1
  0
XRECORD
  5
2FD7
102
{ACAD_REACTORS
330
2FD2
102
}
330
2FD2
100
AcDbXrecord
280
     1
270
     1
271
     1
  0
XRECORD
  5
2FD6
102
{ACAD_REACTORS
330
2FD2
102
}
330
2FD2
100
AcDbXrecord
280
     1
270
     1
271
     1
  0
XRECORD
  5
2FD8
102
{ACAD_REACTORS
330
2FD2
102
}
330
2FD2
100
AcDbXrecord
280
     1
270
     1
271
     1
  0
XRECORD
  5
2FD5
102
{ACAD_REACTORS
330
2FD2
102
}
330
2FD2
100
AcDbXrecord
280
     1
270
     1
271
     1
  0
XRECORD
  5
3A4F
102
{ACAD_REACTORS
330
2FE2
102
}
330
2FE2
100
AcDbXrecord
280
     1
102
MATERIAL
148
0.0
149
0.0
149
0.0
 93
        0
 94
      127
282
     0
 72
     0
 77
     0
171
     0
175
     0
179
     0
273
     0
  0
XRECORD
  5
2FE4
102
{ACAD_REACTORS
330
2FE2
102
}
330
2FE2
100
AcDbXrecord
280
     1
270
     1
271
     1
  0
XRECORD
  5
2FE3
102
{ACAD_REACTORS
330
2FE2
102
}
330
2FE2
100
AcDbXrecord
280
     1
270
     1
271
     1
  0
XRECORD
  5
2FE7
102
{ACAD_REACTORS
330
2FE2
102
}
330
2FE2
100
AcDbXrecord
280
     1
270
     1
271
     1
  0
XRECORD
  5
2FE6
102
{ACAD_REACTORS
330
2FE2
102
}
330
2FE2
100
AcDbXrecord
280
     1
270
     1
271
     1
  0
XRECORD
  5
2FE8
102
{ACAD_REACTORS
330
2FE2
102
}
330
2FE2
100
AcDbXrecord
280
     1
270
     1
271
     1
  0
XRECORD
  5
2FE5
102
{ACAD_REACTORS
330
2FE2
102
}
330
2FE2
100
AcDbXrecord
280
     1
270
     1
271
     1
  0
XRECORD
  5
3A41
102
{ACAD_REACTORS
330
3A40
102
}
330
3A40
100
AcDbXrecord
280
     1
102
ACAD_ROUNDTRIP_2012_MLEADER_STYLE
298
     1
  0
CELLSTYLEMAP
  5
3A3F
102
{ACAD_REACTORS
330
39A5
102
}
330
39A5
100
AcDbCellStyleMap
 90
        3
300
CELLSTYLE
  1
TABLEFORMAT_BEGIN
 90
        5
170
     1
 91
        0
 92
    32768
 62
   257
 93
        1
300
CONTENTFORMAT
  1
CONTENTFORMAT_BEGIN
 90
        0
 91
        0
 92
        4
 93
        0
300

 40
0.0
140
1.0
 94
        5
 62
     0
340
11
144
6.0
309
CONTENTFORMAT_END
171
     1
301
MARGIN
  1
CELLMARGIN_BEGIN
 40
1.5
 40
1.5
 40
1.5
 40
1.5
 40
0.18
 40
0.18
309
CELLMARGIN_END
 94
        6
 95
        1
302
GRIDFORMAT
  1
GRIDFORMAT_BEGIN
 90
        0
 91
        1
 62
     0
 92
       -2
340
0
 93
        0
 40
0.045
309
GRIDFORMAT_END
 95
        2
302
GRIDFORMAT
  1
GRIDFORMAT_BEGIN
 90
        0
 91
        1
 62
     0
 92
       -2
340
0
 93
        0
 40
0.045
309
GRIDFORMAT_END
 95
        4
302
GRIDFORMAT
  1
GRIDFORMAT_BEGIN
 90
        0
 91
        1
 62
     0
 92
       -2
340
0
 93
        0
 40
0.045
309
GRIDFORMAT_END
 95
        8
302
GRIDFORMAT
  1
GRIDFORMAT_BEGIN
 90
        0
 91
        1
 62
     0
 92
       -2
340
0
 93
        0
 40
0.045
309
GRIDFORMAT_END
 95
       16
302
GRIDFORMAT
  1
GRIDFORMAT_BEGIN
 90
        0
 91
        1
 62
     0
 92
       -2
340
0
 93
        0
 40
0.045
309
GRIDFORMAT_END
 95
       32
302
GRIDFORMAT
  1
GRIDFORMAT_BEGIN
 90
        0
 91
        1
 62
     0
 92
       -2
340
0
 93
        0
 40
0.045
309
GRIDFORMAT_END
309
TABLEFORMAT_END
  1
CELLSTYLE_BEGIN
 90
        1
 91
        1
300
_TITLE
309
CELLSTYLE_END
300
CELLSTYLE
  1
TABLEFORMAT_BEGIN
 90
        5
170
     1
 91
        0
 92
        0
 62
   257
 93
        1
300
CONTENTFORMAT
  1
CONTENTFORMAT_BEGIN
 90
        0
 91
        0
 92
        4
 93
        0
300

 40
0.0
140
1.0
 94
        5
 62
     0
340
11
144
4.5
309
CONTENTFORMAT_END
171
     1
301
MARGIN
  1
CELLMARGIN_BEGIN
 40
1.5
 40
1.5
 40
1.5
 40
1.5
 40
0.18
 40
0.18
309
CELLMARGIN_END
 94
        6
 95
        1
302
GRIDFORMAT
  1
GRIDFORMAT_BEGIN
 90
        0
 91
        1
 62
     0
 92
       -2
340
0
 93
        0
 40
0.045
309
GRIDFORMAT_END
 95
        2
302
GRIDFORMAT
  1
GRIDFORMAT_BEGIN
 90
        0
 91
        1
 62
     0
 92
       -2
340
0
 93
        0
 40
0.045
309
GRIDFORMAT_END
 95
        4
302
GRIDFORMAT
  1
GRIDFORMAT_BEGIN
 90
        0
 91
        1
 62
     0
 92
       -2
340
0
 93
        0
 40
0.045
309
GRIDFORMAT_END
 95
        8
302
GRIDFORMAT
  1
GRIDFORMAT_BEGIN
 90
        0
 91
        1
 62
     0
 92
       -2
340
0
 93
        0
 40
0.045
309
GRIDFORMAT_END
 95
       16
302
GRIDFORMAT
  1
GRIDFORMAT_BEGIN
 90
        0
 91
        1
 62
     0
 92
       -2
340
0
 93
        0
 40
0.045
309
GRIDFORMAT_END
 95
       32
302
GRIDFORMAT
  1
GRIDFORMAT_BEGIN
 90
        0
 91
        1
 62
     0
 92
       -2
340
0
 93
        0
 40
0.045
309
GRIDFORMAT_END
309
TABLEFORMAT_END
  1
CELLSTYLE_BEGIN
 90
        2
 91
        1
300
_HEADER
309
CELLSTYLE_END
300
CELLSTYLE
  1
TABLEFORMAT_BEGIN
 90
        5
170
     1
 91
        0
 92
        0
 62
   257
 93
        1
300
CONTENTFORMAT
  1
CONTENTFORMAT_BEGIN
 90
        0
 91
        0
 92
        4
 93
        0
300

 40
0.0
140
1.0
 94
        2
 62
     0
340
11
144
4.5
309
CONTENTFORMAT_END
171
     1
301
MARGIN
  1
CELLMARGIN_BEGIN
 40
1.5
 40
1.5
 40
1.5
 40
1.5
 40
0.18
 40
0.18
309
CELLMARGIN_END
 94
        6
 95
        1
302
GRIDFORMAT
  1
GRIDFORMAT_BEGIN
 90
        0
 91
        1
 62
     0
 92
       -2
340
0
 93
        0
 40
0.045
309
GRIDFORMAT_END
 95
        2
302
GRIDFORMAT
  1
GRIDFORMAT_BEGIN
 90
        0
 91
        1
 62
     0
 92
       -2
340
0
 93
        0
 40
0.045
309
GRIDFORMAT_END
 95
        4
302
GRIDFORMAT
  1
GRIDFORMAT_BEGIN
 90
        0
 91
        1
 62
     0
 92
       -2
340
0
 93
        0
 40
0.045
309
GRIDFORMAT_END
 95
        8
302
GRIDFORMAT
  1
GRIDFORMAT_BEGIN
 90
        0
 91
        1
 62
     0
 92
       -2
340
0
 93
        0
 40
0.045
309
GRIDFORMAT_END
 95
       16
302
GRIDFORMAT
  1
GRIDFORMAT_BEGIN
 90
        0
 91
        1
 62
     0
 92
       -2
340
0
 93
        0
 40
0.045
309
GRIDFORMAT_END
 95
       32
302
GRIDFORMAT
  1
GRIDFORMAT_BEGIN
 90
        0
 91
        1
 62
     0
 92
       -2
340
0
 93
        0
 40
0.045
309
GRIDFORMAT_END
309
TABLEFORMAT_END
  1
CELLSTYLE_BEGIN
 90
        3
 91
        2
300
_DATA
309
CELLSTYLE_END
  0
XRECORD
  5
3A48
102
{ACAD_REACTORS
330
39A5
102
}
330
39A5
100
AcDbXrecord
280
     1
102
ACAD_ROUNDTRIP_PRE2007_TABLESTYLE
 90
        4
 91
        0
  1

 92
        4
 93
        0
  2

 94
        4
 95
        0
  3

  0
XRECORD
  5
3A5B
102
{ACAD_REACTORS
330
3A5A
102
}
330
3A5A
100
AcDbXrecord
280
     1
102
RTVSPropertyOp0
 70
     1
102
RTVSPropertyOp1
 70
     1
102
RTVSPropertyOp2
 70
     1
102
RTVSPropertyOp3
 70
     1
102
RTVSPropertyOp4
 70
     1
102
RTVSPropertyOp5
 70
     1
102
RTVSPropertyOp6
 70
     1
102
RTVSPropertyOp7
 70
     1
102
RTVSPropertyOp8
 70
     1
102
RTVSPropertyOp9
 70
     1
102
RTVSPropertyOp10
 70
     1
102
RTVSPropertyOp11
 70
     1
102
RTVSPropertyOp12
 70
     1
102
RTVSPropertyOp13
 70
     1
102
RTVSPropertyOp14
 70
     1
102
RTVSPropertyOp15
 70
     1
102
RTVSPropertyOp16
 70
     1
102
RTVSPropertyOp17
 70
     1
102
RTVSPropertyOp18
 70
     1
102
RTVSPropertyOp19
 70
     1
102
RTVSPropertyOp20
 70
     1
102
RTVSPropertyOp21
 70
     1
102
RTVSPropertyOp22
 70
     1
102
RTVSPropertyOp23
 70
     1
102
RTVSPropertyOp24
 70
     1
102
RTVSPropertyOp25
 70
     1
102
RTVSPropertyOp26
 70
     1
102
RTVSPropertyOp27
 70
     1
102
RTVSPropertyOp28
 70
     1
102
RTVSPropertyOp29
 70
     1
102
RTVSPropertyOp30
 70
     1
102
RTVSPropertyOp31
 70
     1
102
RTVSPropertyOp32
 70
     1
  0
XRECORD
  5
3A59
102
{ACAD_REACTORS
330
3A58
102
}
330
3A58
100
AcDbXrecord
280
     1
102
RTVSPropertyOp0
 70
     1
102
RTVSPropertyOp1
 70
     1
102
RTVSPropertyOp2
 70
     1
102
RTVSPropertyOp3
 70
     1
102
RTVSPropertyOp4
 70
     1
102
RTVSPropertyOp5
 70
     1
102
RTVSPropertyOp6
 70
     1
102
RTVSPropertyOp7
 70
     1
102
RTVSPropertyOp8
 70
     1
102
RTVSPropertyOp9
 70
     1
102
RTVSPropertyOp10
 70
     1
102
RTVSPropertyOp11
 70
     1
102
RTVSPropertyOp12
 70
     1
102
RTVSPropertyOp13
 70
     1
102
RTVSPropertyOp14
 70
     1
102
RTVSPropertyOp15
 70
     1
102
RTVSPropertyOp16
 70
     1
102
RTVSPropertyOp17
 70
     1
102
RTVSPropertyOp18
 70
     1
102
RTVSPropertyOp19
 70
     1
102
RTVSPropertyOp20
 70
     1
102
RTVSPropertyOp21
 70
     1
102
RTVSPropertyOp22
 70
     1
102
RTVSPropertyOp23
 70
     1
102
RTVSPropertyOp24
 70
     1
102
RTVSPropertyOp25
 70
     1
102
RTVSPropertyOp26
 70
     1
102
RTVSPropertyOp27
 70
     1
102
RTVSPropertyOp28
 70
     1
102
RTVSPropertyOp29
 70
     1
102
RTVSPropertyOp30
 70
     1
102
RTVSPropertyOp31
 70
     1
102
RTVSPropertyOp32
 70
     1
  0
XRECORD
  5
3A67
102
{ACAD_REACTORS
330
3A66
102
}
330
3A66
100
AcDbXrecord
280
     1
102
RTVSPropertyOp0
 70
     1
102
RTVSPropertyOp1
 70
     1
102
RTVSPropertyOp2
 70
     1
102
RTVSPropertyOp3
 70
     1
102
RTVSPropertyOp4
 70
     1
102
RTVSPropertyOp5
 70
     1
102
RTVSPropertyOp6
 70
     1
102
RTVSPropertyOp7
 70
     1
102
RTVSPropertyOp8
 70
     1
102
RTVSPropertyOp9
 70
     1
102
RTVSPropertyOp10
 70
     1
102
RTVSPropertyOp11
 70
     1
102
RTVSPropertyOp12
 70
     1
102
RTVSPropertyOp13
 70
     1
102
RTVSPropertyOp14
 70
     1
102
RTVSPropertyOp15
 70
     1
102
RTVSPropertyOp16
 70
     1
102
RTVSPropertyOp17
 70
     1
102
RTVSPropertyOp18
 70
     1
102
RTVSPropertyOp19
 70
     1
102
RTVSPropertyOp20
 70
     1
102
RTVSPropertyOp21
 70
     1
102
RTVSPropertyOp22
 70
     1
102
RTVSPropertyOp23
 70
     1
102
RTVSPropertyOp24
 70
     1
102
RTVSPropertyOp25
 70
     1
102
RTVSPropertyOp26
 70
     1
102
RTVSPropertyOp27
 70
     1
102
RTVSPropertyOp28
 70
     1
102
RTVSPropertyOp29
 70
     1
102
RTVSPropertyOp30
 70
     1
102
RTVSPropertyOp31
 70
     1
102
RTVSPropertyOp32
 70
     1
  0
XRECORD
  5
3A6F
102
{ACAD_REACTORS
330
3A6E
102
}
330
3A6E
100
AcDbXrecord
280
     1
102
RTVSPropertyOp0
 70
     1
102
RTVSPropertyOp1
 70
     1
102
RTVSPropertyOp2
 70
     1
102
RTVSPropertyOp3
 70
     1
102
RTVSPropertyOp4
 70
     1
102
RTVSPropertyOp5
 70
     1
102
RTVSPropertyOp6
 70
     1
102
RTVSPropertyOp7
 70
     1
102
RTVSPropertyOp8
 70
     1
102
RTVSPropertyOp9
 70
     1
102
RTVSPropertyOp10
 70
     1
102
RTVSPropertyOp11
 70
     1
102
RTVSPropertyOp12
 70
     1
102
RTVSPropertyOp13
 70
     1
102
RTVSPropertyOp14
 70
     1
102
RTVSPropertyOp15
 70
     1
102
RTVSPropertyOp16
 70
     1
102
RTVSPropertyOp17
 70
     1
102
RTVSPropertyOp18
 70
     1
102
RTVSPropertyOp19
 70
     1
102
RTVSPropertyOp20
 70
     1
102
RTVSPropertyOp21
 70
     1
102
RTVSPropertyOp22
 70
     1
102
RTVSPropertyOp23
 70
     1
102
RTVSPropertyOp24
 70
     1
102
RTVSPropertyOp25
 70
     1
102
RTVSPropertyOp26
 70
     1
102
RTVSPropertyOp27
 70
     1
102
RTVSPropertyOp28
 70
     1
102
RTVSPropertyOp29
 70
     1
102
RTVSPropertyOp30
 70
     1
102
RTVSPropertyOp31
 70
     1
102
RTVSPropertyOp32
 70
     1
  0
XRECORD
  5
3A61
102
{ACAD_REACTORS
330
3A60
102
}
330
3A60
100
AcDbXrecord
280
     1
102
RTVSPropertyOp0
 70
     1
102
RTVSPropertyOp1
 70
     1
102
RTVSPropertyOp2
 70
     1
102
RTVSPropertyOp3
 70
     1
102
RTVSPropertyOp4
 70
     1
102
RTVSPropertyOp5
 70
     1
102
RTVSPropertyOp6
 70
     1
102
RTVSPropertyOp7
 70
     1
102
RTVSPropertyOp8
 70
     1
102
RTVSPropertyOp9
 70
     1
102
RTVSPropertyOp10
 70
     1
102
RTVSPropertyOp11
 70
     1
102
RTVSPropertyOp12
 70
     1
102
RTVSPropertyOp13
 70
     1
102
RTVSPropertyOp14
 70
     1
102
RTVSPropertyOp15
 70
     1
102
RTVSPropertyOp16
 70
     1
102
RTVSPropertyOp17
 70
     1
102
RTVSPropertyOp18
 70
     1
102
RTVSPropertyOp19
 70
     1
102
RTVSPropertyOp20
 70
     1
102
RTVSPropertyOp21
 70
     1
102
RTVSPropertyOp22
 70
     1
102
RTVSPropertyOp23
 70
     1
102
RTVSPropertyOp24
 70
     1
102
RTVSPropertyOp25
 70
     1
102
RTVSPropertyOp26
 70
     1
102
RTVSPropertyOp27
 70
     1
102
RTVSPropertyOp28
 70
     1
102
RTVSPropertyOp29
 70
     1
102
RTVSPropertyOp30
 70
     1
102
RTVSPropertyOp31
 70
     1
102
RTVSPropertyOp32
 70
     1
  0
XRECORD
  5
3A65
102
{ACAD_REACTORS
330
3A64
102
}
330
3A64
100
AcDbXrecord
280
     1
102
RTVSPropertyOp0
 70
     1
102
RTVSPropertyOp1
 70
     1
102
RTVSPropertyOp2
 70
     1
102
RTVSPropertyOp3
 70
     1
102
RTVSPropertyOp4
 70
     1
102
RTVSPropertyOp5
 70
     1
102
RTVSPropertyOp6
 70
     1
102
RTVSPropertyOp7
 70
     1
102
RTVSPropertyOp8
 70
     1
102
RTVSPropertyOp9
 70
     1
102
RTVSPropertyOp10
 70
     1
102
RTVSPropertyOp11
 70
     1
102
RTVSPropertyOp12
 70
     1
102
RTVSPropertyOp13
 70
     1
102
RTVSPropertyOp14
 70
     1
102
RTVSPropertyOp15
 70
     1
102
RTVSPropertyOp16
 70
     1
102
RTVSPropertyOp17
 70
     1
102
RTVSPropertyOp18
 70
     1
102
RTVSPropertyOp19
 70
     1
102
RTVSPropertyOp20
 70
     1
102
RTVSPropertyOp21
 70
     1
102
RTVSPropertyOp22
 70
     1
102
RTVSPropertyOp23
 70
     1
102
RTVSPropertyOp24
 70
     1
102
RTVSPropertyOp25
 70
     1
102
RTVSPropertyOp26
 70
     1
102
RTVSPropertyOp27
 70
     1
102
RTVSPropertyOp28
 70
     1
102
RTVSPropertyOp29
 70
     1
102
RTVSPropertyOp30
 70
     1
102
RTVSPropertyOp31
 70
     1
102
RTVSPropertyOp32
 70
     1
  0
XRECORD
  5
3A7F
102
{ACAD_REACTORS
330
3A7E
102
}
330
3A7E
100
AcDbXrecord
280
     1
102
RTVSPropertyOp0
 70
     0
102
RTVSPropertyOp1
 70
     0
102
RTVSPropertyOp2
 70
     0
102
RTVSPropertyOp3
 70
     0
102
RTVSPropertyOp4
 70
     0
102
RTVSPropertyOp5
 70
     0
102
RTVSPropertyOp6
 70
     0
102
RTVSPropertyOp7
 70
     0
102
RTVSPropertyOp8
 70
     0
102
RTVSPropertyOp9
 70
     0
102
RTVSPropertyOp10
 70
     0
102
RTVSPropertyOp11
 70
     0
102
RTVSPropertyOp12
 70
     0
102
RTVSPropertyOp13
 70
     0
102
RTVSPropertyOp14
 70
     2
102
RTVSPropertyOp15
 70
     0
102
RTVSPropertyOp16
 70
     0
102
RTVSPropertyOp17
 70
     0
102
RTVSPropertyOp18
 70
     0
102
RTVSPropertyOp19
 70
     0
102
RTVSPropertyOp20
 70
     0
102
RTVSPropertyOp21
 70
     0
102
RTVSPropertyOp22
 70
     0
102
RTVSPropertyOp23
 70
     0
102
RTVSPropertyOp24
 70
     0
102
RTVSPropertyOp25
 70
     0
102
RTVSPropertyOp26
 70
     0
102
RTVSPropertyOp27
 70
     0
102
RTVSPropertyOp28
 70
     1
102
RTVSPropertyOp29
 70
     1
102
RTVSPropertyOp30
 70
     1
102
RTVSPropertyOp31
 70
     1
102
RTVSPropertyOp32
 70
     1
  0
XRECORD
  5
3A6D
102
{ACAD_REACTORS
330
3A6C
102
}
330
3A6C
100
AcDbXrecord
280
     1
102
RTVSPropertyOp0
 70
     1
102
RTVSPropertyOp1
 70
     1
102
RTVSPropertyOp2
 70
     1
102
RTVSPropertyOp3
 70
     1
102
RTVSPropertyOp4
 70
     1
102
RTVSPropertyOp5
 70
     1
102
RTVSPropertyOp6
 70
     1
102
RTVSPropertyOp7
 70
     1
102
RTVSPropertyOp8
 70
     1
102
RTVSPropertyOp9
 70
     1
102
RTVSPropertyOp10
 70
     1
102
RTVSPropertyOp11
 70
     1
102
RTVSPropertyOp12
 70
     1
102
RTVSPropertyOp13
 70
     1
102
RTVSPropertyOp14
 70
     1
102
RTVSPropertyOp15
 70
     1
102
RTVSPropertyOp16
 70
     1
102
RTVSPropertyOp17
 70
     1
102
RTVSPropertyOp18
 70
     1
102
RTVSPropertyOp19
 70
     1
102
RTVSPropertyOp20
 70
     1
102
RTVSPropertyOp21
 70
     1
102
RTVSPropertyOp22
 70
     1
102
RTVSPropertyOp23
 70
     1
102
RTVSPropertyOp24
 70
     1
102
RTVSPropertyOp25
 70
     1
102
RTVSPropertyOp26
 70
     1
102
RTVSPropertyOp27
 70
     1
102
RTVSPropertyOp28
 70
     1
102
RTVSPropertyOp29
 70
     1
102
RTVSPropertyOp30
 70
     1
102
RTVSPropertyOp31
 70
     1
102
RTVSPropertyOp32
 70
     1
  0
XRECORD
  5
3A51
102
{ACAD_REACTORS
330
3A50
102
}
330
3A50
100
AcDbXrecord
280
     1
102
RTVSPropertyOp0
 70
     1
102
RTVSPropertyOp1
 70
     1
102
RTVSPropertyOp2
 70
     1
102
RTVSPropertyOp3
 70
     1
102
RTVSPropertyOp4
 70
     1
102
RTVSPropertyOp5
 70
     1
102
RTVSPropertyOp6
 70
     1
102
RTVSPropertyOp7
 70
     1
102
RTVSPropertyOp8
 70
     1
102
RTVSPropertyOp9
 70
     1
102
RTVSPropertyOp10
 70
     1
102
RTVSPropertyOp11
 70
     1
102
RTVSPropertyOp12
 70
     1
102
RTVSPropertyOp13
 70
     1
102
RTVSPropertyOp14
 70
     1
102
RTVSPropertyOp15
 70
     1
102
RTVSPropertyOp16
 70
     1
102
RTVSPropertyOp17
 70
     1
102
RTVSPropertyOp18
 70
     1
102
RTVSPropertyOp19
 70
     1
102
RTVSPropertyOp20
 70
     1
102
RTVSPropertyOp21
 70
     1
102
RTVSPropertyOp22
 70
     1
102
RTVSPropertyOp23
 70
     1
102
RTVSPropertyOp24
 70
     1
102
RTVSPropertyOp25
 70
     1
102
RTVSPropertyOp26
 70
     1
102
RTVSPropertyOp27
 70
     1
102
RTVSPropertyOp28
 70
     1
102
RTVSPropertyOp29
 70
     1
102
RTVSPropertyOp30
 70
     1
102
RTVSPropertyOp31
 70
     1
102
RTVSPropertyOp32
 70
     1
  0
XRECORD
  5
3A53
102
{ACAD_REACTORS
330
3A52
102
}
330
3A52
100
AcDbXrecord
280
     1
102
RTVSPropertyOp0
 70
     1
102
RTVSPropertyOp1
 70
     1
102
RTVSPropertyOp2
 70
     1
102
RTVSPropertyOp3
 70
     1
102
RTVSPropertyOp4
 70
     1
102
RTVSPropertyOp5
 70
     1
102
RTVSPropertyOp6
 70
     1
102
RTVSPropertyOp7
 70
     1
102
RTVSPropertyOp8
 70
     1
102
RTVSPropertyOp9
 70
     1
102
RTVSPropertyOp10
 70
     1
102
RTVSPropertyOp11
 70
     1
102
RTVSPropertyOp12
 70
     1
102
RTVSPropertyOp13
 70
     1
102
RTVSPropertyOp14
 70
     1
102
RTVSPropertyOp15
 70
     1
102
RTVSPropertyOp16
 70
     1
102
RTVSPropertyOp17
 70
     1
102
RTVSPropertyOp18
 70
     1
102
RTVSPropertyOp19
 70
     1
102
RTVSPropertyOp20
 70
     1
102
RTVSPropertyOp21
 70
     1
102
RTVSPropertyOp22
 70
     1
102
RTVSPropertyOp23
 70
     1
102
RTVSPropertyOp24
 70
     1
102
RTVSPropertyOp25
 70
     1
102
RTVSPropertyOp26
 70
     1
102
RTVSPropertyOp27
 70
     1
102
RTVSPropertyOp28
 70
     1
102
RTVSPropertyOp29
 70
     1
102
RTVSPropertyOp30
 70
     1
102
RTVSPropertyOp31
 70
     1
102
RTVSPropertyOp32
 70
     1
  0
XRECORD
  5
3A55
102
{ACAD_REACTORS
330
3A54
102
}
330
3A54
100
AcDbXrecord
280
     1
102
RTVSPropertyOp0
 70
     1
102
RTVSPropertyOp1
 70
     1
102
RTVSPropertyOp2
 70
     1
102
RTVSPropertyOp3
 70
     1
102
RTVSPropertyOp4
 70
     1
102
RTVSPropertyOp5
 70
     1
102
RTVSPropertyOp6
 70
     1
102
RTVSPropertyOp7
 70
     1
102
RTVSPropertyOp8
 70
     1
102
RTVSPropertyOp9
 70
     1
102
RTVSPropertyOp10
 70
     1
102
RTVSPropertyOp11
 70
     1
102
RTVSPropertyOp12
 70
     1
102
RTVSPropertyOp13
 70
     1
102
RTVSPropertyOp14
 70
     1
102
RTVSPropertyOp15
 70
     1
102
RTVSPropertyOp16
 70
     1
102
RTVSPropertyOp17
 70
     1
102
RTVSPropertyOp18
 70
     1
102
RTVSPropertyOp19
 70
     1
102
RTVSPropertyOp20
 70
     1
102
RTVSPropertyOp21
 70
     1
102
RTVSPropertyOp22
 70
     1
102
RTVSPropertyOp23
 70
     1
102
RTVSPropertyOp24
 70
     1
102
RTVSPropertyOp25
 70
     1
102
RTVSPropertyOp26
 70
     1
102
RTVSPropertyOp27
 70
     1
102
RTVSPropertyOp28
 70
     1
102
RTVSPropertyOp29
 70
     1
102
RTVSPropertyOp30
 70
     1
102
RTVSPropertyOp31
 70
     1
102
RTVSPropertyOp32
 70
     1
  0
XRECORD
  5
3A57
102
{ACAD_REACTORS
330
3A56
102
}
330
3A56
100
AcDbXrecord
280
     1
102
RTVSPropertyOp0
 70
     1
102
RTVSPropertyOp1
 70
     1
102
RTVSPropertyOp2
 70
     1
102
RTVSPropertyOp3
 70
     1
102
RTVSPropertyOp4
 70
     1
102
RTVSPropertyOp5
 70
     1
102
RTVSPropertyOp6
 70
     1
102
RTVSPropertyOp7
 70
     1
102
RTVSPropertyOp8
 70
     1
102
RTVSPropertyOp9
 70
     1
102
RTVSPropertyOp10
 70
     1
102
RTVSPropertyOp11
 70
     1
102
RTVSPropertyOp12
 70
     1
102
RTVSPropertyOp13
 70
     1
102
RTVSPropertyOp14
 70
     1
102
RTVSPropertyOp15
 70
     1
102
RTVSPropertyOp16
 70
     1
102
RTVSPropertyOp17
 70
     1
102
RTVSPropertyOp18
 70
     1
102
RTVSPropertyOp19
 70
     1
102
RTVSPropertyOp20
 70
     1
102
RTVSPropertyOp21
 70
     1
102
RTVSPropertyOp22
 70
     1
102
RTVSPropertyOp23
 70
     1
102
RTVSPropertyOp24
 70
     1
102
RTVSPropertyOp25
 70
     1
102
RTVSPropertyOp26
 70
     1
102
RTVSPropertyOp27
 70
     1
102
RTVSPropertyOp28
 70
     1
102
RTVSPropertyOp29
 70
     1
102
RTVSPropertyOp30
 70
     1
102
RTVSPropertyOp31
 70
     1
102
RTVSPropertyOp32
 70
     1
  0
XRECORD
  5
3A5F
102
{ACAD_REACTORS
330
3A5E
102
}
330
3A5E
100
AcDbXrecord
280
     1
102
RTVSPropertyOp0
 70
     1
102
RTVSPropertyOp1
 70
     1
102
RTVSPropertyOp2
 70
     1
102
RTVSPropertyOp3
 70
     1
102
RTVSPropertyOp4
 70
     1
102
RTVSPropertyOp5
 70
     1
102
RTVSPropertyOp6
 70
     1
102
RTVSPropertyOp7
 70
     1
102
RTVSPropertyOp8
 70
     1
102
RTVSPropertyOp9
 70
     1
102
RTVSPropertyOp10
 70
     1
102
RTVSPropertyOp11
 70
     1
102
RTVSPropertyOp12
 70
     1
102
RTVSPropertyOp13
 70
     1
102
RTVSPropertyOp14
 70
     1
102
RTVSPropertyOp15
 70
     1
102
RTVSPropertyOp16
 70
     1
102
RTVSPropertyOp17
 70
     1
102
RTVSPropertyOp18
 70
     1
102
RTVSPropertyOp19
 70
     1
102
RTVSPropertyOp20
 70
     1
102
RTVSPropertyOp21
 70
     1
102
RTVSPropertyOp22
 70
     1
102
RTVSPropertyOp23
 70
     1
102
RTVSPropertyOp24
 70
     1
102
RTVSPropertyOp25
 70
     1
102
RTVSPropertyOp26
 70
     1
102
RTVSPropertyOp27
 70
     1
102
RTVSPropertyOp28
 70
     1
102
RTVSPropertyOp29
 70
     1
102
RTVSPropertyOp30
 70
     1
102
RTVSPropertyOp31
 70
     1
102
RTVSPropertyOp32
 70
     1
  0
XRECORD
  5
3A7B
102
{ACAD_REACTORS
330
3A7A
102
}
330
3A7A
100
AcDbXrecord
280
     1
102
RTVSPropertyOp0
 70
     0
102
RTVSPropertyOp1
 70
     0
102
RTVSPropertyOp2
 70
     0
102
RTVSPropertyOp3
 70
     0
102
RTVSPropertyOp4
 70
     0
102
RTVSPropertyOp5
 70
     0
102
RTVSPropertyOp6
 70
     0
102
RTVSPropertyOp7
 70
     0
102
RTVSPropertyOp8
 70
     0
102
RTVSPropertyOp9
 70
     0
102
RTVSPropertyOp10
 70
     0
102
RTVSPropertyOp11
 70
     0
102
RTVSPropertyOp12
 70
     0
102
RTVSPropertyOp13
 70
     0
102
RTVSPropertyOp14
 70
     2
102
RTVSPropertyOp15
 70
     0
102
RTVSPropertyOp16
 70
     0
102
RTVSPropertyOp17
 70
     0
102
RTVSPropertyOp18
 70
     0
102
RTVSPropertyOp19
 70
     0
102
RTVSPropertyOp20
 70
     0
102
RTVSPropertyOp21
 70
     0
102
RTVSPropertyOp22
 70
     0
102
RTVSPropertyOp23
 70
     0
102
RTVSPropertyOp24
 70
     0
102
RTVSPropertyOp25
 70
     0
102
RTVSPropertyOp26
 70
     0
102
RTVSPropertyOp27
 70
     0
102
RTVSPropertyOp28
 70
     1
102
RTVSPropertyOp29
 70
     1
102
RTVSPropertyOp30
 70
     1
102
RTVSPropertyOp31
 70
     1
102
RTVSPropertyOp32
 70
     1
  0
XRECORD
  5
3A6B
102
{ACAD_REACTORS
330
3A6A
102
}
330
3A6A
100
AcDbXrecord
280
     1
102
RTVSPropertyOp0
 70
     1
102
RTVSPropertyOp1
 70
     1
102
RTVSPropertyOp2
 70
     1
102
RTVSPropertyOp3
 70
     1
102
RTVSPropertyOp4
 70
     1
102
RTVSPropertyOp5
 70
     1
102
RTVSPropertyOp6
 70
     1
102
RTVSPropertyOp7
 70
     1
102
RTVSPropertyOp8
 70
     1
102
RTVSPropertyOp9
 70
     1
102
RTVSPropertyOp10
 70
     1
102
RTVSPropertyOp11
 70
     1
102
RTVSPropertyOp12
 70
     1
102
RTVSPropertyOp13
 70
     1
102
RTVSPropertyOp14
 70
     1
102
RTVSPropertyOp15
 70
     1
102
RTVSPropertyOp16
 70
     1
102
RTVSPropertyOp17
 70
     1
102
RTVSPropertyOp18
 70
     1
102
RTVSPropertyOp19
 70
     1
102
RTVSPropertyOp20
 70
     1
102
RTVSPropertyOp21
 70
     1
102
RTVSPropertyOp22
 70
     1
102
RTVSPropertyOp23
 70
     1
102
RTVSPropertyOp24
 70
     1
102
RTVSPropertyOp25
 70
     1
102
RTVSPropertyOp26
 70
     1
102
RTVSPropertyOp27
 70
     1
102
RTVSPropertyOp28
 70
     1
102
RTVSPropertyOp29
 70
     1
102
RTVSPropertyOp30
 70
     1
102
RTVSPropertyOp31
 70
     1
102
RTVSPropertyOp32
 70
     1
  0
XRECORD
  5
3A7D
102
{ACAD_REACTORS
330
3A7C
102
}
330
3A7C
100
AcDbXrecord
280
     1
102
RTVSPropertyOp0
 70
     0
102
RTVSPropertyOp1
 70
     0
102
RTVSPropertyOp2
 70
     0
102
RTVSPropertyOp3
 70
     0
102
RTVSPropertyOp4
 70
     0
102
RTVSPropertyOp5
 70
     0
102
RTVSPropertyOp6
 70
     0
102
RTVSPropertyOp7
 70
     0
102
RTVSPropertyOp8
 70
     0
102
RTVSPropertyOp9
 70
     0
102
RTVSPropertyOp10
 70
     0
102
RTVSPropertyOp11
 70
     0
102
RTVSPropertyOp12
 70
     0
102
RTVSPropertyOp13
 70
     0
102
RTVSPropertyOp14
 70
     2
102
RTVSPropertyOp15
 70
     0
102
RTVSPropertyOp16
 70
     0
102
RTVSPropertyOp17
 70
     0
102
RTVSPropertyOp18
 70
     0
102
RTVSPropertyOp19
 70
     0
102
RTVSPropertyOp20
 70
     0
102
RTVSPropertyOp21
 70
     0
102
RTVSPropertyOp22
 70
     0
102
RTVSPropertyOp23
 70
     0
102
RTVSPropertyOp24
 70
     0
102
RTVSPropertyOp25
 70
     0
102
RTVSPropertyOp26
 70
     0
102
RTVSPropertyOp27
 70
     0
102
RTVSPropertyOp28
 70
     1
102
RTVSPropertyOp29
 70
     1
102
RTVSPropertyOp30
 70
     1
102
RTVSPropertyOp31
 70
     1
102
RTVSPropertyOp32
 70
     1
  0
XRECORD
  5
3A63
102
{ACAD_REACTORS
330
3A62
102
}
330
3A62
100
AcDbXrecord
280
     1
102
RTVSPropertyOp0
 70
     1
102
RTVSPropertyOp1
 70
     1
102
RTVSPropertyOp2
 70
     1
102
RTVSPropertyOp3
 70
     1
102
RTVSPropertyOp4
 70
     1
102
RTVSPropertyOp5
 70
     1
102
RTVSPropertyOp6
 70
     1
102
RTVSPropertyOp7
 70
     1
102
RTVSPropertyOp8
 70
     1
102
RTVSPropertyOp9
 70
     1
102
RTVSPropertyOp10
 70
     1
102
RTVSPropertyOp11
 70
     1
102
RTVSPropertyOp12
 70
     1
102
RTVSPropertyOp13
 70
     1
102
RTVSPropertyOp14
 70
     1
102
RTVSPropertyOp15
 70
     1
102
RTVSPropertyOp16
 70
     1
102
RTVSPropertyOp17
 70
     1
102
RTVSPropertyOp18
 70
     1
102
RTVSPropertyOp19
 70
     1
102
RTVSPropertyOp20
 70
     1
102
RTVSPropertyOp21
 70
     1
102
RTVSPropertyOp22
 70
     1
102
RTVSPropertyOp23
 70
     1
102
RTVSPropertyOp24
 70
     1
102
RTVSPropertyOp25
 70
     1
102
RTVSPropertyOp26
 70
     1
102
RTVSPropertyOp27
 70
     1
102
RTVSPropertyOp28
 70
     1
102
RTVSPropertyOp29
 70
     1
102
RTVSPropertyOp30
 70
     1
102
RTVSPropertyOp31
 70
     1
102
RTVSPropertyOp32
 70
     1
  0
XRECORD
  5
3A79
102
{ACAD_REACTORS
330
3A78
102
}
330
3A78
100
AcDbXrecord
280
     1
102
RTVSPropertyOp0
 70
     1
102
RTVSPropertyOp1
 70
     1
102
RTVSPropertyOp2
 70
     1
102
RTVSPropertyOp3
 70
     1
102
RTVSPropertyOp4
 70
     1
102
RTVSPropertyOp5
 70
     1
102
RTVSPropertyOp6
 70
     1
102
RTVSPropertyOp7
 70
     1
102
RTVSPropertyOp8
 70
     1
102
RTVSPropertyOp9
 70
     1
102
RTVSPropertyOp10
 70
     1
102
RTVSPropertyOp11
 70
     1
102
RTVSPropertyOp12
 70
     1
102
RTVSPropertyOp13
 70
     1
102
RTVSPropertyOp14
 70
     1
102
RTVSPropertyOp15
 70
     1
102
RTVSPropertyOp16
 70
     1
102
RTVSPropertyOp17
 70
     1
102
RTVSPropertyOp18
 70
     1
102
RTVSPropertyOp19
 70
     1
102
RTVSPropertyOp20
 70
     1
102
RTVSPropertyOp21
 70
     1
102
RTVSPropertyOp22
 70
     1
102
RTVSPropertyOp23
 70
     1
102
RTVSPropertyOp24
 70
     1
102
RTVSPropertyOp25
 70
     1
102
RTVSPropertyOp26
 70
     1
102
RTVSPropertyOp27
 70
     1
102
RTVSPropertyOp28
 70
     1
102
RTVSPropertyOp29
 70
     1
102
RTVSPropertyOp30
 70
     1
102
RTVSPropertyOp31
 70
     1
102
RTVSPropertyOp32
 70
     1
  0
XRECORD
  5
3A77
102
{ACAD_REACTORS
330
3A76
102
}
330
3A76
100
AcDbXrecord
280
     1
102
RTVSPropertyOp0
 70
     1
102
RTVSPropertyOp1
 70
     1
102
RTVSPropertyOp2
 70
     1
102
RTVSPropertyOp3
 70
     1
102
RTVSPropertyOp4
 70
     1
102
RTVSPropertyOp5
 70
     1
102
RTVSPropertyOp6
 70
     1
102
RTVSPropertyOp7
 70
     1
102
RTVSPropertyOp8
 70
     1
102
RTVSPropertyOp9
 70
     1
102
RTVSPropertyOp10
 70
     1
102
RTVSPropertyOp11
 70
     1
102
RTVSPropertyOp12
 70
     1
102
RTVSPropertyOp13
 70
     1
102
RTVSPropertyOp14
 70
     1
102
RTVSPropertyOp15
 70
     1
102
RTVSPropertyOp16
 70
     1
102
RTVSPropertyOp17
 70
     1
102
RTVSPropertyOp18
 70
     1
102
RTVSPropertyOp19
 70
     1
102
RTVSPropertyOp20
 70
     1
102
RTVSPropertyOp21
 70
     1
102
RTVSPropertyOp22
 70
     1
102
RTVSPropertyOp23
 70
     1
102
RTVSPropertyOp24
 70
     1
102
RTVSPropertyOp25
 70
     1
102
RTVSPropertyOp26
 70
     1
102
RTVSPropertyOp27
 70
     1
102
RTVSPropertyOp28
 70
     1
102
RTVSPropertyOp29
 70
     1
102
RTVSPropertyOp30
 70
     1
102
RTVSPropertyOp31
 70
     1
102
RTVSPropertyOp32
 70
     1
  0
XRECORD
  5
3A71
102
{ACAD_REACTORS
330
3A70
102
}
330
3A70
100
AcDbXrecord
280
     1
102
RTVSPropertyOp0
 70
     1
102
RTVSPropertyOp1
 70
     1
102
RTVSPropertyOp2
 70
     1
102
RTVSPropertyOp3
 70
     1
102
RTVSPropertyOp4
 70
     1
102
RTVSPropertyOp5
 70
     1
102
RTVSPropertyOp6
 70
     1
102
RTVSPropertyOp7
 70
     1
102
RTVSPropertyOp8
 70
     1
102
RTVSPropertyOp9
 70
     1
102
RTVSPropertyOp10
 70
     1
102
RTVSPropertyOp11
 70
     1
102
RTVSPropertyOp12
 70
     1
102
RTVSPropertyOp13
 70
     1
102
RTVSPropertyOp14
 70
     1
102
RTVSPropertyOp15
 70
     1
102
RTVSPropertyOp16
 70
     1
102
RTVSPropertyOp17
 70
     1
102
RTVSPropertyOp18
 70
     1
102
RTVSPropertyOp19
 70
     1
102
RTVSPropertyOp20
 70
     1
102
RTVSPropertyOp21
 70
     1
102
RTVSPropertyOp22
 70
     1
102
RTVSPropertyOp23
 70
     1
102
RTVSPropertyOp24
 70
     1
102
RTVSPropertyOp25
 70
     1
102
RTVSPropertyOp26
 70
     1
102
RTVSPropertyOp27
 70
     1
102
RTVSPropertyOp28
 70
     1
102
RTVSPropertyOp29
 70
     1
102
RTVSPropertyOp30
 70
     1
102
RTVSPropertyOp31
 70
     1
102
RTVSPropertyOp32
 70
     1
  0
XRECORD
  5
3A73
102
{ACAD_REACTORS
330
3A72
102
}
330
3A72
100
AcDbXrecord
280
     1
102
RTVSPropertyOp0
 70
     1
102
RTVSPropertyOp1
 70
     1
102
RTVSPropertyOp2
 70
     1
102
RTVSPropertyOp3
 70
     1
102
RTVSPropertyOp4
 70
     1
102
RTVSPropertyOp5
 70
     1
102
RTVSPropertyOp6
 70
     1
102
RTVSPropertyOp7
 70
     1
102
RTVSPropertyOp8
 70
     1
102
RTVSPropertyOp9
 70
     1
102
RTVSPropertyOp10
 70
     1
102
RTVSPropertyOp11
 70
     1
102
RTVSPropertyOp12
 70
     1
102
RTVSPropertyOp13
 70
     1
102
RTVSPropertyOp14
 70
     1
102
RTVSPropertyOp15
 70
     1
102
RTVSPropertyOp16
 70
     1
102
RTVSPropertyOp17
 70
     1
102
RTVSPropertyOp18
 70
     1
102
RTVSPropertyOp19
 70
     1
102
RTVSPropertyOp20
 70
     1
102
RTVSPropertyOp21
 70
     1
102
RTVSPropertyOp22
 70
     1
102
RTVSPropertyOp23
 70
     1
102
RTVSPropertyOp24
 70
     1
102
RTVSPropertyOp25
 70
     1
102
RTVSPropertyOp26
 70
     1
102
RTVSPropertyOp27
 70
     1
102
RTVSPropertyOp28
 70
     1
102
RTVSPropertyOp29
 70
     1
102
RTVSPropertyOp30
 70
     1
102
RTVSPropertyOp31
 70
     1
102
RTVSPropertyOp32
 70
     1
  0
XRECORD
  5
3A69
102
{ACAD_REACTORS
330
3A68
102
}
330
3A68
100
AcDbXrecord
280
     1
102
RTVSPropertyOp0
 70
     1
102
RTVSPropertyOp1
 70
     1
102
RTVSPropertyOp2
 70
     1
102
RTVSPropertyOp3
 70
     1
102
RTVSPropertyOp4
 70
     1
102
RTVSPropertyOp5
 70
     1
102
RTVSPropertyOp6
 70
     1
102
RTVSPropertyOp7
 70
     1
102
RTVSPropertyOp8
 70
     1
102
RTVSPropertyOp9
 70
     1
102
RTVSPropertyOp10
 70
     1
102
RTVSPropertyOp11
 70
     1
102
RTVSPropertyOp12
 70
     1
102
RTVSPropertyOp13
 70
     1
102
RTVSPropertyOp14
 70
     1
102
RTVSPropertyOp15
 70
     1
102
RTVSPropertyOp16
 70
     1
102
RTVSPropertyOp17
 70
     1
102
RTVSPropertyOp18
 70
     1
102
RTVSPropertyOp19
 70
     1
102
RTVSPropertyOp20
 70
     1
102
RTVSPropertyOp21
 70
     1
102
RTVSPropertyOp22
 70
     1
102
RTVSPropertyOp23
 70
     1
102
RTVSPropertyOp24
 70
     1
102
RTVSPropertyOp25
 70
     1
102
RTVSPropertyOp26
 70
     1
102
RTVSPropertyOp27
 70
     1
102
RTVSPropertyOp28
 70
     1
102
RTVSPropertyOp29
 70
     1
102
RTVSPropertyOp30
 70
     1
102
RTVSPropertyOp31
 70
     1
102
RTVSPropertyOp32
 70
     1
  0
XRECORD
  5
3A5D
102
{ACAD_REACTORS
330
3A5C
102
}
330
3A5C
100
AcDbXrecord
280
     1
102
RTVSPropertyOp0
 70
     1
102
RTVSPropertyOp1
 70
     1
102
RTVSPropertyOp2
 70
     1
102
RTVSPropertyOp3
 70
     1
102
RTVSPropertyOp4
 70
     1
102
RTVSPropertyOp5
 70
     1
102
RTVSPropertyOp6
 70
     1
102
RTVSPropertyOp7
 70
     1
102
RTVSPropertyOp8
 70
     1
102
RTVSPropertyOp9
 70
     1
102
RTVSPropertyOp10
 70
     1
102
RTVSPropertyOp11
 70
     1
102
RTVSPropertyOp12
 70
     1
102
RTVSPropertyOp13
 70
     1
102
RTVSPropertyOp14
 70
     1
102
RTVSPropertyOp15
 70
     1
102
RTVSPropertyOp16
 70
     1
102
RTVSPropertyOp17
 70
     1
102
RTVSPropertyOp18
 70
     1
102
RTVSPropertyOp19
 70
     1
102
RTVSPropertyOp20
 70
     1
102
RTVSPropertyOp21
 70
     1
102
RTVSPropertyOp22
 70
     1
102
RTVSPropertyOp23
 70
     1
102
RTVSPropertyOp24
 70
     1
102
RTVSPropertyOp25
 70
     1
102
RTVSPropertyOp26
 70
     1
102
RTVSPropertyOp27
 70
     1
102
RTVSPropertyOp28
 70
     1
102
RTVSPropertyOp29
 70
     1
102
RTVSPropertyOp30
 70
     1
102
RTVSPropertyOp31
 70
     1
102
RTVSPropertyOp32
 70
     1
  0
XRECORD
  5
3A75
102
{ACAD_REACTORS
330
3A74
102
}
330
3A74
100
AcDbXrecord
280
     1
102
RTVSPropertyOp0
 70
     1
102
RTVSPropertyOp1
 70
     1
102
RTVSPropertyOp2
 70
     1
102
RTVSPropertyOp3
 70
     1
102
RTVSPropertyOp4
 70
     1
102
RTVSPropertyOp5
 70
     1
102
RTVSPropertyOp6
 70
     1
102
RTVSPropertyOp7
 70
     1
102
RTVSPropertyOp8
 70
     1
102
RTVSPropertyOp9
 70
     1
102
RTVSPropertyOp10
 70
     1
102
RTVSPropertyOp11
 70
     1
102
RTVSPropertyOp12
 70
     1
102
RTVSPropertyOp13
 70
     1
102
RTVSPropertyOp14
 70
     1
102
RTVSPropertyOp15
 70
     1
102
RTVSPropertyOp16
 70
     1
102
RTVSPropertyOp17
 70
     1
102
RTVSPropertyOp18
 70
     1
102
RTVSPropertyOp19
 70
     1
102
RTVSPropertyOp20
 70
     1
102
RTVSPropertyOp21
 70
     1
102
RTVSPropertyOp22
 70
     1
102
RTVSPropertyOp23
 70
     1
102
RTVSPropertyOp24
 70
     1
102
RTVSPropertyOp25
 70
     1
102
RTVSPropertyOp26
 70
     1
102
RTVSPropertyOp27
 70
     1
102
RTVSPropertyOp28
 70
     1
102
RTVSPropertyOp29
 70
     1
102
RTVSPropertyOp30
 70
     1
102
RTVSPropertyOp31
 70
     1
102
RTVSPropertyOp32
 70
     1
  0
ENDSEC
  0
EOF
