  0
SECTION
  2
HEADER
  9
$ACADVER
  1
AC1015
  9
$ACADMAINTVER
 70
    20
  9
$DWGCODEPAGE
  3
ANSI_932
  9
$INSBASE
 10
0.0
 20
0.0
 30
0.0
  9
$EXTMIN
 10
82.67192048888501
 20
88.81853032863274
 30
-0.0000000349181948
  9
$EXTMAX
 10
2182.928275968543
 20
1573.999810274963
 30
0.0000000814935746
  9
$LIMMIN
 10
82.80008844952817
 20
88.90916338651733
  9
$LIMMAX
 10
502.8000884495281
 20
385.9091633865173
  9
$ORTHOMODE
 70
     0
  9
$REGENMODE
 70
     1
  9
$FILLMODE
 70
     1
  9
$QTEXTMODE
 70
     0
  9
$MIRRTEXT
 70
     0
  9
$LTSCALE
 40
1.0
  9
$ATTMODE
 70
     1
  9
$TEXTSIZE
 40
2.5
  9
$TRACEWID
 40
1.0
  9
$TEXTSTYLE
  7
Standard
  9
$CLAYER
  8
0
  9
$CELTYPE
  6
ByLayer
  9
$CECOLOR
 62
   256
  9
$CELTSCALE
 40
1.0
  9
$DISPSILH
 70
     0
  9
$DIMSCALE
 40
1.0
  9
$DIMASZ
 40
2.5
  9
$DIMEXO
 40
0.625
  9
$DIMDLI
 40
3.75
  9
$DIMRND
 40
0.0
  9
$DIMDLE
 40
0.0
  9
$DIMEXE
 40
1.25
  9
$DIMTP
 40
0.0
  9
$DIMTM
 40
0.0
  9
$DIMTXT
 40
2.5
  9
$DIMCEN
 40
2.5
  9
$DIMTSZ
 40
0.0
  9
$DIMTOL
 70
     0
  9
$DIMLIM
 70
     0
  9
$DIMTIH
 70
     0
  9
$DIMTOH
 70
     0
  9
$DIMSE1
 70
     0
  9
$DIMSE2
 70
     0
  9
$DIMTAD
 70
     2
  9
$DIMZIN
 70
     8
  9
$DIMBLK
  1

  9
$DIMASO
 70
     1
  9
$DIMSHO
 70
     1
  9
$DIMPOST
  1

  9
$DIMAPOST
  1

  9
$DIMALT
 70
     0
  9
$DIMALTD
 70
     3
  9
$DIMALTF
 40
0.03937007874016
  9
$DIMLFAC
 40
1.0
  9
$DIMTOFL
 70
     1
  9
$DIMTVP
 40
0.0
  9
$DIMTIX
 70
     0
  9
$DIMSOXD
 70
     0
  9
$DIMSAH
 70
     0
  9
$DIMBLK1
  1

  9
$DIMBLK2
  1

  9
$DIMSTYLE
  2
ISO-25
  9
$DIMCLRD
 70
     0
  9
$DIMCLRE
 70
     0
  9
$DIMCLRT
 70
     0
  9
$DIMTFAC
 40
1.0
  9
$DIMGAP
 40
0.625
  9
$DIMJUST
 70
     0
  9
$DIMSD1
 70
     0
  9
$DIMSD2
 70
     0
  9
$DIMTOLJ
 70
     0
  9
$DIMTZIN
 70
     8
  9
$DIMALTZ
 70
     0
  9
$DIMALTTZ
 70
     0
  9
$DIMUPT
 70
     0
  9
$DIMDEC
 70
     2
  9
$DIMTDEC
 70
     2
  9
$DIMALTU
 70
     2
  9
$DIMALTTD
 70
     3
  9
$DIMTXSTY
  7
Standard
  9
$DIMAUNIT
 70
     0
  9
$DIMADEC
 70
     0
  9
$DIMALTRND
 40
0.0
  9
$DIMAZIN
 70
     0
  9
$DIMDSEP
 70
    44
  9
$DIMATFIT
 70
     3
  9
$DIMFRAC
 70
     0
  9
$DIMLDRBLK
  1

  9
$DIMLUNIT
 70
     2
  9
$DIMLWD
 70
    -2
  9
$DIMLWE
 70
    -2
  9
$DIMTMOVE
 70
     0
  9
$LUNITS
 70
     2
  9
$LUPREC
 70
     4
  9
$SKETCHINC
 40
1.0
  9
$FILLETRAD
 40
0.0
  9
$AUNITS
 70
     0
  9
$AUPREC
 70
     0
  9
$MENU
  1
.
  9
$ELEVATION
 40
0.0
  9
$PELEVATION
 40
0.0
  9
$THICKNESS
 40
0.0
  9
$LIMCHECK
 70
     0
  9
$CHAMFERA
 40
0.0
  9
$CHAMFERB
 40
0.0
  9
$CHAMFERC
 40
0.0
  9
$CHAMFERD
 40
0.0
  9
$SKPOLY
 70
     0
  9
$TDCREATE
 40
2454427.395492431
  9
$TDUCREATE
 40
2454427.020492431
  9
$TDUPDATE
 40
2457052.473879792
  9
$TDUUPDATE
 40
2457052.098879792
  9
$TDINDWG
 40
0.0214113542
  9
$TDUSRTIMER
 40
0.0214113542
  9
$USRTIMER
 70
     1
  9
$ANGBASE
 50
0.0
  9
$ANGDIR
 70
     0
  9
$PDMODE
 70
     0
  9
$PDSIZE
 40
0.0
  9
$PLINEWID
 40
0.0
  9
$SPLFRAME
 70
     0
  9
$SPLINETYPE
 70
     6
  9
$SPLINESEGS
 70
     8
  9
$HANDSEED
  5
1075
  9
$SURFTAB1
 70
     6
  9
$SURFTAB2
 70
     6
  9
$SURFTYPE
 70
     6
  9
$SURFU
 70
     6
  9
$SURFV
 70
     6
  9
$UCSBASE
  2

  9
$UCSNAME
  2

  9
$UCSORG
 10
0.0
 20
0.0
 30
0.0
  9
$UCSXDIR
 10
1.0
 20
0.0
 30
0.0
  9
$UCSYDIR
 10
0.0
 20
1.0
 30
0.0
  9
$UCSORTHOREF
  2

  9
$UCSORTHOVIEW
 70
     0
  9
$UCSORGTOP
 10
0.0
 20
0.0
 30
0.0
  9
$UCSORGBOTTOM
 10
0.0
 20
0.0
 30
0.0
  9
$UCSORGLEFT
 10
0.0
 20
0.0
 30
0.0
  9
$UCSORGRIGHT
 10
0.0
 20
0.0
 30
0.0
  9
$UCSORGFRONT
 10
0.0
 20
0.0
 30
0.0
  9
$UCSORGBACK
 10
0.0
 20
0.0
 30
0.0
  9
$PUCSBASE
  2

  9
$PUCSNAME
  2

  9
$PUCSORG
 10
0.0
 20
0.0
 30
0.0
  9
$PUCSXDIR
 10
1.0
 20
0.0
 30
0.0
  9
$PUCSYDIR
 10
0.0
 20
1.0
 30
0.0
  9
$PUCSORTHOREF
  2

  9
$PUCSORTHOVIEW
 70
     0
  9
$PUCSORGTOP
 10
0.0
 20
0.0
 30
0.0
  9
$PUCSORGBOTTOM
 10
0.0
 20
0.0
 30
0.0
  9
$PUCSORGLEFT
 10
0.0
 20
0.0
 30
0.0
  9
$PUCSORGRIGHT
 10
0.0
 20
0.0
 30
0.0
  9
$PUCSORGFRONT
 10
0.0
 20
0.0
 30
0.0
  9
$PUCSORGBACK
 10
0.0
 20
0.0
 30
0.0
  9
$USERI1
 70
     0
  9
$USERI2
 70
     0
  9
$USERI3
 70
     0
  9
$USERI4
 70
     0
  9
$USERI5
 70
     0
  9
$USERR1
 40
0.0
  9
$USERR2
 40
0.0
  9
$USERR3
 40
0.0
  9
$USERR4
 40
0.0
  9
$USERR5
 40
0.0
  9
$WORLDVIEW
 70
     1
  9
$SHADEDGE
 70
     3
  9
$SHADEDIF
 70
    70
  9
$TILEMODE
 70
     1
  9
$MAXACTVP
 70
    64
  9
$PINSBASE
 10
0.0
 20
0.0
 30
0.0
  9
$PLIMCHECK
 70
     0
  9
$PEXTMIN
 10
0.0
 20
0.0
 30
0.0
  9
$PEXTMAX
 10
0.0
 20
0.0
 30
0.0
  9
$PLIMMIN
 10
0.0
 20
0.0
  9
$PLIMMAX
 10
12.0
 20
9.0
  9
$UNITMODE
 70
     0
  9
$VISRETAIN
 70
     1
  9
$PLINEGEN
 70
     0
  9
$PSLTSCALE
 70
     1
  9
$TREEDEPTH
 70
  3020
  9
$CMLSTYLE
  2
Standard
  9
$CMLJUST
 70
     0
  9
$CMLSCALE
 40
20.0
  9
$PROXYGRAPHICS
 70
     1
  9
$MEASUREMENT
 70
     1
  9
$CELWEIGHT
370
    -1
  9
$ENDCAPS
280
     0
  9
$JOINSTYLE
280
     0
  9
$LWDISPLAY
290
     0
  9
$INSUNITS
 70
     4
  9
$HYPERLINKBASE
  1

  9
$STYLESHEET
  1
monochrome.ctb
  9
$XEDIT
290
     1
  9
$CEPSNTYPE
380
     0
  9
$PSTYLEMODE
290
     1
  9
$FINGERPRINTGUID
  2
{4ECE4D8E-F13A-40A1-9A46-5F0BA8809353}
  9
$VERSIONGUID
  2
{43B381C8-CF38-4873-9201-38E954754961}
  9
$EXTNAMES
290
     1
  9
$PSVPSCALE
 40
0.0
  9
$OLESTARTUP
290
     0
  0
ENDSEC
  0
SECTION
  2
CLASSES
  0
CLASS
  1
ACDBDICTIONARYWDFLT
  2
AcDbDictionaryWithDefault
  3
ObjectDBX Classes
 90
        0
280
     0
281
     0
  0
CLASS
  1
DICTIONARYVAR
  2
AcDbDictionaryVar
  3
ObjectDBX Classes
 90
        0
280
     0
281
     0
  0
CLASS
  1
TABLESTYLE
  2
AcDbTableStyle
  3
ObjectDBX Classes
 90
     4095
280
     0
281
     0
  0
CLASS
  1
SORTENTSTABLE
  2
AcDbSortentsTable
  3
ObjectDBX Classes
 90
    32768
280
     0
281
     0
  0
CLASS
  1
DIMASSOC
  2
AcDbDimAssoc
  3
"AcDbDimAssoc|Product Desc:     AcDim ARX App For Dimension|Company:          Autodesk, Inc.|WEB Address:      www.autodesk.com"
 90
        0
280
     0
281
     0
  0
CLASS
  1
MATERIAL
  2
AcDbMaterial
  3
ObjectDBX Classes
 90
     1153
280
     0
281
     0
  0
CLASS
  1
VISUALSTYLE
  2
AcDbVisualStyle
  3
ObjectDBX Classes
 90
     4095
280
     0
281
     0
  0
CLASS
  1
SCALE
  2
AcDbScale
  3
ObjectDBX Classes
 90
     1153
280
     0
281
     0
  0
CLASS
  1
MLEADERSTYLE
  2
AcDbMLeaderStyle
  3
ACDB_MLEADERSTYLE_CLASS
 90
     4095
280
     0
281
     0
  0
CLASS
  1
CELLSTYLEMAP
  2
AcDbCellStyleMap
  3
ObjectDBX Classes
 90
     1152
280
     0
281
     0
  0
CLASS
  1
ACDBPLACEHOLDER
  2
AcDbPlaceHolder
  3
ObjectDBX Classes
 90
        0
280
     0
281
     0
  0
CLASS
  1
LAYOUT
  2
AcDbLayout
  3
ObjectDBX Classes
 90
        0
280
     0
281
     0
  0
ENDSEC
  0
SECTION
  2
TABLES
  0
TABLE
  2
VPORT
  5
8
330
0
100
AcDbSymbolTable
 70
     1
  0
VPORT
  5
F78
330
8
100
AcDbSymbolTableRecord
100
AcDbViewportTableRecord
  2
*Active
 70
     0
 10
0.0
 20
0.0
 11
1.0
 21
1.0
 12
1132.800098228714
 22
831.4091703017977
 13
0.0
 23
0.0
 14
10.0
 24
10.0
 15
10.0
 25
10.0
 16
0.0
 26
0.0
 36
1.0
 17
0.0
 27
0.0
 37
0.0
 40
1496.709207086922
 41
1.629533678756476
 42
50.0
 43
0.0
 44
0.0
 50
0.0
 51
0.0
 71
     0
 72
  1000
 73
     1
 74
     3
 75
     0
 76
     0
 77
     0
 78
     0
281
     0
 65
     1
110
0.0
120
0.0
130
0.0
111
1.0
121
0.0
131
0.0
112
0.0
122
1.0
132
0.0
 79
     0
146
0.0
1001
ACAD_NAV_VCDISPLAY
1070
     3
  0
ENDTAB
  0
TABLE
  2
LTYPE
  5
5
330
0
100
AcDbSymbolTable
 70
     4
  0
LTYPE
  5
14
330
5
100
AcDbSymbolTableRecord
100
AcDbLinetypeTableRecord
  2
ByBlock
 70
     0
  3

 72
    65
 73
     0
 40
0.0
  0
LTYPE
  5
15
330
5
100
AcDbSymbolTableRecord
100
AcDbLinetypeTableRecord
  2
ByLayer
 70
     0
  3

 72
    65
 73
     0
 40
0.0
  0
LTYPE
  5
16
330
5
100
AcDbSymbolTableRecord
100
AcDbLinetypeTableRecord
  2
Continuous
 70
     0
  3
Solid line
 72
    65
 73
     0
 40
0.0
  0
LTYPE
  5
14E
330
5
100
AcDbSymbolTableRecord
100
AcDbLinetypeTableRecord
  2
CENTER
 70
     0
  3
Center ____ _ ____ _ ____ _ ____ _ ____ _ ____
 72
    65
 73
     4
 40
50.8
 49
31.75
 74
     0
 49
-6.349999999999999
 74
     0
 49
6.349999999999999
 74
     0
 49
-6.349999999999999
 74
     0
  0
LTYPE
  5
185
330
5
100
AcDbSymbolTableRecord
100
AcDbLinetypeTableRecord
  2
DASHEDX2
 70
     0
  3
Dashed (2x) ____  ____  ____  ____  ____  ___
 72
    65
 73
     2
 40
38.1
 49
25.4
 74
     0
 49
-12.7
 74
     0
  0
LTYPE
  5
186
330
5
100
AcDbSymbolTableRecord
100
AcDbLinetypeTableRecord
  2
DASHED
 70
     0
  3
Dashed __ __ __ __ __ __ __ __ __ __ __ __ __ _
 72
    65
 73
     2
 40
19.05
 49
12.7
 74
     0
 49
-6.349999999999999
 74
     0
  0
ENDTAB
  0
TABLE
  2
LAYER
  5
2
102
{ACAD_XDICTIONARY
360
101
102
}
330
0
100
AcDbSymbolTable
 70
    10
  0
LAYER
  5
10
330
2
100
AcDbSymbolTableRecord
100
AcDbLayerTableRecord
  2
0
 70
     0
 62
     6
  6
Continuous
370
    -3
390
F
  0
LAYER
  5
FC
330
2
100
AcDbSymbolTableRecord
100
AcDbLayerTableRecord
  2
題
 70
     0
 62
     7
  6
Continuous
370
    -3
390
F
1001
AcAecLayerStandard
1000

1000

  0
LAYER
  5
FD
330
2
100
AcDbSymbolTableRecord
100
AcDbLayerTableRecord
  2
DEFPOINTS
 70
     0
 62
     1
  6
Continuous
290
     0
370
    -3
390
F
1001
AcAecLayerStandard
1000

1000

  0
LAYER
  5
FE
330
2
100
AcDbSymbolTableRecord
100
AcDbLayerTableRecord
  2
マーク
 70
     0
 62
   160
  6
Continuous
370
    -3
390
F
  0
LAYER
  5
FF
330
2
100
AcDbSymbolTableRecord
100
AcDbLayerTableRecord
  2
図
 70
     0
 62
     7
  6
Continuous
370
    -3
390
F
1001
AcAecLayerStandard
1000

1000

  0
LAYER
  5
14B
330
2
100
AcDbSymbolTableRecord
100
AcDbLayerTableRecord
  2
センター
 70
     0
 62
     4
  6
CENTER
370
    15
390
F
1001
AcAecLayerStandard
1000

1000

  0
LAYER
  5
14F
330
2
100
AcDbSymbolTableRecord
100
AcDbLayerTableRecord
  2
補助
 70
     0
 62
     2
  6
Continuous
370
     9
390
F
1001
AcAecLayerStandard
1000

1000

  0
LAYER
  5
183
330
2
100
AcDbSymbolTableRecord
100
AcDbLayerTableRecord
  2
寸法
 70
     0
 62
     7
  6
Continuous
370
    15
390
F
1001
AcAecLayerStandard
1000

1000

  0
LAYER
  5
184
330
2
100
AcDbSymbolTableRecord
100
AcDbLayerTableRecord
  2
影
 70
     0
 62
     5
  6
DASHED
370
    15
390
F
1001
AcAecLayerStandard
1000

1000

  0
LAYER
  5
393
330
2
100
AcDbSymbolTableRecord
100
AcDbLayerTableRecord
  2
全体文字
 70
     0
 62
     7
  6
Continuous
370
    -3
390
F
1001
AcAecLayerStandard
1000

1000

  0
ENDTAB
  0
TABLE
  2
STYLE
  5
3
330
0
100
AcDbSymbolTable
 70
     3
  0
STYLE
  5
11
330
3
100
AcDbSymbolTableRecord
100
AcDbTextStyleTableRecord
  2
Standard
 70
     0
 40
0.0
 41
1.0
 50
0.0
 71
     0
 42
2.5
  3
txt.shx
  4
extfont2.shx
  0
STYLE
  5
14D
330
3
100
AcDbSymbolTableRecord
100
AcDbTextStyleTableRecord
  2

 70
     1
 40
0.0
 41
1.0
 50
0.0
 71
     0
 42
2.5
  3
ltypeshp.shx
  4

  0
ENDTAB
  0
TABLE
  2
VIEW
  5
6
330
0
100
AcDbSymbolTable
 70
     1
  0
ENDTAB
  0
TABLE
  2
UCS
  5
7
330
0
100
AcDbSymbolTable
 70
     0
  0
ENDTAB
  0
TABLE
  2
APPID
  5
9
330
0
100
AcDbSymbolTable
 70
    13
  0
APPID
  5
12
330
9
100
AcDbSymbolTableRecord
100
AcDbRegAppTableRecord
  2
ACAD
 70
     0
  0
APPID
  5
9E
330
9
100
AcDbSymbolTableRecord
100
AcDbRegAppTableRecord
  2
ACAD_PSEXT
 70
     0
  0
APPID
  5
100
330
9
100
AcDbSymbolTableRecord
100
AcDbRegAppTableRecord
  2
AcAecLayerStandard
 70
     0
  0
APPID
  5
394
330
9
100
AcDbSymbolTableRecord
100
AcDbRegAppTableRecord
  2
ACAD_DSTYLE_DIMEXT_LENGTH
 70
     0
  0
APPID
  5
395
330
9
100
AcDbSymbolTableRecord
100
AcDbRegAppTableRecord
  2
ACAD_DSTYLE_DIMEXT_ENABLED
 70
     0
  0
APPID
  5
396
330
9
100
AcDbSymbolTableRecord
100
AcDbRegAppTableRecord
  2
ACAD_DSTYLE_DIMJOGGED_JOGANGLE_SYMBOL
 70
     0
  0
APPID
  5
397
330
9
100
AcDbSymbolTableRecord
100
AcDbRegAppTableRecord
  2
ACAD_DSTYLE_DIMARC_LENGTH_SYMBOL
 70
     0
  0
APPID
  5
755
330
9
100
AcDbSymbolTableRecord
100
AcDbRegAppTableRecord
  2
ACAD_DSTYLE_DIMTEXT_FILL
 70
     0
  0
APPID
  5
758
330
9
100
AcDbSymbolTableRecord
100
AcDbRegAppTableRecord
  2
ACAD_DSTYLE_DIM_LINETYPE
 70
     0
  0
APPID
  5
759
330
9
100
AcDbSymbolTableRecord
100
AcDbRegAppTableRecord
  2
ACAD_DSTYLE_DIM_EXT1_LINETYPE
 70
     0
  0
APPID
  5
75A
330
9
100
AcDbSymbolTableRecord
100
AcDbRegAppTableRecord
  2
ACAD_DSTYLE_DIM_EXT2_LINETYPE
 70
     0
  0
APPID
  5
FD9
330
9
100
AcDbSymbolTableRecord
100
AcDbRegAppTableRecord
  2
ACAD_NAV_VCDISPLAY
 70
     0
  0
APPID
  5
1074
330
9
100
AcDbSymbolTableRecord
100
AcDbRegAppTableRecord
  2
ACAD_MLEADERVER
 70
     0
  0
ENDTAB
  0
TABLE
  2
DIMSTYLE
  5
A
330
0
100
AcDbSymbolTable
 70
     2
100
AcDbDimStyleTable
 71
     1
340
27
  0
DIMSTYLE
105
27
102
{ACAD_REACTORS
330
462
330
465
330
46C
330
46F
330
472
330
475
330
478
330
47B
330
47E
330
481
330
484
330
485
330
486
330
487
330
488
330
489
330
48A
330
48B
330
48C
330
48D
330
4B0
330
4B1
330
4B4
330
4B7
330
4BA
330
4DF
330
4E2
330
4E5
330
4E8
330
4EB
330
4EC
330
4ED
330
4EE
330
4EF
330
4F0
330
4F1
330
4F2
102
}
330
A
100
AcDbSymbolTableRecord
100
AcDbDimStyleTableRecord
  2
ISO-25
 70
     0
 41
2.5
 42
0.625
 43
3.75
 44
1.25
 73
     0
 74
     0
 77
     2
 78
     8
140
2.5
141
2.5
143
0.03937007874016
147
0.625
171
     3
172
     1
271
     2
272
     2
274
     3
278
    44
283
     0
284
     8
340
11
1001
ACAD_DSTYLE_DIMEXT_LENGTH
1070
   378
1040
1.25
1001
ACAD_DSTYLE_DIMJOGGED_JOGANGLE_SYMBOL
1070
   384
1040
1.570796326794896
  0
ENDTAB
  0
TABLE
  2
BLOCK_RECORD
  5
1
330
0
100
AcDbSymbolTable
 70
    80
  0
BLOCK_RECORD
  5
1F
330
1
100
AcDbSymbolTableRecord
100
AcDbBlockTableRecord
  2
*Model_Space
340
22
  0
BLOCK_RECORD
  5
D2
330
1
100
AcDbSymbolTableRecord
100
AcDbBlockTableRecord
  2
*Paper_Space
340
D3
  0
BLOCK_RECORD
  5
D6
330
1
100
AcDbSymbolTableRecord
100
AcDbBlockTableRecord
  2
*Paper_Space0
340
D7
  0
BLOCK_RECORD
  5
F3
330
1
100
AcDbSymbolTableRecord
100
AcDbBlockTableRecord
  2
AI9-BLK1
340
0
102
{BLKREFS
331
123
102
}
  0
BLOCK_RECORD
  5
F7
330
1
100
AcDbSymbolTableRecord
100
AcDbBlockTableRecord
  2
AI9-BLK2
340
0
102
{BLKREFS
331
F5
102
}
  0
BLOCK_RECORD
  5
260
330
1
100
AcDbSymbolTableRecord
100
AcDbBlockTableRecord
  2
_None
340
0
  0
BLOCK_RECORD
  5
263
330
1
100
AcDbSymbolTableRecord
100
AcDbBlockTableRecord
  2
_Oblique
340
0
102
{BLKREFS
331
F1E
331
F55
331
FF9
331
101E
331
240
331
25A
331
2C3
331
2DD
102
}
  0
BLOCK_RECORD
  5
4F6
330
1
100
AcDbSymbolTableRecord
100
AcDbBlockTableRecord
  2
*D42
340
0
  0
BLOCK_RECORD
  5
502
330
1
100
AcDbSymbolTableRecord
100
AcDbBlockTableRecord
  2
*D43
340
0
  0
BLOCK_RECORD
  5
50F
330
1
100
AcDbSymbolTableRecord
100
AcDbBlockTableRecord
  2
*D44
340
0
  0
BLOCK_RECORD
  5
51B
330
1
100
AcDbSymbolTableRecord
100
AcDbBlockTableRecord
  2
*D45
340
0
  0
BLOCK_RECORD
  5
527
330
1
100
AcDbSymbolTableRecord
100
AcDbBlockTableRecord
  2
*D46
340
0
  0
BLOCK_RECORD
  5
533
330
1
100
AcDbSymbolTableRecord
100
AcDbBlockTableRecord
  2
*D47
340
0
  0
BLOCK_RECORD
  5
53F
330
1
100
AcDbSymbolTableRecord
100
AcDbBlockTableRecord
  2
*D48
340
0
  0
BLOCK_RECORD
  5
54B
330
1
100
AcDbSymbolTableRecord
100
AcDbBlockTableRecord
  2
*D49
340
0
  0
BLOCK_RECORD
  5
558
330
1
100
AcDbSymbolTableRecord
100
AcDbBlockTableRecord
  2
*D50
340
0
  0
BLOCK_RECORD
  5
565
330
1
100
AcDbSymbolTableRecord
100
AcDbBlockTableRecord
  2
*D51
340
0
  0
BLOCK_RECORD
  5
572
330
1
100
AcDbSymbolTableRecord
100
AcDbBlockTableRecord
  2
*D52
340
0
  0
BLOCK_RECORD
  5
57E
330
1
100
AcDbSymbolTableRecord
100
AcDbBlockTableRecord
  2
*D53
340
0
  0
BLOCK_RECORD
  5
586
330
1
100
AcDbSymbolTableRecord
100
AcDbBlockTableRecord
  2
*D54
340
0
  0
BLOCK_RECORD
  5
58E
330
1
100
AcDbSymbolTableRecord
100
AcDbBlockTableRecord
  2
*D55
340
0
  0
BLOCK_RECORD
  5
596
330
1
100
AcDbSymbolTableRecord
100
AcDbBlockTableRecord
  2
*D56
340
0
  0
BLOCK_RECORD
  5
59E
330
1
100
AcDbSymbolTableRecord
100
AcDbBlockTableRecord
  2
*D57
340
0
  0
BLOCK_RECORD
  5
5AA
330
1
100
AcDbSymbolTableRecord
100
AcDbBlockTableRecord
  2
*D58
340
0
  0
BLOCK_RECORD
  5
5B8
330
1
100
AcDbSymbolTableRecord
100
AcDbBlockTableRecord
  2
*D59
340
0
  0
BLOCK_RECORD
  5
5C4
330
1
100
AcDbSymbolTableRecord
100
AcDbBlockTableRecord
  2
*D60
340
0
  0
BLOCK_RECORD
  5
5D0
330
1
100
AcDbSymbolTableRecord
100
AcDbBlockTableRecord
  2
*D61
340
0
  0
BLOCK_RECORD
  5
5DC
330
1
100
AcDbSymbolTableRecord
100
AcDbBlockTableRecord
  2
*D62
340
0
  0
BLOCK_RECORD
  5
5E9
330
1
100
AcDbSymbolTableRecord
100
AcDbBlockTableRecord
  2
*D63
340
0
  0
BLOCK_RECORD
  5
5F5
330
1
100
AcDbSymbolTableRecord
100
AcDbBlockTableRecord
  2
*D64
340
0
  0
BLOCK_RECORD
  5
601
330
1
100
AcDbSymbolTableRecord
100
AcDbBlockTableRecord
  2
*D65
340
0
  0
BLOCK_RECORD
  5
60D
330
1
100
AcDbSymbolTableRecord
100
AcDbBlockTableRecord
  2
*D66
340
0
  0
BLOCK_RECORD
  5
619
330
1
100
AcDbSymbolTableRecord
100
AcDbBlockTableRecord
  2
*D67
340
0
  0
BLOCK_RECORD
  5
625
330
1
100
AcDbSymbolTableRecord
100
AcDbBlockTableRecord
  2
*D68
340
0
  0
BLOCK_RECORD
  5
632
330
1
100
AcDbSymbolTableRecord
100
AcDbBlockTableRecord
  2
*D69
340
0
  0
BLOCK_RECORD
  5
63F
330
1
100
AcDbSymbolTableRecord
100
AcDbBlockTableRecord
  2
*D70
340
0
  0
BLOCK_RECORD
  5
6B3
330
1
100
AcDbSymbolTableRecord
100
AcDbBlockTableRecord
  2
*D71
340
0
  0
BLOCK_RECORD
  5
6BF
330
1
100
AcDbSymbolTableRecord
100
AcDbBlockTableRecord
  2
*D72
340
0
  0
BLOCK_RECORD
  5
6CD
330
1
100
AcDbSymbolTableRecord
100
AcDbBlockTableRecord
  2
*D73
340
0
  0
BLOCK_RECORD
  5
6D9
330
1
100
AcDbSymbolTableRecord
100
AcDbBlockTableRecord
  2
*D74
340
0
  0
BLOCK_RECORD
  5
6E5
330
1
100
AcDbSymbolTableRecord
100
AcDbBlockTableRecord
  2
*D75
340
0
  0
BLOCK_RECORD
  5
6ED
330
1
100
AcDbSymbolTableRecord
100
AcDbBlockTableRecord
  2
*D76
340
0
  0
BLOCK_RECORD
  5
6F5
330
1
100
AcDbSymbolTableRecord
100
AcDbBlockTableRecord
  2
*D77
340
0
  0
BLOCK_RECORD
  5
6FD
330
1
100
AcDbSymbolTableRecord
100
AcDbBlockTableRecord
  2
*D78
340
0
  0
ENDTAB
  0
ENDSEC
  0
SECTION
  2
BLOCKS
  0
BLOCK
  5
20
330
1F
100
AcDbEntity
  8
0
100
AcDbBlockBegin
  2
*Model_Space
 70
     0
 10
0.0
 20
0.0
 30
0.0
  3
*Model_Space
  1

  0
ENDBLK
  5
21
330
1F
100
AcDbEntity
  8
0
100
AcDbBlockEnd
  0
BLOCK
  5
D4
330
D2
100
AcDbEntity
 67
     1
  8
0
100
AcDbBlockBegin
  2
*Paper_Space
 70
     0
 10
0.0
 20
0.0
 30
0.0
  3
*Paper_Space
  1

  0
ENDBLK
  5
D5
330
D2
100
AcDbEntity
 67
     1
  8
0
100
AcDbBlockEnd
  0
BLOCK
  5
D8
330
D6
100
AcDbEntity
 67
     1
  8
0
100
AcDbBlockBegin
  2
*Paper_Space0
 70
     0
 10
0.0
 20
0.0
 30
0.0
  3
*Paper_Space0
  1

  0
ENDBLK
  5
D9
330
D6
100
AcDbEntity
 67
     1
  8
0
100
AcDbBlockEnd
  0
BLOCK
  5
F4
330
F3
100
AcDbEntity
  8
マーク
 62
     7
100
AcDbBlockBegin
  2
AI9-BLK1
 70
     0
 10
0.0
 20
0.0
 30
0.0
  3
AI9-BLK1
  1

  0
INSERT
  5
F5
330
F3
100
AcDbEntity
  8
マーク
 62
     7
100
AcDbBlockReference
  2
AI9-BLK2
 10
0.0
 20
0.0
 30
0.0
  0
ENDBLK
  5
F6
330
F3
100
AcDbEntity
  8
マーク
100
AcDbBlockEnd
  0
BLOCK
  5
F8
330
F7
100
AcDbEntity
  8
マーク
 62
     7
100
AcDbBlockBegin
  2
AI9-BLK2
 70
     0
 10
0.0
 20
0.0
 30
0.0
  3
AI9-BLK2
  1

  0
HATCH
  5
F9
330
F7
100
AcDbEntity
  8
マーク
 62
     7
100
AcDbHatch
 10
0.0
 20
0.0
 30
0.0
210
0.0
220
0.0
230
1.0
  2
SOLID
 70
     1
 71
     0
 91
        1
 92
        1
 93
        1
 72
     4
 94
        3
 73
     0
 74
     0
 95
       59
 96
       55
 40
0.0
 40
0.0
 40
0.0
 40
0.0
 40
1.0
 40
1.0
 40
1.0
 40
2.0
 40
2.0
 40
2.0
 40
3.0
 40
3.0
 40
3.0
 40
4.0
 40
4.0
 40
4.0
 40
5.0
 40
5.0
 40
5.0
 40
6.0
 40
6.0
 40
6.0
 40
7.0
 40
7.0
 40
7.0
 40
8.0
 40
8.0
 40
8.0
 40
9.0
 40
9.0
 40
9.0
 40
10.0
 40
10.0
 40
10.0
 40
11.0
 40
11.0
 40
11.0
 40
12.0
 40
12.0
 40
12.0
 40
13.0
 40
13.0
 40
13.0
 40
14.0
 40
14.0
 40
14.0
 40
15.0
 40
15.0
 40
15.0
 40
16.0
 40
16.0
 40
16.0
 40
17.0
 40
17.0
 40
17.0
 40
18.0
 40
18.0
 40
18.0
 40
18.0
 10
19.11183946397569
 20
10.62743055555555
 10
19.11183946397569
 20
10.62743055555555
 10
19.13285454644097
 20
10.66274278428819
 10
19.13285454644097
 20
10.66274278428819
 10
19.61275634765625
 20
10.33804253472222
 10
20.1877427842882
 20
10.15114610460069
 10
20.80854899088542
 20
10.15114610460069
 10
22.46667344835069
 20
10.15114610460069
 10
23.81060519748264
 20
11.49525010850694
 10
23.81060519748264
 20
13.1497572157118
 10
23.81060519748264
 20
14.20102810329861
 10
23.26731363932291
 20
15.12879231770833
 10
22.44910346137153
 20
15.66502143012153
 10
22.44910346137153
 20
15.66502143012153
 10
22.45599365234375
 20
15.67914632161458
 10
22.45599365234375
 20
15.67914632161458
 10
22.45599365234375
 20
15.67914632161458
 10
-18.13102077907986
 20
42.28561876085069
 10
-18.13102077907986
 20
42.28561876085069
 10
-12.56770833333333
 20
44.67754855685764
 10
-6.436471896701387
 20
46.0004652235243
 10
0.0017225477430556
 20
46.0004652235243
 10
25.40533989800347
 20
46.0004652235243
 10
46.0004652235243
 20
25.40533989800347
 10
46.0004652235243
 20
0.0017225477430556
 10
46.0004652235243
 20
-14.73036702473958
 10
39.07547878689236
 20
-27.84308946397569
 10
28.30507676866319
 20
-36.26393636067708
 10
28.30507676866319
 20
-36.26393636067708
 10
1.067118326822916
 20
-19.00607503255208
 10
1.067118326822916
 20
-19.00607503255208
 10
1.416451009114583
 20
-18.86482611762152
 10
1.761994086371527
 20
-18.72357720269097
 10
2.107881673177083
 20
-18.57922770182291
 10
5.145077853732638
 20
-17.27732611762152
 10
7.381978352864583
 20
-15.23817409939236
 10
8.923314073350693
 20
-12.3032972547743
 10
10.4367445203993
 20
-9.410450575086803
 10
11.01896565755208
 20
-6.288160536024305
 10
10.21832546657986
 20
-3.092145453559027
 10
9.308131239149304
 20
0.53795166015625
 10
7.399548339843748
 20
3.974089898003471
 10
5.371076117621527
 20
6.95495876736111
 10
4.340992567274304
 20
8.468389214409722
 10
3.278869628906249
 20
10.03470187717014
 10
2.926091851128472
 20
11.85147298177083
 10
2.552298990885416
 20
13.76005588107639
 10
3.416673448350694
 20
16.33888210720486
 10
5.554355197482638
 20
16.90336100260416
 10
7.286549207899304
 20
17.35845811631944
 10
9.106937662760415
 20
16.76228434244791
 10
10.6909925672743
 20
16.05311143663194
 10
10.6909925672743
 20
16.05311143663194
 10
19.11183946397569
 20
10.62743055555555
 10
19.11183946397569
 20
10.62743055555555
 97
        0
 75
     2
 76
     1
 98
        1
 10
0.0
 20
0.0
  0
HATCH
  5
FA
330
F7
100
AcDbEntity
  8
マーク
 62
     7
100
AcDbHatch
 10
0.0
 20
0.0
 30
0.0
210
0.0
220
0.0
230
1.0
  2
SOLID
 70
     1
 71
     0
 91
        1
 92
        1
 93
        1
 72
     4
 94
        3
 73
     0
 74
     0
 95
       68
 96
       64
 40
0.0
 40
0.0
 40
0.0
 40
0.0
 40
1.0
 40
1.0
 40
1.0
 40
2.0
 40
2.0
 40
2.0
 40
3.0
 40
3.0
 40
3.0
 40
4.0
 40
4.0
 40
4.0
 40
5.0
 40
5.0
 40
5.0
 40
6.0
 40
6.0
 40
6.0
 40
7.0
 40
7.0
 40
7.0
 40
8.0
 40
8.0
 40
8.0
 40
9.0
 40
9.0
 40
9.0
 40
10.0
 40
10.0
 40
10.0
 40
11.0
 40
11.0
 40
11.0
 40
12.0
 40
12.0
 40
12.0
 40
13.0
 40
13.0
 40
13.0
 40
14.0
 40
14.0
 40
14.0
 40
15.0
 40
15.0
 40
15.0
 40
16.0
 40
16.0
 40
16.0
 40
17.0
 40
17.0
 40
17.0
 40
18.0
 40
18.0
 40
18.0
 40
19.0
 40
19.0
 40
19.0
 40
20.0
 40
20.0
 40
20.0
 40
21.0
 40
21.0
 40
21.0
 40
21.0
 10
-23.28161078559027
 20
-10.57454833984375
 10
-23.28161078559027
 20
-10.57454833984375
 10
22.7522718641493
 20
-39.98911810980903
 10
22.7522718641493
 20
-39.98911810980903
 10
16.0426038953993
 20
-43.81696370442708
 10
8.278047688802082
 20
-46.0004652235243
 10
0.0017225477430556
 20
-46.0004652235243
 10
-25.40533989800347
 20
-46.0004652235243
 10
-46.0004652235243
 20
-25.40533989800347
 10
-46.0004652235243
 20
0.0017225477430556
 10
-46.0004652235243
 20
16.32820231119791
 10
-37.49504123263888
 20
30.66875678168403
 10
-24.6715345594618
 20
38.8319105360243
 10
-24.6715345594618
 20
38.8319105360243
 10
-0.4709445529513889
 20
23.24268120659722
 10
-0.4709445529513889
 20
23.24268120659722
 10
-0.4709445529513889
 20
23.24268120659722
 10
-0.5345065646701388
 20
23.14397922092014
 10
-0.5345065646701388
 20
23.14397922092014
 10
-2.495971679687499
 20
22.2654798719618
 10
-4.446756998697916
 20
21.18251410590278
 10
-5.77673611111111
 20
19.44325764973958
 10
-7.515992567274304
 20
17.1679443359375
 10
-7.216097005208332
 20
14.03514675564236
 10
-6.394097222222221
 20
11.46700032552083
 10
-5.882672797309027
 20
9.868992784288193
 10
-5.145250108506943
 20
8.344882541232637
 10
-4.309297688802082
 20
6.89139675564236
 10
-3.501422797309027
 20
5.487348090277777
 10
-2.591228569878472
 20
4.15047878689236
 10
-1.677589246961805
 20
2.816882324218749
 10
-0.7250203450520833
 20
1.434020996093749
 10
0.2451185438368055
 20
0.0475423177083333
 10
1.028188747829861
 20
-1.441255696614583
 10
1.811603461371527
 20
-2.926436360677083
 10
2.421729871961805
 20
-4.549076334635416
 10
2.488909233940971
 20
-6.242340766059027
 10
2.555744086371527
 20
-7.847410753038193
 10
2.097201877170138
 20
-9.456270345052082
 10
1.084688313802083
 20
-10.71924235026041
 10
0.0687296549479167
 20
-11.98221435546875
 10
-1.413005913628472
 20
-12.77940945095486
 10
-3.003951009114583
 20
-13.04054768880208
 10
-4.732527669270832
 20
-13.31925591362847
 10
-6.475229220920137
 20
-12.97336832682291
 10
-8.143861219618054
 20
-12.51482611762152
 10
-8.588450792100694
 20
-12.39493679470486
 10
-9.025805664062499
 20
-12.25713297526041
 10
-9.470395236545137
 20
-12.13379855685764
 10
-9.470395236545137
 20
-12.13379855685764
 10
-9.558589680989582
 20
-12.27504747178819
 10
-9.558589680989582
 20
-12.27504747178819
 10
-9.558589680989582
 20
-12.27504747178819
 10
-19.96553412543402
 20
-5.684924316406249
 10
-19.96553412543402
 20
-5.684924316406249
 10
-20.50520833333333
 20
-5.159547254774304
 10
-21.24263102213542
 20
-4.838464355468749
 10
-22.05395100911458
 20
-4.838464355468749
 10
-23.70845811631944
 20
-4.838464355468749
 10
-25.05256212022569
 20
-6.182396104600694
 10
-25.05256212022569
 20
-7.840520562065971
 10
-25.05256212022569
 20
-9.057672797309026
 10
-24.32581922743056
 20
-10.10532633463541
 10
-23.28161078559027
 20
-10.57454833984375
 97
        0
 75
     2
 76
     1
 98
        1
 10
0.0
 20
0.0
  0
ENDBLK
  5
FB
330
F7
100
AcDbEntity
  8
マーク
100
AcDbBlockEnd
  0
BLOCK
  5
261
330
260
100
AcDbEntity
  8
0
100
AcDbBlockBegin
  2
_None
 70
     0
 10
0.0
 20
0.0
 30
0.0
  3
_None
  1

  0
ENDBLK
  5
262
330
260
100
AcDbEntity
  8
0
100
AcDbBlockEnd
  0
BLOCK
  5
264
330
263
100
AcDbEntity
  8
0
100
AcDbBlockBegin
  2
_Oblique
 70
     0
 10
0.0
 20
0.0
 30
0.0
  3
_Oblique
  1

  0
LINE
  5
265
330
263
100
AcDbEntity
  8
0
  6
ByBlock
 62
     0
370
    -2
100
AcDbLine
 10
-0.5
 20
-0.5
 30
0.0
 11
0.5
 21
0.5
 31
0.0
  0
ENDBLK
  5
266
330
263
100
AcDbEntity
  8
0
100
AcDbBlockEnd
  0
BLOCK
  5
500
330
4F6
100
AcDbEntity
  8
0
100
AcDbBlockBegin
  2
*D42
 70
     1
 10
0.0
 20
0.0
 30
0.0
  3
*D42
  1

  0
LINE
  5
F06
330
4F6
100
AcDbEntity
  8
寸法
 62
     0
370
    -2
100
AcDbLine
 10
930.8000884495282
 20
815.909163386517
 30
0.0
 11
930.8000884495282
 21
726.6771923872911
 31
0.0
  0
LINE
  5
F07
330
4F6
100
AcDbEntity
  8
寸法
 62
     0
370
    -2
100
AcDbLine
 10
432.8000884495281
 20
815.9091633865171
 30
0.0
 11
432.8000884495281
 21
726.6771923872911
 31
0.0
  0
LINE
  5
F08
330
4F6
100
AcDbEntity
  8
寸法
 62
     0
370
    -2
100
AcDbLine
 10
920.8000884495282
 20
729.6771923872911
 30
0.0
 11
442.8000884495282
 21
729.6771923872911
 31
0.0
  0
SOLID
  5
F09
330
4F6
100
AcDbEntity
  8
寸法
 62
     0
100
AcDbTrace
 10
920.8000884495282
 20
731.3438590539577
 30
0.0
 11
920.8000884495282
 21
728.0105257206245
 31
0.0
 12
930.8000884495282
 22
729.6771923872911
 32
0.0
 13
930.8000884495282
 23
729.6771923872911
 33
0.0
  0
SOLID
  5
F0A
330
4F6
100
AcDbEntity
  8
寸法
 62
     0
100
AcDbTrace
 10
442.8000884495282
 20
731.3438590539577
 30
0.0
 11
442.8000884495282
 21
728.0105257206245
 31
0.0
 12
432.8000884495281
 22
729.6771923872911
 32
0.0
 13
432.8000884495281
 23
729.6771923872911
 33
0.0
  0
MTEXT
  5
F0B
330
4F6
100
AcDbEntity
  8
寸法
 62
     0
100
AcDbMText
 10
681.8000884495281
 20
716.6771923872911
 30
0.0
 40
10.0
 41
0.0
 71
     5
 72
     1
  1
498
 73
     1
 44
1.0
1001
ACAD
1000
MTEXTBEGIN
1070
    73
1070
     1
1070
    44
1040
1.0
1070
    74
1070
     0
1000
MTEXTEND
  0
POINT
  5
F0C
330
4F6
100
AcDbEntity
  8
DEFPOINTS
 62
     0
100
AcDbPoint
 10
930.8000884495282
 20
825.9091633865171
 30
0.0
  0
POINT
  5
F0D
330
4F6
100
AcDbEntity
  8
DEFPOINTS
 62
     0
100
AcDbPoint
 10
432.8000884495281
 20
825.9091633865171
 30
0.0
  0
POINT
  5
F0E
330
4F6
100
AcDbEntity
  8
DEFPOINTS
 62
     0
100
AcDbPoint
 10
432.8000884495281
 20
729.6771923872911
 30
0.0
  0
ENDBLK
  5
501
330
4F6
100
AcDbEntity
  8
0
100
AcDbBlockEnd
  0
BLOCK
  5
50D
330
502
100
AcDbEntity
  8
0
100
AcDbBlockBegin
  2
*D43
 70
     1
 10
0.0
 20
0.0
 30
0.0
  3
*D43
  1

  0
LINE
  5
F5A
330
502
100
AcDbEntity
  8
寸法
 62
     0
370
    -2
100
AcDbLine
 10
432.8000884495281
 20
815.9091633865171
 30
0.0
 11
432.8000884495281
 21
753.0104929132203
 31
0.0
  0
LINE
  5
F5B
330
502
100
AcDbEntity
  8
寸法
 62
     0
370
    -2
100
AcDbLine
 10
450.8000884495281
 20
815.9091633865171
 30
0.0
 11
450.8000884495281
 21
753.0104929132203
 31
0.0
  0
LINE
  5
F5C
330
502
100
AcDbEntity
  8
寸法
 62
     0
370
    -2
100
AcDbLine
 10
450.8000884495281
 20
756.0104929132203
 30
0.0
 11
470.8000884495281
 21
756.0104929132203
 31
0.0
  0
LINE
  5
F5D
330
502
100
AcDbEntity
  8
寸法
 62
     0
370
    -2
100
AcDbLine
 10
422.8000884495282
 20
756.0104929132203
 30
0.0
 11
378.1334217828615
 21
756.0104929132203
 31
0.0
  0
LINE
  5
F5E
330
502
100
AcDbEntity
  8
寸法
 62
     0
370
    -2
100
AcDbLine
 10
450.8000884495281
 20
756.0104929132203
 30
0.0
 11
432.8000884495281
 21
756.0104929132203
 31
0.0
  0
SOLID
  5
F5F
330
502
100
AcDbEntity
  8
寸法
 62
     0
100
AcDbTrace
 10
422.8000884495282
 20
757.6771595798869
 30
0.0
 11
422.8000884495282
 21
754.3438262465537
 31
0.0
 12
432.8000884495281
 22
756.0104929132203
 32
0.0
 13
432.8000884495281
 23
756.0104929132203
 33
0.0
  0
MTEXT
  5
F60
330
502
100
AcDbEntity
  8
寸法
 62
     0
100
AcDbMText
 10
392.8000884495282
 20
743.0104929132203
 30
0.0
 40
10.0
 41
0.0
 71
     5
 72
     1
  1
18
 73
     1
 44
1.0
1001
ACAD
1000
MTEXTBEGIN
1070
    73
1070
     1
1070
    44
1040
1.0
1070
    74
1070
     0
1000
MTEXTEND
  0
POINT
  5
F61
330
502
100
AcDbEntity
  8
DEFPOINTS
 62
     0
100
AcDbPoint
 10
432.8000884495281
 20
825.9091633865171
 30
0.0
  0
POINT
  5
F62
330
502
100
AcDbEntity
  8
DEFPOINTS
 62
     0
100
AcDbPoint
 10
450.8000884495281
 20
825.9091633865171
 30
0.0
  0
POINT
  5
F63
330
502
100
AcDbEntity
  8
DEFPOINTS
 62
     0
100
AcDbPoint
 10
450.8000884495281
 20
756.0104929132203
 30
0.0
  0
ENDBLK
  5
50E
330
502
100
AcDbEntity
  8
0
100
AcDbBlockEnd
  0
BLOCK
  5
519
330
50F
100
AcDbEntity
  8
0
100
AcDbBlockBegin
  2
*D44
 70
     1
 10
0.0
 20
0.0
 30
0.0
  3
*D44
  1

  0
LINE
  5
F47
330
50F
100
AcDbEntity
  8
寸法
 62
     0
370
    -2
100
AcDbLine
 10
454.8000884495281
 20
815.9091633865171
 30
0.0
 11
454.8000884495281
 21
753.0104929132203
 31
0.0
  0
LINE
  5
F48
330
50F
100
AcDbEntity
  8
寸法
 62
     0
370
    -2
100
AcDbLine
 10
521.8000884495281
 20
815.9091633865171
 30
0.0
 11
521.8000884495281
 21
753.0104929132203
 31
0.0
  0
LINE
  5
F49
330
50F
100
AcDbEntity
  8
寸法
 62
     0
370
    -2
100
AcDbLine
 10
464.8000884495282
 20
756.0104929132203
 30
0.0
 11
511.8000884495281
 21
756.0104929132203
 31
0.0
  0
SOLID
  5
F4A
330
50F
100
AcDbEntity
  8
寸法
 62
     0
100
AcDbTrace
 10
464.8000884495282
 20
757.6771595798869
 30
0.0
 11
464.8000884495282
 21
754.3438262465537
 31
0.0
 12
454.8000884495281
 22
756.0104929132203
 32
0.0
 13
454.8000884495281
 23
756.0104929132203
 33
0.0
  0
SOLID
  5
F4B
330
50F
100
AcDbEntity
  8
寸法
 62
     0
100
AcDbTrace
 10
511.8000884495281
 20
757.6771595798869
 30
0.0
 11
511.8000884495281
 21
754.3438262465537
 31
0.0
 12
521.8000884495281
 22
756.0104929132203
 32
0.0
 13
521.8000884495281
 23
756.0104929132203
 33
0.0
  0
MTEXT
  5
F4C
330
50F
100
AcDbEntity
  8
寸法
 62
     0
100
AcDbMText
 10
488.3000884495281
 20
743.0104929132203
 30
0.0
 40
10.0
 41
0.0
 71
     5
 72
     1
  1
67
 73
     1
 44
1.0
1001
ACAD
1000
MTEXTBEGIN
1070
    73
1070
     1
1070
    44
1040
1.0
1070
    74
1070
     0
1000
MTEXTEND
  0
POINT
  5
F4D
330
50F
100
AcDbEntity
  8
DEFPOINTS
 62
     0
100
AcDbPoint
 10
454.8000884495281
 20
825.9091633865171
 30
0.0
  0
POINT
  5
F4E
330
50F
100
AcDbEntity
  8
DEFPOINTS
 62
     0
100
AcDbPoint
 10
521.8000884495281
 20
825.9091633865171
 30
0.0
  0
POINT
  5
F4F
330
50F
100
AcDbEntity
  8
DEFPOINTS
 62
     0
100
AcDbPoint
 10
521.8000884495281
 20
756.0104929132203
 30
0.0
  0
ENDBLK
  5
51A
330
50F
100
AcDbEntity
  8
0
100
AcDbBlockEnd
  0
BLOCK
  5
525
330
51B
100
AcDbEntity
  8
0
100
AcDbBlockBegin
  2
*D45
 70
     1
 10
0.0
 20
0.0
 30
0.0
  3
*D45
  1

  0
LINE
  5
F3E
330
51B
100
AcDbEntity
  8
寸法
 62
     0
370
    -2
100
AcDbLine
 10
521.8000884495281
 20
815.9091633865171
 30
0.0
 11
521.8000884495281
 21
753.0104929132203
 31
0.0
  0
LINE
  5
F3F
330
51B
100
AcDbEntity
  8
寸法
 62
     0
370
    -2
100
AcDbLine
 10
561.8000884495281
 20
815.9091633865171
 30
0.0
 11
561.8000884495281
 21
753.0104929132203
 31
0.0
  0
LINE
  5
F40
330
51B
100
AcDbEntity
  8
寸法
 62
     0
370
    -2
100
AcDbLine
 10
531.8000884495281
 20
756.0104929132203
 30
0.0
 11
551.8000884495282
 21
756.0104929132203
 31
0.0
  0
SOLID
  5
F41
330
51B
100
AcDbEntity
  8
寸法
 62
     0
100
AcDbTrace
 10
531.8000884495281
 20
757.6771595798869
 30
0.0
 11
531.8000884495281
 21
754.3438262465537
 31
0.0
 12
521.8000884495281
 22
756.0104929132203
 32
0.0
 13
521.8000884495281
 23
756.0104929132203
 33
0.0
  0
SOLID
  5
F42
330
51B
100
AcDbEntity
  8
寸法
 62
     0
100
AcDbTrace
 10
551.8000884495282
 20
757.6771595798869
 30
0.0
 11
551.8000884495282
 21
754.3438262465537
 31
0.0
 12
561.8000884495281
 22
756.0104929132203
 32
0.0
 13
561.8000884495281
 23
756.0104929132203
 33
0.0
  0
MTEXT
  5
F43
330
51B
100
AcDbEntity
  8
寸法
 62
     0
100
AcDbMText
 10
541.8000884495281
 20
743.0104929132203
 30
0.0
 40
10.0
 41
0.0
 71
     5
 72
     1
  1
40
 73
     1
 44
1.0
1001
ACAD
1000
MTEXTBEGIN
1070
    73
1070
     1
1070
    44
1040
1.0
1070
    74
1070
     0
1000
MTEXTEND
  0
POINT
  5
F44
330
51B
100
AcDbEntity
  8
DEFPOINTS
 62
     0
100
AcDbPoint
 10
521.8000884495281
 20
825.9091633865171
 30
0.0
  0
POINT
  5
F45
330
51B
100
AcDbEntity
  8
DEFPOINTS
 62
     0
100
AcDbPoint
 10
561.8000884495281
 20
825.9091633865171
 30
0.0
  0
POINT
  5
F46
330
51B
100
AcDbEntity
  8
DEFPOINTS
 62
     0
100
AcDbPoint
 10
561.8000884495281
 20
756.0104929132203
 30
0.0
  0
ENDBLK
  5
526
330
51B
100
AcDbEntity
  8
0
100
AcDbBlockEnd
  0
BLOCK
  5
531
330
527
100
AcDbEntity
  8
0
100
AcDbBlockBegin
  2
*D46
 70
     1
 10
0.0
 20
0.0
 30
0.0
  3
*D46
  1

  0
LINE
  5
F35
330
527
100
AcDbEntity
  8
寸法
 62
     0
370
    -2
100
AcDbLine
 10
561.8000884495281
 20
815.9091633865171
 30
0.0
 11
561.8000884495281
 21
753.0104929132203
 31
0.0
  0
LINE
  5
F36
330
527
100
AcDbEntity
  8
寸法
 62
     0
370
    -2
100
AcDbLine
 10
801.8000884495281
 20
815.9091633865171
 30
0.0
 11
801.8000884495281
 21
753.0104929132203
 31
0.0
  0
LINE
  5
F37
330
527
100
AcDbEntity
  8
寸法
 62
     0
370
    -2
100
AcDbLine
 10
571.8000884495281
 20
756.0104929132203
 30
0.0
 11
791.8000884495281
 21
756.0104929132203
 31
0.0
  0
SOLID
  5
F38
330
527
100
AcDbEntity
  8
寸法
 62
     0
100
AcDbTrace
 10
571.8000884495281
 20
757.6771595798869
 30
0.0
 11
571.8000884495281
 21
754.3438262465537
 31
0.0
 12
561.8000884495281
 22
756.0104929132203
 32
0.0
 13
561.8000884495281
 23
756.0104929132203
 33
0.0
  0
SOLID
  5
F39
330
527
100
AcDbEntity
  8
寸法
 62
     0
100
AcDbTrace
 10
791.8000884495281
 20
757.6771595798869
 30
0.0
 11
791.8000884495281
 21
754.3438262465537
 31
0.0
 12
801.8000884495281
 22
756.0104929132203
 32
0.0
 13
801.8000884495281
 23
756.0104929132203
 33
0.0
  0
MTEXT
  5
F3A
330
527
100
AcDbEntity
  8
寸法
 62
     0
100
AcDbMText
 10
681.8000884495281
 20
743.0104929132203
 30
0.0
 40
10.0
 41
0.0
 71
     5
 72
     1
  1
240
 73
     1
 44
1.0
1001
ACAD
1000
MTEXTBEGIN
1070
    73
1070
     1
1070
    44
1040
1.0
1070
    74
1070
     0
1000
MTEXTEND
  0
POINT
  5
F3B
330
527
100
AcDbEntity
  8
DEFPOINTS
 62
     0
100
AcDbPoint
 10
561.8000884495281
 20
825.9091633865171
 30
0.0
  0
POINT
  5
F3C
330
527
100
AcDbEntity
  8
DEFPOINTS
 62
     0
100
AcDbPoint
 10
801.8000884495281
 20
825.9091633865171
 30
0.0
  0
POINT
  5
F3D
330
527
100
AcDbEntity
  8
DEFPOINTS
 62
     0
100
AcDbPoint
 10
801.8000884495281
 20
756.0104929132203
 30
0.0
  0
ENDBLK
  5
532
330
527
100
AcDbEntity
  8
0
100
AcDbBlockEnd
  0
BLOCK
  5
53D
330
533
100
AcDbEntity
  8
0
100
AcDbBlockBegin
  2
*D47
 70
     1
 10
0.0
 20
0.0
 30
0.0
  3
*D47
  1

  0
LINE
  5
F2C
330
533
100
AcDbEntity
  8
寸法
 62
     0
370
    -2
100
AcDbLine
 10
801.8000884495281
 20
815.9091633865171
 30
0.0
 11
801.8000884495281
 21
753.0104929132203
 31
0.0
  0
LINE
  5
F2D
330
533
100
AcDbEntity
  8
寸法
 62
     0
370
    -2
100
AcDbLine
 10
841.8000884495281
 20
815.9091633865171
 30
0.0
 11
841.8000884495281
 21
753.0104929132203
 31
0.0
  0
LINE
  5
F2E
330
533
100
AcDbEntity
  8
寸法
 62
     0
370
    -2
100
AcDbLine
 10
811.8000884495282
 20
756.0104929132203
 30
0.0
 11
831.8000884495281
 21
756.0104929132203
 31
0.0
  0
SOLID
  5
F2F
330
533
100
AcDbEntity
  8
寸法
 62
     0
100
AcDbTrace
 10
811.8000884495282
 20
757.6771595798869
 30
0.0
 11
811.8000884495282
 21
754.3438262465537
 31
0.0
 12
801.8000884495281
 22
756.0104929132203
 32
0.0
 13
801.8000884495281
 23
756.0104929132203
 33
0.0
  0
SOLID
  5
F30
330
533
100
AcDbEntity
  8
寸法
 62
     0
100
AcDbTrace
 10
831.8000884495281
 20
757.6771595798869
 30
0.0
 11
831.8000884495281
 21
754.3438262465537
 31
0.0
 12
841.8000884495281
 22
756.0104929132203
 32
0.0
 13
841.8000884495281
 23
756.0104929132203
 33
0.0
  0
MTEXT
  5
F31
330
533
100
AcDbEntity
  8
寸法
 62
     0
100
AcDbMText
 10
821.8000884495282
 20
743.0104929132203
 30
0.0
 40
10.0
 41
0.0
 71
     5
 72
     1
  1
40
 73
     1
 44
1.0
1001
ACAD
1000
MTEXTBEGIN
1070
    73
1070
     1
1070
    44
1040
1.0
1070
    74
1070
     0
1000
MTEXTEND
  0
POINT
  5
F32
330
533
100
AcDbEntity
  8
DEFPOINTS
 62
     0
100
AcDbPoint
 10
801.8000884495281
 20
825.9091633865171
 30
0.0
  0
POINT
  5
F33
330
533
100
AcDbEntity
  8
DEFPOINTS
 62
     0
100
AcDbPoint
 10
841.8000884495281
 20
825.9091633865171
 30
0.0
  0
POINT
  5
F34
330
533
100
AcDbEntity
  8
DEFPOINTS
 62
     0
100
AcDbPoint
 10
841.8000884495281
 20
756.0104929132203
 30
0.0
  0
ENDBLK
  5
53E
330
533
100
AcDbEntity
  8
0
100
AcDbBlockEnd
  0
BLOCK
  5
549
330
53F
100
AcDbEntity
  8
0
100
AcDbBlockBegin
  2
*D48
 70
     1
 10
0.0
 20
0.0
 30
0.0
  3
*D48
  1

  0
LINE
  5
F23
330
53F
100
AcDbEntity
  8
寸法
 62
     0
370
    -2
100
AcDbLine
 10
841.8000884495281
 20
815.9091633865171
 30
0.0
 11
841.8000884495281
 21
753.0104929132203
 31
0.0
  0
LINE
  5
F24
330
53F
100
AcDbEntity
  8
寸法
 62
     0
370
    -2
100
AcDbLine
 10
908.8000884495281
 20
815.909163386517
 30
0.0
 11
908.8000884495281
 21
753.0104929132203
 31
0.0
  0
LINE
  5
F25
330
53F
100
AcDbEntity
  8
寸法
 62
     0
370
    -2
100
AcDbLine
 10
851.8000884495281
 20
756.0104929132203
 30
0.0
 11
898.8000884495281
 21
756.0104929132203
 31
0.0
  0
SOLID
  5
F26
330
53F
100
AcDbEntity
  8
寸法
 62
     0
100
AcDbTrace
 10
851.8000884495281
 20
757.6771595798869
 30
0.0
 11
851.8000884495281
 21
754.3438262465537
 31
0.0
 12
841.8000884495281
 22
756.0104929132203
 32
0.0
 13
841.8000884495281
 23
756.0104929132203
 33
0.0
  0
SOLID
  5
F27
330
53F
100
AcDbEntity
  8
寸法
 62
     0
100
AcDbTrace
 10
898.8000884495281
 20
757.6771595798869
 30
0.0
 11
898.8000884495281
 21
754.3438262465537
 31
0.0
 12
908.8000884495281
 22
756.0104929132203
 32
0.0
 13
908.8000884495281
 23
756.0104929132203
 33
0.0
  0
MTEXT
  5
F28
330
53F
100
AcDbEntity
  8
寸法
 62
     0
100
AcDbMText
 10
875.3000884495282
 20
743.0104929132203
 30
0.0
 40
10.0
 41
0.0
 71
     5
 72
     1
  1
67
 73
     1
 44
1.0
1001
ACAD
1000
MTEXTBEGIN
1070
    73
1070
     1
1070
    44
1040
1.0
1070
    74
1070
     0
1000
MTEXTEND
  0
POINT
  5
F29
330
53F
100
AcDbEntity
  8
DEFPOINTS
 62
     0
100
AcDbPoint
 10
841.8000884495281
 20
825.9091633865171
 30
0.0
  0
POINT
  5
F2A
330
53F
100
AcDbEntity
  8
DEFPOINTS
 62
     0
100
AcDbPoint
 10
908.8000884495281
 20
825.9091633865171
 30
0.0
  0
POINT
  5
F2B
330
53F
100
AcDbEntity
  8
DEFPOINTS
 62
     0
100
AcDbPoint
 10
908.8000884495281
 20
756.0104929132203
 30
0.0
  0
ENDBLK
  5
54A
330
53F
100
AcDbEntity
  8
0
100
AcDbBlockEnd
  0
BLOCK
  5
556
330
54B
100
AcDbEntity
  8
0
100
AcDbBlockBegin
  2
*D49
 70
     1
 10
0.0
 20
0.0
 30
0.0
  3
*D49
  1

  0
LINE
  5
F19
330
54B
100
AcDbEntity
  8
寸法
 62
     0
370
    -2
100
AcDbLine
 10
908.8000884495281
 20
815.909163386517
 30
0.0
 11
908.8000884495281
 21
753.0104929132203
 31
0.0
  0
LINE
  5
F1A
330
54B
100
AcDbEntity
  8
寸法
 62
     0
370
    -2
100
AcDbLine
 10
912.8000884495282
 20
815.909163386517
 30
0.0
 11
912.8000884495282
 21
753.0104929132203
 31
0.0
  0
LINE
  5
F1B
330
54B
100
AcDbEntity
  8
寸法
 62
     0
370
    -2
100
AcDbLine
 10
908.8000884495281
 20
756.0104929132203
 30
0.0
 11
898.8000884495281
 21
756.0104929132203
 31
0.0
  0
LINE
  5
F1C
330
54B
100
AcDbEntity
  8
寸法
 62
     0
370
    -2
100
AcDbLine
 10
912.8000884495282
 20
756.0104929132203
 30
0.0
 11
922.8000884495282
 21
756.0104929132203
 31
0.0
  0
LINE
  5
F1D
330
54B
100
AcDbEntity
  8
寸法
 62
     0
370
    -2
100
AcDbLine
 10
908.8000884495281
 20
756.0104929132203
 30
0.0
 11
912.8000884495282
 21
756.0104929132203
 31
0.0
  0
INSERT
  5
F1E
330
54B
100
AcDbEntity
  8
寸法
 62
     0
370
    -2
100
AcDbBlockReference
  2
_Oblique
 10
912.8000884495282
 20
756.0104929132203
 30
0.0
 41
10.0
 42
10.0
 43
10.0
 50
180.0
  0
MTEXT
  5
F1F
330
54B
100
AcDbEntity
  8
寸法
 62
     0
100
AcDbMText
 10
910.8000884495281
 20
743.0104929132203
 30
0.0
 40
10.0
 41
0.0
 71
     5
 72
     1
  1
4
 73
     1
 44
1.0
1001
ACAD
1000
MTEXTBEGIN
1070
    73
1070
     1
1070
    44
1040
1.0
1070
    74
1070
     0
1000
MTEXTEND
  0
POINT
  5
F20
330
54B
100
AcDbEntity
  8
DEFPOINTS
 62
     0
100
AcDbPoint
 10
908.8000884495281
 20
825.9091633865171
 30
0.0
  0
POINT
  5
F21
330
54B
100
AcDbEntity
  8
DEFPOINTS
 62
     0
100
AcDbPoint
 10
912.8000884495282
 20
825.9091633865171
 30
0.0
  0
POINT
  5
F22
330
54B
100
AcDbEntity
  8
DEFPOINTS
 62
     0
100
AcDbPoint
 10
912.8000884495282
 20
756.0104929132203
 30
0.0
  0
ENDBLK
  5
557
330
54B
100
AcDbEntity
  8
0
100
AcDbBlockEnd
  0
BLOCK
  5
563
330
558
100
AcDbEntity
  8
0
100
AcDbBlockBegin
  2
*D50
 70
     1
 10
0.0
 20
0.0
 30
0.0
  3
*D50
  1

  0
LINE
  5
F0F
330
558
100
AcDbEntity
  8
寸法
 62
     0
370
    -2
100
AcDbLine
 10
912.8000884495282
 20
815.909163386517
 30
0.0
 11
912.8000884495282
 21
753.0104929132203
 31
0.0
  0
LINE
  5
F10
330
558
100
AcDbEntity
  8
寸法
 62
     0
370
    -2
100
AcDbLine
 10
930.8000884495282
 20
815.909163386517
 30
0.0
 11
930.8000884495282
 21
753.0104929132203
 31
0.0
  0
LINE
  5
F11
330
558
100
AcDbEntity
  8
寸法
 62
     0
370
    -2
100
AcDbLine
 10
912.8000884495282
 20
756.0104929132203
 30
0.0
 11
902.8000884495282
 21
756.0104929132203
 31
0.0
  0
LINE
  5
F12
330
558
100
AcDbEntity
  8
寸法
 62
     0
370
    -2
100
AcDbLine
 10
940.8000884495281
 20
756.0104929132203
 30
0.0
 11
980.1334217828616
 21
756.0104929132203
 31
0.0
  0
LINE
  5
F13
330
558
100
AcDbEntity
  8
寸法
 62
     0
370
    -2
100
AcDbLine
 10
912.8000884495282
 20
756.0104929132203
 30
0.0
 11
930.8000884495282
 21
756.0104929132203
 31
0.0
  0
SOLID
  5
F14
330
558
100
AcDbEntity
  8
寸法
 62
     0
100
AcDbTrace
 10
940.8000884495281
 20
757.6771595798869
 30
0.0
 11
940.8000884495281
 21
754.3438262465537
 31
0.0
 12
930.8000884495282
 22
756.0104929132203
 32
0.0
 13
930.8000884495282
 23
756.0104929132203
 33
0.0
  0
MTEXT
  5
F15
330
558
100
AcDbEntity
  8
寸法
 62
     0
100
AcDbMText
 10
965.4667551161949
 20
743.0104929132203
 30
0.0
 40
10.0
 41
0.0
 71
     5
 72
     1
  1
18
 73
     1
 44
1.0
1001
ACAD
1000
MTEXTBEGIN
1070
    73
1070
     1
1070
    44
1040
1.0
1070
    74
1070
     0
1000
MTEXTEND
  0
POINT
  5
F16
330
558
100
AcDbEntity
  8
DEFPOINTS
 62
     0
100
AcDbPoint
 10
912.8000884495282
 20
825.9091633865171
 30
0.0
  0
POINT
  5
F17
330
558
100
AcDbEntity
  8
DEFPOINTS
 62
     0
100
AcDbPoint
 10
930.8000884495282
 20
825.9091633865171
 30
0.0
  0
POINT
  5
F18
330
558
100
AcDbEntity
  8
DEFPOINTS
 62
     0
100
AcDbPoint
 10
930.8000884495282
 20
756.0104929132203
 30
0.0
  0
ENDBLK
  5
564
330
558
100
AcDbEntity
  8
0
100
AcDbBlockEnd
  0
BLOCK
  5
570
330
565
100
AcDbEntity
  8
0
100
AcDbBlockBegin
  2
*D51
 70
     1
 10
0.0
 20
0.0
 30
0.0
  3
*D51
  1

  0
LINE
  5
F50
330
565
100
AcDbEntity
  8
寸法
 62
     0
370
    -2
100
AcDbLine
 10
450.8000884495281
 20
815.9091633865171
 30
0.0
 11
450.8000884495281
 21
753.0104929132203
 31
0.0
  0
LINE
  5
F51
330
565
100
AcDbEntity
  8
寸法
 62
     0
370
    -2
100
AcDbLine
 10
454.8000884495281
 20
815.9091633865171
 30
0.0
 11
454.8000884495281
 21
753.0104929132203
 31
0.0
  0
LINE
  5
F52
330
565
100
AcDbEntity
  8
寸法
 62
     0
370
    -2
100
AcDbLine
 10
450.8000884495281
 20
756.0104929132203
 30
0.0
 11
440.8000884495281
 21
756.0104929132203
 31
0.0
  0
LINE
  5
F53
330
565
100
AcDbEntity
  8
寸法
 62
     0
370
    -2
100
AcDbLine
 10
454.8000884495281
 20
756.0104929132203
 30
0.0
 11
464.8000884495282
 21
756.0104929132203
 31
0.0
  0
LINE
  5
F54
330
565
100
AcDbEntity
  8
寸法
 62
     0
370
    -2
100
AcDbLine
 10
450.8000884495281
 20
756.0104929132203
 30
0.0
 11
454.8000884495281
 21
756.0104929132203
 31
0.0
  0
INSERT
  5
F55
330
565
100
AcDbEntity
  8
寸法
 62
     0
370
    -2
100
AcDbBlockReference
  2
_Oblique
 10
450.8000884495281
 20
756.0104929132203
 30
0.0
 41
10.0
 42
10.0
 43
10.0
  0
MTEXT
  5
F56
330
565
100
AcDbEntity
  8
寸法
 62
     0
100
AcDbMText
 10
452.8000884495281
 20
743.0104929132203
 30
0.0
 40
10.0
 41
0.0
 71
     5
 72
     1
  1
4
 73
     1
 44
1.0
1001
ACAD
1000
MTEXTBEGIN
1070
    73
1070
     1
1070
    44
1040
1.0
1070
    74
1070
     0
1000
MTEXTEND
  0
POINT
  5
F57
330
565
100
AcDbEntity
  8
DEFPOINTS
 62
     0
100
AcDbPoint
 10
450.8000884495281
 20
825.9091633865171
 30
0.0
  0
POINT
  5
F58
330
565
100
AcDbEntity
  8
DEFPOINTS
 62
     0
100
AcDbPoint
 10
454.8000884495281
 20
825.9091633865171
 30
0.0
  0
POINT
  5
F59
330
565
100
AcDbEntity
  8
DEFPOINTS
 62
     0
100
AcDbPoint
 10
454.8000884495281
 20
756.0104929132203
 30
0.0
  0
ENDBLK
  5
571
330
565
100
AcDbEntity
  8
0
100
AcDbBlockEnd
  0
BLOCK
  5
57C
330
572
100
AcDbEntity
  8
0
100
AcDbBlockBegin
  2
*D52
 70
     1
 10
0.0
 20
0.0
 30
0.0
  3
*D52
  1

  0
LINE
  5
F64
330
572
100
AcDbEntity
  8
寸法
 62
     0
370
    -2
100
AcDbLine
 10
930.8000884495282
 20
345.9091633865171
 30
0.0
 11
930.8000884495282
 21
298.241037266238
 31
0.0
  0
LINE
  5
F65
330
572
100
AcDbEntity
  8
寸法
 62
     0
370
    -2
100
AcDbLine
 10
432.8000884495281
 20
345.9091633865172
 30
0.0
 11
432.8000884495281
 21
298.241037266238
 31
0.0
  0
LINE
  5
F66
330
572
100
AcDbEntity
  8
寸法
 62
     0
370
    -2
100
AcDbLine
 10
920.8000884495282
 20
301.241037266238
 30
0.0
 11
442.8000884495282
 21
301.241037266238
 31
0.0
  0
SOLID
  5
F67
330
572
100
AcDbEntity
  8
寸法
 62
     0
100
AcDbTrace
 10
920.8000884495282
 20
302.9077039329047
 30
0.0
 11
920.8000884495282
 21
299.5743705995713
 31
0.0
 12
930.8000884495282
 22
301.241037266238
 32
0.0
 13
930.8000884495282
 23
301.241037266238
 33
0.0
  0
SOLID
  5
F68
330
572
100
AcDbEntity
  8
寸法
 62
     0
100
AcDbTrace
 10
442.8000884495282
 20
302.9077039329047
 30
0.0
 11
442.8000884495282
 21
299.5743705995713
 31
0.0
 12
432.8000884495281
 22
301.241037266238
 32
0.0
 13
432.8000884495281
 23
301.241037266238
 33
0.0
  0
MTEXT
  5
F69
330
572
100
AcDbEntity
  8
寸法
 62
     0
100
AcDbMText
 10
681.8000884495281
 20
288.241037266238
 30
0.0
 40
10.0
 41
0.0
 71
     5
 72
     1
  1
498
 73
     1
 44
1.0
1001
ACAD
1000
MTEXTBEGIN
1070
    73
1070
     1
1070
    44
1040
1.0
1070
    74
1070
     0
1000
MTEXTEND
  0
POINT
  5
F6A
330
572
100
AcDbEntity
  8
DEFPOINTS
 62
     0
100
AcDbPoint
 10
930.8000884495282
 20
355.9091633865171
 30
0.0
  0
POINT
  5
F6B
330
572
100
AcDbEntity
  8
DEFPOINTS
 62
     0
100
AcDbPoint
 10
432.8000884495281
 20
355.9091633865172
 30
0.0
  0
POINT
  5
F6C
330
572
100
AcDbEntity
  8
DEFPOINTS
 62
     0
100
AcDbPoint
 10
432.8000884495281
 20
301.241037266238
 30
0.0
  0
ENDBLK
  5
57D
330
572
100
AcDbEntity
  8
0
100
AcDbBlockEnd
  0
BLOCK
  5
584
330
57E
100
AcDbEntity
  8
0
100
AcDbBlockBegin
  2
*D53
 70
     1
 10
0.0
 20
0.0
 30
0.0
  3
*D53
  1

  0
LINE
  5
E89
330
57E
100
AcDbEntity
  8
寸法
 62
     0
370
    -2
100
AcDbLine
 10
1333.336680873222
 20
1345.292922048163
 30
0.0
 11
1362.103224942987
 21
1313.782124109572
 31
0.0
  0
MTEXT
  5
E8A
330
57E
100
AcDbEntity
  8
寸法
 62
     0
100
AcDbMText
 10
1353.949819771843
 20
1341.995001108553
 30
0.0
 40
10.0
 41
0.0
 71
     5
 72
     1
  1
R6
 11
0.674215876635121
 21
-0.738534326685724
 31
0.0
 73
     1
 44
1.0
1001
ACAD
1000
MTEXTBEGIN
1070
    73
1070
     1
1070
    44
1040
1.0
1070
    74
1070
     0
1000
MTEXTEND
  0
SOLID
  5
E8B
330
57E
100
AcDbEntity
  8
寸法
 62
     0
100
AcDbTrace
 10
1363.334115487464
 20
1314.905817237297
 30
0.0
 11
1360.872334398511
 21
1312.658430981847
 31
0.0
 12
1368.845383709339
 22
1306.396780842715
 32
0.0
 13
1368.845383709339
 23
1306.396780842715
 33
0.0
  0
POINT
  5
E8C
330
57E
100
AcDbEntity
  8
DEFPOINTS
 62
     0
100
AcDbPoint
 10
1368.845383709339
 20
1306.396780842715
 30
0.0
  0
POINT
  5
E8D
330
57E
100
AcDbEntity
  8
DEFPOINTS
 62
     0
100
AcDbPoint
 10
1364.800088449528
 20
1310.827986802829
 30
0.0
  0
ENDBLK
  5
585
330
57E
100
AcDbEntity
  8
0
100
AcDbBlockEnd
  0
BLOCK
  5
58C
330
586
100
AcDbEntity
  8
0
100
AcDbBlockBegin
  2
*D54
 70
     1
 10
0.0
 20
0.0
 30
0.0
  3
*D54
  1

  0
LINE
  5
E8E
330
586
100
AcDbEntity
  8
寸法
 62
     0
370
    -2
100
AcDbLine
 10
1389.30092192197
 20
1265.129830668551
 30
0.0
 11
1358.563377945176
 21
1294.72117796331
 31
0.0
  0
MTEXT
  5
E8F
330
586
100
AcDbEntity
  8
寸法
 62
     0
100
AcDbMText
 10
1386.550319497226
 20
1285.823113735256
 30
0.0
 40
10.0
 41
0.0
 71
     5
 72
     1
  1
R2
 11
0.7204111869561157
 21
-0.6935472022209308
 31
0.0
 73
     1
 44
1.0
1001
ACAD
1000
MTEXTBEGIN
1070
    73
1070
     1
1070
    44
1040
1.0
1070
    74
1070
     0
1000
MTEXTEND
  0
SOLID
  5
E90
330
586
100
AcDbEntity
  8
寸法
 62
     0
100
AcDbTrace
 10
1359.719289948878
 20
1295.921863274904
 30
0.0
 11
1357.407465941474
 21
1293.520492651717
 31
0.0
 12
1351.359266075615
 22
1301.65664998552
 32
0.0
 13
1351.359266075615
 23
1301.65664998552
 33
0.0
  0
POINT
  5
E91
330
586
100
AcDbEntity
  8
DEFPOINTS
 62
     0
100
AcDbPoint
 10
1351.359266075615
 20
1301.65664998552
 30
0.0
  0
POINT
  5
E92
330
586
100
AcDbEntity
  8
DEFPOINTS
 62
     0
100
AcDbPoint
 10
1352.800088449528
 20
1300.269555581077
 30
0.0
  0
ENDBLK
  5
58D
330
586
100
AcDbEntity
  8
0
100
AcDbBlockEnd
  0
BLOCK
  5
594
330
58E
100
AcDbEntity
  8
0
100
AcDbBlockBegin
  2
*D55
 70
     1
 10
0.0
 20
0.0
 30
0.0
  3
*D55
  1

  0
LINE
  5
E93
330
58E
100
AcDbEntity
  8
寸法
 62
     0
370
    -2
100
AcDbLine
 10
1305.643374615754
 20
1262.78203108789
 30
0.0
 11
1341.443798692347
 21
1239.570523588795
 31
0.0
  0
MTEXT
  5
E94
330
58E
100
AcDbEntity
  8
寸法
 62
     0
100
AcDbMText
 10
1326.420480648705
 20
1264.80431758423
 30
0.0
 40
10.0
 41
0.0
 71
     5
 72
     1
  1
R6
 11
0.8390724392951401
 21
-0.5440197070100526
 31
0.0
 73
     1
 44
1.0
1001
ACAD
1000
MTEXTBEGIN
1070
    73
1070
     1
1070
    44
1040
1.0
1070
    74
1070
     0
1000
MTEXTEND
  0
SOLID
  5
E95
330
58E
100
AcDbEntity
  8
寸法
 62
     0
100
AcDbTrace
 10
1342.35049820403
 20
1240.968977654286
 30
0.0
 11
1340.537099180663
 21
1238.172069523303
 31
0.0
 12
1349.834523085298
 22
1234.130326518694
 32
0.0
 13
1349.834523085298
 23
1234.130326518694
 33
0.0
  0
POINT
  5
E96
330
58E
100
AcDbEntity
  8
DEFPOINTS
 62
     0
100
AcDbPoint
 10
1349.834523085298
 20
1234.130326518694
 30
0.0
  0
POINT
  5
E97
330
58E
100
AcDbEntity
  8
DEFPOINTS
 62
     0
100
AcDbPoint
 10
1344.800088449524
 20
1237.394444760756
 30
0.0
  0
ENDBLK
  5
595
330
58E
100
AcDbEntity
  8
0
100
AcDbBlockEnd
  0
BLOCK
  5
59C
330
596
100
AcDbEntity
  8
0
100
AcDbBlockBegin
  2
*D56
 70
     1
 10
0.0
 20
0.0
 30
0.0
  3
*D56
  1

  0
LINE
  5
E98
330
596
100
AcDbEntity
  8
寸法
 62
     0
370
    -2
100
AcDbLine
 10
1357.023166952178
 20
1169.353616759903
 30
0.0
 11
1319.782679792052
 21
1190.17645423516
 31
0.0
  0
MTEXT
  5
E99
330
596
100
AcDbEntity
  8
寸法
 62
     0
100
AcDbMText
 10
1349.111501254435
 20
1188.671570162501
 30
0.0
 40
10.0
 41
0.0
 71
     5
 72
     1
  1
R2
 11
0.8728239178154451
 21
-0.488035253326332
 31
0.0
 73
     1
 44
1.0
1001
ACAD
1000
MTEXTBEGIN
1070
    73
1070
     1
1070
    44
1040
1.0
1070
    74
1070
     0
1000
MTEXTEND
  0
SOLID
  5
E9A
330
596
100
AcDbEntity
  8
寸法
 62
     0
100
AcDbTrace
 10
1320.596071880929
 20
1191.631160764853
 30
0.0
 11
1318.969287703175
 21
1188.721747705468
 31
0.0
 12
1311.054440613897
 22
1195.056806768424
 32
0.0
 13
1311.054440613897
 23
1195.056806768424
 33
0.0
  0
POINT
  5
E9B
330
596
100
AcDbEntity
  8
DEFPOINTS
 62
     0
100
AcDbPoint
 10
1311.054440613897
 20
1195.056806768424
 30
0.0
  0
POINT
  5
E9C
330
596
100
AcDbEntity
  8
DEFPOINTS
 62
     0
100
AcDbPoint
 10
1312.800088449529
 20
1194.080736261771
 30
0.0
  0
ENDBLK
  5
59D
330
596
100
AcDbEntity
  8
0
100
AcDbBlockEnd
  0
BLOCK
  5
5A8
330
59E
100
AcDbEntity
  8
0
100
AcDbBlockBegin
  2
*D57
 70
     1
 10
0.0
 20
0.0
 30
0.0
  3
*D57
  1

  0
LINE
  5
E9D
330
59E
100
AcDbEntity
  8
寸法
 62
     0
370
    -2
100
AcDbLine
 10
1450.800088449528
 20
815.9091633865173
 30
0.0
 11
1450.800088449528
 21
789.420850244828
 31
0.0
  0
LINE
  5
E9E
330
59E
100
AcDbEntity
  8
寸法
 62
     0
370
    -2
100
AcDbLine
 10
1370.800088449528
 20
815.909163386517
 30
0.0
 11
1370.800088449528
 21
789.420850244828
 31
0.0
  0
LINE
  5
E9F
330
59E
100
AcDbEntity
  8
寸法
 62
     0
370
    -2
100
AcDbLine
 10
1440.800088449528
 20
792.420850244828
 30
0.0
 11
1380.800088449528
 21
792.420850244828
 31
0.0
  0
SOLID
  5
EA0
330
59E
100
AcDbEntity
  8
寸法
 62
     0
100
AcDbTrace
 10
1440.800088449528
 20
794.0875169114946
 30
0.0
 11
1440.800088449528
 21
790.7541835781613
 31
0.0
 12
1450.800088449528
 22
792.420850244828
 32
0.0
 13
1450.800088449528
 23
792.420850244828
 33
0.0
  0
SOLID
  5
EA1
330
59E
100
AcDbEntity
  8
寸法
 62
     0
100
AcDbTrace
 10
1380.800088449528
 20
794.0875169114946
 30
0.0
 11
1380.800088449528
 21
790.7541835781613
 31
0.0
 12
1370.800088449528
 22
792.420850244828
 32
0.0
 13
1370.800088449528
 23
792.420850244828
 33
0.0
  0
MTEXT
  5
EA2
330
59E
100
AcDbEntity
  8
寸法
 62
     0
100
AcDbMText
 10
1410.800088449528
 20
779.4208502448279
 30
0.0
 40
10.0
 41
0.0
 71
     5
 72
     1
  1
80
 73
     1
 44
1.0
1001
ACAD
1000
MTEXTBEGIN
1070
    73
1070
     1
1070
    44
1040
1.0
1070
    74
1070
     0
1000
MTEXTEND
  0
POINT
  5
EA3
330
59E
100
AcDbEntity
  8
DEFPOINTS
 62
     0
100
AcDbPoint
 10
1450.800088449528
 20
825.9091633865173
 30
0.0
  0
POINT
  5
EA4
330
59E
100
AcDbEntity
  8
DEFPOINTS
 62
     0
100
AcDbPoint
 10
1370.800088449528
 20
825.9091633865171
 30
0.0
  0
POINT
  5
EA5
330
59E
100
AcDbEntity
  8
DEFPOINTS
 62
     0
100
AcDbPoint
 10
1370.800088449528
 20
792.420850244828
 30
0.0
  0
ENDBLK
  5
5A9
330
59E
100
AcDbEntity
  8
0
100
AcDbBlockEnd
  0
BLOCK
  5
5B6
330
5AA
100
AcDbEntity
  8
0
100
AcDbBlockBegin
  2
*D58
 70
     1
 10
0.0
 20
0.0
 30
0.0
  3
*D58
  1

  0
LINE
  5
EA6
330
5AA
100
AcDbEntity
  8
寸法
 62
     0
370
    -2
100
AcDbLine
 10
1370.800088449528
 20
815.909163386517
 30
0.0
 11
1370.800088449528
 21
789.420850244828
 31
0.0
  0
LINE
  5
EA7
330
5AA
100
AcDbEntity
  8
寸法
 62
     0
370
    -2
100
AcDbLine
 10
1350.800088449528
 20
839.5487711919543
 30
0.0
 11
1350.800088449528
 21
789.420850244828
 31
0.0
  0
LINE
  5
EA8
330
5AA
100
AcDbEntity
  8
寸法
 62
     0
370
    -2
100
AcDbLine
 10
1380.800088449528
 20
792.420850244828
 30
0.0
 11
1390.800088449528
 21
792.420850244828
 31
0.0
  0
LINE
  5
EA9
330
5AA
100
AcDbEntity
  8
寸法
 62
     0
370
    -2
100
AcDbLine
 10
1340.800088449528
 20
792.420850244828
 30
0.0
 11
1330.800088449528
 21
792.420850244828
 31
0.0
  0
LINE
  5
EAA
330
5AA
100
AcDbEntity
  8
寸法
 62
     0
370
    -2
100
AcDbLine
 10
1370.800088449528
 20
792.420850244828
 30
0.0
 11
1350.800088449528
 21
792.420850244828
 31
0.0
  0
SOLID
  5
EAB
330
5AA
100
AcDbEntity
  8
寸法
 62
     0
100
AcDbTrace
 10
1380.800088449528
 20
794.0875169114946
 30
0.0
 11
1380.800088449528
 21
790.7541835781613
 31
0.0
 12
1370.800088449528
 22
792.420850244828
 32
0.0
 13
1370.800088449528
 23
792.420850244828
 33
0.0
  0
SOLID
  5
EAC
330
5AA
100
AcDbEntity
  8
寸法
 62
     0
100
AcDbTrace
 10
1340.800088449528
 20
794.0875169114946
 30
0.0
 11
1340.800088449528
 21
790.7541835781613
 31
0.0
 12
1350.800088449528
 22
792.420850244828
 32
0.0
 13
1350.800088449528
 23
792.420850244828
 33
0.0
  0
MTEXT
  5
EAD
330
5AA
100
AcDbEntity
  8
寸法
 62
     0
100
AcDbMText
 10
1360.800088449528
 20
779.4208502448279
 30
0.0
 40
10.0
 41
0.0
 71
     5
 72
     1
  1
20
 73
     1
 44
1.0
1001
ACAD
1000
MTEXTBEGIN
1070
    73
1070
     1
1070
    44
1040
1.0
1070
    74
1070
     0
1000
MTEXTEND
  0
POINT
  5
EAE
330
5AA
100
AcDbEntity
  8
DEFPOINTS
 62
     0
100
AcDbPoint
 10
1370.800088449528
 20
825.9091633865171
 30
0.0
  0
POINT
  5
EAF
330
5AA
100
AcDbEntity
  8
DEFPOINTS
 62
     0
100
AcDbPoint
 10
1350.800088449528
 20
849.5487711919542
 30
0.0
  0
POINT
  5
EB0
330
5AA
100
AcDbEntity
  8
DEFPOINTS
 62
     0
100
AcDbPoint
 10
1350.800088449528
 20
792.420850244828
 30
0.0
  0
ENDBLK
  5
5B7
330
5AA
100
AcDbEntity
  8
0
100
AcDbBlockEnd
  0
BLOCK
  5
5C2
330
5B8
100
AcDbEntity
  8
0
100
AcDbBlockBegin
  2
*D59
 70
     1
 10
0.0
 20
0.0
 30
0.0
  3
*D59
  1

  0
LINE
  5
EFE
330
5B8
100
AcDbEntity
  8
寸法
 62
     0
370
    -2
100
AcDbLine
 10
1310.800088449528
 20
875.7375905112635
 30
0.0
 11
1310.800088449528
 21
789.420850244828
 31
0.0
  0
LINE
  5
EFF
330
5B8
100
AcDbEntity
  8
寸法
 62
     0
370
    -2
100
AcDbLine
 10
1340.800088449528
 20
792.420850244828
 30
0.0
 11
1320.800088449528
 21
792.420850244828
 31
0.0
  0
SOLID
  5
F00
330
5B8
100
AcDbEntity
  8
寸法
 62
     0
100
AcDbTrace
 10
1340.800088449528
 20
794.0875169114946
 30
0.0
 11
1340.800088449528
 21
790.7541835781613
 31
0.0
 12
1350.800088449528
 22
792.420850244828
 32
0.0
 13
1350.800088449528
 23
792.420850244828
 33
0.0
  0
SOLID
  5
F01
330
5B8
100
AcDbEntity
  8
寸法
 62
     0
100
AcDbTrace
 10
1320.800088449528
 20
794.0875169114946
 30
0.0
 11
1320.800088449528
 21
790.7541835781613
 31
0.0
 12
1310.800088449528
 22
792.420850244828
 32
0.0
 13
1310.800088449528
 23
792.420850244828
 33
0.0
  0
MTEXT
  5
F02
330
5B8
100
AcDbEntity
  8
寸法
 62
     0
100
AcDbMText
 10
1330.800088449528
 20
779.4208502448279
 30
0.0
 40
10.0
 41
0.0
 71
     5
 72
     1
  1
40
 73
     1
 44
1.0
1001
ACAD
1000
MTEXTBEGIN
1070
    73
1070
     1
1070
    44
1040
1.0
1070
    74
1070
     0
1000
MTEXTEND
  0
POINT
  5
F03
330
5B8
100
AcDbEntity
  8
DEFPOINTS
 62
     0
100
AcDbPoint
 10
1350.800088449528
 20
849.5487711919556
 30
0.0
  0
POINT
  5
F04
330
5B8
100
AcDbEntity
  8
DEFPOINTS
 62
     0
100
AcDbPoint
 10
1310.800088449528
 20
955.7375905112635
 30
0.0
  0
POINT
  5
F05
330
5B8
100
AcDbEntity
  8
DEFPOINTS
 62
     0
100
AcDbPoint
 10
1310.800088449528
 20
792.420850244828
 30
0.0
  0
ENDBLK
  5
5C3
330
5B8
100
AcDbEntity
  8
0
100
AcDbBlockEnd
  0
BLOCK
  5
5CE
330
5C4
100
AcDbEntity
  8
0
100
AcDbBlockBegin
  2
*D60
 70
     1
 10
0.0
 20
0.0
 30
0.0
  3
*D60
  1

  0
LINE
  5
EBA
330
5C4
100
AcDbEntity
  8
寸法
 62
     0
370
    -2
100
AcDbLine
 10
1450.800088449528
 20
815.9091633865173
 30
0.0
 11
1450.800088449528
 21
763.7456023815546
 31
0.0
  0
LINE
  5
EBB
330
5C4
100
AcDbEntity
  8
寸法
 62
     0
370
    -2
100
AcDbLine
 10
1310.800088449528
 20
815.909163386517
 30
0.0
 11
1310.800088449528
 21
763.7456023815546
 31
0.0
  0
LINE
  5
EBC
330
5C4
100
AcDbEntity
  8
寸法
 62
     0
370
    -2
100
AcDbLine
 10
1440.800088449528
 20
766.7456023815546
 30
0.0
 11
1320.800088449528
 21
766.7456023815546
 31
0.0
  0
SOLID
  5
EBD
330
5C4
100
AcDbEntity
  8
寸法
 62
     0
100
AcDbTrace
 10
1440.800088449528
 20
768.4122690482212
 30
0.0
 11
1440.800088449528
 21
765.0789357148879
 31
0.0
 12
1450.800088449528
 22
766.7456023815546
 32
0.0
 13
1450.800088449528
 23
766.7456023815546
 33
0.0
  0
SOLID
  5
EBE
330
5C4
100
AcDbEntity
  8
寸法
 62
     0
100
AcDbTrace
 10
1320.800088449528
 20
768.4122690482212
 30
0.0
 11
1320.800088449528
 21
765.0789357148879
 31
0.0
 12
1310.800088449528
 22
766.7456023815546
 32
0.0
 13
1310.800088449528
 23
766.7456023815546
 33
0.0
  0
MTEXT
  5
EBF
330
5C4
100
AcDbEntity
  8
寸法
 62
     0
100
AcDbMText
 10
1380.800088449528
 20
753.7456023815545
 30
0.0
 40
10.0
 41
0.0
 71
     5
 72
     1
  1
140
 73
     1
 44
1.0
1001
ACAD
1000
MTEXTBEGIN
1070
    73
1070
     1
1070
    44
1040
1.0
1070
    74
1070
     0
1000
MTEXTEND
  0
POINT
  5
EC0
330
5C4
100
AcDbEntity
  8
DEFPOINTS
 62
     0
100
AcDbPoint
 10
1450.800088449528
 20
825.9091633865173
 30
0.0
  0
POINT
  5
EC1
330
5C4
100
AcDbEntity
  8
DEFPOINTS
 62
     0
100
AcDbPoint
 10
1310.800088449528
 20
825.9091633865171
 30
0.0
  0
POINT
  5
EC2
330
5C4
100
AcDbEntity
  8
DEFPOINTS
 62
     0
100
AcDbPoint
 10
1310.800088449528
 20
766.7456023815546
 30
0.0
  0
ENDBLK
  5
5CF
330
5C4
100
AcDbEntity
  8
0
100
AcDbBlockEnd
  0
BLOCK
  5
5DA
330
5D0
100
AcDbEntity
  8
0
100
AcDbBlockBegin
  2
*D61
 70
     1
 10
0.0
 20
0.0
 30
0.0
  3
*D61
  1

  0
LINE
  5
C64
330
5D0
100
AcDbEntity
  8
寸法
 62
     0
370
    -2
100
AcDbLine
 10
940.8000884495281
 20
1323.909163386517
 30
0.0
 11
1035.636409584823
 21
1323.909163386517
 31
0.0
  0
LINE
  5
C65
330
5D0
100
AcDbEntity
  8
寸法
 62
     0
370
    -2
100
AcDbLine
 10
940.8000884495281
 20
825.9091633865173
 30
0.0
 11
1035.636409584823
 21
825.9091633865173
 31
0.0
  0
LINE
  5
C66
330
5D0
100
AcDbEntity
  8
寸法
 62
     0
370
    -2
100
AcDbLine
 10
1032.636409584823
 20
1313.909163386517
 30
0.0
 11
1032.636409584823
 21
835.9091633865173
 31
0.0
  0
SOLID
  5
C67
330
5D0
100
AcDbEntity
  8
寸法
 62
     0
100
AcDbTrace
 10
1030.969742918157
 20
1313.909163386517
 30
0.0
 11
1034.30307625149
 21
1313.909163386517
 31
0.0
 12
1032.636409584823
 22
1323.909163386517
 32
0.0
 13
1032.636409584823
 23
1323.909163386517
 33
0.0
  0
SOLID
  5
C68
330
5D0
100
AcDbEntity
  8
寸法
 62
     0
100
AcDbTrace
 10
1030.969742918157
 20
835.9091633865173
 30
0.0
 11
1034.30307625149
 21
835.9091633865173
 31
0.0
 12
1032.636409584823
 22
825.9091633865173
 32
0.0
 13
1032.636409584823
 23
825.9091633865173
 33
0.0
  0
MTEXT
  5
C69
330
5D0
100
AcDbEntity
  8
寸法
 62
     0
100
AcDbMText
 10
1045.636409584823
 20
1074.909163386517
 30
0.0
 40
10.0
 41
0.0
 71
     5
 72
     1
  1
498
 11
0.0000000000000001
 21
1.0
 31
0.0
 73
     1
 44
1.0
1001
ACAD
1000
MTEXTBEGIN
1070
    73
1070
     1
1070
    44
1040
1.0
1070
    74
1070
     0
1000
MTEXTEND
  0
POINT
  5
C6A
330
5D0
100
AcDbEntity
  8
DEFPOINTS
 62
     0
100
AcDbPoint
 10
930.8000884495282
 20
1323.909163386517
 30
0.0
  0
POINT
  5
C6B
330
5D0
100
AcDbEntity
  8
DEFPOINTS
 62
     0
100
AcDbPoint
 10
930.8000884495282
 20
825.9091633865173
 30
0.0
  0
POINT
  5
C6C
330
5D0
100
AcDbEntity
  8
DEFPOINTS
 62
     0
100
AcDbPoint
 10
1032.636409584823
 20
825.9091633865173
 30
0.0
  0
ENDBLK
  5
5DB
330
5D0
100
AcDbEntity
  8
0
100
AcDbBlockEnd
  0
BLOCK
  5
5E7
330
5DC
100
AcDbEntity
  8
0
100
AcDbBlockBegin
  2
*D62
 70
     1
 10
0.0
 20
0.0
 30
0.0
  3
*D62
  1

  0
LINE
  5
C6D
330
5DC
100
AcDbEntity
  8
寸法
 62
     0
370
    -2
100
AcDbLine
 10
940.8000884495281
 20
825.9091633865173
 30
0.0
 11
1010.62098356968
 21
825.9091633865173
 31
0.0
  0
LINE
  5
C6E
330
5DC
100
AcDbEntity
  8
寸法
 62
     0
370
    -2
100
AcDbLine
 10
940.8000884495281
 20
843.9091633865173
 30
0.0
 11
1010.62098356968
 21
843.9091633865173
 31
0.0
  0
LINE
  5
C6F
330
5DC
100
AcDbEntity
  8
寸法
 62
     0
370
    -2
100
AcDbLine
 10
1007.62098356968
 20
843.9091633865173
 30
0.0
 11
1007.62098356968
 21
863.9091633865174
 31
0.0
  0
LINE
  5
C70
330
5DC
100
AcDbEntity
  8
寸法
 62
     0
370
    -2
100
AcDbLine
 10
1007.62098356968
 20
815.9091633865173
 30
0.0
 11
1007.62098356968
 21
776.5758300531839
 31
0.0
  0
LINE
  5
C71
330
5DC
100
AcDbEntity
  8
寸法
 62
     0
370
    -2
100
AcDbLine
 10
1007.62098356968
 20
843.9091633865173
 30
0.0
 11
1007.62098356968
 21
825.9091633865173
 31
0.0
  0
SOLID
  5
C72
330
5DC
100
AcDbEntity
  8
寸法
 62
     0
100
AcDbTrace
 10
1005.954316903014
 20
815.9091633865173
 30
0.0
 11
1009.287650236347
 21
815.9091633865173
 31
0.0
 12
1007.62098356968
 22
825.9091633865173
 32
0.0
 13
1007.62098356968
 23
825.9091633865173
 33
0.0
  0
MTEXT
  5
C73
330
5DC
100
AcDbEntity
  8
寸法
 62
     0
100
AcDbMText
 10
1020.62098356968
 20
791.2424967198508
 30
0.0
 40
10.0
 41
0.0
 71
     5
 72
     1
  1
18
 11
0.0000000000000001
 21
1.0
 31
0.0
 73
     1
 44
1.0
1001
ACAD
1000
MTEXTBEGIN
1070
    73
1070
     1
1070
    44
1040
1.0
1070
    74
1070
     0
1000
MTEXTEND
  0
POINT
  5
C74
330
5DC
100
AcDbEntity
  8
DEFPOINTS
 62
     0
100
AcDbPoint
 10
930.8000884495282
 20
825.9091633865173
 30
0.0
  0
POINT
  5
C75
330
5DC
100
AcDbEntity
  8
DEFPOINTS
 62
     0
100
AcDbPoint
 10
930.8000884495282
 20
843.9091633865173
 30
0.0
  0
POINT
  5
C76
330
5DC
100
AcDbEntity
  8
DEFPOINTS
 62
     0
100
AcDbPoint
 10
1007.62098356968
 20
843.9091633865173
 30
0.0
  0
ENDBLK
  5
5E8
330
5DC
100
AcDbEntity
  8
0
100
AcDbBlockEnd
  0
BLOCK
  5
5F3
330
5E9
100
AcDbEntity
  8
0
100
AcDbBlockBegin
  2
*D63
 70
     1
 10
0.0
 20
0.0
 30
0.0
  3
*D63
  1

  0
LINE
  5
1007
330
5E9
100
AcDbEntity
  8
寸法
 62
     0
370
    -2
100
AcDbLine
 10
940.8000884495281
 20
847.9091633865174
 30
0.0
 11
1010.62098356968
 21
847.9091633865174
 31
0.0
  0
LINE
  5
1008
330
5E9
100
AcDbEntity
  8
寸法
 62
     0
370
    -2
100
AcDbLine
 10
940.8000884495281
 20
914.9091633865173
 30
0.0
 11
1010.62098356968
 21
914.9091633865173
 31
0.0
  0
LINE
  5
1009
330
5E9
100
AcDbEntity
  8
寸法
 62
     0
370
    -2
100
AcDbLine
 10
1007.62098356968
 20
857.9091633865173
 30
0.0
 11
1007.62098356968
 21
904.9091633865172
 31
0.0
  0
SOLID
  5
100A
330
5E9
100
AcDbEntity
  8
寸法
 62
     0
100
AcDbTrace
 10
1005.954316903013
 20
857.9091633865173
 30
0.0
 11
1009.287650236347
 21
857.9091633865173
 31
0.0
 12
1007.62098356968
 22
847.9091633865174
 32
0.0
 13
1007.62098356968
 23
847.9091633865174
 33
0.0
  0
SOLID
  5
100B
330
5E9
100
AcDbEntity
  8
寸法
 62
     0
100
AcDbTrace
 10
1005.954316903013
 20
904.9091633865172
 30
0.0
 11
1009.287650236347
 21
904.9091633865172
 31
0.0
 12
1007.62098356968
 22
914.9091633865173
 32
0.0
 13
1007.62098356968
 23
914.9091633865173
 33
0.0
  0
MTEXT
  5
100C
330
5E9
100
AcDbEntity
  8
寸法
 62
     0
100
AcDbMText
 10
1020.62098356968
 20
881.4091633865174
 30
0.0
 40
10.0
 41
0.0
 71
     5
 72
     1
  1
67
 11
0.0000000000000001
 21
1.0
 31
0.0
 73
     1
 44
1.0
1001
ACAD
1000
MTEXTBEGIN
1070
    73
1070
     1
1070
    44
1040
1.0
1070
    74
1070
     0
1000
MTEXTEND
  0
POINT
  5
100D
330
5E9
100
AcDbEntity
  8
DEFPOINTS
 62
     0
100
AcDbPoint
 10
930.8000884495282
 20
847.9091633865174
 30
0.0
  0
POINT
  5
100E
330
5E9
100
AcDbEntity
  8
DEFPOINTS
 62
     0
100
AcDbPoint
 10
930.8000884495282
 20
914.9091633865173
 30
0.0
  0
POINT
  5
100F
330
5E9
100
AcDbEntity
  8
DEFPOINTS
 62
     0
100
AcDbPoint
 10
1007.62098356968
 20
914.9091633865173
 30
0.0
  0
ENDBLK
  5
5F4
330
5E9
100
AcDbEntity
  8
0
100
AcDbBlockEnd
  0
BLOCK
  5
5FF
330
5F5
100
AcDbEntity
  8
0
100
AcDbBlockBegin
  2
*D64
 70
     1
 10
0.0
 20
0.0
 30
0.0
  3
*D64
  1

  0
LINE
  5
1010
330
5F5
100
AcDbEntity
  8
寸法
 62
     0
370
    -2
100
AcDbLine
 10
940.8000884495281
 20
914.9091633865173
 30
0.0
 11
1010.62098356968
 21
914.9091633865173
 31
0.0
  0
LINE
  5
1011
330
5F5
100
AcDbEntity
  8
寸法
 62
     0
370
    -2
100
AcDbLine
 10
940.8000884495281
 20
954.9091633865172
 30
0.0
 11
1010.62098356968
 21
954.9091633865172
 31
0.0
  0
LINE
  5
1012
330
5F5
100
AcDbEntity
  8
寸法
 62
     0
370
    -2
100
AcDbLine
 10
1007.62098356968
 20
924.9091633865173
 30
0.0
 11
1007.62098356968
 21
944.9091633865172
 31
0.0
  0
SOLID
  5
1013
330
5F5
100
AcDbEntity
  8
寸法
 62
     0
100
AcDbTrace
 10
1005.954316903013
 20
924.9091633865173
 30
0.0
 11
1009.287650236347
 21
924.9091633865173
 31
0.0
 12
1007.62098356968
 22
914.9091633865173
 32
0.0
 13
1007.62098356968
 23
914.9091633865173
 33
0.0
  0
SOLID
  5
1014
330
5F5
100
AcDbEntity
  8
寸法
 62
     0
100
AcDbTrace
 10
1005.954316903013
 20
944.9091633865172
 30
0.0
 11
1009.287650236347
 21
944.9091633865172
 31
0.0
 12
1007.62098356968
 22
954.9091633865172
 32
0.0
 13
1007.62098356968
 23
954.9091633865172
 33
0.0
  0
MTEXT
  5
1015
330
5F5
100
AcDbEntity
  8
寸法
 62
     0
100
AcDbMText
 10
1020.62098356968
 20
934.9091633865173
 30
0.0
 40
10.0
 41
0.0
 71
     5
 72
     1
  1
40
 11
0.0000000000000001
 21
1.0
 31
0.0
 73
     1
 44
1.0
1001
ACAD
1000
MTEXTBEGIN
1070
    73
1070
     1
1070
    44
1040
1.0
1070
    74
1070
     0
1000
MTEXTEND
  0
POINT
  5
1016
330
5F5
100
AcDbEntity
  8
DEFPOINTS
 62
     0
100
AcDbPoint
 10
930.8000884495282
 20
914.9091633865173
 30
0.0
  0
POINT
  5
1017
330
5F5
100
AcDbEntity
  8
DEFPOINTS
 62
     0
100
AcDbPoint
 10
930.8000884495282
 20
954.9091633865172
 30
0.0
  0
POINT
  5
1018
330
5F5
100
AcDbEntity
  8
DEFPOINTS
 62
     0
100
AcDbPoint
 10
1007.62098356968
 20
954.9091633865172
 30
0.0
  0
ENDBLK
  5
600
330
5F5
100
AcDbEntity
  8
0
100
AcDbBlockEnd
  0
BLOCK
  5
60B
330
601
100
AcDbEntity
  8
0
100
AcDbBlockBegin
  2
*D65
 70
     1
 10
0.0
 20
0.0
 30
0.0
  3
*D65
  1

  0
LINE
  5
FFE
330
601
100
AcDbEntity
  8
寸法
 62
     0
370
    -2
100
AcDbLine
 10
940.8000884495281
 20
954.9091633865172
 30
0.0
 11
1010.62098356968
 21
954.9091633865172
 31
0.0
  0
LINE
  5
FFF
330
601
100
AcDbEntity
  8
寸法
 62
     0
370
    -2
100
AcDbLine
 10
940.8000884495281
 20
1194.909163386517
 30
0.0
 11
1010.62098356968
 21
1194.909163386517
 31
0.0
  0
LINE
  5
1000
330
601
100
AcDbEntity
  8
寸法
 62
     0
370
    -2
100
AcDbLine
 10
1007.62098356968
 20
964.9091633865173
 30
0.0
 11
1007.62098356968
 21
1184.909163386517
 31
0.0
  0
SOLID
  5
1001
330
601
100
AcDbEntity
  8
寸法
 62
     0
100
AcDbTrace
 10
1005.954316903013
 20
964.9091633865173
 30
0.0
 11
1009.287650236347
 21
964.9091633865173
 31
0.0
 12
1007.62098356968
 22
954.9091633865172
 32
0.0
 13
1007.62098356968
 23
954.9091633865172
 33
0.0
  0
SOLID
  5
1002
330
601
100
AcDbEntity
  8
寸法
 62
     0
100
AcDbTrace
 10
1005.954316903013
 20
1184.909163386517
 30
0.0
 11
1009.287650236347
 21
1184.909163386517
 31
0.0
 12
1007.62098356968
 22
1194.909163386517
 32
0.0
 13
1007.62098356968
 23
1194.909163386517
 33
0.0
  0
MTEXT
  5
1003
330
601
100
AcDbEntity
  8
寸法
 62
     0
100
AcDbMText
 10
1020.62098356968
 20
1074.909163386517
 30
0.0
 40
10.0
 41
0.0
 71
     5
 72
     1
  1
240
 11
0.0000000000000001
 21
1.0
 31
0.0
 73
     1
 44
1.0
1001
ACAD
1000
MTEXTBEGIN
1070
    73
1070
     1
1070
    44
1040
1.0
1070
    74
1070
     0
1000
MTEXTEND
  0
POINT
  5
1004
330
601
100
AcDbEntity
  8
DEFPOINTS
 62
     0
100
AcDbPoint
 10
930.8000884495282
 20
954.9091633865172
 30
0.0
  0
POINT
  5
1005
330
601
100
AcDbEntity
  8
DEFPOINTS
 62
     0
100
AcDbPoint
 10
930.8000884495282
 20
1194.909163386517
 30
0.0
  0
POINT
  5
1006
330
601
100
AcDbEntity
  8
DEFPOINTS
 62
     0
100
AcDbPoint
 10
1007.62098356968
 20
1194.909163386517
 30
0.0
  0
ENDBLK
  5
60C
330
601
100
AcDbEntity
  8
0
100
AcDbBlockEnd
  0
BLOCK
  5
617
330
60D
100
AcDbEntity
  8
0
100
AcDbBlockBegin
  2
*D66
 70
     1
 10
0.0
 20
0.0
 30
0.0
  3
*D66
  1

  0
LINE
  5
FE2
330
60D
100
AcDbEntity
  8
寸法
 62
     0
370
    -2
100
AcDbLine
 10
940.8000884495281
 20
1194.909163386517
 30
0.0
 11
1010.62098356968
 21
1194.909163386517
 31
0.0
  0
LINE
  5
FE3
330
60D
100
AcDbEntity
  8
寸法
 62
     0
370
    -2
100
AcDbLine
 10
940.8000884495281
 20
1234.909163386517
 30
0.0
 11
1010.62098356968
 21
1234.909163386517
 31
0.0
  0
LINE
  5
FE4
330
60D
100
AcDbEntity
  8
寸法
 62
     0
370
    -2
100
AcDbLine
 10
1007.62098356968
 20
1204.909163386517
 30
0.0
 11
1007.62098356968
 21
1224.909163386517
 31
0.0
  0
SOLID
  5
FE5
330
60D
100
AcDbEntity
  8
寸法
 62
     0
100
AcDbTrace
 10
1005.954316903013
 20
1204.909163386517
 30
0.0
 11
1009.287650236347
 21
1204.909163386517
 31
0.0
 12
1007.62098356968
 22
1194.909163386517
 32
0.0
 13
1007.62098356968
 23
1194.909163386517
 33
0.0
  0
SOLID
  5
FE6
330
60D
100
AcDbEntity
  8
寸法
 62
     0
100
AcDbTrace
 10
1005.954316903013
 20
1224.909163386517
 30
0.0
 11
1009.287650236347
 21
1224.909163386517
 31
0.0
 12
1007.62098356968
 22
1234.909163386517
 32
0.0
 13
1007.62098356968
 23
1234.909163386517
 33
0.0
  0
MTEXT
  5
FE7
330
60D
100
AcDbEntity
  8
寸法
 62
     0
100
AcDbMText
 10
1020.62098356968
 20
1214.909163386517
 30
0.0
 40
10.0
 41
0.0
 71
     5
 72
     1
  1
40
 11
0.0000000000000001
 21
1.0
 31
0.0
 73
     1
 44
1.0
1001
ACAD
1000
MTEXTBEGIN
1070
    73
1070
     1
1070
    44
1040
1.0
1070
    74
1070
     0
1000
MTEXTEND
  0
POINT
  5
FE8
330
60D
100
AcDbEntity
  8
DEFPOINTS
 62
     0
100
AcDbPoint
 10
930.8000884495282
 20
1194.909163386517
 30
0.0
  0
POINT
  5
FE9
330
60D
100
AcDbEntity
  8
DEFPOINTS
 62
     0
100
AcDbPoint
 10
930.8000884495282
 20
1234.909163386517
 30
0.0
  0
POINT
  5
FEA
330
60D
100
AcDbEntity
  8
DEFPOINTS
 62
     0
100
AcDbPoint
 10
1007.62098356968
 20
1234.909163386517
 30
0.0
  0
ENDBLK
  5
618
330
60D
100
AcDbEntity
  8
0
100
AcDbBlockEnd
  0
BLOCK
  5
623
330
619
100
AcDbEntity
  8
0
100
AcDbBlockBegin
  2
*D67
 70
     1
 10
0.0
 20
0.0
 30
0.0
  3
*D67
  1

  0
LINE
  5
FEB
330
619
100
AcDbEntity
  8
寸法
 62
     0
370
    -2
100
AcDbLine
 10
940.8000884495281
 20
1234.909163386517
 30
0.0
 11
1010.62098356968
 21
1234.909163386517
 31
0.0
  0
LINE
  5
FEC
330
619
100
AcDbEntity
  8
寸法
 62
     0
370
    -2
100
AcDbLine
 10
940.8000884495281
 20
1301.909163386517
 30
0.0
 11
1010.62098356968
 21
1301.909163386517
 31
0.0
  0
LINE
  5
FED
330
619
100
AcDbEntity
  8
寸法
 62
     0
370
    -2
100
AcDbLine
 10
1007.62098356968
 20
1244.909163386517
 30
0.0
 11
1007.62098356968
 21
1291.909163386517
 31
0.0
  0
SOLID
  5
FEE
330
619
100
AcDbEntity
  8
寸法
 62
     0
100
AcDbTrace
 10
1005.954316903013
 20
1244.909163386517
 30
0.0
 11
1009.287650236346
 21
1244.909163386517
 31
0.0
 12
1007.62098356968
 22
1234.909163386517
 32
0.0
 13
1007.62098356968
 23
1234.909163386517
 33
0.0
  0
SOLID
  5
FEF
330
619
100
AcDbEntity
  8
寸法
 62
     0
100
AcDbTrace
 10
1005.954316903013
 20
1291.909163386517
 30
0.0
 11
1009.287650236347
 21
1291.909163386517
 31
0.0
 12
1007.62098356968
 22
1301.909163386517
 32
0.0
 13
1007.62098356968
 23
1301.909163386517
 33
0.0
  0
MTEXT
  5
FF0
330
619
100
AcDbEntity
  8
寸法
 62
     0
100
AcDbMText
 10
1020.62098356968
 20
1268.409163386517
 30
0.0
 40
10.0
 41
0.0
 71
     5
 72
     1
  1
67
 11
0.0000000000000001
 21
1.0
 31
0.0
 73
     1
 44
1.0
1001
ACAD
1000
MTEXTBEGIN
1070
    73
1070
     1
1070
    44
1040
1.0
1070
    74
1070
     0
1000
MTEXTEND
  0
POINT
  5
FF1
330
619
100
AcDbEntity
  8
DEFPOINTS
 62
     0
100
AcDbPoint
 10
930.8000884495282
 20
1234.909163386517
 30
0.0
  0
POINT
  5
FF2
330
619
100
AcDbEntity
  8
DEFPOINTS
 62
     0
100
AcDbPoint
 10
930.8000884495282
 20
1301.909163386517
 30
0.0
  0
POINT
  5
FF3
330
619
100
AcDbEntity
  8
DEFPOINTS
 62
     0
100
AcDbPoint
 10
1007.62098356968
 20
1301.909163386517
 30
0.0
  0
ENDBLK
  5
624
330
619
100
AcDbEntity
  8
0
100
AcDbBlockEnd
  0
BLOCK
  5
630
330
625
100
AcDbEntity
  8
0
100
AcDbBlockBegin
  2
*D68
 70
     1
 10
0.0
 20
0.0
 30
0.0
  3
*D68
  1

  0
LINE
  5
FF4
330
625
100
AcDbEntity
  8
寸法
 62
     0
370
    -2
100
AcDbLine
 10
940.8000884495281
 20
1301.909163386517
 30
0.0
 11
1010.62098356968
 21
1301.909163386517
 31
0.0
  0
LINE
  5
FF5
330
625
100
AcDbEntity
  8
寸法
 62
     0
370
    -2
100
AcDbLine
 10
940.8000884495281
 20
1305.909163386517
 30
0.0
 11
1010.62098356968
 21
1305.909163386517
 31
0.0
  0
LINE
  5
FF6
330
625
100
AcDbEntity
  8
寸法
 62
     0
370
    -2
100
AcDbLine
 10
1007.62098356968
 20
1301.909163386517
 30
0.0
 11
1007.62098356968
 21
1291.909163386517
 31
0.0
  0
LINE
  5
FF7
330
625
100
AcDbEntity
  8
寸法
 62
     0
370
    -2
100
AcDbLine
 10
1007.62098356968
 20
1305.909163386517
 30
0.0
 11
1007.62098356968
 21
1315.909163386517
 31
0.0
  0
LINE
  5
FF8
330
625
100
AcDbEntity
  8
寸法
 62
     0
370
    -2
100
AcDbLine
 10
1007.62098356968
 20
1301.909163386517
 30
0.0
 11
1007.62098356968
 21
1305.909163386517
 31
0.0
  0
INSERT
  5
FF9
330
625
100
AcDbEntity
  8
寸法
 62
     0
370
    -2
100
AcDbBlockReference
  2
_Oblique
 10
1007.62098356968
 20
1305.909163386517
 30
0.0
 41
10.0
 42
10.0
 43
10.0
 50
270.0
  0
MTEXT
  5
FFA
330
625
100
AcDbEntity
  8
寸法
 62
     0
100
AcDbMText
 10
1020.62098356968
 20
1303.909163386517
 30
0.0
 40
10.0
 41
0.0
 71
     5
 72
     1
  1
4
 11
0.0000000000000001
 21
1.0
 31
0.0
 73
     1
 44
1.0
1001
ACAD
1000
MTEXTBEGIN
1070
    73
1070
     1
1070
    44
1040
1.0
1070
    74
1070
     0
1000
MTEXTEND
  0
POINT
  5
FFB
330
625
100
AcDbEntity
  8
DEFPOINTS
 62
     0
100
AcDbPoint
 10
930.8000884495282
 20
1301.909163386517
 30
0.0
  0
POINT
  5
FFC
330
625
100
AcDbEntity
  8
DEFPOINTS
 62
     0
100
AcDbPoint
 10
930.8000884495282
 20
1305.909163386517
 30
0.0
  0
POINT
  5
FFD
330
625
100
AcDbEntity
  8
DEFPOINTS
 62
     0
100
AcDbPoint
 10
1007.62098356968
 20
1305.909163386517
 30
0.0
  0
ENDBLK
  5
631
330
625
100
AcDbEntity
  8
0
100
AcDbBlockEnd
  0
BLOCK
  5
63D
330
632
100
AcDbEntity
  8
0
100
AcDbBlockBegin
  2
*D69
 70
     1
 10
0.0
 20
0.0
 30
0.0
  3
*D69
  1

  0
LINE
  5
1023
330
632
100
AcDbEntity
  8
寸法
 62
     0
370
    -2
100
AcDbLine
 10
940.8000884495281
 20
1305.909163386517
 30
0.0
 11
1010.62098356968
 21
1305.909163386517
 31
0.0
  0
LINE
  5
1024
330
632
100
AcDbEntity
  8
寸法
 62
     0
370
    -2
100
AcDbLine
 10
940.8000884495281
 20
1323.909163386517
 30
0.0
 11
1010.62098356968
 21
1323.909163386517
 31
0.0
  0
LINE
  5
1025
330
632
100
AcDbEntity
  8
寸法
 62
     0
370
    -2
100
AcDbLine
 10
1007.62098356968
 20
1305.909163386517
 30
0.0
 11
1007.62098356968
 21
1295.909163386517
 31
0.0
  0
LINE
  5
1026
330
632
100
AcDbEntity
  8
寸法
 62
     0
370
    -2
100
AcDbLine
 10
1007.62098356968
 20
1333.909163386517
 30
0.0
 11
1007.62098356968
 21
1373.24249671985
 31
0.0
  0
LINE
  5
1027
330
632
100
AcDbEntity
  8
寸法
 62
     0
370
    -2
100
AcDbLine
 10
1007.62098356968
 20
1305.909163386517
 30
0.0
 11
1007.62098356968
 21
1323.909163386517
 31
0.0
  0
SOLID
  5
1028
330
632
100
AcDbEntity
  8
寸法
 62
     0
100
AcDbTrace
 10
1005.954316903013
 20
1333.909163386517
 30
0.0
 11
1009.287650236347
 21
1333.909163386517
 31
0.0
 12
1007.62098356968
 22
1323.909163386517
 32
0.0
 13
1007.62098356968
 23
1323.909163386517
 33
0.0
  0
MTEXT
  5
1029
330
632
100
AcDbEntity
  8
寸法
 62
     0
100
AcDbMText
 10
1020.62098356968
 20
1358.575830053184
 30
0.0
 40
10.0
 41
0.0
 71
     5
 72
     1
  1
18
 11
0.0000000000000001
 21
1.0
 31
0.0
 73
     1
 44
1.0
1001
ACAD
1000
MTEXTBEGIN
1070
    73
1070
     1
1070
    44
1040
1.0
1070
    74
1070
     0
1000
MTEXTEND
  0
POINT
  5
102A
330
632
100
AcDbEntity
  8
DEFPOINTS
 62
     0
100
AcDbPoint
 10
930.8000884495282
 20
1305.909163386517
 30
0.0
  0
POINT
  5
102B
330
632
100
AcDbEntity
  8
DEFPOINTS
 62
     0
100
AcDbPoint
 10
930.8000884495282
 20
1323.909163386517
 30
0.0
  0
POINT
  5
102C
330
632
100
AcDbEntity
  8
DEFPOINTS
 62
     0
100
AcDbPoint
 10
1007.62098356968
 20
1323.909163386517
 30
0.0
  0
ENDBLK
  5
63E
330
632
100
AcDbEntity
  8
0
100
AcDbBlockEnd
  0
BLOCK
  5
64A
330
63F
100
AcDbEntity
  8
0
100
AcDbBlockBegin
  2
*D70
 70
     1
 10
0.0
 20
0.0
 30
0.0
  3
*D70
  1

  0
LINE
  5
1019
330
63F
100
AcDbEntity
  8
寸法
 62
     0
370
    -2
100
AcDbLine
 10
940.8000884495281
 20
843.9091633865173
 30
0.0
 11
1010.62098356968
 21
843.9091633865173
 31
0.0
  0
LINE
  5
101A
330
63F
100
AcDbEntity
  8
寸法
 62
     0
370
    -2
100
AcDbLine
 10
940.8000884495281
 20
847.9091633865174
 30
0.0
 11
1010.62098356968
 21
847.9091633865174
 31
0.0
  0
LINE
  5
101B
330
63F
100
AcDbEntity
  8
寸法
 62
     0
370
    -2
100
AcDbLine
 10
1007.62098356968
 20
843.9091633865173
 30
0.0
 11
1007.62098356968
 21
833.9091633865173
 31
0.0
  0
LINE
  5
101C
330
63F
100
AcDbEntity
  8
寸法
 62
     0
370
    -2
100
AcDbLine
 10
1007.62098356968
 20
847.9091633865174
 30
0.0
 11
1007.62098356968
 21
857.9091633865173
 31
0.0
  0
LINE
  5
101D
330
63F
100
AcDbEntity
  8
寸法
 62
     0
370
    -2
100
AcDbLine
 10
1007.62098356968
 20
843.9091633865173
 30
0.0
 11
1007.62098356968
 21
847.9091633865174
 31
0.0
  0
INSERT
  5
101E
330
63F
100
AcDbEntity
  8
寸法
 62
     0
370
    -2
100
AcDbBlockReference
  2
_Oblique
 10
1007.62098356968
 20
843.9091633865173
 30
0.0
 41
10.0
 42
10.0
 43
10.0
 50
90.0
  0
MTEXT
  5
101F
330
63F
100
AcDbEntity
  8
寸法
 62
     0
100
AcDbMText
 10
1020.62098356968
 20
845.9091633865174
 30
0.0
 40
10.0
 41
0.0
 71
     5
 72
     1
  1
4
 11
0.0000000000000001
 21
1.0
 31
0.0
 73
     1
 44
1.0
1001
ACAD
1000
MTEXTBEGIN
1070
    73
1070
     1
1070
    44
1040
1.0
1070
    74
1070
     0
1000
MTEXTEND
  0
POINT
  5
1020
330
63F
100
AcDbEntity
  8
DEFPOINTS
 62
     0
100
AcDbPoint
 10
930.8000884495282
 20
843.9091633865173
 30
0.0
  0
POINT
  5
1021
330
63F
100
AcDbEntity
  8
DEFPOINTS
 62
     0
100
AcDbPoint
 10
930.8000884495282
 20
847.9091633865174
 30
0.0
  0
POINT
  5
1022
330
63F
100
AcDbEntity
  8
DEFPOINTS
 62
     0
100
AcDbPoint
 10
1007.62098356968
 20
847.9091633865174
 30
0.0
  0
ENDBLK
  5
64B
330
63F
100
AcDbEntity
  8
0
100
AcDbBlockEnd
  0
BLOCK
  5
6BD
330
6B3
100
AcDbEntity
  8
0
100
AcDbBlockBegin
  2
*D71
 70
     1
 10
0.0
 20
0.0
 30
0.0
  3
*D71
  1

  0
LINE
  5
E4F
330
6B3
100
AcDbEntity
  8
寸法
 62
     0
370
    -2
100
AcDbLine
 10
950.8000884495281
 20
355.9091633865173
 30
0.0
 11
967.2884015912172
 21
355.9091633865173
 31
0.0
  0
LINE
  5
E50
330
6B3
100
AcDbEntity
  8
寸法
 62
     0
370
    -2
100
AcDbLine
 10
950.8000884495281
 20
435.9091633865173
 30
0.0
 11
967.2884015912172
 21
435.9091633865173
 31
0.0
  0
LINE
  5
E51
330
6B3
100
AcDbEntity
  8
寸法
 62
     0
370
    -2
100
AcDbLine
 10
964.2884015912173
 20
365.9091633865173
 30
0.0
 11
964.2884015912173
 21
425.9091633865173
 31
0.0
  0
SOLID
  5
E52
330
6B3
100
AcDbEntity
  8
寸法
 62
     0
100
AcDbTrace
 10
962.6217349245505
 20
365.9091633865173
 30
0.0
 11
965.9550682578839
 21
365.9091633865173
 31
0.0
 12
964.2884015912173
 22
355.9091633865173
 32
0.0
 13
964.2884015912173
 23
355.9091633865173
 33
0.0
  0
SOLID
  5
E53
330
6B3
100
AcDbEntity
  8
寸法
 62
     0
100
AcDbTrace
 10
962.6217349245505
 20
425.9091633865173
 30
0.0
 11
965.9550682578839
 21
425.9091633865173
 31
0.0
 12
964.2884015912173
 22
435.9091633865173
 32
0.0
 13
964.2884015912173
 23
435.9091633865173
 33
0.0
  0
MTEXT
  5
E54
330
6B3
100
AcDbEntity
  8
寸法
 62
     0
100
AcDbMText
 10
977.2884015912172
 20
395.9091633865175
 30
0.0
 40
10.0
 41
0.0
 71
     5
 72
     1
  1
80
 11
0.0000000000000001
 21
1.0
 31
0.0
 73
     1
 44
1.0
1001
ACAD
1000
MTEXTBEGIN
1070
    73
1070
     1
1070
    44
1040
1.0
1070
    74
1070
     0
1000
MTEXTEND
  0
POINT
  5
E55
330
6B3
100
AcDbEntity
  8
DEFPOINTS
 62
     0
100
AcDbPoint
 10
930.8000884495282
 20
355.9091633865173
 30
0.0
  0
POINT
  5
E56
330
6B3
100
AcDbEntity
  8
DEFPOINTS
 62
     0
100
AcDbPoint
 10
930.8000884495282
 20
435.9091633865173
 30
0.0
  0
POINT
  5
E57
330
6B3
100
AcDbEntity
  8
DEFPOINTS
 62
     0
100
AcDbPoint
 10
964.2884015912173
 20
435.9091633865173
 30
0.0
  0
ENDBLK
  5
6BE
330
6B3
100
AcDbEntity
  8
0
100
AcDbBlockEnd
  0
BLOCK
  5
6CB
330
6BF
100
AcDbEntity
  8
0
100
AcDbBlockBegin
  2
*D72
 70
     1
 10
0.0
 20
0.0
 30
0.0
  3
*D72
  1

  0
LINE
  5
E58
330
6BF
100
AcDbEntity
  8
寸法
 62
     0
370
    -2
100
AcDbLine
 10
950.8000884495281
 20
435.9091633865173
 30
0.0
 11
967.2884015912174
 21
435.9091633865173
 31
0.0
  0
LINE
  5
E59
330
6BF
100
AcDbEntity
  8
寸法
 62
     0
370
    -2
100
AcDbLine
 10
927.160480644091
 20
455.9091633865173
 30
0.0
 11
967.2884015912174
 21
455.9091633865173
 31
0.0
  0
LINE
  5
E5A
330
6BF
100
AcDbEntity
  8
寸法
 62
     0
370
    -2
100
AcDbLine
 10
964.2884015912173
 20
425.9091633865173
 30
0.0
 11
964.2884015912173
 21
415.9091633865172
 31
0.0
  0
LINE
  5
E5B
330
6BF
100
AcDbEntity
  8
寸法
 62
     0
370
    -2
100
AcDbLine
 10
964.2884015912173
 20
465.9091633865172
 30
0.0
 11
964.2884015912173
 21
475.9091633865173
 31
0.0
  0
LINE
  5
E5C
330
6BF
100
AcDbEntity
  8
寸法
 62
     0
370
    -2
100
AcDbLine
 10
964.2884015912173
 20
435.9091633865173
 30
0.0
 11
964.2884015912173
 21
455.9091633865173
 31
0.0
  0
SOLID
  5
E5D
330
6BF
100
AcDbEntity
  8
寸法
 62
     0
100
AcDbTrace
 10
962.6217349245507
 20
425.9091633865173
 30
0.0
 11
965.955068257884
 21
425.9091633865173
 31
0.0
 12
964.2884015912173
 22
435.9091633865173
 32
0.0
 13
964.2884015912173
 23
435.9091633865173
 33
0.0
  0
SOLID
  5
E5E
330
6BF
100
AcDbEntity
  8
寸法
 62
     0
100
AcDbTrace
 10
962.6217349245507
 20
465.9091633865172
 30
0.0
 11
965.955068257884
 21
465.9091633865172
 31
0.0
 12
964.2884015912173
 22
455.9091633865173
 32
0.0
 13
964.2884015912173
 23
455.9091633865173
 33
0.0
  0
MTEXT
  5
E5F
330
6BF
100
AcDbEntity
  8
寸法
 62
     0
100
AcDbMText
 10
977.2884015912172
 20
445.9091633865175
 30
0.0
 40
10.0
 41
0.0
 71
     5
 72
     1
  1
20
 11
0.0000000000000001
 21
1.0
 31
0.0
 73
     1
 44
1.0
1001
ACAD
1000
MTEXTBEGIN
1070
    73
1070
     1
1070
    44
1040
1.0
1070
    74
1070
     0
1000
MTEXTEND
  0
POINT
  5
E60
330
6BF
100
AcDbEntity
  8
DEFPOINTS
 62
     0
100
AcDbPoint
 10
930.8000884495282
 20
435.9091633865173
 30
0.0
  0
POINT
  5
E61
330
6BF
100
AcDbEntity
  8
DEFPOINTS
 62
     0
100
AcDbPoint
 10
907.1604806440909
 20
455.9091633865173
 30
0.0
  0
POINT
  5
E62
330
6BF
100
AcDbEntity
  8
DEFPOINTS
 62
     0
100
AcDbPoint
 10
964.2884015912173
 20
455.9091633865173
 30
0.0
  0
ENDBLK
  5
6CC
330
6BF
100
AcDbEntity
  8
0
100
AcDbBlockEnd
  0
BLOCK
  5
6D7
330
6CD
100
AcDbEntity
  8
0
100
AcDbBlockBegin
  2
*D73
 70
     1
 10
0.0
 20
0.0
 30
0.0
  3
*D73
  1

  0
LINE
  5
E63
330
6CD
100
AcDbEntity
  8
寸法
 62
     0
370
    -2
100
AcDbLine
 10
937.1604806440895
 20
455.9091633865173
 30
0.0
 11
967.2884015912172
 21
455.9091633865173
 31
0.0
  0
LINE
  5
E64
330
6CD
100
AcDbEntity
  8
寸法
 62
     0
370
    -2
100
AcDbLine
 10
830.9716613247816
 20
495.9091633865173
 30
0.0
 11
967.2884015912172
 21
495.9091633865172
 31
0.0
  0
LINE
  5
E65
330
6CD
100
AcDbEntity
  8
寸法
 62
     0
370
    -2
100
AcDbLine
 10
964.2884015912173
 20
465.9091633865172
 30
0.0
 11
964.2884015912173
 21
485.9091633865173
 31
0.0
  0
SOLID
  5
E66
330
6CD
100
AcDbEntity
  8
寸法
 62
     0
100
AcDbTrace
 10
962.6217349245505
 20
465.9091633865172
 30
0.0
 11
965.9550682578839
 21
465.9091633865172
 31
0.0
 12
964.2884015912173
 22
455.9091633865173
 32
0.0
 13
964.2884015912173
 23
455.9091633865173
 33
0.0
  0
SOLID
  5
E67
330
6CD
100
AcDbEntity
  8
寸法
 62
     0
100
AcDbTrace
 10
962.6217349245505
 20
485.9091633865173
 30
0.0
 11
965.9550682578839
 21
485.9091633865173
 31
0.0
 12
964.2884015912173
 22
495.9091633865172
 32
0.0
 13
964.2884015912173
 23
495.9091633865172
 33
0.0
  0
MTEXT
  5
E68
330
6CD
100
AcDbEntity
  8
寸法
 62
     0
100
AcDbMText
 10
977.2884015912172
 20
475.9091633865175
 30
0.0
 40
10.0
 41
0.0
 71
     5
 72
     1
  1
40
 11
0.0000000000000001
 21
1.0
 31
0.0
 73
     1
 44
1.0
1001
ACAD
1000
MTEXTBEGIN
1070
    73
1070
     1
1070
    44
1040
1.0
1070
    74
1070
     0
1000
MTEXTEND
  0
POINT
  5
E69
330
6CD
100
AcDbEntity
  8
DEFPOINTS
 62
     0
100
AcDbPoint
 10
907.1604806440896
 20
455.9091633865173
 30
0.0
  0
POINT
  5
E6A
330
6CD
100
AcDbEntity
  8
DEFPOINTS
 62
     0
100
AcDbPoint
 10
800.9716613247817
 20
495.9091633865173
 30
0.0
  0
POINT
  5
E6B
330
6CD
100
AcDbEntity
  8
DEFPOINTS
 62
     0
100
AcDbPoint
 10
964.2884015912173
 20
495.9091633865172
 30
0.0
  0
ENDBLK
  5
6D8
330
6CD
100
AcDbEntity
  8
0
100
AcDbBlockEnd
  0
BLOCK
  5
6E3
330
6D9
100
AcDbEntity
  8
0
100
AcDbBlockBegin
  2
*D74
 70
     1
 10
0.0
 20
0.0
 30
0.0
  3
*D74
  1

  0
LINE
  5
E6C
330
6D9
100
AcDbEntity
  8
寸法
 62
     0
370
    -2
100
AcDbLine
 10
960.8000884495281
 20
355.9091633865173
 30
0.0
 11
992.9636494544906
 21
355.9091633865173
 31
0.0
  0
LINE
  5
E6D
330
6D9
100
AcDbEntity
  8
寸法
 62
     0
370
    -2
100
AcDbLine
 10
960.8000884495281
 20
495.9091633865173
 30
0.0
 11
992.9636494544906
 21
495.9091633865173
 31
0.0
  0
LINE
  5
E6E
330
6D9
100
AcDbEntity
  8
寸法
 62
     0
370
    -2
100
AcDbLine
 10
989.9636494544907
 20
365.9091633865173
 30
0.0
 11
989.9636494544907
 21
485.9091633865173
 31
0.0
  0
SOLID
  5
E6F
330
6D9
100
AcDbEntity
  8
寸法
 62
     0
100
AcDbTrace
 10
988.2969827878239
 20
365.9091633865173
 30
0.0
 11
991.6303161211573
 21
365.9091633865173
 31
0.0
 12
989.9636494544907
 22
355.9091633865173
 32
0.0
 13
989.9636494544907
 23
355.9091633865173
 33
0.0
  0
SOLID
  5
E70
330
6D9
100
AcDbEntity
  8
寸法
 62
     0
100
AcDbTrace
 10
988.2969827878239
 20
485.9091633865173
 30
0.0
 11
991.6303161211573
 21
485.9091633865173
 31
0.0
 12
989.9636494544907
 22
495.9091633865173
 32
0.0
 13
989.9636494544907
 23
495.9091633865173
 33
0.0
  0
MTEXT
  5
E71
330
6D9
100
AcDbEntity
  8
寸法
 62
     0
100
AcDbMText
 10
1002.96364945449
 20
425.9091633865175
 30
0.0
 40
10.0
 41
0.0
 71
     5
 72
     1
  1
140
 11
0.0000000000000001
 21
1.0
 31
0.0
 73
     1
 44
1.0
1001
ACAD
1000
MTEXTBEGIN
1070
    73
1070
     1
1070
    44
1040
1.0
1070
    74
1070
     0
1000
MTEXTEND
  0
POINT
  5
E72
330
6D9
100
AcDbEntity
  8
DEFPOINTS
 62
     0
100
AcDbPoint
 10
930.8000884495282
 20
355.9091633865173
 30
0.0
  0
POINT
  5
E73
330
6D9
100
AcDbEntity
  8
DEFPOINTS
 62
     0
100
AcDbPoint
 10
930.8000884495282
 20
495.9091633865173
 30
0.0
  0
POINT
  5
E74
330
6D9
100
AcDbEntity
  8
DEFPOINTS
 62
     0
100
AcDbPoint
 10
989.9636494544907
 20
495.9091633865173
 30
0.0
  0
ENDBLK
  5
6E4
330
6D9
100
AcDbEntity
  8
0
100
AcDbBlockEnd
  0
BLOCK
  5
6EB
330
6E5
100
AcDbEntity
  8
0
100
AcDbBlockBegin
  2
*D75
 70
     1
 10
0.0
 20
0.0
 30
0.0
  3
*D75
  1

  0
LINE
  5
EC3
330
6E5
100
AcDbEntity
  8
寸法
 62
     0
370
    -2
100
AcDbLine
 10
1333.336680873224
 20
804.5254047248718
 30
0.0
 11
1362.103224942988
 21
836.0362026634637
 31
0.0
  0
MTEXT
  5
EC4
330
6E5
100
AcDbEntity
  8
寸法
 62
     0
100
AcDbMText
 10
1334.747927278016
 20
825.3529384569954
 30
0.0
 40
10.0
 41
0.0
 71
     5
 72
     1
  1
R6
 11
0.6742158766351045
 21
0.7385343266857389
 31
0.0
 73
     1
 44
1.0
1001
ACAD
1000
MTEXTBEGIN
1070
    73
1070
     1
1070
    44
1040
1.0
1070
    74
1070
     0
1000
MTEXTEND
  0
SOLID
  5
EC5
330
6E5
100
AcDbEntity
  8
寸法
 62
     0
100
AcDbTrace
 10
1360.872334398512
 20
837.159895791189
 30
0.0
 11
1363.334115487465
 21
834.9125095357385
 31
0.0
 12
1368.845383709339
 22
843.421545930321
 32
0.0
 13
1368.845383709339
 23
843.421545930321
 33
0.0
  0
POINT
  5
EC6
330
6E5
100
AcDbEntity
  8
DEFPOINTS
 62
     0
100
AcDbPoint
 10
1368.845383709339
 20
843.421545930321
 30
0.0
  0
POINT
  5
EC7
330
6E5
100
AcDbEntity
  8
DEFPOINTS
 62
     0
100
AcDbPoint
 10
1364.800088449529
 20
838.9903399702062
 30
0.0
  0
ENDBLK
  5
6EC
330
6E5
100
AcDbEntity
  8
0
100
AcDbBlockEnd
  0
BLOCK
  5
6F3
330
6ED
100
AcDbEntity
  8
0
100
AcDbBlockBegin
  2
*D76
 70
     1
 10
0.0
 20
0.0
 30
0.0
  3
*D76
  1

  0
LINE
  5
EC8
330
6ED
100
AcDbEntity
  8
寸法
 62
     0
370
    -2
100
AcDbLine
 10
1389.300921921959
 20
884.6884961044976
 30
0.0
 11
1358.563377945176
 21
855.0971488097252
 31
0.0
  0
MTEXT
  5
EC9
330
6ED
100
AcDbEntity
  8
寸法
 62
     0
100
AcDbMText
 10
1368.518092239471
 20
882.7259038986435
 30
0.0
 40
10.0
 41
0.0
 71
     5
 72
     1
  1
R2
 11
0.7204111869558404
 21
0.6935472022212167
 31
0.0
 73
     1
 44
1.0
1001
ACAD
1000
MTEXTBEGIN
1070
    73
1070
     1
1070
    44
1040
1.0
1070
    74
1070
     0
1000
MTEXTEND
  0
SOLID
  5
ECA
330
6ED
100
AcDbEntity
  8
寸法
 62
     0
100
AcDbTrace
 10
1357.407465941474
 20
856.2978341213183
 30
0.0
 11
1359.719289948878
 21
853.8964634981322
 31
0.0
 12
1351.359266075618
 22
848.1616767875129
 32
0.0
 13
1351.359266075618
 23
848.1616767875129
 33
0.0
  0
POINT
  5
ECB
330
6ED
100
AcDbEntity
  8
DEFPOINTS
 62
     0
100
AcDbPoint
 10
1351.359266075618
 20
848.1616767875129
 30
0.0
  0
POINT
  5
ECC
330
6ED
100
AcDbEntity
  8
DEFPOINTS
 62
     0
100
AcDbPoint
 10
1352.80008844953
 20
849.5487711919562
 30
0.0
  0
ENDBLK
  5
6F4
330
6ED
100
AcDbEntity
  8
0
100
AcDbBlockEnd
  0
BLOCK
  5
6FB
330
6F5
100
AcDbEntity
  8
0
100
AcDbBlockBegin
  2
*D77
 70
     1
 10
0.0
 20
0.0
 30
0.0
  3
*D77
  1

  0
LINE
  5
E7F
330
6F5
100
AcDbEntity
  8
寸法
 62
     0
370
    -2
100
AcDbLine
 10
1305.643374615754
 20
887.0362956851442
 30
0.0
 11
1341.443798692347
 21
910.2478031842393
 31
0.0
  0
MTEXT
  5
E80
330
6F5
100
AcDbEntity
  8
寸法
 62
     0
100
AcDbMText
 10
1312.275968266444
 20
906.8298926104784
 30
0.0
 40
10.0
 41
0.0
 71
     5
 72
     1
  1
R6
 11
0.8390724392951463
 21
0.5440197070100428
 31
0.0
 73
     1
 44
1.0
1001
ACAD
1000
MTEXTBEGIN
1070
    73
1070
     1
1070
    44
1040
1.0
1070
    74
1070
     0
1000
MTEXTEND
  0
SOLID
  5
E81
330
6F5
100
AcDbEntity
  8
寸法
 62
     0
100
AcDbTrace
 10
1340.537099180664
 20
911.6462572497312
 30
0.0
 11
1342.35049820403
 21
908.8493491187474
 31
0.0
 12
1349.834523085298
 22
915.6880002543397
 32
0.0
 13
1349.834523085298
 23
915.6880002543397
 33
0.0
  0
POINT
  5
E82
330
6F5
100
AcDbEntity
  8
DEFPOINTS
 62
     0
100
AcDbPoint
 10
1349.834523085298
 20
915.6880002543397
 30
0.0
  0
POINT
  5
E83
330
6F5
100
AcDbEntity
  8
DEFPOINTS
 62
     0
100
AcDbPoint
 10
1344.800088449525
 20
912.4238820122778
 30
0.0
  0
ENDBLK
  5
6FC
330
6F5
100
AcDbEntity
  8
0
100
AcDbBlockEnd
  0
BLOCK
  5
703
330
6FD
100
AcDbEntity
  8
0
100
AcDbBlockBegin
  2
*D78
 70
     1
 10
0.0
 20
0.0
 30
0.0
  3
*D78
  1

  0
LINE
  5
ECD
330
6FD
100
AcDbEntity
  8
寸法
 62
     0
370
    -2
100
AcDbLine
 10
1357.023166952179
 20
980.4647100131287
 30
0.0
 11
1319.782679792053
 21
959.641872537874
 31
0.0
  0
MTEXT
  5
ECE
330
6FD
100
AcDbEntity
  8
寸法
 62
     0
100
AcDbMText
 10
1336.422584667951
 20
983.8401784737337
 30
0.0
 40
10.0
 41
0.0
 71
     5
 72
     1
  1
R2
 11
0.8728239178154717
 21
0.4880352533262845
 31
0.0
 73
     1
 44
1.0
1001
ACAD
1000
MTEXTBEGIN
1070
    73
1070
     1
1070
    44
1040
1.0
1070
    74
1070
     0
1000
MTEXTEND
  0
SOLID
  5
ECF
330
6FD
100
AcDbEntity
  8
寸法
 62
     0
100
AcDbTrace
 10
1318.969287703175
 20
961.0965790675663
 30
0.0
 11
1320.596071880929
 21
958.1871660081814
 31
0.0
 12
1311.054440613898
 22
954.7615200046109
 32
0.0
 13
1311.054440613898
 23
954.7615200046109
 33
0.0
  0
POINT
  5
ED0
330
6FD
100
AcDbEntity
  8
DEFPOINTS
 62
     0
100
AcDbPoint
 10
1311.054440613898
 20
954.7615200046109
 30
0.0
  0
POINT
  5
ED1
330
6FD
100
AcDbEntity
  8
DEFPOINTS
 62
     0
100
AcDbPoint
 10
1312.800088449529
 20
955.7375905112637
 30
0.0
  0
ENDBLK
  5
704
330
6FD
100
AcDbEntity
  8
0
100
AcDbBlockEnd
  0
ENDSEC
  0
SECTION
  2
ENTITIES
  0
INSERT
  5
123
330
1F
100
AcDbEntity
  8
題
 62
     7
100
AcDbBlockReference
  2
AI9-BLK1
 10
1670.300088449528
 20
176.4091633865173
 30
0.0
 41
0.5760000000009314
 42
0.5760000000009314
 43
0.5760000000009314
  0
MTEXT
  5
124
330
1F
100
AcDbEntity
  8
題
100
AcDbMText
 10
1707.800088449528
 20
188.9091633865173
 30
0.0
 40
30.0
 41
425.0
 71
     4
 72
     5
  1
{\fHGMaruGothicMPRO|b0|i0|c128|p50; 新生興産株式会社}
 73
     1
 44
1.0
1001
ACAD
1000
MTEXTBEGIN
1070
    73
1070
     1
1070
    44
1040
1.0
1070
    74
1070
     0
1000
MTEXTEND
1000
ACAD_MTEXT_DEFINED_HEIGHT_BEGIN
1070
    46
1040
10.0
1000
ACAD_MTEXT_DEFINED_HEIGHT_END
  0
MTEXT
  5
125
330
1F
100
AcDbEntity
  8
題
100
AcDbMText
 10
1707.800088449528
 20
151.4091633865173
 30
0.0
 40
30.0
 41
425.0
 71
     4
 72
     5
  1
{\fCentury Gothic|b0|i0|c0|p34;\H0.5x;                              SHINSEI KOSAN CO.,LTD}
 73
     1
 44
1.0
1001
ACAD
1000
MTEXTBEGIN
1070
    73
1070
     1
1070
    44
1040
1.0
1070
    74
1070
     0
1000
MTEXTEND
1000
ACAD_MTEXT_DEFINED_HEIGHT_BEGIN
1070
    46
1040
5.0
1000
ACAD_MTEXT_DEFINED_HEIGHT_END
  0
LWPOLYLINE
  5
126
330
1F
100
AcDbEntity
  8
DEFPOINTS
100
AcDbPolyline
 90
        4
 70
     1
 43
0.0
 10
82.80008844952817
 20
88.90916338651733
 10
2182.800088449528
 20
88.90916338651733
 10
2182.800088449528
 20
1573.909163386517
 10
82.80008844952817
 20
1573.909163386517
  0
LWPOLYLINE
  5
127
330
1F
100
AcDbEntity
  8
題
100
AcDbPolyline
 90
        4
 70
     1
 43
0.0
 10
2132.800088449528
 20
138.9091633865173
 10
1632.800088449528
 20
138.9091633865173
 10
1632.800088449528
 20
213.9091633865173
 10
2132.800088449528
 20
213.9091633865173
  0
LWPOLYLINE
  5
128
330
1F
100
AcDbEntity
  8
題
100
AcDbPolyline
 90
        4
 70
     1
 43
0.0
 10
1632.800088449528
 20
213.9091633865173
 10
1707.800088449528
 20
213.9091633865173
 10
1707.800088449528
 20
263.9091633865173
 10
1632.800088449528
 20
263.9091633865173
  0
LWPOLYLINE
  5
129
330
1F
100
AcDbEntity
  8
題
100
AcDbPolyline
 90
        4
 70
     1
 43
0.0
 10
1632.800088449528
 20
263.9091633865173
 10
1707.800088449528
 20
263.9091633865173
 10
1707.800088449528
 20
313.9091633865173
 10
1632.800088449528
 20
313.9091633865173
  0
LWPOLYLINE
  5
132
330
1F
100
AcDbEntity
  8
題
100
AcDbPolyline
 90
        4
 70
     1
 43
0.0
 10
2007.800088449528
 20
263.9091633865173
 10
2057.800088449528
 20
263.9091633865173
 10
2057.800088449528
 20
313.9091633865173
 10
2007.800088449528
 20
313.9091633865173
  0
LWPOLYLINE
  5
133
330
1F
100
AcDbEntity
  8
題
100
AcDbPolyline
 90
        4
 70
     1
 43
0.0
 10
2007.800088449528
 20
213.9091633865173
 10
1707.800088449528
 20
213.9091633865173
 10
1707.800088449528
 20
263.9091633865173
 10
2007.800088449528
 20
263.9091633865173
  0
LWPOLYLINE
  5
134
330
1F
100
AcDbEntity
  8
題
100
AcDbPolyline
 90
        4
 70
     1
 43
0.0
 10
2007.800088449528
 20
263.9091633865173
 10
1707.800088449528
 20
263.9091633865173
 10
1707.800088449528
 20
313.9091633865173
 10
2007.800088449528
 20
313.9091633865173
  0
MTEXT
  5
135
330
1F
100
AcDbEntity
  8
題
100
AcDbMText
 10
2032.800088449528
 20
288.9091633865173
 30
0.0
 40
12.5
 41
50.0
 71
     5
 72
     5
  1
{\fHGSeikaishotaiPRO|b0|i0|c128|p66;縮尺}
 73
     1
 44
1.0
1001
ACAD
1000
MTEXTBEGIN
1070
    73
1070
     1
1070
    44
1040
1.0
1070
    74
1070
     0
1000
MTEXTEND
  0
LWPOLYLINE
  5
136
330
1F
100
AcDbEntity
  8
題
100
AcDbPolyline
 90
        4
 70
     1
 43
0.0
 10
2057.800088449528
 20
263.9091633865173
 10
2132.800088449528
 20
263.9091633865173
 10
2132.800088449528
 20
313.9091633865173
 10
2057.800088449528
 20
313.9091633865173
  0
MTEXT
  5
137
330
1F
100
AcDbEntity
  8
題
100
AcDbMText
 10
2095.300088449528
 20
288.9091633865173
 30
0.0
 40
12.5
 41
75.0
 71
     5
 72
     5
  1
1：5
 73
     1
 44
1.0
1001
ACAD
1000
MTEXTBEGIN
1070
    73
1070
     1
1070
    44
1040
1.0
1070
    74
1070
     0
1000
MTEXTEND
  0
MTEXT
  5
138
330
1F
100
AcDbEntity
  8
題
100
AcDbMText
 10
1670.300088449528
 20
288.9091633865173
 30
0.0
 40
12.5
 41
75.0
 71
     5
 72
     5
  1
{\fHGSeikaishotaiPRO|b0|i0|c128|p66;製品名}
 73
     1
 44
1.0
1001
ACAD
1000
MTEXTBEGIN
1070
    73
1070
     1
1070
    44
1040
1.0
1070
    74
1070
     0
1000
MTEXTEND
  0
MTEXT
  5
139
330
1F
100
AcDbEntity
  8
題
100
AcDbMText
 10
1670.300088449528
 20
238.9091633865173
 30
0.0
 40
12.5
 41
75.0
 71
     5
 72
     5
  1
{\fHGSeikaishotaiPRO|b0|i0|c128|p66;規格}
 73
     1
 44
1.0
1001
ACAD
1000
MTEXTBEGIN
1070
    73
1070
     1
1070
    44
1040
1.0
1070
    74
1070
     0
1000
MTEXTEND
  0
LWPOLYLINE
  5
163
330
1F
100
AcDbEntity
  8
題
100
AcDbPolyline
 90
        4
 70
     1
 43
0.0
 10
182.8000884495281
 20
138.9091633865173
 10
2132.800088449528
 20
138.9091633865173
 10
2132.800088449528
 20
1523.909163386517
 10
182.8000884495281
 20
1523.909163386517
  0
MTEXT
  5
44A
330
1F
100
AcDbEntity
  8
全体文字
100
AcDbMText
 10
1857.800088449528
 20
288.9091633865173
 30
0.0
 40
15.0
 41
300.0
 71
     5
 72
     5
  1
張ブロック
 73
     1
 44
1.0
1001
ACAD
1000
MTEXTBEGIN
1070
    73
1070
     1
1070
    44
1040
1.0
1070
    74
1070
     0
1000
MTEXTEND
1000
ACAD_MTEXT_DEFINED_HEIGHT_BEGIN
1070
    46
1040
50.0
1000
ACAD_MTEXT_DEFINED_HEIGHT_END
  0
MTEXT
  5
44B
330
1F
100
AcDbEntity
  8
全体文字
100
AcDbMText
 10
1857.800088449528
 20
238.9091633865173
 30
0.0
 40
15.0
 41
300.0
 71
     5
 72
     5
  1
50-2H
 73
     1
 44
1.0
1001
ACAD
1000
MTEXTBEGIN
1070
    73
1070
     1
1070
    44
1040
1.0
1070
    74
1070
     0
1000
MTEXTEND
1000
ACAD_MTEXT_DEFINED_HEIGHT_BEGIN
1070
    46
1040
50.0
1000
ACAD_MTEXT_DEFINED_HEIGHT_END
  0
LWPOLYLINE
  5
450
330
1F
100
AcDbEntity
  8
寸法
100
AcDbPolyline
 90
        4
 70
     1
 43
0.0
 10
561.8000884495281
 20
954.9091633865172
 10
801.8000884495281
 20
954.9091633865172
 10
801.8000884495281
 20
1194.909163386517
 10
561.8000884495281
 20
1194.909163386517
  0
LWPOLYLINE
  5
451
102
{ACAD_REACTORS
330
464
330
467
102
}
330
1F
100
AcDbEntity
  8
寸法
100
AcDbPolyline
 90
        4
 70
     1
 43
0.0
 10
432.8000884495281
 20
825.9091633865173
 10
930.8000884495282
 20
825.9091633865173
 10
930.8000884495282
 20
1323.909163386517
 10
432.8000884495281
 20
1323.909163386517
  0
LWPOLYLINE
  5
457
102
{ACAD_REACTORS
330
467
102
}
330
1F
100
AcDbEntity
  8
寸法
100
AcDbPolyline
 90
        4
 70
     1
 43
0.0
 10
450.8000884495281
 20
843.9091633865173
 10
912.8000884495282
 20
843.9091633865173
 10
912.8000884495282
 20
1305.909163386517
 10
450.8000884495281
 20
1305.909163386517
  0
LWPOLYLINE
  5
458
330
1F
100
AcDbEntity
  8
寸法
100
AcDbPolyline
 90
        4
 70
     1
 43
0.0
 10
454.8000884495281
 20
847.9091633865174
 10
908.8000884495281
 20
847.9091633865174
 10
908.8000884495281
 20
1301.909163386517
 10
454.8000884495281
 20
1301.909163386517
  0
LWPOLYLINE
  5
459
330
1F
100
AcDbEntity
  8
寸法
100
AcDbPolyline
 90
        4
 70
     1
 43
0.0
 10
521.8000884495281
 20
914.9091633865173
 10
841.8000884495281
 20
914.9091633865173
 10
841.8000884495281
 20
1234.909163386517
 10
521.8000884495281
 20
1234.909163386517
  0
LINE
  5
45A
330
1F
100
AcDbEntity
  8
図
100
AcDbLine
 10
521.8000884495281
 20
914.9091633865173
 30
0.0
 11
561.8000884495281
 21
954.9091633865172
 31
0.0
  0
LINE
  5
45B
330
1F
100
AcDbEntity
  8
図
100
AcDbLine
 10
521.8000884495281
 20
1234.909163386517
 30
0.0
 11
561.8000884495281
 21
1194.909163386517
 31
0.0
  0
LINE
  5
45C
330
1F
100
AcDbEntity
  8
図
100
AcDbLine
 10
801.8000884495281
 20
1194.909163386517
 30
0.0
 11
841.8000884495281
 21
1234.909163386517
 31
0.0
  0
LINE
  5
45D
330
1F
100
AcDbEntity
  8
図
100
AcDbLine
 10
801.8000884495281
 20
954.9091633865172
 30
0.0
 11
841.8000884495281
 21
914.9091633865173
 31
0.0
  0
LINE
  5
45E
330
1F
100
AcDbEntity
  8
図
100
AcDbLine
 10
450.8000884495281
 20
843.9091633865173
 30
0.0
 11
454.8000884495281
 21
847.9091633865174
 31
0.0
  0
LINE
  5
45F
330
1F
100
AcDbEntity
  8
図
100
AcDbLine
 10
450.8000884495281
 20
1305.909163386517
 30
0.0
 11
454.8000884495281
 21
1301.909163386517
 31
0.0
  0
LINE
  5
460
330
1F
100
AcDbEntity
  8
図
100
AcDbLine
 10
908.8000884495281
 20
1301.909163386517
 30
0.0
 11
912.8000884495282
 21
1305.909163386517
 31
0.0
  0
LINE
  5
461
330
1F
100
AcDbEntity
  8
図
100
AcDbLine
 10
908.8000884495281
 20
847.9091633865174
 30
0.0
 11
912.8000884495282
 21
843.9091633865173
 31
0.0
  0
DIMENSION
  5
462
102
{ACAD_XDICTIONARY
360
463
102
}
102
{ACAD_REACTORS
330
464
102
}
330
1F
100
AcDbEntity
  8
寸法
100
AcDbDimension
  2
*D61
 10
1032.636409584823
 20
825.9091633865173
 30
0.0
 11
1045.636409584823
 21
1074.909163386517
 31
0.0
 70
    32
 71
     5
 42
498.0
  3
ISO-25
100
AcDbAlignedDimension
 13
930.8000884495282
 23
1323.909163386517
 33
0.0
 14
930.8000884495282
 24
825.9091633865173
 34
0.0
 50
90.0
100
AcDbRotatedDimension
1001
ACAD
1000
DSTYLE
1002
{
1070
   147
1040
8.0
1070
   140
1040
10.0
1070
    42
1040
10.0
1070
    44
1040
3.0
1070
    41
1040
10.0
1002
}
  0
DIMENSION
  5
465
102
{ACAD_XDICTIONARY
360
466
102
}
102
{ACAD_REACTORS
330
467
102
}
330
1F
100
AcDbEntity
  8
寸法
100
AcDbDimension
  2
*D62
 10
1007.62098356968
 20
843.9091633865173
 30
0.0
 11
1007.62098356968
 21
791.2424967198508
 31
0.0
 70
   160
 71
     5
 42
18.0
  3
ISO-25
100
AcDbAlignedDimension
 13
930.8000884495282
 23
825.9091633865173
 33
0.0
 14
930.8000884495282
 24
843.9091633865173
 34
0.0
 50
90.0
100
AcDbRotatedDimension
1001
ACAD
1000
DSTYLE
1002
{
1070
   344
1005
260
1070
   173
1070
     1
1070
   343
1005
0
1070
    41
1040
10.0
1070
    42
1040
10.0
1070
    44
1040
3.0
1070
   140
1040
10.0
1070
   147
1040
8.0
1002
}
  0
DIMENSION
  5
46C
330
1F
100
AcDbEntity
  8
寸法
100
AcDbDimension
  2
*D63
 10
1007.62098356968
 20
914.9091633865173
 30
0.0
 11
1020.62098356968
 21
881.4091633865174
 31
0.0
 70
    32
 71
     5
 42
67.0
  3
ISO-25
100
AcDbAlignedDimension
 13
930.8000884495282
 23
847.9091633865174
 33
0.0
 14
930.8000884495282
 24
914.9091633865173
 34
0.0
 50
90.0
100
AcDbRotatedDimension
1001
ACAD
1000
DSTYLE
1002
{
1070
    41
1040
10.0
1070
    42
1040
10.0
1070
    44
1040
3.0
1070
   140
1040
10.0
1070
   147
1040
8.0
1002
}
  0
DIMENSION
  5
46F
330
1F
100
AcDbEntity
  8
寸法
100
AcDbDimension
  2
*D64
 10
1007.62098356968
 20
954.9091633865172
 30
0.0
 11
1007.62098356968
 21
934.9091633865173
 31
0.0
 70
   160
 71
     5
 42
40.0
  3
ISO-25
100
AcDbAlignedDimension
 13
930.8000884495282
 23
914.9091633865173
 33
0.0
 14
930.8000884495282
 24
954.9091633865172
 34
0.0
 50
90.0
100
AcDbRotatedDimension
1001
ACAD
1000
DSTYLE
1002
{
1070
    41
1040
10.0
1070
    42
1040
10.0
1070
    44
1040
3.0
1070
   140
1040
10.0
1070
   147
1040
8.0
1002
}
  0
DIMENSION
  5
472
330
1F
100
AcDbEntity
  8
寸法
100
AcDbDimension
  2
*D65
 10
1007.62098356968
 20
1194.909163386517
 30
0.0
 11
1020.62098356968
 21
1074.909163386517
 31
0.0
 70
    32
 71
     5
 42
240.0
  3
ISO-25
100
AcDbAlignedDimension
 13
930.8000884495282
 23
954.9091633865172
 33
0.0
 14
930.8000884495282
 24
1194.909163386517
 34
0.0
 50
90.0
100
AcDbRotatedDimension
1001
ACAD
1000
DSTYLE
1002
{
1070
    41
1040
10.0
1070
    42
1040
10.0
1070
    44
1040
3.0
1070
   140
1040
10.0
1070
   147
1040
8.0
1002
}
  0
DIMENSION
  5
475
330
1F
100
AcDbEntity
  8
寸法
100
AcDbDimension
  2
*D66
 10
1007.62098356968
 20
1234.909163386517
 30
0.0
 11
1007.62098356968
 21
1214.909163386517
 31
0.0
 70
   160
 71
     5
 42
40.0
  3
ISO-25
100
AcDbAlignedDimension
 13
930.8000884495282
 23
1194.909163386517
 33
0.0
 14
930.8000884495282
 24
1234.909163386517
 34
0.0
 50
90.0
100
AcDbRotatedDimension
1001
ACAD
1000
DSTYLE
1002
{
1070
    41
1040
10.0
1070
    42
1040
10.0
1070
    44
1040
3.0
1070
   140
1040
10.0
1070
   147
1040
8.0
1002
}
  0
DIMENSION
  5
478
330
1F
100
AcDbEntity
  8
寸法
100
AcDbDimension
  2
*D67
 10
1007.62098356968
 20
1301.909163386517
 30
0.0
 11
1020.62098356968
 21
1268.409163386517
 31
0.0
 70
    32
 71
     5
 42
67.0
  3
ISO-25
100
AcDbAlignedDimension
 13
930.8000884495282
 23
1234.909163386517
 33
0.0
 14
930.8000884495282
 24
1301.909163386517
 34
0.0
 50
90.0
100
AcDbRotatedDimension
1001
ACAD
1000
DSTYLE
1002
{
1070
    41
1040
10.0
1070
    42
1040
10.0
1070
    44
1040
3.0
1070
   140
1040
10.0
1070
   147
1040
8.0
1002
}
  0
DIMENSION
  5
47B
330
1F
100
AcDbEntity
  8
寸法
100
AcDbDimension
  2
*D68
 10
1007.62098356968
 20
1305.909163386517
 30
0.0
 11
1007.62098356968
 21
1303.909163386517
 31
0.0
 70
   160
 71
     5
 42
4.0
  3
ISO-25
100
AcDbAlignedDimension
 13
930.8000884495282
 23
1301.909163386517
 33
0.0
 14
930.8000884495282
 24
1305.909163386517
 34
0.0
 50
90.0
100
AcDbRotatedDimension
1001
ACAD
1000
DSTYLE
1002
{
1070
   343
1005
260
1070
   173
1070
     1
1070
   344
1005
263
1070
    41
1040
10.0
1070
    42
1040
10.0
1070
    44
1040
3.0
1070
   140
1040
10.0
1070
   147
1040
8.0
1002
}
  0
DIMENSION
  5
47E
330
1F
100
AcDbEntity
  8
寸法
100
AcDbDimension
  2
*D69
 10
1007.62098356968
 20
1323.909163386517
 30
0.0
 11
1007.62098356968
 21
1358.575830053184
 31
0.0
 70
   160
 71
     5
 42
18.0
  3
ISO-25
100
AcDbAlignedDimension
 13
930.8000884495282
 23
1305.909163386517
 33
0.0
 14
930.8000884495282
 24
1323.909163386517
 34
0.0
 50
90.0
100
AcDbRotatedDimension
1001
ACAD
1000
DSTYLE
1002
{
1070
   344
1005
0
1070
   173
1070
     1
1070
   343
1005
260
1070
    41
1040
10.0
1070
    42
1040
10.0
1070
    44
1040
3.0
1070
   140
1040
10.0
1070
   147
1040
8.0
1002
}
  0
DIMENSION
  5
481
330
1F
100
AcDbEntity
  8
寸法
100
AcDbDimension
  2
*D70
 10
1007.62098356968
 20
847.9091633865174
 30
0.0
 11
1007.62098356968
 21
845.9091633865174
 31
0.0
 70
   160
 71
     5
 42
4.0
  3
ISO-25
100
AcDbAlignedDimension
 13
930.8000884495282
 23
843.9091633865173
 33
0.0
 14
930.8000884495282
 24
847.9091633865174
 34
0.0
 50
90.0
100
AcDbRotatedDimension
1001
ACAD
1000
DSTYLE
1002
{
1070
   343
1005
263
1070
   173
1070
     1
1070
   344
1005
260
1070
    41
1040
10.0
1070
    42
1040
10.0
1070
    44
1040
3.0
1070
   140
1040
10.0
1070
   147
1040
8.0
1002
}
  0
DIMENSION
  5
484
330
1F
100
AcDbEntity
  8
寸法
100
AcDbDimension
  2
*D42
 10
432.8000884495281
 20
729.6771923872911
 30
0.0
 11
681.8000884495281
 21
716.6771923872911
 31
0.0
 70
    32
 71
     5
 42
498.0
  3
ISO-25
100
AcDbAlignedDimension
 13
930.8000884495282
 23
825.9091633865171
 33
0.0
 14
432.8000884495281
 24
825.9091633865171
 34
0.0
100
AcDbRotatedDimension
1001
ACAD
1000
DSTYLE
1002
{
1070
   147
1040
8.0
1070
   140
1040
10.0
1070
    42
1040
10.0
1070
    44
1040
3.0
1070
    41
1040
10.0
1002
}
  0
DIMENSION
  5
485
330
1F
100
AcDbEntity
  8
寸法
100
AcDbDimension
  2
*D43
 10
450.8000884495281
 20
756.0104929132203
 30
0.0
 11
392.8000884495282
 21
756.0104929132203
 31
0.0
 70
   160
 71
     5
 42
18.0
  3
ISO-25
100
AcDbAlignedDimension
 13
432.8000884495281
 23
825.9091633865171
 33
0.0
 14
450.8000884495281
 24
825.9091633865171
 34
0.0
100
AcDbRotatedDimension
1001
ACAD
1000
DSTYLE
1002
{
1070
   344
1005
260
1070
   173
1070
     1
1070
   343
1005
0
1070
    41
1040
10.0
1070
    42
1040
10.0
1070
    44
1040
3.0
1070
   140
1040
10.0
1070
   147
1040
8.0
1002
}
  0
DIMENSION
  5
486
330
1F
100
AcDbEntity
  8
寸法
100
AcDbDimension
  2
*D44
 10
521.8000884495281
 20
756.0104929132203
 30
0.0
 11
488.3000884495281
 21
743.0104929132203
 31
0.0
 70
    32
 71
     5
 42
67.0
  3
ISO-25
100
AcDbAlignedDimension
 13
454.8000884495281
 23
825.9091633865171
 33
0.0
 14
521.8000884495281
 24
825.9091633865171
 34
0.0
100
AcDbRotatedDimension
1001
ACAD
1000
DSTYLE
1002
{
1070
    41
1040
10.0
1070
    42
1040
10.0
1070
    44
1040
3.0
1070
   140
1040
10.0
1070
   147
1040
8.0
1002
}
  0
DIMENSION
  5
487
330
1F
100
AcDbEntity
  8
寸法
100
AcDbDimension
  2
*D45
 10
561.8000884495281
 20
756.0104929132203
 30
0.0
 11
541.8000884495281
 21
756.0104929132203
 31
0.0
 70
   160
 71
     5
 42
40.0
  3
ISO-25
100
AcDbAlignedDimension
 13
521.8000884495281
 23
825.9091633865171
 33
0.0
 14
561.8000884495281
 24
825.9091633865171
 34
0.0
100
AcDbRotatedDimension
1001
ACAD
1000
DSTYLE
1002
{
1070
    41
1040
10.0
1070
    42
1040
10.0
1070
    44
1040
3.0
1070
   140
1040
10.0
1070
   147
1040
8.0
1002
}
  0
DIMENSION
  5
488
330
1F
100
AcDbEntity
  8
寸法
100
AcDbDimension
  2
*D46
 10
801.8000884495281
 20
756.0104929132203
 30
0.0
 11
681.8000884495281
 21
743.0104929132203
 31
0.0
 70
    32
 71
     5
 42
240.0
  3
ISO-25
100
AcDbAlignedDimension
 13
561.8000884495281
 23
825.9091633865171
 33
0.0
 14
801.8000884495281
 24
825.9091633865171
 34
0.0
100
AcDbRotatedDimension
1001
ACAD
1000
DSTYLE
1002
{
1070
    41
1040
10.0
1070
    42
1040
10.0
1070
    44
1040
3.0
1070
   140
1040
10.0
1070
   147
1040
8.0
1002
}
  0
DIMENSION
  5
489
330
1F
100
AcDbEntity
  8
寸法
100
AcDbDimension
  2
*D47
 10
841.8000884495281
 20
756.0104929132203
 30
0.0
 11
821.8000884495282
 21
756.0104929132203
 31
0.0
 70
   160
 71
     5
 42
40.0
  3
ISO-25
100
AcDbAlignedDimension
 13
801.8000884495281
 23
825.9091633865171
 33
0.0
 14
841.8000884495281
 24
825.9091633865171
 34
0.0
100
AcDbRotatedDimension
1001
ACAD
1000
DSTYLE
1002
{
1070
    41
1040
10.0
1070
    42
1040
10.0
1070
    44
1040
3.0
1070
   140
1040
10.0
1070
   147
1040
8.0
1002
}
  0
DIMENSION
  5
48A
330
1F
100
AcDbEntity
  8
寸法
100
AcDbDimension
  2
*D48
 10
908.8000884495281
 20
756.0104929132203
 30
0.0
 11
875.3000884495282
 21
743.0104929132203
 31
0.0
 70
    32
 71
     5
 42
67.0
  3
ISO-25
100
AcDbAlignedDimension
 13
841.8000884495281
 23
825.9091633865171
 33
0.0
 14
908.8000884495281
 24
825.9091633865171
 34
0.0
100
AcDbRotatedDimension
1001
ACAD
1000
DSTYLE
1002
{
1070
    41
1040
10.0
1070
    42
1040
10.0
1070
    44
1040
3.0
1070
   140
1040
10.0
1070
   147
1040
8.0
1002
}
  0
DIMENSION
  5
48B
330
1F
100
AcDbEntity
  8
寸法
100
AcDbDimension
  2
*D49
 10
912.8000884495282
 20
756.0104929132203
 30
0.0
 11
910.8000884495281
 21
756.0104929132203
 31
0.0
 70
   160
 71
     5
 42
4.0
  3
ISO-25
100
AcDbAlignedDimension
 13
908.8000884495281
 23
825.9091633865171
 33
0.0
 14
912.8000884495282
 24
825.9091633865171
 34
0.0
100
AcDbRotatedDimension
1001
ACAD
1000
DSTYLE
1002
{
1070
   343
1005
260
1070
   173
1070
     1
1070
   344
1005
263
1070
    41
1040
10.0
1070
    42
1040
10.0
1070
    44
1040
3.0
1070
   140
1040
10.0
1070
   147
1040
8.0
1002
}
  0
DIMENSION
  5
48C
330
1F
100
AcDbEntity
  8
寸法
100
AcDbDimension
  2
*D50
 10
930.8000884495282
 20
756.0104929132203
 30
0.0
 11
965.4667551161949
 21
756.0104929132203
 31
0.0
 70
   160
 71
     5
 42
18.0
  3
ISO-25
100
AcDbAlignedDimension
 13
912.8000884495282
 23
825.9091633865171
 33
0.0
 14
930.8000884495282
 24
825.9091633865171
 34
0.0
100
AcDbRotatedDimension
1001
ACAD
1000
DSTYLE
1002
{
1070
   344
1005
0
1070
   173
1070
     1
1070
   343
1005
260
1070
    41
1040
10.0
1070
    42
1040
10.0
1070
    44
1040
3.0
1070
   140
1040
10.0
1070
   147
1040
8.0
1002
}
  0
DIMENSION
  5
48D
330
1F
100
AcDbEntity
  8
寸法
100
AcDbDimension
  2
*D51
 10
454.8000884495281
 20
756.0104929132203
 30
0.0
 11
452.8000884495281
 21
756.0104929132203
 31
0.0
 70
   160
 71
     5
 42
4.0
  3
ISO-25
100
AcDbAlignedDimension
 13
450.8000884495281
 23
825.9091633865171
 33
0.0
 14
454.8000884495281
 24
825.9091633865171
 34
0.0
100
AcDbRotatedDimension
1001
ACAD
1000
DSTYLE
1002
{
1070
   343
1005
263
1070
   173
1070
     1
1070
   344
1005
260
1070
    41
1040
10.0
1070
    42
1040
10.0
1070
    44
1040
3.0
1070
   140
1040
10.0
1070
   147
1040
8.0
1002
}
  0
ARC
  5
49A
330
1F
100
AcDbEntity
  8
図
100
AcDbCircle
 10
445.8812650332172
 20
441.9091633865166
 30
0.0
 40
5.999999999999374
100
AcDbArc
 50
269.9999999999968
 51
348.690067525989
  0
ARC
  5
49B
330
1F
100
AcDbEntity
  8
図
100
AcDbCircle
 10
456.4396962549667
 20
453.9091633865154
 30
0.0
 40
2.000000000001932
100
AcDbArc
 50
90.00000000003904
 51
168.6900675259358
  0
ARC
  5
49C
330
1F
100
AcDbEntity
  8
図
100
AcDbCircle
 10
519.3148070752885
 20
461.9091633865203
 30
0.0
 40
6.000000000002955
100
AcDbArc
 50
270.0000000000098
 51
314.9999999999891
  0
ARC
  5
49D
330
1F
100
AcDbEntity
  8
図
100
AcDbCircle
 10
562.6285155742746
 20
493.9091633865166
 30
0.0
 40
2.000000000000682
100
AcDbArc
 50
90.0000000000065
 51
134.9999999999903
  0
LINE
  5
49E
330
1F
100
AcDbEntity
  8
図
100
AcDbLine
 10
432.8000884495281
 20
435.9091633865173
 30
0.0
 11
445.8812650332172
 21
435.9091633865173
 31
0.0
  0
LINE
  5
49F
330
1F
100
AcDbEntity
  8
図
100
AcDbLine
 10
451.7647490873623
 20
440.7324665756877
 30
0.0
 11
454.4785349035832
 21
454.3013956567921
 31
0.0
  0
LINE
  5
4A0
330
1F
100
AcDbEntity
  8
図
100
AcDbLine
 10
456.4396962549667
 20
455.9091633865173
 30
0.0
 11
519.3148070752885
 21
455.9091633865173
 31
0.0
  0
LINE
  5
4A1
330
1F
100
AcDbEntity
  8
図
100
AcDbLine
 10
523.5574477624097
 20
457.666522699399
 30
0.0
 11
561.2143020119012
 21
495.3233769488904
 31
0.0
  0
LINE
  5
4A2
330
1F
100
AcDbEntity
  8
図
100
AcDbLine
 10
562.6285155742744
 20
495.9091633865173
 30
0.0
 11
681.8000884495281
 21
495.9091633865173
 31
0.0
  0
LINE
  5
4A3
330
1F
100
AcDbEntity
  8
図
100
AcDbLine
 10
432.8000884495281
 20
435.9091633865173
 30
0.0
 11
432.8000884495281
 21
355.9091633865173
 31
0.0
  0
LINE
  5
4A4
330
1F
100
AcDbEntity
  8
図
100
AcDbLine
 10
432.8000884495281
 20
355.9091633865173
 30
0.0
 11
681.8000884495281
 21
355.9091633865173
 31
0.0
  0
ARC
  5
4A5
330
1F
100
AcDbEntity
  8
図
100
AcDbCircle
 10
917.7189118658391
 20
441.9091633865166
 30
0.0
 40
5.999999999999374
100
AcDbArc
 50
191.309932474011
 51
270.0
  0
ARC
  5
4A6
102
{ACAD_REACTORS
330
4B6
102
}
330
1F
100
AcDbEntity
  8
図
100
AcDbCircle
 10
907.1604806440896
 20
453.9091633865154
 30
0.0
 40
2.000000000001932
100
AcDbArc
 50
11.30993247406418
 51
89.99999999996092
  0
ARC
  5
4A7
330
1F
100
AcDbEntity
  8
図
100
AcDbCircle
 10
844.2853698237678
 20
461.9091633865203
 30
0.0
 40
6.000000000002955
100
AcDbArc
 50
225.0000000000096
 51
269.999999999987
  0
ARC
  5
4A8
102
{ACAD_REACTORS
330
4B9
102
}
330
1F
100
AcDbEntity
  8
図
100
AcDbCircle
 10
800.9716613247817
 20
493.9091633865166
 30
0.0
 40
2.000000000000682
100
AcDbArc
 50
45.00000000000966
 51
90.0
  0
LINE
  5
4A9
330
1F
100
AcDbEntity
  8
図
100
AcDbLine
 10
930.8000884495282
 20
435.9091633865173
 30
0.0
 11
917.7189118658391
 21
435.9091633865173
 31
0.0
  0
LINE
  5
4AA
330
1F
100
AcDbEntity
  8
図
100
AcDbLine
 10
911.8354278116939
 20
440.7324665756877
 30
0.0
 11
909.1216419954731
 21
454.3013956567921
 31
0.0
  0
LINE
  5
4AB
102
{ACAD_REACTORS
330
4B9
102
}
330
1F
100
AcDbEntity
  8
図
100
AcDbLine
 10
907.1604806440896
 20
455.9091633865173
 30
0.0
 11
844.2853698237678
 21
455.9091633865173
 31
0.0
  0
LINE
  5
4AC
330
1F
100
AcDbEntity
  8
図
100
AcDbLine
 10
840.0427291366465
 20
457.666522699399
 30
0.0
 11
802.385874887155
 21
495.3233769488904
 31
0.0
  0
LINE
  5
4AD
330
1F
100
AcDbEntity
  8
図
100
AcDbLine
 10
800.9716613247819
 20
495.9091633865173
 30
0.0
 11
681.8000884495281
 21
495.9091633865173
 31
0.0
  0
LINE
  5
4AE
102
{ACAD_REACTORS
330
4B3
330
4B6
102
}
330
1F
100
AcDbEntity
  8
図
100
AcDbLine
 10
930.8000884495282
 20
435.9091633865173
 30
0.0
 11
930.8000884495282
 21
355.9091633865173
 31
0.0
  0
LINE
  5
4AF
102
{ACAD_REACTORS
330
4B3
330
4BC
102
}
330
1F
100
AcDbEntity
  8
図
100
AcDbLine
 10
930.8000884495282
 20
355.9091633865173
 30
0.0
 11
681.8000884495281
 21
355.9091633865173
 31
0.0
  0
DIMENSION
  5
4B0
330
1F
100
AcDbEntity
  8
寸法
100
AcDbDimension
  2
*D52
 10
432.8000884495281
 20
301.241037266238
 30
0.0
 11
681.8000884495281
 21
288.241037266238
 31
0.0
 70
    32
 71
     5
 42
498.0
  3
ISO-25
100
AcDbAlignedDimension
 13
930.8000884495282
 23
355.9091633865171
 33
0.0
 14
432.8000884495281
 24
355.9091633865172
 34
0.0
100
AcDbRotatedDimension
1001
ACAD
1000
DSTYLE
1002
{
1070
   147
1040
8.0
1070
   140
1040
10.0
1070
    42
1040
10.0
1070
    44
1040
3.0
1070
    41
1040
10.0
1002
}
  0
DIMENSION
  5
4B1
102
{ACAD_XDICTIONARY
360
4B2
102
}
102
{ACAD_REACTORS
330
4B3
102
}
330
1F
100
AcDbEntity
  8
寸法
100
AcDbDimension
  2
*D71
 10
964.2884015912173
 20
435.9091633865173
 30
0.0
 11
977.2884015912172
 21
395.9091633865175
 31
0.0
 70
    32
 71
     5
 42
80.0
  3
ISO-25
100
AcDbAlignedDimension
 13
930.8000884495282
 23
355.9091633865173
 33
0.0
 14
930.8000884495282
 24
435.9091633865173
 34
0.0
 50
90.0
100
AcDbRotatedDimension
1001
ACAD
1000
DSTYLE
1002
{
1070
    41
1040
10.0
1070
    42
1040
20.0
1070
    44
1040
3.0
1070
   140
1040
10.0
1070
   147
1040
8.0
1002
}
  0
DIMENSION
  5
4B4
102
{ACAD_XDICTIONARY
360
4B5
102
}
102
{ACAD_REACTORS
330
4B6
102
}
330
1F
100
AcDbEntity
  8
寸法
100
AcDbDimension
  2
*D72
 10
964.2884015912173
 20
455.9091633865173
 30
0.0
 11
964.2884015912173
 21
445.9091633865175
 31
0.0
 70
   160
 71
     5
 42
20.0
  3
ISO-25
100
AcDbAlignedDimension
 13
930.8000884495282
 23
435.9091633865173
 33
0.0
 14
907.1604806440909
 24
455.9091633865173
 34
0.0
 50
90.0
100
AcDbRotatedDimension
1001
ACAD
1000
DSTYLE
1002
{
1070
    41
1040
10.0
1070
    42
1040
20.0
1070
    44
1040
3.0
1070
   140
1040
10.0
1070
   147
1040
8.0
1002
}
  0
DIMENSION
  5
4B7
102
{ACAD_XDICTIONARY
360
4B8
102
}
102
{ACAD_REACTORS
330
4B9
102
}
330
1F
100
AcDbEntity
  8
寸法
100
AcDbDimension
  2
*D73
 10
964.2884015912173
 20
495.9091633865172
 30
0.0
 11
977.2884015912172
 21
475.9091633865175
 31
0.0
 70
    32
 71
     5
 42
39.99999999999995
  3
ISO-25
100
AcDbAlignedDimension
 13
907.1604806440896
 23
455.9091633865173
 33
0.0
 14
800.9716613247817
 24
495.9091633865173
 34
0.0
 50
90.0
100
AcDbRotatedDimension
1001
ACAD
1000
DSTYLE
1002
{
1070
    41
1040
10.0
1070
    42
1040
30.0
1070
    44
1040
3.0
1070
   140
1040
10.0
1070
   147
1040
8.0
1002
}
  0
DIMENSION
  5
4BA
102
{ACAD_XDICTIONARY
360
4BB
102
}
102
{ACAD_REACTORS
330
4BC
102
}
330
1F
100
AcDbEntity
  8
寸法
100
AcDbDimension
  2
*D74
 10
989.9636494544907
 20
495.9091633865173
 30
0.0
 11
1002.96364945449
 21
425.9091633865175
 31
0.0
 70
    32
 71
     5
 42
140.0
  3
ISO-25
100
AcDbAlignedDimension
 13
930.8000884495282
 23
355.9091633865173
 33
0.0
 14
930.8000884495282
 24
495.9091633865173
 34
0.0
 50
90.0
100
AcDbRotatedDimension
1001
ACAD
1000
DSTYLE
1002
{
1070
    41
1040
10.0
1070
    42
1040
30.0
1070
    44
1040
3.0
1070
   140
1040
10.0
1070
   147
1040
8.0
1002
}
  0
ARC
  5
4C8
102
{ACAD_REACTORS
330
4E1
102
}
330
1F
100
AcDbEntity
  8
図
100
AcDbCircle
 10
1364.800088449529
 20
838.9903399702063
 30
0.0
 40
5.999999999999374
100
AcDbArc
 50
359.999999999987
 51
78.69006752599145
  0
ARC
  5
4C9
102
{ACAD_REACTORS
330
4E4
102
}
330
1F
100
AcDbEntity
  8
図
100
AcDbCircle
 10
1352.80008844953
 20
849.5487711919558
 30
0.0
 40
2.000000000001932
100
AcDbArc
 50
180.0000000000391
 51
258.6900675259366
  0
ARC
  5
4CA
102
{ACAD_REACTORS
330
4E7
102
}
330
1F
100
AcDbEntity
  8
図
100
AcDbCircle
 10
1344.800088449525
 20
912.4238820122778
 30
0.0
 40
6.000000000002955
100
AcDbArc
 50
0.0000000000130276
 51
44.99999999999135
  0
ARC
  5
4CB
102
{ACAD_REACTORS
330
4EA
102
}
330
1F
100
AcDbEntity
  8
図
100
AcDbCircle
 10
1312.800088449529
 20
955.7375905112637
 30
0.0
 40
2.000000000000682
100
AcDbArc
 50
180.0
 51
224.9999999999914
  0
LINE
  5
4CC
330
1F
100
AcDbEntity
  8
図
100
AcDbLine
 10
1370.800088449528
 20
825.9091633865173
 30
0.0
 11
1370.800088449528
 21
838.9903399702063
 31
0.0
  0
LINE
  5
4CD
330
1F
100
AcDbEntity
  8
図
100
AcDbLine
 10
1365.976785260358
 20
844.8738240243514
 30
0.0
 11
1352.407856179253
 21
847.5876098405723
 31
0.0
  0
LINE
  5
4CE
330
1F
100
AcDbEntity
  8
図
100
AcDbLine
 10
1350.800088449528
 20
849.5487711919558
 30
0.0
 11
1350.800088449528
 21
912.4238820122778
 31
0.0
  0
LINE
  5
4CF
330
1F
100
AcDbEntity
  8
図
100
AcDbLine
 10
1349.042729136646
 20
916.6665226993989
 30
0.0
 11
1311.385874887155
 21
954.3233769488905
 31
0.0
  0
LINE
  5
4D0
330
1F
100
AcDbEntity
  8
図
100
AcDbLine
 10
1310.800088449528
 20
955.7375905112635
 30
0.0
 11
1310.800088449528
 21
1074.909163386517
 31
0.0
  0
LINE
  5
4D1
330
1F
100
AcDbEntity
  8
図
100
AcDbLine
 10
1370.800088449528
 20
825.9091633865173
 30
0.0
 11
1450.800088449528
 21
825.9091633865173
 31
0.0
  0
LINE
  5
4D2
330
1F
100
AcDbEntity
  8
図
100
AcDbLine
 10
1450.800088449528
 20
825.9091633865173
 30
0.0
 11
1450.800088449528
 21
1074.909163386517
 31
0.0
  0
ARC
  5
4D3
330
1F
100
AcDbEntity
  8
図
100
AcDbCircle
 10
1364.800088449529
 20
1310.827986802828
 30
0.0
 40
5.999999999999374
100
AcDbArc
 50
281.3099324740085
 51
0.0
  0
ARC
  5
4D4
330
1F
100
AcDbEntity
  8
図
100
AcDbCircle
 10
1352.80008844953
 20
1300.269555581079
 30
0.0
 40
2.000000000001932
100
AcDbArc
 50
101.3099324740633
 51
179.9999999999609
  0
ARC
  5
4D5
330
1F
100
AcDbEntity
  8
図
100
AcDbCircle
 10
1344.800088449525
 20
1237.394444760757
 30
0.0
 40
6.000000000002955
100
AcDbArc
 50
315.0000000000086
 51
359.999999999987
  0
ARC
  5
4D6
330
1F
100
AcDbEntity
  8
図
100
AcDbCircle
 10
1312.800088449529
 20
1194.080736261771
 30
0.0
 40
2.000000000000682
100
AcDbArc
 50
135.0000000000086
 51
180.0
  0
LINE
  5
4D7
330
1F
100
AcDbEntity
  8
図
100
AcDbLine
 10
1370.800088449528
 20
1323.909163386517
 30
0.0
 11
1370.800088449528
 21
1310.827986802828
 31
0.0
  0
LINE
  5
4D8
330
1F
100
AcDbEntity
  8
図
100
AcDbLine
 10
1365.976785260358
 20
1304.944502748683
 30
0.0
 11
1352.407856179253
 21
1302.230716932462
 31
0.0
  0
LINE
  5
4D9
330
1F
100
AcDbEntity
  8
図
100
AcDbLine
 10
1350.800088449528
 20
1300.269555581079
 30
0.0
 11
1350.800088449528
 21
1237.394444760757
 31
0.0
  0
LINE
  5
4DA
330
1F
100
AcDbEntity
  8
図
100
AcDbLine
 10
1349.042729136646
 20
1233.151804073636
 30
0.0
 11
1311.385874887155
 21
1195.494949824144
 31
0.0
  0
LINE
  5
4DB
330
1F
100
AcDbEntity
  8
図
100
AcDbLine
 10
1310.800088449528
 20
1194.080736261771
 30
0.0
 11
1310.800088449528
 21
1074.909163386517
 31
0.0
  0
LINE
  5
4DC
330
1F
100
AcDbEntity
  8
図
100
AcDbLine
 10
1370.800088449528
 20
1323.909163386517
 30
0.0
 11
1450.800088449528
 21
1323.909163386517
 31
0.0
  0
LINE
  5
4DD
330
1F
100
AcDbEntity
  8
図
100
AcDbLine
 10
1450.800088449528
 20
1323.909163386517
 30
0.0
 11
1450.800088449528
 21
1074.909163386517
 31
0.0
  0
DIMENSION
  5
4DF
102
{ACAD_XDICTIONARY
360
4E0
102
}
102
{ACAD_REACTORS
330
4E1
102
}
330
1F
100
AcDbEntity
  8
寸法
100
AcDbDimension
  2
*D75
 10
1364.800088449529
 20
838.9903399702062
 30
0.0
 11
1344.34887352493
 21
816.588132060739
 31
0.0
 70
   164
 71
     5
 42
6.000000000000682
  3
ISO-25
100
AcDbRadialDimension
 15
1368.845383709339
 25
843.421545930321
 35
0.0
 40
0.0
1001
ACAD
1000
DSTYLE
1002
{
1070
    41
1040
10.0
1070
    42
1040
10.0
1070
    44
1040
3.0
1070
   140
1040
10.0
1070
   147
1040
8.0
1002
}
  0
DIMENSION
  5
4E2
102
{ACAD_XDICTIONARY
360
4E3
102
}
102
{ACAD_REACTORS
330
4E4
102
}
330
1F
100
AcDbEntity
  8
寸法
100
AcDbDimension
  2
*D76
 10
1352.80008844953
 20
849.5487711919562
 30
0.0
 11
1377.534205868347
 21
873.3605584682175
 31
0.0
 70
   164
 71
     5
 42
2.000000000000909
  3
ISO-25
100
AcDbRadialDimension
 15
1351.359266075618
 25
848.1616767875129
 35
0.0
 40
0.0
1001
ACAD
1000
DSTYLE
1002
{
1070
    41
1040
10.0
1070
    42
1040
10.0
1070
    44
1040
3.0
1070
   140
1040
10.0
1070
   147
1040
8.0
1002
}
  0
DIMENSION
  5
4E5
102
{ACAD_XDICTIONARY
360
4E6
102
}
102
{ACAD_REACTORS
330
4E7
102
}
330
1F
100
AcDbEntity
  8
寸法
100
AcDbDimension
  2
*D77
 10
1344.800088449525
 20
912.4238820122778
 30
0.0
 11
1319.348224457575
 21
895.9219508996415
 31
0.0
 70
   164
 71
     5
 42
6.000000000002955
  3
ISO-25
100
AcDbRadialDimension
 15
1349.834523085298
 25
915.6880002543397
 35
0.0
 40
0.0
1001
ACAD
1000
DSTYLE
1002
{
1070
    41
1040
10.0
1070
    42
1040
10.0
1070
    44
1040
3.0
1070
   140
1040
10.0
1070
   147
1040
8.0
1002
}
  0
DIMENSION
  5
4E8
102
{ACAD_XDICTIONARY
360
4E9
102
}
102
{ACAD_REACTORS
330
4EA
102
}
330
1F
100
AcDbEntity
  8
寸法
100
AcDbDimension
  2
*D78
 10
1312.800088449529
 20
955.7375905112637
 30
0.0
 11
1342.767042961193
 21
972.4934675421327
 31
0.0
 70
   164
 71
     5
 42
2.000000000000227
  3
ISO-25
100
AcDbRadialDimension
 15
1311.054440613898
 25
954.7615200046109
 35
0.0
 40
0.0
1001
ACAD
1000
DSTYLE
1002
{
1070
    41
1040
10.0
1070
    42
1040
10.0
1070
    44
1040
3.0
1070
   140
1040
10.0
1070
   147
1040
8.0
1002
}
  0
DIMENSION
  5
4EB
330
1F
100
AcDbEntity
  8
寸法
100
AcDbDimension
  2
*D53
 10
1364.800088449528
 20
1310.827986802829
 30
0.0
 11
1344.348873524929
 21
1333.230194712296
 31
0.0
 70
   164
 71
     5
 42
6.0
  3
ISO-25
100
AcDbRadialDimension
 15
1368.845383709339
 25
1306.396780842715
 35
0.0
 40
0.0
1001
ACAD
1000
DSTYLE
1002
{
1070
    41
1040
10.0
1070
    42
1040
10.0
1070
    44
1040
3.0
1070
   140
1040
10.0
1070
   147
1040
8.0
1002
}
  0
DIMENSION
  5
4EC
330
1F
100
AcDbEntity
  8
寸法
100
AcDbDimension
  2
*D54
 10
1352.800088449528
 20
1300.269555581077
 30
0.0
 11
1377.534205868354
 21
1276.457768304826
 31
0.0
 70
   164
 71
     5
 42
2.00000000000125
  3
ISO-25
100
AcDbRadialDimension
 15
1351.359266075615
 25
1301.65664998552
 35
0.0
 40
0.0
1001
ACAD
1000
DSTYLE
1002
{
1070
    41
1040
10.0
1070
    42
1040
10.0
1070
    44
1040
3.0
1070
   140
1040
10.0
1070
   147
1040
8.0
1002
}
  0
DIMENSION
  5
4ED
330
1F
100
AcDbEntity
  8
寸法
100
AcDbDimension
  2
*D55
 10
1344.800088449524
 20
1237.394444760756
 30
0.0
 11
1319.348224457574
 21
1253.896375873393
 31
0.0
 70
   164
 71
     5
 42
6.000000000003183
  3
ISO-25
100
AcDbRadialDimension
 15
1349.834523085298
 25
1234.130326518694
 35
0.0
 40
0.0
1001
ACAD
1000
DSTYLE
1002
{
1070
    41
1040
10.0
1070
    42
1040
10.0
1070
    44
1040
3.0
1070
   140
1040
10.0
1070
   147
1040
8.0
1002
}
  0
DIMENSION
  5
4EE
330
1F
100
AcDbEntity
  8
寸法
100
AcDbDimension
  2
*D56
 10
1312.800088449529
 20
1194.080736261771
 30
0.0
 11
1342.767042961192
 21
1177.3248592309
 31
0.0
 70
   164
 71
     5
 42
2.000000000000341
  3
ISO-25
100
AcDbRadialDimension
 15
1311.054440613897
 25
1195.056806768424
 35
0.0
 40
0.0
1001
ACAD
1000
DSTYLE
1002
{
1070
    41
1040
10.0
1070
    42
1040
10.0
1070
    44
1040
3.0
1070
   140
1040
10.0
1070
   147
1040
8.0
1002
}
  0
DIMENSION
  5
4EF
330
1F
100
AcDbEntity
  8
寸法
100
AcDbDimension
  2
*D57
 10
1370.800088449528
 20
792.420850244828
 30
0.0
 11
1410.800088449528
 21
779.4208502448279
 31
0.0
 70
    32
 71
     5
 42
80.0
  3
ISO-25
100
AcDbAlignedDimension
 13
1450.800088449528
 23
825.9091633865173
 33
0.0
 14
1370.800088449528
 24
825.9091633865171
 34
0.0
 50
180.0
100
AcDbRotatedDimension
1001
ACAD
1000
DSTYLE
1002
{
1070
    41
1040
10.0
1070
    42
1040
10.0
1070
    44
1040
3.0
1070
   140
1040
10.0
1070
   147
1040
8.0
1002
}
  0
DIMENSION
  5
4F0
330
1F
100
AcDbEntity
  8
寸法
100
AcDbDimension
  2
*D58
 10
1350.800088449528
 20
792.420850244828
 30
0.0
 11
1360.800088449528
 21
792.420850244828
 31
0.0
 70
   160
 71
     5
 42
20.0
  3
ISO-25
100
AcDbAlignedDimension
 13
1370.800088449528
 23
825.9091633865171
 33
0.0
 14
1350.800088449528
 24
849.5487711919542
 34
0.0
 50
180.0
100
AcDbRotatedDimension
1001
ACAD
1000
DSTYLE
1002
{
1070
    41
1040
10.0
1070
    42
1040
10.0
1070
    44
1040
3.0
1070
   140
1040
10.0
1070
   147
1040
8.0
1002
}
  0
DIMENSION
  5
4F1
330
1F
100
AcDbEntity
  8
寸法
100
AcDbDimension
  2
*D59
 10
1310.800088449528
 20
792.420850244828
 30
0.0
 11
1330.800088449528
 21
779.4208502448279
 31
0.0
 70
    32
 71
     5
 42
40.0
  3
ISO-25
100
AcDbAlignedDimension
 13
1350.800088449528
 23
849.5487711919556
 33
0.0
 14
1310.800088449528
 24
955.7375905112635
 34
0.0
 50
180.0
100
AcDbRotatedDimension
1001
ACAD
1000
DSTYLE
1002
{
1070
    75
1070
     1
1070
    76
1070
     0
1070
    41
1040
10.0
1070
    42
1040
80.0
1070
    44
1040
3.0
1070
   140
1040
10.0
1070
   147
1040
8.0
1002
}
  0
DIMENSION
  5
4F2
330
1F
100
AcDbEntity
  8
寸法
100
AcDbDimension
  2
*D60
 10
1310.800088449528
 20
766.7456023815546
 30
0.0
 11
1380.800088449528
 21
753.7456023815545
 31
0.0
 70
    32
 71
     5
 42
140.0
  3
ISO-25
100
AcDbAlignedDimension
 13
1450.800088449528
 23
825.9091633865173
 33
0.0
 14
1310.800088449528
 24
825.9091633865171
 34
0.0
 50
180.0
100
AcDbRotatedDimension
1001
ACAD
1000
DSTYLE
1002
{
1070
    41
1040
10.0
1070
    42
1040
10.0
1070
    44
1040
3.0
1070
   140
1040
10.0
1070
   147
1040
8.0
1002
}
  0
MTEXT
  5
4F5
330
1F
100
AcDbEntity
  8
寸法
100
AcDbMText
 10
1882.800088449528
 20
388.9091633865173
 30
0.0
 40
20.0
 41
500.0
 71
     5
 72
     5
  1
参考重量61kg
 73
     1
 44
1.0
1001
ACAD
1000
MTEXTBEGIN
1070
    73
1070
     1
1070
    44
1040
1.0
1070
    74
1070
     0
1000
MTEXTEND
1000
ACAD_MTEXT_DEFINED_HEIGHT_BEGIN
1070
    46
1040
50.00000000000003
1000
ACAD_MTEXT_DEFINED_HEIGHT_END
  0
MTEXT
  5
E43
330
1F
100
AcDbEntity
  8
寸法
100
AcDbMText
 10
681.8000884495281
 20
1448.909163386517
 30
0.0
 40
20.0
 41
498.0
 71
     5
 72
     5
  1
平面図
 73
     1
 44
1.0
1001
ACAD
1000
MTEXTBEGIN
1070
    73
1070
     1
1070
    44
1040
1.0
1070
    74
1070
     0
1000
MTEXTEND
  0
MTEXT
  5
E45
330
1F
100
AcDbEntity
  8
寸法
100
AcDbMText
 10
681.8000884495281
 20
600.9091633865173
 30
0.0
 40
20.0
 41
498.0
 71
     5
 72
     5
  1
側面図
 73
     1
 44
1.0
1001
ACAD
1000
MTEXTBEGIN
1070
    73
1070
     1
1070
    44
1040
1.0
1070
    74
1070
     0
1000
MTEXTEND
  0
LINE
  5
F6D
330
1F
100
AcDbEntity
  8
図
100
AcDbLine
 10
432.8000884495281
 20
435.9091633865173
 30
0.0
 11
930.8000884495282
 21
435.9091633865173
 31
0.0
  0
LINE
  5
F6E
330
1F
100
AcDbEntity
  8
図
100
AcDbLine
 10
519.3148070752885
 20
455.9091633865174
 30
0.0
 11
844.2853698237678
 21
455.9091633865173
 31
0.0
  0
ENDSEC
  0
SECTION
  2
OBJECTS
  0
DICTIONARY
  5
C
330
0
100
AcDbDictionary
281
     1
  3
ACAD_2007HEADERVARS_RT
350
1038
  3
ACAD_CIP_PREVIOUS_PRODUCT_INFO
350
FC4
  3
ACAD_COLOR
350
6B
  3
ACAD_GROUP
350
D
  3
ACAD_LAYOUT
350
1A
  3
ACAD_MATERIAL
350
6A
  3
ACAD_MLEADERSTYLE
350
FBD
  3
ACAD_MLINESTYLE
350
17
  3
ACAD_PLOTSETTINGS
350
19
  3
ACAD_PLOTSTYLENAME
350
E
  3
ACAD_SCALELIST
350
FAB
  3
ACAD_TABLESTYLE
350
7E
  3
ACAD_VISUALSTYLE
350
F92
  3
ACDB_RECOMPOSE_DATA
350
1036
  3
AcDbVariableDictionary
350
5E
  3
DWGPROPS
350
1037
  0
DICTIONARY
  5
101
330
2
100
AcDbDictionary
280
     1
281
     1
  3
ACAD_LAYERFILTERS
360
1D9
  3
ACAD_LAYERSTATES
360
102
  3
ACLYDICTIONARY
360
1D8
  0
DICTIONARY
  5
463
330
462
100
AcDbDictionary
280
     1
281
     1
  3
ACAD_DIMASSOC
360
464
  0
DICTIONARY
  5
466
330
465
100
AcDbDictionary
280
     1
281
     1
  3
ACAD_DIMASSOC
360
467
  0
DICTIONARY
  5
4B2
330
4B1
100
AcDbDictionary
280
     1
281
     1
  3
ACAD_DIMASSOC
360
4B3
  0
DICTIONARY
  5
4B5
330
4B4
100
AcDbDictionary
280
     1
281
     1
  3
ACAD_DIMASSOC
360
4B6
  0
DICTIONARY
  5
4B8
330
4B7
100
AcDbDictionary
280
     1
281
     1
  3
ACAD_DIMASSOC
360
4B9
  0
DICTIONARY
  5
4BB
330
4BA
100
AcDbDictionary
280
     1
281
     1
  3
ACAD_DIMASSOC
360
4BC
  0
DICTIONARY
  5
4E0
330
4DF
100
AcDbDictionary
280
     1
281
     1
  3
ACAD_DIMASSOC
360
4E1
  0
DICTIONARY
  5
4E3
330
4E2
100
AcDbDictionary
280
     1
281
     1
  3
ACAD_DIMASSOC
360
4E4
  0
DICTIONARY
  5
4E6
330
4E5
100
AcDbDictionary
280
     1
281
     1
  3
ACAD_DIMASSOC
360
4E7
  0
DICTIONARY
  5
4E9
330
4E8
100
AcDbDictionary
280
     1
281
     1
  3
ACAD_DIMASSOC
360
4EA
  0
DICTIONARY
  5
1038
102
{ACAD_REACTORS
330
C
102
}
330
C
100
AcDbDictionary
281
     1
  3
DIMFXL
350
1039
  3
DIMJOGANG
350
103A
  0
XRECORD
  5
FC4
102
{ACAD_REACTORS
330
C
102
}
330
C
100
AcDbXrecord
280
     1
300
ACD
300
2012
300
ACD_F_S
  0
DICTIONARY
  5
6B
102
{ACAD_REACTORS
330
C
102
}
330
C
100
AcDbDictionary
281
     1
  0
DICTIONARY
  5
D
102
{ACAD_REACTORS
330
C
102
}
330
C
100
AcDbDictionary
281
     1
  0
DICTIONARY
  5
1A
102
{ACAD_REACTORS
330
C
102
}
330
C
100
AcDbDictionary
281
     1
  3
Model
350
22
  3
レイアウト1
350
D3
  3
レイアウト2
350
D7
  0
DICTIONARY
  5
6A
102
{ACAD_REACTORS
330
C
102
}
330
C
100
AcDbDictionary
281
     1
  3
ByBlock
350
F82
  3
ByLayer
350
F7A
  3
Global
350
F8A
  0
DICTIONARY
  5
FBD
102
{ACAD_REACTORS
330
C
102
}
330
C
100
AcDbDictionary
281
     1
  3
Standard
350
FBE
  0
DICTIONARY
  5
17
102
{ACAD_REACTORS
330
C
102
}
330
C
100
AcDbDictionary
281
     1
  3
Standard
350
18
  0
DICTIONARY
  5
19
102
{ACAD_REACTORS
330
C
102
}
330
C
100
AcDbDictionary
281
     1
  0
ACDBDICTIONARYWDFLT
  5
E
102
{ACAD_REACTORS
330
C
102
}
330
C
100
AcDbDictionary
281
     1
  3
Normal
350
F
100
AcDbDictionaryWithDefault
340
F
  0
DICTIONARY
  5
FAB
102
{ACAD_REACTORS
330
C
102
}
330
C
100
AcDbDictionary
281
     1
  3
A0
350
FAC
  3
A1
350
FAD
  3
A2
350
FAE
  3
A3
350
FAF
  3
A4
350
FB0
  3
A5
350
FB1
  3
A6
350
FB2
  3
A7
350
FB3
  3
A8
350
FB4
  3
A9
350
FB5
  3
B0
350
FB6
  3
B1
350
FB7
  3
B2
350
FB8
  3
B3
350
FB9
  3
B4
350
FBA
  3
B5
350
FBB
  3
B6
350
FBC
  0
DICTIONARY
  5
7E
102
{ACAD_REACTORS
330
C
102
}
330
C
100
AcDbDictionary
281
     1
  3
Standard
350
7F
  0
DICTIONARY
  5
F92
102
{ACAD_REACTORS
330
C
102
}
330
C
100
AcDbDictionary
281
     1
  3
2dWireframe
350
F98
  3
Basic
350
F97
  3
Brighten
350
F9E
  3
ColorChange
350
FA2
  3
Conceptual
350
F9B
  3
Dim
350
F9D
  3
EdgeColorOff
350
FAA
  3
Facepattern
350
FA1
  3
Flat
350
F93
  3
FlatWithEdges
350
F94
  3
Gouraud
350
F95
  3
GouraudWithEdges
350
F96
  3
Hidden
350
F9A
  3
JitterOff
350
FA8
  3
Linepattern
350
FA0
  3
OverhangOff
350
FA9
  3
Realistic
350
F9C
  3
Shaded
350
FA7
  3
Shaded with edges
350
FA6
  3
Shades of Gray
350
FA3
  3
Sketchy
350
FA4
  3
Thicken
350
F9F
  3
Wireframe
350
F99
  3
X-Ray
350
FA5
  0
XRECORD
  5
1036
102
{ACAD_REACTORS
330
C
102
}
330
C
100
AcDbXrecord
280
     1
 90
        1
330
7F
  0
DICTIONARY
  5
5E
102
{ACAD_REACTORS
330
C
102
}
330
C
100
AcDbDictionary
281
     1
  3
CANNOSCALE
350
102E
  3
CMLEADERSTYLE
350
102D
  3
CTABLESTYLE
350
84
  3
DIMASSOC
350
5F
  3
HIDETEXT
350
63
  3
INDEXCTL
350
1030
  3
SORTENTS
350
102F
  3
XCLIPFRAME
350
1031
  0
XRECORD
  5
1037
102
{ACAD_REACTORS
330
C
102
}
330
C
100
AcDbXrecord
280
     1
  1
DWGPROPS COOKIE
  2

  3

  4

  6

  7

  8
tom
  9

300
=
301
=
302
=
303
=
304
=
305
=
306
=
307
=
308
=
309
=
 40
0.0214108101851852
 41
2454427.395492431
 42
2457052.473879792
  1

 90
        0
  0
DICTIONARY
  5
1D9
102
{ACAD_REACTORS
330
101
102
}
330
101
100
AcDbDictionary
281
     1
  0
DICTIONARY
  5
102
102
{ACAD_REACTORS
330
101
102
}
330
101
100
AcDbDictionary
281
     1
  0
DICTIONARY
  5
1D8
102
{ACAD_REACTORS
330
101
102
}
330
101
100
AcDbDictionary
281
     1
1001
ACAD
1000
<All
  0
DIMASSOC
  5
464
102
{ACAD_REACTORS
330
463
102
}
330
463
100
AcDbDimAssoc
330
462
 90
        1
 70
     0
 71
     0
  1
AcDbOsnapPointRef
 72
     1
331
451
 73
     2
 91
        2
 40
0.9999999999999998
 10
0.0
 20
0.0
 30
2.000000000000000E+50
 75
     0
  0
DIMASSOC
  5
467
102
{ACAD_REACTORS
330
466
102
}
330
466
100
AcDbDimAssoc
330
465
 90
        2
 70
     0
 71
     0
  1
AcDbOsnapPointRef
 72
     6
331
451
 73
     2
 91
        2
 40
0.036144578313253
 10
0.0
 20
0.0
 30
0.0
332
457
 74
     2
 92
        1
 75
     0
  0
DIMASSOC
  5
4B3
102
{ACAD_REACTORS
330
4B2
102
}
330
4B2
100
AcDbDimAssoc
330
4B1
 90
        3
 70
     0
 71
     0
  1
AcDbOsnapPointRef
 72
    13
331
4AF
 73
     2
 91
        0
 40
0.0
 10
0.0
 20
0.0
 30
2.000000000000000E+50
 75
     0
  1
AcDbOsnapPointRef
 72
    13
331
4AE
 73
     2
 91
        0
 40
0.0
 10
0.0
 20
0.0
 30
2.000000000000000E+50
 75
     0
  0
DIMASSOC
  5
4B6
102
{ACAD_REACTORS
330
4B5
102
}
330
4B5
100
AcDbDimAssoc
330
4B4
 90
        3
 70
     0
 71
     0
  1
AcDbOsnapPointRef
 72
    13
331
4AE
 73
     2
 91
        0
 40
0.0
 10
0.0
 20
0.0
 30
2.000000000000000E+50
 75
     0
  1
AcDbOsnapPointRef
 72
     1
331
4A6
 73
     2
 91
        0
 40
1.570796326794214
 10
0.0
 20
0.0
 30
2.000000000000000E+50
 75
     0
  0
DIMASSOC
  5
4B9
102
{ACAD_REACTORS
330
4B8
102
}
330
4B8
100
AcDbDimAssoc
330
4B7
 90
        3
 70
     0
 71
     0
  1
AcDbOsnapPointRef
 72
    13
331
4AB
 73
     2
 91
        0
 40
0.0
 10
0.0
 20
0.0
 30
2.000000000000000E+50
 75
     0
  1
AcDbOsnapPointRef
 72
     1
331
4A8
 73
     2
 91
        0
 40
1.570796326794896
 10
0.0
 20
0.0
 30
2.000000000000000E+50
 75
     0
  0
DIMASSOC
  5
4BC
102
{ACAD_REACTORS
330
4BB
102
}
330
4BB
100
AcDbDimAssoc
330
4BA
 90
        1
 70
     0
 71
     0
  1
AcDbOsnapPointRef
 72
    13
331
4AF
 73
     2
 91
        0
 40
0.0
 10
0.0
 20
0.0
 30
2.000000000000000E+50
 75
     0
  0
DIMASSOC
  5
4E1
102
{ACAD_REACTORS
330
4E0
102
}
330
4E0
100
AcDbDimAssoc
330
4DF
 90
        2
 70
     0
 71
     0
  1
AcDbOsnapPointRef
 72
     3
331
4C8
 73
     2
 91
        0
 40
0.0
 10
0.0
 20
0.0
 30
0.0
 75
     0
  0
DIMASSOC
  5
4E4
102
{ACAD_REACTORS
330
4E3
102
}
330
4E3
100
AcDbDimAssoc
330
4E2
 90
        2
 70
     0
 71
     0
  1
AcDbOsnapPointRef
 72
     3
331
4C9
 73
     2
 91
        0
 40
0.0
 10
0.0
 20
0.0
 30
0.0
 75
     0
  0
DIMASSOC
  5
4E7
102
{ACAD_REACTORS
330
4E6
102
}
330
4E6
100
AcDbDimAssoc
330
4E5
 90
        2
 70
     0
 71
     0
  1
AcDbOsnapPointRef
 72
     3
331
4CA
 73
     2
 91
        0
 40
0.0
 10
0.0
 20
0.0
 30
0.0
 75
     0
  0
DIMASSOC
  5
4EA
102
{ACAD_REACTORS
330
4E9
102
}
330
4E9
100
AcDbDimAssoc
330
4E8
 90
        2
 70
     0
 71
     0
  1
AcDbOsnapPointRef
 72
     3
331
4CB
 73
     2
 91
        0
 40
0.0
 10
0.0
 20
0.0
 30
0.0
 75
     0
  0
XRECORD
  5
1039
102
{ACAD_REACTORS
330
1038
102
}
330
1038
100
AcDbXrecord
280
     1
 40
1.25
  0
XRECORD
  5
103A
102
{ACAD_REACTORS
330
1038
102
}
330
1038
100
AcDbXrecord
280
     1
 40
1.570796326794896
  0
LAYOUT
  5
22
102
{ACAD_XDICTIONARY
360
FD7
102
}
102
{ACAD_REACTORS
330
1A
102
}
330
1A
100
AcDbPlotSettings
  1

  2
Bullzip PDF Printer
  4
A3
  6

 40
3.174999952316284
 41
3.174999952316284
 42
3.17498779296875
 43
3.17498779296875
 44
297.0530090332031
 45
420.1583251953125
 46
-3.148489356040954
 47
-3.095831274986267
 48
82.80008844952817
 49
88.90916338651733
140
2182.800088449528
141
1573.909163386517
142
1.0
143
5.0
 70
 11940
 72
     1
 73
     1
 74
     4
  7
monochrome.ctb
 75
     0
147
0.9670387630912189
148
-82.80008844952817
149
-88.90916338651733
100
AcDbLayout
  1
Model
 70
     1
 71
     0
 10
0.0
 20
0.0
 11
12.0
 21
9.0
 12
0.0
 22
0.0
 32
0.0
 14
0.0
 24
0.0
 34
0.0
 15
0.0
 25
0.0
 35
0.0
146
0.0
 13
0.0
 23
0.0
 33
0.0
 16
1.0
 26
0.0
 36
0.0
 17
0.0
 27
1.0
 37
0.0
 76
     0
330
1F
331
F78
1001
ACAD_PSEXT
1000
Bullzip PDF Printer
1000
Bullzip PDF Printer
1000
BULLZIP
1000
Bullzip PDF Printer 9.6.0.1582
1070
     0
  0
LAYOUT
  5
D3
102
{ACAD_XDICTIONARY
360
103D
102
}
102
{ACAD_REACTORS
330
1A
102
}
330
1A
100
AcDbPlotSettings
  1

  2
C:\Documents and Settings\basas\Application Data\Autodesk\AutoCAD 2005\R16.1\enu\plotters\Default Windows System Printer.pc3
  4

  6

 40
0.0
 41
0.0
 42
0.0
 43
0.0
 44
0.0
 45
0.0
 46
0.0
 47
0.0
 48
0.0
 49
0.0
140
0.0
141
0.0
142
1.0
143
1.0
 70
   688
 72
     0
 73
     0
 74
     5
  7
monochrome.ctb
 75
    16
147
1.0
148
0.0
149
0.0
100
AcDbLayout
  1
レイアウト1
 70
     1
 71
     1
 10
0.0
 20
0.0
 11
12.0
 21
9.0
 12
0.0
 22
0.0
 32
0.0
 14
0.0
 24
0.0
 34
0.0
 15
0.0
 25
0.0
 35
0.0
146
0.0
 13
0.0
 23
0.0
 33
0.0
 16
1.0
 26
0.0
 36
0.0
 17
0.0
 27
1.0
 37
0.0
 76
     0
330
D2
  0
LAYOUT
  5
D7
102
{ACAD_XDICTIONARY
360
103F
102
}
102
{ACAD_REACTORS
330
1A
102
}
330
1A
100
AcDbPlotSettings
  1

  2
C:\Documents and Settings\basas\Application Data\Autodesk\AutoCAD 2005\R16.1\enu\plotters\Default Windows System Printer.pc3
  4

  6

 40
0.0
 41
0.0
 42
0.0
 43
0.0
 44
0.0
 45
0.0
 46
0.0
 47
0.0
 48
0.0
 49
0.0
140
0.0
141
0.0
142
1.0
143
1.0
 70
   688
 72
     0
 73
     0
 74
     5
  7
monochrome.ctb
 75
    16
147
1.0
148
0.0
149
0.0
100
AcDbLayout
  1
レイアウト2
 70
     1
 71
     2
 10
0.0
 20
0.0
 11
12.0
 21
9.0
 12
0.0
 22
0.0
 32
0.0
 14
0.0
 24
0.0
 34
0.0
 15
0.0
 25
0.0
 35
0.0
146
0.0
 13
0.0
 23
0.0
 33
0.0
 16
1.0
 26
0.0
 36
0.0
 17
0.0
 27
1.0
 37
0.0
 76
     0
330
D6
  0
MATERIAL
  5
F82
102
{ACAD_XDICTIONARY
360
F83
102
}
102
{ACAD_REACTORS
330
6A
102
}
330
6A
100
AcDbMaterial
  1
ByBlock
 72
     0
 43
0.0008202099737533
 43
0.0
 43
0.0
 43
0.0
 43
0.0
 43
0.0008202099737533
 43
0.0
 43
0.0
 43
0.0
 43
0.0
 43
1.0
 43
0.0
 43
0.0
 43
0.0
 43
0.0
 43
1.0
 77
     0
 47
0.0008202099737533
 47
0.0
 47
0.0
 47
0.0
 47
0.0
 47
0.0008202099737533
 47
0.0
 47
0.0
 47
0.0
 47
0.0
 47
1.0
 47
0.0
 47
0.0
 47
0.0
 47
0.0
 47
1.0
171
     0
 49
0.0008202099737533
 49
0.0
 49
0.0
 49
0.0
 49
0.0
 49
0.0008202099737533
 49
0.0
 49
0.0
 49
0.0
 49
0.0
 49
1.0
 49
0.0
 49
0.0
 49
0.0
 49
0.0
 49
1.0
175
     0
142
0.0008202099737533
142
0.0
142
0.0
142
0.0
142
0.0
142
0.0008202099737533
142
0.0
142
0.0
142
0.0
142
0.0
142
1.0
142
0.0
142
0.0
142
0.0
142
0.0
142
1.0
179
     0
144
0.0008202099737533
144
0.0
144
0.0
144
0.0
144
0.0
144
0.0008202099737533
144
0.0
144
0.0
144
0.0
144
0.0
144
1.0
144
0.0
144
0.0
144
0.0
144
0.0
144
1.0
147
0.0008202099737533
147
0.0
147
0.0
147
0.0
147
0.0
147
0.0008202099737533
147
0.0
147
0.0
147
0.0
147
0.0
147
1.0
147
0.0
147
0.0
147
0.0
147
0.0
147
1.0
  0
MATERIAL
  5
F7A
102
{ACAD_XDICTIONARY
360
F7B
102
}
102
{ACAD_REACTORS
330
6A
102
}
330
6A
100
AcDbMaterial
  1
ByLayer
 72
     0
 43
0.0008202099737533
 43
0.0
 43
0.0
 43
0.0
 43
0.0
 43
0.0008202099737533
 43
0.0
 43
0.0
 43
0.0
 43
0.0
 43
1.0
 43
0.0
 43
0.0
 43
0.0
 43
0.0
 43
1.0
 77
     0
 47
0.0008202099737533
 47
0.0
 47
0.0
 47
0.0
 47
0.0
 47
0.0008202099737533
 47
0.0
 47
0.0
 47
0.0
 47
0.0
 47
1.0
 47
0.0
 47
0.0
 47
0.0
 47
0.0
 47
1.0
171
     0
 49
0.0008202099737533
 49
0.0
 49
0.0
 49
0.0
 49
0.0
 49
0.0008202099737533
 49
0.0
 49
0.0
 49
0.0
 49
0.0
 49
1.0
 49
0.0
 49
0.0
 49
0.0
 49
0.0
 49
1.0
175
     0
142
0.0008202099737533
142
0.0
142
0.0
142
0.0
142
0.0
142
0.0008202099737533
142
0.0
142
0.0
142
0.0
142
0.0
142
1.0
142
0.0
142
0.0
142
0.0
142
0.0
142
1.0
179
     0
144
0.0008202099737533
144
0.0
144
0.0
144
0.0
144
0.0
144
0.0008202099737533
144
0.0
144
0.0
144
0.0
144
0.0
144
1.0
144
0.0
144
0.0
144
0.0
144
0.0
144
1.0
147
0.0008202099737533
147
0.0
147
0.0
147
0.0
147
0.0
147
0.0008202099737533
147
0.0
147
0.0
147
0.0
147
0.0
147
1.0
147
0.0
147
0.0
147
0.0
147
0.0
147
1.0
  0
MATERIAL
  5
F8A
102
{ACAD_XDICTIONARY
360
F8B
102
}
102
{ACAD_REACTORS
330
6A
102
}
330
6A
100
AcDbMaterial
  1
Global
 72
     0
 43
0.0008202099737533
 43
0.0
 43
0.0
 43
0.0
 43
0.0
 43
0.0008202099737533
 43
0.0
 43
0.0
 43
0.0
 43
0.0
 43
1.0
 43
0.0
 43
0.0
 43
0.0
 43
0.0
 43
1.0
 77
     0
 47
0.0008202099737533
 47
0.0
 47
0.0
 47
0.0
 47
0.0
 47
0.0008202099737533
 47
0.0
 47
0.0
 47
0.0
 47
0.0
 47
1.0
 47
0.0
 47
0.0
 47
0.0
 47
0.0
 47
1.0
171
     0
 49
0.0008202099737533
 49
0.0
 49
0.0
 49
0.0
 49
0.0
 49
0.0008202099737533
 49
0.0
 49
0.0
 49
0.0
 49
0.0
 49
1.0
 49
0.0
 49
0.0
 49
0.0
 49
0.0
 49
1.0
175
     0
142
0.0008202099737533
142
0.0
142
0.0
142
0.0
142
0.0
142
0.0008202099737533
142
0.0
142
0.0
142
0.0
142
0.0
142
1.0
142
0.0
142
0.0
142
0.0
142
0.0
142
1.0
179
     0
144
0.0008202099737533
144
0.0
144
0.0
144
0.0
144
0.0
144
0.0008202099737533
144
0.0
144
0.0
144
0.0
144
0.0
144
1.0
144
0.0
144
0.0
144
0.0
144
0.0
144
1.0
147
0.0008202099737533
147
0.0
147
0.0
147
0.0
147
0.0
147
0.0008202099737533
147
0.0
147
0.0
147
0.0
147
0.0
147
1.0
147
0.0
147
0.0
147
0.0
147
0.0
147
1.0
  0
MLEADERSTYLE
  5
FBE
102
{ACAD_XDICTIONARY
360
1034
102
}
102
{ACAD_REACTORS
330
FBD
102
}
330
FBD
100
AcDbMLeaderStyle
170
     2
171
     1
172
     0
 90
        2
 40
0.0
 41
0.0
173
     1
 91
-1056964608
340
14
 92
       -2
290
     1
 42
2.0
291
     1
 43
0.36
  3
Standard
 44
4.0
300

342
11
174
     1
178
     6
175
     1
176
     0
 93
-1056964608
 45
4.0
292
     0
297
     0
 46
4.0
 94
-1056964608
 47
1.0
 49
1.0
140
1.0
293
     1
141
0.0
294
     1
177
     0
142
1.0
295
     0
296
     0
143
0.125
1001
ACAD_MLEADERVER
1070
     2
  0
MLINESTYLE
  5
18
102
{ACAD_REACTORS
330
17
102
}
330
17
100
AcDbMlineStyle
  2
STANDARD
 70
     0
  3

 62
   256
 51
90.0
 52
90.0
 71
     2
 49
0.5
 62
   256
  6
BYLAYER
 49
-0.5
 62
   256
  6
BYLAYER
  0
ACDBPLACEHOLDER
  5
F
102
{ACAD_REACTORS
330
E
102
}
330
E
  0
SCALE
  5
FAC
102
{ACAD_REACTORS
330
FAB
102
}
330
FAB
100
AcDbScale
 70
     0
300
1:1
140
1.0
141
1.0
290
     1
  0
SCALE
  5
FAD
102
{ACAD_REACTORS
330
FAB
102
}
330
FAB
100
AcDbScale
 70
     0
300
1:2
140
1.0
141
2.0
290
     0
  0
SCALE
  5
FAE
102
{ACAD_REACTORS
330
FAB
102
}
330
FAB
100
AcDbScale
 70
     0
300
1:4
140
1.0
141
4.0
290
     0
  0
SCALE
  5
FAF
102
{ACAD_REACTORS
330
FAB
102
}
330
FAB
100
AcDbScale
 70
     0
300
1:5
140
1.0
141
5.0
290
     0
  0
SCALE
  5
FB0
102
{ACAD_REACTORS
330
FAB
102
}
330
FAB
100
AcDbScale
 70
     0
300
1:8
140
1.0
141
8.0
290
     0
  0
SCALE
  5
FB1
102
{ACAD_REACTORS
330
FAB
102
}
330
FAB
100
AcDbScale
 70
     0
300
1:10
140
1.0
141
10.0
290
     0
  0
SCALE
  5
FB2
102
{ACAD_REACTORS
330
FAB
102
}
330
FAB
100
AcDbScale
 70
     0
300
1:16
140
1.0
141
16.0
290
     0
  0
SCALE
  5
FB3
102
{ACAD_REACTORS
330
FAB
102
}
330
FAB
100
AcDbScale
 70
     0
300
1:20
140
1.0
141
20.0
290
     0
  0
SCALE
  5
FB4
102
{ACAD_REACTORS
330
FAB
102
}
330
FAB
100
AcDbScale
 70
     0
300
1:30
140
1.0
141
30.0
290
     0
  0
SCALE
  5
FB5
102
{ACAD_REACTORS
330
FAB
102
}
330
FAB
100
AcDbScale
 70
     0
300
1:40
140
1.0
141
40.0
290
     0
  0
SCALE
  5
FB6
102
{ACAD_REACTORS
330
FAB
102
}
330
FAB
100
AcDbScale
 70
     0
300
1:50
140
1.0
141
50.0
290
     0
  0
SCALE
  5
FB7
102
{ACAD_REACTORS
330
FAB
102
}
330
FAB
100
AcDbScale
 70
     0
300
1:100
140
1.0
141
100.0
290
     0
  0
SCALE
  5
FB8
102
{ACAD_REACTORS
330
FAB
102
}
330
FAB
100
AcDbScale
 70
     0
300
2:1
140
2.0
141
1.0
290
     0
  0
SCALE
  5
FB9
102
{ACAD_REACTORS
330
FAB
102
}
330
FAB
100
AcDbScale
 70
     0
300
4:1
140
4.0
141
1.0
290
     0
  0
SCALE
  5
FBA
102
{ACAD_REACTORS
330
FAB
102
}
330
FAB
100
AcDbScale
 70
     0
300
8:1
140
8.0
141
1.0
290
     0
  0
SCALE
  5
FBB
102
{ACAD_REACTORS
330
FAB
102
}
330
FAB
100
AcDbScale
 70
     0
300
10:1
140
10.0
141
1.0
290
     0
  0
SCALE
  5
FBC
102
{ACAD_REACTORS
330
FAB
102
}
330
FAB
100
AcDbScale
 70
     0
300
100:1
140
100.0
141
1.0
290
     0
  0
TABLESTYLE
  5
7F
102
{ACAD_XDICTIONARY
360
1032
102
}
102
{ACAD_REACTORS
330
7E
102
}
330
7E
100
AcDbTableStyle
  3
Standard
 70
     0
 71
     0
 40
1.5
 41
1.5
280
     0
281
     0
  7
Standard
140
4.5
170
     2
 62
     0
 63
     7
283
     0
274
    -2
284
     1
 64
     0
275
    -2
285
     1
 65
     0
276
    -2
286
     1
 66
     0
277
    -2
287
     1
 67
     0
278
    -2
288
     1
 68
     0
279
    -2
289
     1
 69
     0
  7
Standard
140
6.0
170
     5
 62
     0
 63
     7
283
     0
274
    -2
284
     1
 64
     0
275
    -2
285
     1
 65
     0
276
    -2
286
     1
 66
     0
277
    -2
287
     1
 67
     0
278
    -2
288
     1
 68
     0
279
    -2
289
     1
 69
     0
  7
Standard
140
4.5
170
     5
 62
     0
 63
     7
283
     0
274
    -2
284
     1
 64
     0
275
    -2
285
     1
 65
     0
276
    -2
286
     1
 66
     0
277
    -2
287
     1
 67
     0
278
    -2
288
     1
 68
     0
279
    -2
289
     1
 69
     0
  0
VISUALSTYLE
  5
F98
102
{ACAD_XDICTIONARY
360
104E
102
}
102
{ACAD_REACTORS
330
F92
102
}
330
F92
100
AcDbVisualStyle
  2
2dWireframe
 70
     4
 71
     0
 72
     2
 73
     0
 90
        0
 40
-0.6
 41
-30.0
 62
     5
 63
     7
 74
     1
 91
        4
 64
     7
 65
   257
 75
     1
175
     1
 42
1.0
 92
        0
 66
   257
 43
1.0
 76
     1
 77
     6
 78
     2
 67
     7
 79
     5
170
     0
171
     0
290
     0
174
     0
 93
        1
 44
0.0
173
     0
291
     0
 45
0.0
1001
ACAD
1000
AcDbSavedByObjectVersion
1070
     0
  0
VISUALSTYLE
  5
F97
102
{ACAD_XDICTIONARY
360
104C
102
}
102
{ACAD_REACTORS
330
F92
102
}
330
F92
100
AcDbVisualStyle
  2
Basic
 70
     7
 71
     1
 72
     0
 73
     1
 90
        0
 40
-0.6
 41
-30.0
 62
     5
 63
     7
 74
     0
 91
        4
 64
     7
 65
   257
 75
     1
175
     1
 42
1.0
 92
        8
 66
     7
 43
1.0
 76
     1
 77
     6
 78
     2
 67
     7
 79
     5
170
     0
171
     0
290
     0
174
     0
 93
        1
 44
0.0
173
     0
291
     1
 45
0.0
1001
ACAD
1000
AcDbSavedByObjectVersion
1070
     0
  0
VISUALSTYLE
  5
F9E
102
{ACAD_XDICTIONARY
360
105A
102
}
102
{ACAD_REACTORS
330
F92
102
}
330
F92
100
AcDbVisualStyle
  2
Brighten
 70
    12
 71
     2
 72
     2
 73
     0
 90
        0
 40
-0.6
 41
-30.0
 62
     5
 63
     7
 74
     1
 91
        4
 64
     7
 65
   257
 75
     1
175
     1
 42
1.0
 92
        8
 66
     7
 43
1.0
 76
     1
 77
     6
 78
     2
 67
     7
 79
     5
170
     0
171
     0
290
     0
174
     0
 93
        1
 44
50.0
173
     0
291
     1
 45
0.0
1001
ACAD
1000
AcDbSavedByObjectVersion
1070
     0
  0
VISUALSTYLE
  5
FA2
102
{ACAD_XDICTIONARY
360
1062
102
}
102
{ACAD_REACTORS
330
F92
102
}
330
F92
100
AcDbVisualStyle
  2
ColorChange
 70
    16
 71
     2
 72
     2
 73
     3
 90
        0
 40
-0.6
 41
-30.0
 62
     5
 63
     8
 74
     1
 91
        4
 64
     7
 65
   257
 75
     1
175
     1
 42
1.0
 92
        8
 66
     8
 43
1.0
 76
     1
 77
     6
 78
     2
 67
     7
 79
     5
170
     0
171
     0
290
     0
174
     0
 93
        1
 44
0.0
173
     0
291
     1
 45
0.0
1001
ACAD
1000
AcDbSavedByObjectVersion
1070
     0
  0
VISUALSTYLE
  5
F9B
102
{ACAD_XDICTIONARY
360
1054
102
}
102
{ACAD_REACTORS
330
F92
102
}
330
F92
100
AcDbVisualStyle
  2
Conceptual
 70
     9
 71
     3
 72
     2
 73
     0
 90
        0
 40
-0.6
 41
-30.0
 62
     5
 63
     7
 74
     2
 91
        2
 64
     7
 65
   257
 75
     1
175
     1
 42
179.0
 92
        8
 66
     7
 43
1.0
 76
     1
 77
     6
 78
     2
 67
     7
 79
     3
170
     0
171
     0
290
     0
174
     0
 93
        1
 44
0.0
173
     0
291
     0
 45
0.0
1001
ACAD
1000
AcDbSavedByObjectVersion
1070
     0
  0
VISUALSTYLE
  5
F9D
102
{ACAD_XDICTIONARY
360
1058
102
}
102
{ACAD_REACTORS
330
F92
102
}
330
F92
100
AcDbVisualStyle
  2
Dim
 70
    11
 71
     2
 72
     2
 73
     0
 90
        0
 40
-0.6
 41
-30.0
 62
     5
 63
     7
 74
     1
 91
        4
 64
     7
 65
   257
 75
     1
175
     1
 42
1.0
 92
        8
 66
     7
 43
1.0
 76
     1
 77
     6
 78
     2
 67
     7
 79
     5
170
     0
171
     0
290
     0
174
     0
 93
        1
 44
-50.0
173
     0
291
     1
 45
0.0
1001
ACAD
1000
AcDbSavedByObjectVersion
1070
     0
  0
VISUALSTYLE
  5
FAA
102
{ACAD_XDICTIONARY
360
1072
102
}
102
{ACAD_REACTORS
330
F92
102
}
330
F92
100
AcDbVisualStyle
  2
EdgeColorOff
 70
    22
 71
     2
 72
     2
 73
     0
 90
        0
 40
-0.6
 41
-30.0
 62
     5
 63
     7
 74
     1
 91
        4
 64
     7
 65
   257
 75
     1
175
     1
 42
1.0
 92
        8
 66
     7
 43
1.0
 76
     1
 77
     6
 78
     2
 67
     7
 79
     5
170
     0
171
     0
290
     0
174
     0
 93
        1
 44
0.0
173
     0
291
     1
 45
0.0
1001
ACAD
1000
AcDbSavedByObjectVersion
1070
     0
  0
VISUALSTYLE
  5
FA1
102
{ACAD_XDICTIONARY
360
1060
102
}
102
{ACAD_REACTORS
330
F92
102
}
330
F92
100
AcDbVisualStyle
  2
Facepattern
 70
    15
 71
     2
 72
     2
 73
     0
 90
        0
 40
-0.6
 41
-30.0
 62
     5
 63
     7
 74
     1
 91
        4
 64
     7
 65
   257
 75
     1
175
     1
 42
1.0
 92
        8
 66
     7
 43
1.0
 76
     1
 77
     6
 78
     2
 67
     7
 79
     5
170
     0
171
     0
290
     0
174
     0
 93
        1
 44
0.0
173
     0
291
     1
 45
0.0
1001
ACAD
1000
AcDbSavedByObjectVersion
1070
     0
  0
VISUALSTYLE
  5
F93
102
{ACAD_XDICTIONARY
360
1044
102
}
102
{ACAD_REACTORS
330
F92
102
}
330
F92
100
AcDbVisualStyle
  2
Flat
 70
     0
 71
     2
 72
     1
 73
     1
 90
        2
 40
-0.6
 41
30.0
 62
     5
 63
     7
 74
     0
 91
        0
 64
     7
 65
   257
 75
     1
175
     1
 42
1.0
 92
        8
 66
     7
 43
1.0
 76
     1
 77
     6
 78
     2
 67
     7
 79
     5
170
     0
171
     0
290
     0
174
     0
 93
       13
 44
0.0
173
     0
291
     1
 45
0.0
1001
ACAD
1000
AcDbSavedByObjectVersion
1070
     0
  0
VISUALSTYLE
  5
F94
102
{ACAD_XDICTIONARY
360
1046
102
}
102
{ACAD_REACTORS
330
F92
102
}
330
F92
100
AcDbVisualStyle
  2
FlatWithEdges
 70
     1
 71
     2
 72
     1
 73
     1
 90
        2
 40
-0.6
 41
30.0
 62
     5
 63
     7
 74
     1
 91
        0
 64
     7
 65
   257
 75
     1
175
     1
 42
1.0
 92
        0
 66
   257
 43
1.0
 76
     1
 77
     6
 78
     2
 67
     7
 79
     5
170
     0
171
     0
290
     0
174
     0
 93
       13
 44
0.0
173
     0
291
     1
 45
0.0
1001
ACAD
1000
AcDbSavedByObjectVersion
1070
     0
  0
VISUALSTYLE
  5
F95
102
{ACAD_XDICTIONARY
360
1048
102
}
102
{ACAD_REACTORS
330
F92
102
}
330
F92
100
AcDbVisualStyle
  2
Gouraud
 70
     2
 71
     2
 72
     2
 73
     1
 90
        2
 40
-0.6
 41
30.0
 62
     5
 63
     7
 74
     0
 91
        0
 64
     7
 65
   257
 75
     1
175
     1
 42
1.0
 92
        0
 66
     7
 43
1.0
 76
     1
 77
     6
 78
     2
 67
     7
 79
     5
170
     0
171
     0
290
     0
174
     0
 93
       13
 44
0.0
173
     0
291
     1
 45
0.0
1001
ACAD
1000
AcDbSavedByObjectVersion
1070
     0
  0
VISUALSTYLE
  5
F96
102
{ACAD_XDICTIONARY
360
104A
102
}
102
{ACAD_REACTORS
330
F92
102
}
330
F92
100
AcDbVisualStyle
  2
GouraudWithEdges
 70
     3
 71
     2
 72
     2
 73
     1
 90
        2
 40
-0.6
 41
30.0
 62
     5
 63
     7
 74
     1
 91
        0
 64
     7
 65
   257
 75
     1
175
     1
 42
1.0
 92
        0
 66
   257
 43
1.0
 76
     1
 77
     6
 78
     2
 67
     7
 79
     5
170
     0
171
     0
290
     0
174
     0
 93
       13
 44
0.0
173
     0
291
     1
 45
0.0
1001
ACAD
1000
AcDbSavedByObjectVersion
1070
     0
  0
VISUALSTYLE
  5
F9A
102
{ACAD_XDICTIONARY
360
1052
102
}
102
{ACAD_REACTORS
330
F92
102
}
330
F92
100
AcDbVisualStyle
  2
Hidden
 70
     6
 71
     1
 72
     2
 73
     2
 90
        0
 40
-0.6
 41
-30.0
 62
     5
 63
     7
 74
     2
 91
        2
 64
     7
 65
   257
 75
     2
175
     1
 42
40.0
 92
        0
 66
   257
 43
1.0
 76
     1
 77
     6
 78
     2
 67
     7
 79
     3
170
     0
171
     0
290
     0
174
     0
 93
        1
 44
0.0
173
     0
291
     0
 45
0.0
1001
ACAD
1000
AcDbSavedByObjectVersion
1070
     0
  0
VISUALSTYLE
  5
FA8
102
{ACAD_XDICTIONARY
360
106E
102
}
102
{ACAD_REACTORS
330
F92
102
}
330
F92
100
AcDbVisualStyle
  2
JitterOff
 70
    20
 71
     2
 72
     2
 73
     0
 90
        0
 40
-0.6
 41
-30.0
 62
     5
 63
     7
 74
     1
 91
        4
 64
     7
 65
   257
 75
     1
175
     1
 42
1.0
 92
       10
 66
     7
 43
1.0
 76
     1
 77
     6
 78
     2
 67
     7
 79
     5
170
     0
171
     0
290
     0
174
     0
 93
        1
 44
0.0
173
     0
291
     1
 45
0.0
1001
ACAD
1000
AcDbSavedByObjectVersion
1070
     0
  0
VISUALSTYLE
  5
FA0
102
{ACAD_XDICTIONARY
360
105E
102
}
102
{ACAD_REACTORS
330
F92
102
}
330
F92
100
AcDbVisualStyle
  2
Linepattern
 70
    14
 71
     2
 72
     2
 73
     0
 90
        0
 40
-0.6
 41
-30.0
 62
     5
 63
     7
 74
     1
 91
        4
 64
     7
 65
   257
 75
     7
175
     7
 42
1.0
 92
        8
 66
     7
 43
1.0
 76
     1
 77
     6
 78
     2
 67
     7
 79
     5
170
     0
171
     0
290
     0
174
     0
 93
        1
 44
0.0
173
     0
291
     1
 45
0.0
1001
ACAD
1000
AcDbSavedByObjectVersion
1070
     0
  0
VISUALSTYLE
  5
FA9
102
{ACAD_XDICTIONARY
360
1070
102
}
102
{ACAD_REACTORS
330
F92
102
}
330
F92
100
AcDbVisualStyle
  2
OverhangOff
 70
    21
 71
     2
 72
     2
 73
     0
 90
        0
 40
-0.6
 41
-30.0
 62
     5
 63
     7
 74
     1
 91
        4
 64
     7
 65
   257
 75
     1
175
     1
 42
1.0
 92
        9
 66
     7
 43
1.0
 76
     1
 77
     6
 78
     2
 67
     7
 79
     5
170
     0
171
     0
290
     0
174
     0
 93
        1
 44
0.0
173
     0
291
     1
 45
0.0
1001
ACAD
1000
AcDbSavedByObjectVersion
1070
     0
  0
VISUALSTYLE
  5
F9C
102
{ACAD_XDICTIONARY
360
1056
102
}
102
{ACAD_REACTORS
330
F92
102
}
330
F92
100
AcDbVisualStyle
  2
Realistic
 70
     8
 71
     2
 72
     3
 73
     0
 90
        2
 40
-0.6
 41
30.0
 62
     5
 63
     7
 74
     0
 91
        0
 64
     7
 65
   257
 75
     1
175
     1
 42
1.0
 92
        8
 66
   257
 43
1.0
 76
     1
 77
     6
 78
     2
 67
     7
 79
     3
170
     0
171
     0
290
     0
174
     0
 93
       13
 44
0.0
173
     0
291
     0
 45
0.0
1001
ACAD
1000
AcDbSavedByObjectVersion
1070
     0
  0
VISUALSTYLE
  5
FA7
102
{ACAD_XDICTIONARY
360
106C
102
}
102
{ACAD_REACTORS
330
F92
102
}
330
F92
100
AcDbVisualStyle
  2
Shaded
 70
    27
 71
     2
 72
     2
 73
     1
 90
        2
 40
-0.6
 41
30.0
 62
     5
 63
     7
 74
     0
 91
        4
 64
     7
 65
   257
 75
     1
175
     1
 42
1.0
 92
        8
 66
   257
 43
1.0
 76
     1
 77
     6
 78
     2
 67
     8
 79
     3
170
     0
171
     0
290
     0
174
     0
 93
        5
 44
0.0
173
     0
291
     0
 45
0.0
1001
ACAD
1000
AcDbSavedByObjectVersion
1070
     0
  0
VISUALSTYLE
  5
FA6
102
{ACAD_XDICTIONARY
360
106A
102
}
102
{ACAD_REACTORS
330
F92
102
}
330
F92
100
AcDbVisualStyle
  2
Shaded with edges
 70
    26
 71
     2
 72
     2
 73
     1
 90
        2
 40
-0.6
 41
30.0
 62
     5
 63
     7
 74
     1
 91
       10
 64
     7
 65
   257
 75
     2
175
     1
 42
1.0
 92
        8
 66
   257
 43
1.0
 76
     1
 77
     6
 78
     2
 67
     7
 79
     3
170
     0
171
     0
290
     0
174
     0
 93
        5
 44
0.0
173
     0
291
     0
 45
0.0
1001
ACAD
1000
AcDbSavedByObjectVersion
1070
     0
  0
VISUALSTYLE
  5
FA3
102
{ACAD_XDICTIONARY
360
1064
102
}
102
{ACAD_REACTORS
330
F92
102
}
330
F92
100
AcDbVisualStyle
  2
Shades of Gray
 70
    23
 71
     2
 72
     2
 73
     3
 90
        0
 40
-0.6
 41
-30.0
 62
     5
 63
     7
 74
     2
 91
        2
 64
     7
 65
     7
 75
     1
175
     1
 42
40.0
 92
        8
 66
     7
 43
1.0
 76
     1
 77
     6
 78
     2
 67
     7
 79
     3
170
     0
171
     0
290
     0
174
     0
 93
        1
 44
0.0
173
     0
291
     0
 45
0.0
1001
ACAD
1000
AcDbSavedByObjectVersion
1070
     0
  0
VISUALSTYLE
  5
FA4
102
{ACAD_XDICTIONARY
360
1066
102
}
102
{ACAD_REACTORS
330
F92
102
}
330
F92
100
AcDbVisualStyle
  2
Sketchy
 70
    24
 71
     1
 72
     2
 73
     2
 90
        0
 40
-0.6
 41
-30.0
 62
     5
 63
     7
 74
     2
 91
        2
 64
     7
 65
     7
 75
     1
175
     1
 42
40.0
 92
       11
 66
     7
 43
1.0
 76
     1
 77
     6
 78
     2
 67
     7
 79
     6
170
     0
171
     0
290
     0
174
     0
 93
        1
 44
0.0
173
     0
291
     0
 45
0.0
1001
ACAD
1000
AcDbSavedByObjectVersion
1070
     0
  0
VISUALSTYLE
  5
F9F
102
{ACAD_XDICTIONARY
360
105C
102
}
102
{ACAD_REACTORS
330
F92
102
}
330
F92
100
AcDbVisualStyle
  2
Thicken
 70
    13
 71
     2
 72
     2
 73
     0
 90
        0
 40
-0.6
 41
-30.0
 62
     5
 63
     7
 74
     1
 91
        4
 64
     7
 65
   257
 75
     1
175
     1
 42
1.0
 92
       12
 66
     7
 43
1.0
 76
     1
 77
     6
 78
     2
 67
     7
 79
     5
170
     0
171
     0
290
     0
174
     0
 93
        1
 44
0.0
173
     0
291
     1
 45
0.0
1001
ACAD
1000
AcDbSavedByObjectVersion
1070
     0
  0
VISUALSTYLE
  5
F99
102
{ACAD_XDICTIONARY
360
1050
102
}
102
{ACAD_REACTORS
330
F92
102
}
330
F92
100
AcDbVisualStyle
  2
Wireframe
 70
     5
 71
     0
 72
     2
 73
     0
 90
        0
 40
-0.6
 41
-30.0
 62
     5
 63
     7
 74
     1
 91
        4
 64
     7
 65
   257
 75
     1
175
     1
 42
1.0
 92
        0
 66
   257
 43
1.0
 76
     1
 77
     6
 78
     2
 67
     7
 79
     3
170
     0
171
     0
290
     0
174
     0
 93
        1
 44
0.0
173
     0
291
     0
 45
0.0
1001
ACAD
1000
AcDbSavedByObjectVersion
1070
     0
  0
VISUALSTYLE
  5
FA5
102
{ACAD_XDICTIONARY
360
1068
102
}
102
{ACAD_REACTORS
330
F92
102
}
330
F92
100
AcDbVisualStyle
  2
X-Ray
 70
    25
 71
     2
 72
     2
 73
     1
 90
        1
 40
0.5
 41
-30.0
 62
     5
 63
     7
 74
     1
 91
        0
 64
     7
 65
   257
 75
     1
175
     1
 42
1.0
 92
        8
 66
     7
 43
1.0
 76
     1
 77
     6
 78
     2
 67
     7
 79
     3
170
     0
171
     0
290
     0
174
     0
 93
       13
 44
0.0
173
     0
291
     0
 45
0.0
1001
ACAD
1000
AcDbSavedByObjectVersion
1070
     0
  0
DICTIONARYVAR
  5
102E
102
{ACAD_REACTORS
330
5E
102
}
330
5E
100
DictionaryVariables
280
     0
  1
1:1
  0
DICTIONARYVAR
  5
102D
102
{ACAD_REACTORS
330
5E
102
}
330
5E
100
DictionaryVariables
280
     0
  1
STANDARD
  0
DICTIONARYVAR
  5
84
102
{ACAD_REACTORS
330
5E
102
}
330
5E
100
DictionaryVariables
280
     0
  1
STANDARD
  0
DICTIONARYVAR
  5
5F
102
{ACAD_REACTORS
330
5E
102
}
330
5E
100
DictionaryVariables
280
     0
  1
2
  0
DICTIONARYVAR
  5
63
102
{ACAD_REACTORS
330
5E
102
}
330
5E
100
DictionaryVariables
280
     0
  1
1
  0
DICTIONARYVAR
  5
1030
102
{ACAD_REACTORS
330
5E
102
}
330
5E
100
DictionaryVariables
280
     0
  1
0
  0
DICTIONARYVAR
  5
102F
102
{ACAD_REACTORS
330
5E
102
}
330
5E
100
DictionaryVariables
280
     0
  1
127
  0
DICTIONARYVAR
  5
1031
102
{ACAD_REACTORS
330
5E
102
}
330
5E
100
DictionaryVariables
280
     0
  1
0
  0
DICTIONARY
  5
FD7
330
22
100
AcDbDictionary
280
     1
281
     1
  3
ACAD_XREC_ROUNDTRIP
360
103B
  3
ADSK_XREC_LAYOUTTHUMBNAIL
360
FD8
  0
DICTIONARY
  5
103D
330
D3
100
AcDbDictionary
280
     1
281
     1
  3
ACAD_XREC_ROUNDTRIP
360
103E
  0
DICTIONARY
  5
103F
330
D7
100
AcDbDictionary
280
     1
281
     1
  3
ACAD_XREC_ROUNDTRIP
360
1040
  0
DICTIONARY
  5
F83
330
F82
100
AcDbDictionary
280
     1
281
     1
  3
ACAD_XREC_ROUNDTRIP
360
1042
  3
BUMPTILE
360
F85
  3
DIFFUSETILE
360
F84
  3
OPACITYTILE
360
F88
  3
REFLECTIONTILE
360
F87
  3
REFRACTIONTILE
360
F89
  3
SPECULARTILE
360
F86
  0
DICTIONARY
  5
F7B
330
F7A
100
AcDbDictionary
280
     1
281
     1
  3
ACAD_XREC_ROUNDTRIP
360
1041
  3
BUMPTILE
360
F7D
  3
DIFFUSETILE
360
F7C
  3
OPACITYTILE
360
F80
  3
REFLECTIONTILE
360
F7F
  3
REFRACTIONTILE
360
F81
  3
SPECULARTILE
360
F7E
  0
DICTIONARY
  5
F8B
330
F8A
100
AcDbDictionary
280
     1
281
     1
  3
ACAD_XREC_ROUNDTRIP
360
1043
  3
BUMPTILE
360
F8D
  3
DIFFUSETILE
360
F8C
  3
OPACITYTILE
360
F90
  3
REFLECTIONTILE
360
F8F
  3
REFRACTIONTILE
360
F91
  3
SPECULARTILE
360
F8E
  0
DICTIONARY
  5
1034
330
FBE
100
AcDbDictionary
280
     1
281
     1
  3
ACAD_XREC_ROUNDTRIP
360
1035
  0
DICTIONARY
  5
1032
330
7F
100
AcDbDictionary
280
     1
281
     1
  3
ACAD_ROUNDTRIP_2008_TABLESTYLE_CELLSTYLEMAP
360
1033
  3
ACAD_XREC_ROUNDTRIP
360
103C
  0
DICTIONARY
  5
104E
330
F98
100
AcDbDictionary
280
     1
281
     1
  3
ACAD_XREC_ROUNDTRIP
360
104F
  0
DICTIONARY
  5
104C
330
F97
100
AcDbDictionary
280
     1
281
     1
  3
ACAD_XREC_ROUNDTRIP
360
104D
  0
DICTIONARY
  5
105A
330
F9E
100
AcDbDictionary
280
     1
281
     1
  3
ACAD_XREC_ROUNDTRIP
360
105B
  0
DICTIONARY
  5
1062
330
FA2
100
AcDbDictionary
280
     1
281
     1
  3
ACAD_XREC_ROUNDTRIP
360
1063
  0
DICTIONARY
  5
1054
330
F9B
100
AcDbDictionary
280
     1
281
     1
  3
ACAD_XREC_ROUNDTRIP
360
1055
  0
DICTIONARY
  5
1058
330
F9D
100
AcDbDictionary
280
     1
281
     1
  3
ACAD_XREC_ROUNDTRIP
360
1059
  0
DICTIONARY
  5
1072
330
FAA
100
AcDbDictionary
280
     1
281
     1
  3
ACAD_XREC_ROUNDTRIP
360
1073
  0
DICTIONARY
  5
1060
330
FA1
100
AcDbDictionary
280
     1
281
     1
  3
ACAD_XREC_ROUNDTRIP
360
1061
  0
DICTIONARY
  5
1044
330
F93
100
AcDbDictionary
280
     1
281
     1
  3
ACAD_XREC_ROUNDTRIP
360
1045
  0
DICTIONARY
  5
1046
330
F94
100
AcDbDictionary
280
     1
281
     1
  3
ACAD_XREC_ROUNDTRIP
360
1047
  0
DICTIONARY
  5
1048
330
F95
100
AcDbDictionary
280
     1
281
     1
  3
ACAD_XREC_ROUNDTRIP
360
1049
  0
DICTIONARY
  5
104A
330
F96
100
AcDbDictionary
280
     1
281
     1
  3
ACAD_XREC_ROUNDTRIP
360
104B
  0
DICTIONARY
  5
1052
330
F9A
100
AcDbDictionary
280
     1
281
     1
  3
ACAD_XREC_ROUNDTRIP
360
1053
  0
DICTIONARY
  5
106E
330
FA8
100
AcDbDictionary
280
     1
281
     1
  3
ACAD_XREC_ROUNDTRIP
360
106F
  0
DICTIONARY
  5
105E
330
FA0
100
AcDbDictionary
280
     1
281
     1
  3
ACAD_XREC_ROUNDTRIP
360
105F
  0
DICTIONARY
  5
1070
330
FA9
100
AcDbDictionary
280
     1
281
     1
  3
ACAD_XREC_ROUNDTRIP
360
1071
  0
DICTIONARY
  5
1056
330
F9C
100
AcDbDictionary
280
     1
281
     1
  3
ACAD_XREC_ROUNDTRIP
360
1057
  0
DICTIONARY
  5
106C
330
FA7
100
AcDbDictionary
280
     1
281
     1
  3
ACAD_XREC_ROUNDTRIP
360
106D
  0
DICTIONARY
  5
106A
330
FA6
100
AcDbDictionary
280
     1
281
     1
  3
ACAD_XREC_ROUNDTRIP
360
106B
  0
DICTIONARY
  5
1064
330
FA3
100
AcDbDictionary
280
     1
281
     1
  3
ACAD_XREC_ROUNDTRIP
360
1065
  0
DICTIONARY
  5
1066
330
FA4
100
AcDbDictionary
280
     1
281
     1
  3
ACAD_XREC_ROUNDTRIP
360
1067
  0
DICTIONARY
  5
105C
330
F9F
100
AcDbDictionary
280
     1
281
     1
  3
ACAD_XREC_ROUNDTRIP
360
105D
  0
DICTIONARY
  5
1050
330
F99
100
AcDbDictionary
280
     1
281
     1
  3
ACAD_XREC_ROUNDTRIP
360
1051
  0
DICTIONARY
  5
1068
330
FA5
100
AcDbDictionary
280
     1
281
     1
  3
ACAD_XREC_ROUNDTRIP
360
1069
  0
XRECORD
  5
103B
102
{ACAD_REACTORS
330
FD7
102
}
330
FD7
100
AcDbXrecord
280
     1
102
SHADEPLOT
 70
     0
102
SHADEPLOTRESLEVEL
 70
     2
102
SHADEPLOTCUSTOMDPI
 70
   300
  0
XRECORD
  5
FD8
102
{ACAD_REACTORS
330
FD7
102
}
330
FD7
100
AcDbXrecord
280
     1
310
28000000000100009D0000000100080000000000009D0000000000000000000000010000000000003028210000000000C8C8C8000000000000000000000000000000000000000000000000000000000000000000330000006600000099000000CC000000FF00000000330000333300006633000099330000CC330000FF3300
310
0000660000336600006666000099660000CC660000FF66000000990000339900006699000099990000CC990000FF99000000CC000033CC000066CC000099CC0000CCCC0000FFCC000000FF000033FF000066FF000099FF0000CCFF0000FFFF000000003300330033006600330099003300CC003300FF003300003333003333
310
33006633330099333300CC333300FF33330000663300336633006666330099663300CC663300FF66330000993300339933006699330099993300CC993300FF99330000CC330033CC330066CC330099CC3300CCCC3300FFCC330000FF330033FF330066FF330099FF3300CCFF3300FFFF330000006600330066006600660099
310
006600CC006600FF00660000336600333366006633660099336600CC336600FF33660000666600336666006666660099666600CC666600FF66660000996600339966006699660099996600CC996600FF99660000CC660033CC660066CC660099CC6600CCCC6600FFCC660000FF660033FF660066FF660099FF6600CCFF6600
310
FFFF660000009900330099006600990099009900CC009900FF00990000339900333399006633990099339900CC339900FF33990000669900336699006666990099669900CC669900FF66990000999900339999006699990099999900CC999900FF99990000CC990033CC990066CC990099CC9900CCCC9900FFCC990000FF99
310
0033FF990066FF990099FF9900CCFF9900FFFF99000000CC003300CC006600CC009900CC00CC00CC00FF00CC000033CC003333CC006633CC009933CC00CC33CC00FF33CC000066CC003366CC006666CC009966CC00CC66CC00FF66CC000099CC003399CC006699CC009999CC00CC99CC00FF99CC0000CCCC0033CCCC0066CC
310
CC0099CCCC00CCCCCC00FFCCCC0000FFCC0033FFCC0066FFCC0099FFCC00CCFFCC00FFFFCC000000FF003300FF006600FF009900FF00CC00FF00FF00FF000033FF003333FF006633FF009933FF00CC33FF00FF33FF000066FF003366FF006666FF009966FF00CC66FF00FF66FF000099FF003399FF006699FF009999FF00CC
310
99FF00FF99FF0000CCFF0033CCFF0066CCFF0099CCFF00CCCCFF00FFCCFF0000FFFF0033FFFF0066FFFF0099FFFF00CCFFFF00FFFFFF00000000000D0D0D001A1A1A00282828003535350043434300505050005D5D5D006B6B6B00787878008686860093939300A1A1A100AEAEAE00BBBBBB00C9C9C900D6D6D600E4E4E400
310
F1F1F100FFFFFF000000000000000000000000000000000000000000000000000000000000000000000000000000000000000000000000000000000000000000000000000000000000000000000000000000000000000000000000000000000000000000000000000000000000000000000000000000000000000000000000
310
00000000000000000000000000000000000000000000000000000000000000000000000000000000000000000000000000000000000000000000000000000000000000000000000000000000000000000000000000000000000000000000000000000000000000000000000000000000000000000000000000000000000000
310
0000000000000000000000000000000000000000000000000000000000000000000000000000000000000000000000000000000000000000000000000000000000000000BEBEBEBEBEBEBEBEBEBEBEBEBEBEBEBEBEBEBEBEBEBEBEBEBEBEBEBEBEBEBEBEBEBEBEBEBEBEBEBEBEBEBEBEBEBEBEBEBEBEBEBEBEBEBEBEBEBEBE
310
BEBEBEBEBEBEBEBEBEBEBEBEBEBEBEBEBEBEBEBEBEBEBEBEBEBEBEBEBEBEBEBEBEBEBEBEBEBEBEBEBEBEBEBEBEBEBEBEBEBEBEBEBEBEBEBEBEBEBEBEBEBEBEBEBEBEBEBEBEBEBEBEBEBEBEBEBEBEBEBEBEBEBEBEBEBEBEBEBEBEBEBEBEBEBEBEBEBEBEBEBEBEBEBEBEBEBEBEBEBEBEBEBEBEBEBEBEBEBEBEBEBEBEBEBEBEBE
310
BEBEBEBEBEBEBEBEBEBEBEBEBEBEBEBEBEBEBEBEBEBEBEBEBEBEBEBEBEBEBEBEBEBE000000000000000000000000000000000000000000000000000000000000000000000000BE0000000000000000000000000000000000000000000000000000000000000000000000000000000000000000000000000000000000000000
310
00000000000000000000000000000000000000000000000000000000000000000000000000000000000000000000000000000000000000000000000000000000000000000000000000000000000000000000000000000000000000000000000000000000000000000000000000000000000000000000000000000000000000
310
0000000000000000000000000000000000000000000000000000000000000000000000BE000000000000000000000000000000000000000000000000000000000000000000000000BE000000000000000000000000000000000000000000000000000000000000000000000000000000000000000000000000000000000000
310
00000000000000000000000000000000000000000000000000000000000000000000000000000000000000000000000000000000000000000000000000000000000000000000000000000000000000000000000000000000000000000000000000000000000000000000000000000000000000000000000000000000000000
310
00000000000000000000000000000000000000000000000000000000000000000000000000BE000000000000000000000000000000000000000000000000000000000000000000000000BE00000000000000000000000000000000000000000000000000000000000000000000000000000000000000000000000000000000
310
00000000000000000000000000000000000000000000000000000000000000000000000000000000000000000000000000000000000000000000000000000000000000000000000000000000000000000000000000000000000000000000000000000000000000000000000000000000000000000000000000000000000000
310
000000000000000000000000000000000000000000000000000000000000000000000000000000BE000000000000000000000000000000000000000000000000000000000000000000000000BE0000000000000000000000000000000000000000000000000000000000000000000000000000000000000000000000000000
310
00000000000000000000000000000000000000000000000000000000000000000000000000000000000000000000000000000000000000000000000000000000000000000000000000000000000000000000000000000000000000000000000000000000000000000000000000000000000000000000000000000000000000
310
0000000000000000000000000000000000000000000000000000000000000000000000000000000000BE000000000000000000000000000000000000000000000000000000000000000000000000BE000000000000000000F5F5F5F5F5F5F5F5F5F5F5F5F5F5F5F5F5F5F5F5F5F5F5F5F5F5F5F5F5F5F5F5F5F5F5F5F5F5F5
310
F5F5F5F5F5F5F5F5F5F5F5F5F5F5F5F5F5F5F5F5F5F5F5F5F5F5F5F5F5F5F5F5F5F5F5F5F5F5F5F5F5F5F5F5F5F5F5F5F5F5F5F5F5F5F5F5F5F5F5F5F5F5F5F5F5F5F5F5F5F5F5F5F5F5F5F5F5F5F5F5F5F5F5F5F5F5F5F5F5F5F5F5F5F5F5F5F5F5F5F5F5F5F5F5F5F5F5F5F5F5F5F5F5F5F5F5F5F5F5F5F5F5F5F5F5F5F5
310
F5F5F5F5F5F5F5F5F5F5F5F5F5F5F5F5F5F5F5F5F5F5F5F5F5F5F5F5F5F5F5F5F5F5F5F5F5F5F500000000BE000000000000000000000000000000000000000000000000000000000000000000000000BE000000000000000000F5000000000000000000000000000000000000000000000000000000000000000000000000
310
00000000000000000000000000000000000000000000000000000000000000000000000000000000000000000000000000000000000000000000000000000000000000000000000000000000000000000000000000000000000000000000000000000000000000000000000000000000000000F500F5F5F5F50000F5F5F5F5
310
F5F5F5F5F5F5F5F5F5F5F5F5F5F5F5F5F5F5F5F5F5F5F5F5F5F5F5F5F5F5F5F5F5F5F5F5F5F50000F500000000BE000000000000000000000000000000000000000000000000000000000000000000000000BE000000000000000000F500000000000000000000000000000000000000000000000000000000000000000000
310
000000000000000000000000000000000000000000000000000000000000000000000000000000000000000000000000000000000000000000000000000000000000000000000000000000000000000000000000000000000000000000000000000000000000000000000000000000000000000000F5F5F5F5F5F5F500F5F5
310
F5F5F5F5F5F5F5F5F5F5F5F5F5F5F5F5F5F5F5F5F5F5F5F5F5F5F5F5F5F5F5F5F5F5F5F5F5F5F5F50000F500000000BE000000000000000000000000000000000000000000000000000000000000000000000000BE000000000000000000F50000000000000000000000000000000000000000000000000000000000000000
310
0000000000000000000000000000000000000000000000000000000000000000000000000000000000000000000000000000000000000000000000000000000000000000000000000000000000000000000000000000000000000000000000000000000000000000000000000000000000000000000000F5F5F5F5F5F5F500
310
F5F5F5F5F5F5F5F5F5F5F5F5F5F5F5F5F5F5F5F5F5F5F5F5F5F5F5F5F5F5F5F5F5F500000000000000000000F500000000BE000000000000000000000000000000000000000000000000000000000000000000000000BE000000000000000000F5000000000000000000000000000000000000000000000000000000000000
310
00000000000000000000000000000000000000000000000000000000000000000000000000000000000000000000000000000000000000000000000000000000000000000000000000000000000000000000000000000000000000000000000000000000000000000000000000000000000000000000000000F5F5F5F5F5F5
310
F500F5F5F5F5F5F5F5F5F5F5F5F5F5F5F5F5F5F5F5F5F5F5F5F5F5F5F5F5F5F5F5F5F5F500000000000000000000F500000000BE000000000000000000000000000000000000000000000000000000000000000000000000BE000000000000000000F500000000000000000000000000000000000000000000000000000000
310
000000000000000000000000000000000000000000000000000000000000000000000000000000000000000000000000000000000000000000000000000000000000000000000000000000000000000000000000000000000000000000000000000000000000000000000000000000000000000000000000000000F5F5F5F5
310
F5F5F500F5F5F5F5F5F5F5F5F5F5F5F5F5F5F5F5F5F5F5F5F5F5F5F5F5F5F5F5F5F5F5F5F5F500000000000000000000F500000000BE000000000000000000000000000000000000000000000000000000000000000000000000BE000000000000000000F50000000000000000000000000000000000000000000000000000
310
0000000000000000000000000000000000000000000000000000000000000000000000000000000000000000000000000000000000000000000000000000000000000000000000000000000000000000000000000000000000000000000000000000000000000000000000000000000000000000000000000000000000F500
310
F5F5F5F5F500F5F5F5F5F5F5F5F5F5F5F5F5F5F5F5F5F5F5F5F5F5F5F5F5F5F5F5F5F5F5F5F5F5F500000000000000000000F500000000BE000000000000000000000000000000000000000000000000000000000000000000000000BE000000000000000000F5000000000000000000000000000000000000000000000000
310
00000000000000000000000000000000000000000000000000000000000000000000000000000000000000000000000000000000000000000000000000000000000000000000000000000000000000000000000000000000000000000000000000000000000000000000000000000000000000000000000000000000000000
310
F5000000000000000000000000000000000000000000000000000000000000000000000000000000000000000000000000000000F500000000BE000000000000000000000000000000000000000000000000000000000000000000000000BE000000000000000000F500000000000000000000000000000000000000000000
310
00000000000000000000000000000000000000000000000000000000000000000000000000000000000000000000000000000000000000000000000000000000000000000000000000000000000000000000000000000000000000000000000000000000000000000000000000000000000000000000000000000000000000
310
0000F5F5F5F5F5F5F5F5F5F5F5F5F5F5F5F5F5F5F5F5F5F5F5F5F5F5F5F5F5F5F5F5F5F5F5F5F5F5F5F5F5F5F5F5F5F5F5F5F5F5F5F5F500000000BE000000000000000000000000000000000000000000000000000000000000000000000000BE000000000000000000F50000000000000000000000000000000000000000
310
00000000000000000000000000000000000000000000000000000000000000000000000000000000000000000000000000000000000000000000000000000000000000000000000000000000000000000000000000000000000000000000000000000000000000000000000000000000000000000000000000000000000000
310
00000000F500F5F5F5F50000F50000000000000000000000F5F5F500F5F5F5F50000000000000000000000F5000000000000000000000000F500000000BE000000000000000000000000000000000000000000000000000000000000000000000000BE000000000000000000F5000000000000000000000000000000000000
310
00000000000000000000000000000000000000000000000000000000000000000000000000000000000000000000000000000000000000000000000000000000000000000000000000000000000000000000000000000000000000000000000000000000000000000000000000000000000000000000000000000000000000
310
000000000000F500F5F5F5F50000F50000000000000000000000F5F5F5F5F5F5F5F50000000000000000000000F5000000000000000000000000F500000000BE000000000000000000000000000000000000000000000000000000000000000000000000BE000000000000000000F500000000000000000000000000000000
310
00000000000000000000000000000000000000000000000000000000000000000000000000000000000000000000000000000000000000000000000000000000000000000000000000000000000000000000000000000000000000000000000000000000000000000000000000000000000000000000000000000000000000
310
0000000000000000F500000000000000F50000000000000000000000F5F5F500F5F5F5F50000000000000000000000F5000000000000000000000000F500000000BE000000000000000000000000000000000000000000000000000000000000000000000000BE000000000000000000F50000000000000000000000000000
310
00000000000000000000000000000000000000000000000000000000000000000000000000000000000000000000000000000000000000000000000000000000000000000000000000000000000000000000000000000000000000000000000000000000000000000000000000000000000000000000000000000000000000
310
00000000000000000000F500000000000000F5000000000000000000000000000000000000000000000000000000000000F5000000000000000000000000F500000000BE000000000000000000000000000000000000000000000000000000000000000000000000BE000000000000000000F5000000000000000000000000
310
00000000000000000000000000000000000000000000000000000000000000000000000000000000000000000000000000000000000000000000000000000000000000000000000000000000000000000000000000000000000000000000000000000000000000000000000000000000000000000000000000000000000000
310
000000000000000000000000F5F5F5F5F5F5F5F5F5F5F5F5F5F5F5F5F5F5F5F5F5F5F5F5F5F5F5F5F5F5F5F5F5F5F5F5F5F5F5F5F5F5F5F5F5F5F5F5F5F5F5F5F500000000BE000000000000000000000000000000000000000000000000000000000000000000000000BE000000000000000000F500000000000000000000
310
00000000000000000000000000000000000000000000000000000000000000000000000000000000000000000000000000000000000000000000000000000000000000000000000000000000000000000000000000000000000000000000000000000000000000000000000000000000000000000000000000000000000000
310
0000000000000000000000000000F500000000000000F5000000000000000000000000000000000000000000000000000000000000F500000000F500000000000000F500000000BE000000000000000000000000000000000000000000000000000000000000000000000000BE000000000000000000F50000000000000000
310
000000000000000000000000000000000000000000000000000000000000000000000000000000000000F5F5F5F5000000000000000000000000000000000000000000000000000000000000000000000000000000000000000000000000000000000000000000000000000000000000000000000000000000000000000000
310
00000000000000000000000000000000F5F5F5F5F5F5F500F500000000000000000000F5F5F5F5F5F5F5F5F50000000000000000000000F5F5F5F500F500F5F5F5F5F500F500000000BE000000000000000000000000000000000000000000000000000000000000000000000000BE000000000000000000F5000000000000
310
00000000000000000000000000000000000000F5000000000000000000000000000000000000000000000000F5F5F5F50000000000000000000000000000000000000000000000F500000000000000000000000000000000000000000000000000000000000000000000000000000000000000000000000000000000000000
310
000000000000000000000000000000000000F500000000000000F500000000000000000000F5F5F5F5F5F5F5F5F5F500000000000000000000F500000000F500F5F5F5F5F500F500000000BE000000000000000000000000000000000000000000000000000000000000000000000000BE000000000000000000F500000000
310
000000000000000000000000000000000000000000F5F5F5F5F5F5F5F5F5F5F5F5F5F5F5F5F5F5F5F5F5F5F5F5F5F5F5F5F5F5F5F5F5F5F5F5F5F5F5F5F5F5F5F5F5F5F5F5F5F5F5F5F50000000000000000000000000000000000000000000000000000000000000000000000000000000000000000000000000000000000
310
0000000000000000000000000000000000000000F500000000000000F5000000000000000000000000000000000000000000000000000000000000F500000000F500000000000000F500000000BE000000000000000000000000000000000000000000000000000000000000000000000000BE000000000000000000F50000
310
0000000000000000000000000000000000000000000000F5000000000000000000000000000000000000000000000000000000000000000000000000000000000000000000000000000000F5000000000000000000000000000000000000000000000000000000000000000000000000000000000000000000000000000000
310
00000000000000000000000000000000000000000000F5F5F5F5F5F5F5F5F5F5F5F5F5F5F5F5F5F5F5F5F5F5F5F5F5F5F5F5F5F5F5F5F5F5F5F5F5F5F5F5F5F5F5F5F5F5F5F5F5F5F5F5F500000000BE000000000000000000000000000000000000000000000000000000000000000000000000BE000000000000000000F5
310
00000000000000000000000000000000000000000000000000F5000000000000000000000000000000000000000000000000000000000000000000000000000000000000000000000000000000F500000000000000000000000000000000000000000000000000000000000000000000000000000000000000000000000000
310
00000000000000000000000000000000000000000000000000000000000000000000000000000000000000000000000000000000000000000000000000000000000000000000000000000000F500000000BE000000000000000000000000000000000000000000000000000000000000000000000000BE0000000000000000
310
00F500000000000000000000000000000000000000000000000000F5000000000000000000000000000000000000000000000000000000000000000000000000000000000000000000000000000000F50000000000000000000000000000000000000000000000000000000000000000000000000000000000000000000000
310
000000000000000000000000000000000000000000000000000000000000000000000000000000000000000000000000000000000000000000000000000000000000000000000000000000000000F500000000BE000000000000000000000000000000000000000000000000000000000000000000000000BE000000000000
310
000000F500000000000000000000000000000000000000000000000000F5000000000000000000000000000000000000000000000000000000000000000000000000000000000000000000000000000000F5000000000000000000000000000000000000000000000000000000000000000000000000000000000000000000
310
0000000000000000000000000000000000000000000000000000000000000000000000000000000000000000000000000000000000000000000000000000000000000000000000000000000000000000F500000000BE000000000000000000000000000000000000000000000000000000000000000000000000BE00000000
310
0000000000F500000000000000000000000000000000000000000000000000F5F5F5F5F5F5F5F5F5F5F5F5F5F5F5F5F5F5F5F5F5F5F5F5F5F5F5F5F5F5F5F5F5F5F5F5F5F5F5F5F5F5F5F5F5F5F5F5F5F5F5F5F500F5F5F5F5F5F5000000000000000000000000000000000000000000000000000000000000000000000000
310
00000000000000000000000000000000000000000000000000000000000000000000000000000000000000000000000000000000000000000000000000000000000000000000000000000000000000000000F500000000BE000000000000000000000000000000000000000000000000000000000000000000000000BE0000
310
00000000000000F500000000000000000000000000000000000000000000000000F5000000000000000000000000000000000000000000000000000000000000000000000000000000000000000000000000000000F5000000F500F5F500000000000000000000000000000000000000000000000000000000000000000000
310
000000000000000000000000000000000000000000000000000000000000000000000000000000000000000000000000000000000000000000000000000000000000000000000000000000000000000000000000F500000000BE000000000000000000000000000000000000000000000000000000000000000000000000BE
310
000000000000000000F500000000000000000000000000000000000000000000000000F5000000000000000000000000000000000000000000000000000000000000000000000000000000000000000000000000000000F5000000F50000F50000000000000000000000000000000000000000000000000000000000000000
310
00000000000000000000000000000000000000000000000000000000000000000000000000000000000000000000000000000000000000000000000000000000000000F5F50000000000000000000000000000000000F500000000BE0000000000000000000000000000000000000000000000000000000000000000000000
310
00BE000000000000000000F500000000000000000000000000000000000000000000000000F5000000000000000000000000000000000000000000000000000000000000000000000000000000000000000000000000000000F5000000F50000F5000000000000000000000000000000000000000000000000000000000000
310
000000000000000000000000000000000000000000000000000000000000000000000000000000000000000000000000000000000000F5F500F5F5F5F5F5F5F5F500F5F5F5F5F50000000000000000000000000000000000F500000000BE000000000000000000000000000000000000000000000000000000000000000000
310
000000BE000000000000000000F500000000000000000000000000000000000000000000000000F5000000000000000000000000000000000000000000000000000000000000000000000000000000000000000000000000000000F5000000F5F5F5F500000000000000000000000000000000000000000000000000000000
310
00000000000000000000000000000000000000000000000000000000000000000000000000000000000000000000000000000000000000F5F5F5F5F5F5F5F5F5F5F5F5F5F5F5F5F5F50000000000000000000000000000000000F500000000BE00000000000000000000000000000000000000000000000000000000000000
310
0000000000BE000000000000000000F500000000000000000000000000000000000000000000000000F5000000000000000000000000000000000000000000000000000000000000000000000000000000000000000000000000000000F5000000F5F5F5F50000000000000000000000000000000000000000000000000000
310
00000000000000000000000000000000000000000000000000000000000000000000000000000000000000000000000000000000000000000000F5F5F5F5F5F5F5F5F5F5F500F5F5F5F5F50000000000000000000000000000000000F500000000BE0000000000000000000000000000000000000000000000000000000000
310
00000000000000BE000000000000000000F500000000000000000000000000000000000000000000000000F5000000000000000000000000000000000000000000000000000000000000000000000000000000000000000000000000000000F5000000F50000F5000000000000000000000000000000000000000000000000
310
00000000000000000000000000000000000000000000000000000000000000000000000000000000000000000000000000000000000000000000000000000000000000000000000000000000000000000000000000000000000000000000F500000000BE000000000000000000000000000000000000000000000000000000
310
000000000000000000BE000000000000000000F500000000000000000000000000000000000000000000000000F5000000000000000000000000000000000000000000000000000000000000000000000000000000000000000000000000000000F5000000F50000F5F5000000000000000000000000000000000000000000
310
000000000000000000000000000000000000000000000000000000000000000000000000000000000000000000000000000000000000000000000000000000000000000000000000000000000000000000000000000000000000000000000000F500000000BE00000000000000000000000000000000000000000000000000
310
0000000000000000000000BE000000000000000000F500000000000000000000000000000000000000000000000000F5000000000000000000000000000000000000000000000000000000000000000000000000000000000000000000000000000000F5000000F50000F5F500000000000000000000000000000000000000
310
0000000000000000000000000000000000000000000000000000000000000000000000000000000000000000000000000000000000000000000000000000000000000000000000000000000000000000000000000000000000000000000000000000F500000000BE0000000000000000000000000000000000000000000000
310
00000000000000000000000000BE000000000000000000F500000000000000000000000000000000000000000000000000F5F5F5F5F5F5F5F5F5F5F5F5F5F5F5F5F5F5F5F5F5F5F5F5F5F5F5F5F5F5F5F5F5F5F5F5F5F5F5F5F5F5F5F5F5F5F5F5F5F5F5F5F500F5F5F5F5F5F5F50000000000000000000000000000000000
310
00000000000000000000000000000000000000000000000000000000000000000000000000000000000000000000000000000000000000000000000000000000000000000000000000000000000000000000000000000000000000000000000000000000F500000000BE000000000000000000000000000000000000000000
310
000000000000000000000000000000BE000000000000000000F500000000000000000000000000000000000000000000000000000000F500000000000000000000000000000000000000000000000000000000000000000000000000000000000000000000F50000000000F5F5F5F500000000000000000000000000000000
310
000000000000000000000000000000000000000000000000000000000000000000000000000000000000000000000000000000000000000000000000000000000000000000000000000000000000000000000000000000000000000000000000000000000000F500000000BE00000000000000000000000000000000000000
310
0000000000000000000000000000000000BE000000000000000000F500000000000000000000000000000000000000000000000000000000F5F5F5F5F5F5F5F5F5F5F5F5F5F5F5F5F5F5F5F5F5F5F5F5F5F5F5F5F5F5F5F5F5F5F5F5F5F5F5F5F5F5F5F5F5F5F5F500F5F5F5F5F5F5F5F50000000000000000000000000000
310
0000000000000000000000000000000000000000000000000000000000000000000000000000000000000000000000000000000000000000000000000000000000000000000000000000000000000000000000000000000000000000000000000000000000000000F500000000BE0000000000000000000000000000000000
310
00000000000000000000000000000000000000BE000000000000000000F5000000000000000000000000000000000000000000000000000000000000000000000000F5000000000000000000000000000000000000000000000000000000000000F500000000000000000000000000F5F500F5000000000000000000000000
310
00000000000000000000000000000000000000000000000000000000000000000000000000000000000000000000000000000000000000000000000000000000000000000000000000000000000000000000000000000000000000000000000000000000000000000000F500000000BE000000000000000000000000000000
310
000000000000000000000000000000000000000000BE000000000000000000F500000000000000000000000000000000000000000000000000000000000000000000000000F500000000000000000000000000000000000000000000000000000000F50000000000000000000000000000F5F5F5F500000000000000000000
310
000000000000000000000000000000000000000000000000000000000000000000000000000000000000000000000000000000000000000000000000000000000000000000000000000000000000000000000000000000000000000000000000000000000000000000000000F500000000BE00000000000000000000000000
310
0000000000000000000000000000000000000000000000BE000000000000000000F50000000000000000000000000000000000000000000000000000000000000000000000000000F50000000000000000000000000000000000000000000000000000F5000000000000000000000000000000F5F5F5F50000000000000000
310
0000000000000000000000000000000000000000000000000000000000000000000000000000000000000000000000000000000000000000000000000000000000000000000000000000000000000000000000000000000000000000000000000000000000000000000000000000F500000000BE0000000000000000000000
310
00000000000000000000000000000000000000000000000000BE000000000000000000F5000000000000000000000000000000000000000000000000000000000000000000000000000000F5F5F5F5F5F5F5F5F5F5F5F5F5F5F5F5F5F5F5F5F5F5F5F5F5F50000F5F5F5F5F5F5F5F5F5F5F5F5F5F5F5F5F5F5000000000000
310
00000000000000000000000000000000000000000000000000000000000000000000000000000000000000000000000000000000000000000000000000000000000000000000000000000000000000000000000000000000000000000000000000000000000000000000000000000000F500000000BE000000000000000000
310
000000000000000000000000000000000000000000000000000000BE000000000000000000F50000000000000000000000000000000000000000000000000000000000000000000000000000000000000000000000000000000000000000000000000000000000000000000000000000000000000000000000000000000000
310
000000000000000000000000000000000000000000000000000000000000000000000000000000000000000000000000000000000000000000000000000000000000000000000000000000000000000000000000000000000000000000000000000000000000000000000000000000000000F500000000BE00000000000000
310
0000000000000000000000000000000000000000000000000000000000BE000000000000000000F5000000000000000000000000000000000000000000000000000000000000000000000000000000000000000000000000000000000000000000000000000000000000000000000000000000000000000000000000000000
310
0000000000000000000000000000000000000000000000000000000000000000000000000000000000000000000000000000000000000000000000000000000000000000000000000000000000000000000000000000000000000000000000000000000000000000000000000000000000000000F500000000BE0000000000
310
00000000000000000000000000000000000000000000000000000000000000BE000000000000000000F500000000000000000000000000000000000000000000000000000000000000000000000000000000000000000000000000000000000000000000000000000000000000000000000000000000000000000000000000
310
00000000000000000000000000000000000000000000000000000000000000000000000000000000000000000000000000000000000000000000000000000000000000000000000000000000000000000000000000000000000000000000000000000000000000000000000000000000000000000000F500000000BE000000
310
000000000000000000000000000000000000000000000000000000000000000000BE000000000000000000F50000000000000000000000000000000000000000000000000000000000000000000000000000000000000000000000000000000000000000000000000000000000000000000000000000000000000000000000
310
000000000000000000000000000000000000000000000000000000000000000000000000000000000000000000000000000000000000000000000000000000000000000000000000000000000000000000000000000000000000000000000000000000000000000000000000000000000000000000000000F500000000BE00
310
0000000000000000000000000000000000000000000000000000000000000000000000BE000000000000000000F5000000000000000000000000000000000000000000000000000000000000000000000000000000000000000000000000000000000000000000000000000000000000000000000000000000000000000000
310
0000000000000000000000000000000000000000000000000000000000000000000000000000000000000000000000000000000000000000000000000000000000000000000000000000000000000000000000000000000000000000000000000000000000000000000000000000000000000000000000000000F500000000
310
BE000000000000000000000000000000000000000000000000000000000000000000000000BE000000000000000000F500000000000000000000000000000000000000000000000000000000000000000000000000000000000000000000000000000000000000000000000000000000000000000000000000000000000000
310
00000000000000000000000000000000000000000000000000000000000000000000000000000000000000000000000000000000000000000000000000000000000000000000000000000000000000000000000000000000000000000000000000000000000000000000000000000000000000000000000000000000F50000
310
0000BE000000000000000000000000000000000000000000000000000000000000000000000000BE000000000000000000F50000000000000000000000000000000000000000000000000000000000000000000000000000000000000000000000000000000000000000000000000000000000000000000000000000000000
310
000000000000000000000000000000000000000000000000000000000000000000000000000000000000000000000000000000000000000000000000000000000000000000000000000000000000000000000000000000000000000000000000000000000000000000000000000000000000000000000000000000000000F5
310
00000000BE000000000000000000000000000000000000000000000000000000000000000000000000BE000000000000000000F5000000000000000000000000000000000000000000000000000000000000000000000000000000000000000000000000000000000000000000000000000000000000000000000000000000
310
00000000000000000000000000000000000000000000000000000000000000000000000000000000000000000000000000000000000000000000000000000000000000000000000000000000000000000000000000000000000000000000000000000000000000000000000000000000000000000000000000000000000000
310
00F500000000BE000000000000000000000000000000000000000000000000000000000000000000000000BE000000000000000000F500000000000000000000000000000000000000000000000000000000000000000000000000000000000000000000000000000000000000000000000000000000000000000000000000
310
00000000000000000000000000000000000000000000000000000000000000000000000000000000000000000000000000000000000000000000000000000000000000000000000000000000000000000000000000000000000000000000000000000000000000000000000000000000000000000000000000000000000000
310
000000F500000000BE000000000000000000000000000000000000000000000000000000000000000000000000BE000000000000000000F5000000000000000000000000000000000000000000000000000000000000000000000000000000000000000000000000F5F5F5F5F5F5F5F5000000000000000000000000000000
310
00000000000000000000000000000000000000000000000000000000000000000000000000000000000000000000000000000000000000000000000000000000000000000000000000000000000000000000000000000000000000000000000000000000000000000000000000000000000000000000000000000000000000
310
0000000000F500000000BE000000000000000000000000000000000000000000000000000000000000000000000000BE000000000000000000F5000000000000000000000000000000000000000000000000000000000000000000000000000000000000000000000000F5F5F5F5F5F5F5F500000000000000000000000000
310
00000000000000000000000000000000000000000000000000000000000000000000000000000000000000000000000000000000000000000000000000000000000000000000000000000000000000000000000000000000000000000000000000000000000000000000000000000000000000000000000000000000000000
310
00000000000000F500000000BE000000000000000000000000000000000000000000000000000000000000000000000000BE000000000000000000F5000000000000000000000000000000000000000000000000000000000000000000000000000000000000000000000000F5F5F5F5F5F5F5F50000000000000000000000
310
00000000000000000000000000000000000000000000000000000000000000000000000000000000000000000000000000000000000000000000000000000000000000000000000000000000000000000000000000000000000000000000000000000000000000000000000000000000000000000000000000000000000000
310
000000000000000000F500000000BE000000000000000000000000000000000000000000000000000000000000000000000000BE000000000000000000F50000000000000000000000000000000000000000000000000000000000000000000000000000000000000000000000000000000000000000000000000000000000
310
00000000000000000000000000000000000000000000000000000000000000000000000000000000000000000000000000000000000000000000000000000000000000000000000000000000000000000000000000000000000000000000000000000000000000000000000000000000000000000000000000000000000000
310
0000000000000000000000F500000000BE000000000000000000000000000000000000000000000000000000000000000000000000BE000000000000000000F5000000000000000000000000000000000000000000000000000000000000000000000000000000000000000000000000000000000000000000000000000000
310
00000000000000000000000000000000000000000000000000000000000000000000000000000000000000000000000000000000000000000000000000000000000000000000000000000000000000000000000000000000000000000000000000000000000000000000000000000000000000000000000000000000000000
310
00000000000000000000000000F500000000BE000000000000000000000000000000000000000000000000000000000000000000000000BE000000000000000000F500000000000000000000000000000000000000000000000000000000000000000000000000000000000000000000000000000000000000000000000000
310
00000000000000000000000000000000000000000000000000000000000000000000000000000000000000000000000000000000000000000000000000000000000000000000000000000000000000000000000000000000000000000000000000000000000000000000000000000000000000000000000000000000000000
310
000000000000000000000000000000F500000000BE000000000000000000000000000000000000000000000000000000000000000000000000BE000000000000000000F50000000000000000000000000000000000000000000000000000000000000000000000000000000000000000000000000000000000000000000000
310
00000000000000000000000000000000000000000000000000000000000000000000000000000000000000000000000000000000000000000000000000000000000000000000000000000000000000000000000000000000000000000000000000000000000000000000000000000000000000000000000000000000000000
310
0000000000000000000000000000000000F500000000BE000000000000000000000000000000000000000000000000000000000000000000000000BE000000000000000000F5000000000000000000000000000000000000000000000000000000000000000000000000000000000000000000000000000000000000000000
310
00000000000000000000000000000000000000000000000000000000000000000000000000000000000000000000000000000000000000000000000000000000000000000000000000000000000000000000000000000000000000000000000000000000000000000000000000000000000000000000000000000000000000
310
00000000000000000000000000000000000000F500000000BE000000000000000000000000000000000000000000000000000000000000000000000000BE000000000000000000F500000000000000000000000000000000000000000000000000000000000000000000000000000000000000000000000000000000000000
310
00000000000000000000000000000000000000000000000000000000000000000000000000000000000000000000000000000000000000000000000000000000000000000000000000000000000000000000000000000000000000000000000000000000000000000000000000000000000000000000000000000000000000
310
000000000000000000000000000000000000000000F500000000BE000000000000000000000000000000000000000000000000000000000000000000000000BE000000000000000000F50000000000000000000000000000000000000000000000000000000000000000000000000000000000000000000000000000000000
310
00000000000000000000000000000000000000000000000000000000000000000000000000000000000000000000000000000000000000000000000000000000000000000000000000000000000000000000000000000000000000000000000000000000000000000000000000000000000000000000000000000000000000
310
0000000000000000000000000000000000000000000000F500000000BE000000000000000000000000000000000000000000000000000000000000000000000000BE000000000000000000F5000000000000000000000000000000000000000000000000000000000000000000000000000000000000000000000000000000
310
00000000000000000000000000000000000000000000000000000000000000000000000000000000000000000000000000000000000000000000000000000000000000000000000000000000000000000000000000000000000000000000000000000000000000000000000000000000000000000000000000000000000000
310
00000000000000000000000000000000000000000000000000F500000000BE000000000000000000000000000000000000000000000000000000000000000000000000BE000000000000000000F500000000000000000000000000000000000000000000000000000000000000000000000000000000000000000000000000
310
00000000000000000000000000000000000000000000000000000000000000000000000000000000000000000000000000000000000000000000000000000000000000000000000000000000000000000000000000000000000000000000000000000000000000000000000000000000000000000000000000000000000000
310
000000000000000000000000000000000000000000000000000000F500000000BE000000000000000000000000000000000000000000000000000000000000000000000000BE000000000000000000F50000000000000000000000000000000000000000000000000000000000000000000000000000000000000000000000
310
00000000000000000000000000000000000000000000000000000000000000000000000000000000000000000000000000000000000000000000000000000000000000000000000000000000000000000000000000000000000000000000000000000000000000000000000000000000000000000000000000000000000000
310
0000000000000000000000000000000000000000000000000000000000F500000000BE000000000000000000000000000000000000000000000000000000000000000000000000BE000000000000000000F5000000000000000000000000000000000000000000000000000000000000000000000000000000000000000000
310
0000000000F5F5F5F500000000000000000000000000000000000000000000000000000000000000000000000000000000000000000000000000000000000000000000000000000000000000000000000000000000000000000000000000000000000000000000000000000000000000000000000000000000000000000000
310
00000000000000000000000000000000000000000000000000000000000000F500000000BE000000000000000000000000000000000000000000000000000000000000000000000000BE000000000000000000F500000000000000000000000000000000000000000000000000F5F5F5F5F5F5F5F5F5F5F5F5F5F5F5F5F5F5
310
F5F5F5F5F5F5F5F5F5F5F5F5F5F5F5F5F5F5F5F5F5F5F5F5F5F5F5F5F5F5F5F5F5F5F50000000000000000000000000000000000000000000000000000000000000000000000000000000000000000000000000000000000000000000000000000000000000000000000000000000000000000000000000000000000000000
310
000000000000000000000000000000000000000000000000000000000000000000F500000000BE000000000000000000000000000000000000000000000000000000000000000000000000BE000000000000000000F50000000000000000000000000000000000000000F5F5F50000F5F500F500F5F500000000F5F5000000
310
000000000000000000F5F5F5F5000000000000000000000000F5F5000000F5F50000F5F5F50000F5F5F500000000000000000000000000000000000000000000000000000000000000000000000000000000000000000000000000000000000000000000000000000000000000000000000000000000000000000000000000
310
0000000000000000000000000000000000000000000000000000000000000000000000F500000000BE000000000000000000000000000000000000000000000000000000000000000000000000BE000000000000000000F50000000000000000000000000000000000000000F5F5F50000F500F5F500F5F5F5000000F5F500
310
0000000000000000000000F5F5F5F50000000000000000000000F5F5F5000000F5F50000F5F5F50000F5F5F500000000000000000000000000000000000000000000000000000000000000000000000000000000F5F5F500000000000000000000000000000000000000000000000000000000000000000000000000000000
310
00000000000000000000000000000000000000000000000000000000000000000000000000F500000000BE000000000000000000000000000000000000000000000000000000000000000000000000BE000000000000000000F50000000000000000000000000000000000000000F5F5F5F5F5F5F5F5F5F5F5F5F5F5F5F5F5
310
F5F5F5F5F5F5F5F5F5F5F5F5F5F5F5F5F5F5F5F5F5F5F5F5F5F5F5F5F5F5F5F5F5F5F5F5F5F5F5F5F5F5F5F5F5F5F5000000000000000000000000000000000000000000000000000000000000000000000000000000F5F5F5F500000000000000000000000000000000000000000000000000000000000000000000000000
310
000000000000000000000000000000000000000000000000000000000000000000000000000000F500000000BE000000000000000000000000000000000000000000000000000000000000000000000000BE000000000000000000F500000000000000000000000000000000000000000000000000F500F5F5000000000000
310
F5000000F5000000000000000000000000000000000000000000000000F5000000F5000000000000F5F5F5000000000000000000000000000000000000000000000000000000000000000000000000000000F5F5F5F5F5F5F5F5F5F5F5F5F5F5F5F50000000000000000000000000000000000000000000000000000000000
310
0000000000000000000000000000000000000000000000000000000000000000000000000000000000F500000000BE000000000000000000000000000000000000000000000000000000000000000000000000BE000000000000000000F500000000000000000000000000000000000000000000000000F500F5F500000000
310
0000F5000000F5000000000000000000000000000000000000000000000000F5000000F5000000000000F500F500000000000000F500000000000000000000000000000000000000000000000000000000000000F5F5F5F500F5F5000000F5F5000000F5000000000000000000000000000000000000000000000000000000
310
00000000000000000000000000000000000000000000000000000000000000000000000000000000000000F500000000BE000000000000000000000000000000000000000000000000000000000000000000000000BE000000000000000000F500000000000000000000000000000000000000000000000000F500F5F50000
310
00000000F5000000F5000000000000000000000000000000000000000000000000F5000000F5000000000000F500F500000000000000F5F5F50000000000000000000000000000000000000000000000000000000000F500F5F500F5F5000000F5F5000000F500000000000000000000000000000000000000000000000000
310
000000000000000000000000000000000000000000000000000000000000000000000000000000000000000000F500000000BE000000000000000000000000000000000000000000000000000000000000000000000000BE000000000000000000F500000000000000000000000000000000000000000000000000F500F5F5
310
000000000000F5000000F5000000000000000000000000000000000000000000000000F5000000F5000000000000F500F500000000000000F5F5F50000000000000000000000000000000000000000000000000000000000F5F5F5F5F5F5F5F5F5F5F5F5F5F5F5F50000000000000000000000000000000000000000000000
310
0000000000000000000000000000000000000000000000000000000000000000000000000000000000000000000000F500000000BE000000000000000000000000000000000000000000000000000000000000000000000000BE000000000000000000F500000000000000000000000000000000000000000000000000F500
310
F5F5000000000000F5000000F5000000000000000000000000000000000000000000000000F5000000F5000000000000F500F500000000000000F5F5F50000000000000000000000000000000000000000000000000000000000F500F500F500F50000000000000000F5000000000000000000000000000000000000000000
310
00000000000000000000000000000000000000000000000000000000000000000000000000000000000000000000000000F500000000BE000000000000000000000000000000000000000000000000000000000000000000000000BE000000000000000000F500000000000000000000000000000000000000000000000000
310
F500F5F5000000000000F5000000F5000000000000000000000000000000000000000000000000F5000000F5000000000000F500F500000000000000F5F5000000000000000000000000000000000000000000000000000000000000F500F5F5F500F50000000000000000F500000000000000000000000000000000000000
310
000000000000000000000000000000000000000000000000000000000000000000000000000000000000000000000000000000F500000000BE000000000000000000000000000000000000000000000000000000000000000000000000BE000000000000000000F50000000000000000000000000000000000000000000000
310
0000F5F5F5F5F5F5F5F5F5F5F5F5F5F5F5F5F5F5F5F5F5F5F5F5F5F5F5F5F5F5F5F5F5F5F5F5F5F5F5F5F5F5F5F5F5F5F5F5F5F5F5F5F5F5F5F5F5F5F5F5F5F5F5F500000000000000000000000000000000000000000000000000000000F500F5F5F500F5F5F5F5F5F5F5F5F5F50000000000000000000000000000000000
310
0000000000000000000000000000000000000000000000000000000000000000000000000000000000000000000000000000000000F500000000BE000000000000000000000000000000000000000000000000000000000000000000000000BE000000000000000000F5000000000000000000000000000000000000000000
310
00000000F5000000000000000000000000000000000000000000000000000000000000000000000000000000000000000000000000000000F500000000000000F50000F500000000000000000000000000000000000000000000000000000000F50000F5F5F5F50000000000000000F5000000000000000000000000000000
310
00000000000000000000000000000000000000000000000000000000000000000000000000000000000000000000000000000000000000F500000000BE000000000000000000000000000000000000000000000000000000000000000000000000BE000000000000000000F500000000000000000000000000000000000000
310
000000000000F500F5F5F5F5F5F5F5F5F5F5F5F5F5F5F5F5F5F5F5F5F5F5F5F5F5F5F5F5F5F5F5F5F5F5F5F5F5F5F5F5F5F5F5F5F5F5F5F5F500F5F5F5F5F5F5F5F5F5F5F5F500000000000000000000000000000000000000000000000000000000F5000000F5F5F50000000000000000F500000000000000000000000000
310
000000000000000000000000000000000000000000000000000000000000000000000000000000000000000000000000000000000000000000F500000000BE000000000000000000000000000000000000000000000000000000000000000000000000BE000000000000000000F50000000000000000000000000000000000
310
0000000000000000F500F5F5F5F5F5F5F5F5F5F5F5F5F5F5F5F5F5F5F5F5F5F5F5F5F5F5F5F5F5F5F5F5F5F5F5F5F5F5F5F5F5F5F5F5F5F5F5F5F500F5F5F5F5F5F5F5F5F5F5F5F500000000000000000000000000000000000000000000000000000000F5000000F5F5000000000000000000F50000000000000000000000
310
0000000000000000000000000000000000000000000000000000000000000000000000000000000000000000000000000000000000000000000000F500000000BE000000000000000000000000000000000000000000000000000000000000000000000000BE000000000000000000F5000000000000000000000000000000
310
00000000000000000000F500F5F500000000000000000000000000000000000000000000000000000000000000000000000000000000000000000000F500F500000000000000F5F500F500000000000000000000000000000000000000000000000000000000F5000000F5F5F50000000000000000F5000000000000000000
310
00000000000000000000000000000000000000000000000000000000000000000000000000000000000000000000000000000000000000000000000000F500000000BE000000000000000000000000000000000000000000000000000000000000000000000000BE000000000000000000F500000000000000000000000000
310
000000000000000000000000F500F5F500000000000000000000000000000000000000000000000000000000000000000000000000000000000000000000F500F500000000000000F500F5F500000000000000000000000000000000000000000000000000000000F5000000F500F5F500000000000000F500000000000000
310
000000000000000000000000000000000000000000000000000000000000000000000000000000000000000000000000000000000000000000000000000000F500000000BE000000000000000000000000000000000000000000000000000000000000000000000000BE000000000000000000F50000000000000000000000
310
0000000000000000000000000000F500F5F500000000000000000000000000000000000000000000000000000000000000000000000000000000000000000000F500F500000000000000F5F5F5F500000000000000000000000000000000000000000000000000000000F5000000F5F5F5F500000000000000F50000000000
310
0000000000000000000000000000000000000000000000000000000000000000000000000000000000000000000000000000000000000000000000000000000000F500000000BE000000000000000000000000000000000000000000000000000000000000000000000000BE000000000000000000F5000000000000000000
310
00000000000000000000000000000000F500F5F500000000000000000000000000000000000000000000000000000000000000000000000000000000000000000000F500F500000000000000F5F5F5F500000000000000000000000000000000000000000000000000000000F5000000F500F5F5F5000000000000F5000000
310
00000000000000000000000000000000000000000000000000000000000000000000000000000000000000000000000000000000000000000000000000000000000000F500000000BE000000000000000000000000000000000000000000000000000000000000000000000000BE000000000000000000F500000000000000
310
000000000000000000000000000000000000F500F5F500000000000000000000000000000000000000000000000000000000000000000000000000000000000000000000F500F500000000000000F50000F500000000000000000000000000000000000000000000000000000000F5F5F500F500000000000000000000F500
310
000000000000000000000000000000000000000000000000000000000000000000000000000000000000000000000000000000000000000000000000000000000000000000F500000000BE000000000000000000000000000000000000000000000000000000000000000000000000BE000000000000000000F50000000000
310
0000000000000000000000000000000000000000F500F5F500000000000000000000000000000000000000000000000000000000000000000000000000000000000000000000F500F500000000000000F5F500F5000000000000000000000000000000000000000000000000000000F5F5F500F5F500000000000000000000
310
F500000000000000000000000000000000000000000000000000000000000000000000000000000000000000000000000000000000000000000000000000000000000000000000F500000000BE000000000000000000000000000000000000000000000000000000000000000000000000BE000000000000000000F5000000
310
00000000000000000000000000000000000000000000F500F5F5000000000000F5F5F5F5F5F5F5F5F5F5F5F5F5F5F5F5F5F5F5F5F5F5F5F5F5F5F5F5F5F5F5F5F5F5000000000000F500F5F5F5F5F5F5F5F5F5F500F500000000000000000000000000000000000000000000000000000000F5F50000F50000000000000000
310
0000F500000000000000000000000000000000000000000000000000000000000000000000000000000000000000000000000000000000000000000000000000000000000000000000F500000000BE000000000000000000000000000000000000000000000000000000000000000000000000BE000000000000000000F500
310
000000000000000000000000000000000000000000000000F500F5F5000000000000F5F5000000000000000000000000000000000000000000000000000000000000F5F5000000000000F500F500000000000000F5F5F5F500000000000000000000000000000000000000000000000000000000000000F500000000000000
310
00000000F500000000000000000000000000000000000000000000000000000000000000000000000000000000000000000000000000000000000000000000000000000000000000000000F500000000BE000000000000000000000000000000000000000000000000000000000000000000000000BE000000000000000000
310
F500000000000000000000000000000000000000000000000000F500F5F5000000000000F500F500000000000000000000000000000000000000000000000000000000F500F5000000000000F500F500000000000000F5F5F5F5000000000000000000000000000000000000000000000000000000000000F5000000000000
310
000000000000F500000000000000000000000000000000000000000000000000000000000000000000000000000000000000000000000000000000000000000000000000000000000000000000F500000000BE000000000000000000000000000000000000000000000000000000000000000000000000BE00000000000000
310
0000F500000000000000000000000000000000000000000000000000F500F5F5000000000000F50000F50000000000000000000000000000000000000000000000000000F50000F5000000000000F500F500000000000000F5F5F5F50000000000000000000000000000000000000000000000000000000000F50000000000
310
0000000000000000F500000000000000000000000000000000000000000000000000000000000000000000000000000000000000000000000000000000000000000000000000000000000000000000F500000000BE000000000000000000000000000000000000000000000000000000000000000000000000BE0000000000
310
00000000F500000000000000000000000000000000000000000000000000F500F5F5000000000000F5000000F5F5F5F5F5F5F5F5F5F5F5F5F5F5F5F5F5F5F5F5F5F5F5F5F5F5000000F5000000000000F500F5F5F5F5F5F5F5F5F5F500F500000000000000000000000000000000000000000000000000000000F5F5000000
310
00000000000000000000F500000000000000000000000000000000000000000000000000000000000000000000000000000000000000000000000000000000000000000000000000000000000000000000F500000000BE000000000000000000000000000000000000000000000000000000000000000000000000BE000000
310
000000000000F500000000000000000000000000000000000000000000000000F500F5F5000000000000F5000000F5000000000000000000000000000000000000000000000000F5000000F5000000000000F500F500000000000000F5F500F500000000000000000000000000000000000000000000000000000000F5F5F5
310
F50000000000000000000000F500000000000000000000000000000000000000000000000000000000000000000000000000000000000000000000000000000000000000000000000000000000000000000000F500000000BE000000000000000000000000000000000000000000000000000000000000000000000000BE00
310
0000000000000000F500000000000000000000000000000000000000000000000000F500F5F5000000000000F5000000F5000000000000000000000000000000000000000000000000F5000000F5000000000000F500F500000000000000F50000F500000000000000000000000000000000000000000000000000000000F5
310
00F5F5F500000000000000000000F500000000000000000000000000000000000000000000000000000000000000000000000000000000000000000000000000000000000000000000000000000000000000000000F500000000BE000000000000000000000000000000000000000000000000000000000000000000000000
310
BE000000000000000000F500000000000000000000000000000000000000000000000000F500F5F5000000000000F5000000F5000000000000000000000000000000000000000000000000F5000000F5000000000000F500F500000000000000F50000F5000000000000000000000000000000000000000000000000000000
310
00F500F5F5F5F5000000000000000000F500000000000000000000000000000000000000000000000000000000000000000000000000000000000000000000000000000000000000000000000000000000000000000000F500000000BE00000000000000000000000000000000000000000000000000000000000000000000
310
0000BE000000000000000000F500000000000000000000000000000000000000000000000000F500F5F5000000000000F5000000F5000000000000000000000000000000000000000000000000F5000000F5000000000000F500F500000000000000F50000F500000000000000000000000000000000000000000000000000
310
000000F50000F50000000000000000000000F500000000000000000000000000000000000000000000000000000000000000000000000000000000000000000000000000000000000000000000000000000000000000000000F500000000BE0000000000000000000000000000000000000000000000000000000000000000
310
00000000BE000000000000000000F500000000000000000000000000000000000000000000000000F500F5F5000000000000F5000000F5000000000000000000000000000000000000000000000000F5000000F5000000000000F500F500000000000000F50000F50000000000000000000000000000000000000000000000
310
0000000000F50000000000000000000000000000F500000000000000000000000000000000000000000000000000000000000000000000000000000000000000000000000000000000000000000000000000000000000000000000F500000000BE000000000000000000000000000000000000000000000000000000000000
310
000000000000BE000000000000000000F500000000000000000000000000000000000000000000000000F500F5F5000000000000F5000000F5000000000000000000000000000000000000000000000000F5000000F5000000000000F500F500000000000000F50000F5000000000000000000000000000000000000000000
310
00000000000000F50000000000000000000000000000F500000000000000000000000000000000000000000000000000000000000000000000000000000000000000000000000000000000000000000000000000000000000000000000F500000000BE00000000000000000000000000000000000000000000000000000000
310
0000000000000000BE000000000000000000F500000000000000000000000000000000000000000000000000F500F5F5000000000000F5000000F5000000000000000000000000000000000000000000000000F5000000F5000000000000F500F500000000000000F50000F500000000000000000000000000000000000000
310
000000000000000000F50000000000000000000000000000F500000000000000000000000000000000000000000000000000000000000000000000000000000000000000000000000000000000000000000000000000000000000000000000F500000000BE0000000000000000000000000000000000000000000000000000
310
00000000000000000000BE000000000000000000F500000000000000000000000000000000000000000000000000F500F5F5000000000000F5000000F5000000000000000000000000000000000000000000000000F5000000F5000000000000F500F500000000000000F50000F50000000000000000000000000000000000
310
0000000000000000000000F50000000000000000000000000000F500000000000000000000000000000000000000000000000000000000000000000000000000000000000000000000000000000000000000000000000000000000000000000000F500000000BE000000000000000000000000000000000000000000000000
310
000000000000000000000000BE000000000000000000F500000000000000000000000000000000000000000000000000F500F5F5000000000000F5000000F5000000000000000000000000000000000000000000000000F5000000F5000000000000F500F500000000000000F50000F5000000000000000000000000000000
310
00000000000000000000000000F50000000000000000000000000000F500000000000000000000000000000000000000000000000000000000000000000000000000000000000000000000000000000000000000000000000000000000000000000000F500000000BE00000000000000000000000000000000000000000000
310
0000000000000000000000000000BE000000000000000000F500000000000000000000000000000000000000000000000000F500F5F5000000000000F5000000F5000000000000000000000000000000000000000000000000F5000000F5000000000000F500F500000000000000F50000F500000000000000000000000000
310
000000000000000000000000000000F50000000000000000000000000000F500000000000000000000000000000000000000000000000000000000000000000000000000000000000000000000000000000000000000000000000000000000000000000000F500000000BE0000000000000000000000000000000000000000
310
00000000000000000000000000000000BE000000000000000000F500000000000000000000000000000000000000000000000000F500F5F5000000000000F5000000F5000000000000000000000000000000000000000000000000F5000000F5000000000000F500F500000000000000F5F5F5F500F5000000000000000000
310
0000000000000000000000000000000000F50000000000000000000000000000F500000000000000000000000000000000000000000000000000000000000000000000000000000000000000000000000000000000000000000000000000000000000000000000F500000000BE000000000000000000000000000000000000
310
000000000000000000000000000000000000BE000000000000000000F500000000000000000000000000000000000000000000000000F500F5F5000000000000F5000000F5000000000000000000000000000000000000000000000000F5000000F5000000000000F500F500000000000000F5F5F5F5F5F500000000000000
310
00000000000000000000000000000000000000F50000000000000000000000000000F500000000000000000000000000000000000000000000000000000000000000000000000000000000000000000000000000000000000000000000000000000000000000000000F500000000BE00000000000000000000000000000000
310
0000000000000000000000000000000000000000BE000000000000000000F500000000000000000000000000000000000000000000000000F500F5F5000000000000F5000000F5000000000000000000000000000000000000000000000000F5000000F5000000000000F500F500000000000000F5F5F5F5F5F50000000000
310
000000000000000000000000000000000000000000F50000000000000000000000000000F500000000000000000000000000000000000000000000000000000000000000000000000000000000000000000000000000000000000000000000000000000000000000000000F500000000BE0000000000000000000000000000
310
00000000000000000000000000000000000000000000BE000000000000000000F500000000000000000000000000000000000000000000000000F500F5F5000000000000F5000000F5000000000000000000000000000000000000000000000000F5000000F5000000000000F500F500000000000000F5F5F5F5F5F5000000
310
0000000000000000000000000000000000000000000000F50000000000000000000000000000F500000000000000000000000000000000000000000000000000000000000000000000000000000000000000000000000000000000000000000000000000000000000000000000F500000000BE000000000000000000000000
310
000000000000000000000000000000000000000000000000BE000000000000000000F500000000000000000000000000000000000000000000000000F500F5F5000000000000F5000000F5000000000000000000000000000000000000000000000000F5000000F5000000000000F500F500000000000000F50000F5000000
310
00000000000000000000000000000000000000000000000000F50000000000000000000000000000F500000000000000000000000000000000000000000000000000000000000000000000000000000000000000000000000000000000000000000000000000000000000000000000F500000000BE00000000000000000000
310
0000000000000000000000000000000000000000000000000000BE000000000000000000F500000000000000000000000000000000000000000000000000F500F5F5000000000000F5000000F5000000000000000000000000000000000000000000000000F5000000F5000000000000F500F500000000000000F50000F500
310
000000000000000000000000000000000000000000000000000000F50000000000000000000000000000F500000000000000000000000000000000000000000000000000000000000000000000000000000000000000000000000000000000000000000000000000000000000000000000F500000000BE0000000000000000
310
00000000000000000000000000000000000000000000000000000000BE000000000000000000F500000000000000000000000000000000000000000000000000F500F5F5000000000000F5000000F5000000000000000000000000000000000000000000000000F5000000F5000000000000F500F500000000000000F50000
310
F500000000000000000000000000000000000000000000000000000000F50000000000000000000000000000F500000000000000000000000000000000000000000000000000000000000000000000000000000000000000000000000000000000000000000000000000000000000000000000F500000000BE000000000000
310
000000000000000000000000000000000000000000000000000000000000BE000000000000000000F500000000000000000000000000000000000000000000000000F500F5F5000000000000F5000000F5000000000000000000000000000000000000000000000000F5000000F5000000000000F500F500000000000000F5
310
0000F500000000000000000000000000000000000000000000000000000000F50000000000000000000000000000F500000000000000000000000000000000000000000000000000000000000000000000000000000000000000000000000000000000000000000000000000000000000000000000F500000000BE00000000
310
0000000000000000000000000000000000000000000000000000000000000000BE000000000000000000F500000000000000000000000000000000000000000000000000F500F5F5000000000000F5000000F5000000000000000000000000000000000000000000000000F5000000F5000000000000F500F5000000000000
310
00F50000F500000000000000000000000000000000000000000000000000000000F50000000000000000000000000000F500000000000000000000000000000000000000000000000000000000000000000000000000000000000000000000000000000000000000000000000000000000000000000000F500000000BE0000
310
00000000000000000000000000000000000000000000000000000000000000000000BE000000000000000000F500000000000000000000000000000000000000000000000000F500F5F5000000000000F5000000F5000000000000000000000000000000000000000000000000F5000000F5000000000000F500F500000000
310
000000F50000F500000000000000000000000000000000000000000000000000000000F50000000000000000000000000000F500000000000000000000000000000000000000000000000000000000000000000000000000000000000000000000000000000000000000000000000000000000000000000000F500000000BE
310
000000000000000000000000000000000000000000000000000000000000000000000000BE000000000000000000F500000000000000000000000000000000000000000000000000F500F5F5000000000000F5000000F5000000000000000000000000000000000000000000000000F5000000F5000000000000F500F50000
310
0000000000F50000F500000000000000000000000000000000000000000000000000000000F50000000000000000000000000000F500000000000000000000000000000000000000000000000000000000000000000000000000000000000000000000000000000000000000000000000000000000000000000000F5000000
310
00BE000000000000000000000000000000000000000000000000000000000000000000000000BE000000000000000000F500000000000000000000000000000000000000000000000000F500F5F5000000000000F5000000F5000000000000000000000000000000000000000000000000F5000000F5000000000000F500F5
310
00000000000000F50000F500000000000000000000000000000000000000000000000000000000F500000000F5000000000000000000F500000000000000000000000000000000000000000000000000000000000000000000000000000000000000000000000000000000000000000000000000000000000000000000F500
310
000000BE000000000000000000000000000000000000000000000000000000000000000000000000BE000000000000000000F500000000000000000000000000000000000000000000000000F500F5F5000000000000F5000000F5000000000000000000000000000000000000000000000000F5000000F5000000000000F5
310
00F500000000000000F50000F500000000000000000000000000000000000000000000000000000000F50000F5F5F5000000000000000000F500000000000000000000000000000000000000000000000000000000000000000000000000000000000000000000000000000000000000000000000000000000000000000000
310
F500000000BE000000000000000000000000000000000000000000000000000000000000000000000000BE000000000000000000F500000000000000000000000000000000000000000000000000F500F5F5000000000000F5000000F5000000000000000000000000000000000000000000000000F5000000F50000000000
310
00F500F500000000000000F5F500F500000000000000000000000000000000000000000000000000000000F5F5F5F5F5F5000000000000000000F50000000000000000000000000000000000000000000000000000000000000000000000000000000000000000000000000000000000000000000000000000000000000000
310
0000F500000000BE000000000000000000000000000000000000000000000000000000000000000000000000BE000000000000000000F500000000000000000000000000000000000000000000000000F500F5F5000000000000F5000000F5F5F5F5F5F5F5F5F5F5F5F5F5F5F5F5F5F5F5F5F5F5F5F5F5F5000000F5000000
310
000000F500F5F5F5F5F5F5F5F5F5F500F500000000000000000000000000000000000000000000000000000000F5F500F5F5F5000000000000000000F5000000000000000000000000000000000000000000000000000000000000000000000000000000000000000000000000000000000000000000000000000000000000
310
00000000F500000000BE000000000000000000000000000000000000000000000000000000000000000000000000BE000000000000000000F500000000000000000000000000000000000000000000000000F500F5F5000000000000F50000F50000000000000000000000000000000000000000000000000000F50000F500
310
0000000000F500F500000000000000F5F5F5F50000000000000000000000000000000000000000000000000000000000F500000000000000000000000000F500000000000000000000000000000000000000000000000000000000000000000000000000000000000000000000000000000000000000000000000000000000
310
000000000000F500000000BE000000000000000000000000000000000000000000000000000000000000000000000000BE000000000000000000F500000000000000000000000000000000000000000000000000F500F5F5000000000000F500F500000000000000000000000000000000000000000000000000000000F500
310
F5000000000000F500F500000000000000F5F5F5F5000000000000000000000000000000000000000000000000000000000000F5000000000000000000000000F50000000000000000000000000000000000000000000000000000000000000000000000000000000000000000000000000000000000000000000000000000
310
0000000000000000F500000000BE000000000000000000000000000000000000000000000000000000000000000000000000BE000000000000000000F500000000000000000000000000000000000000000000000000F500F5F5000000000000F5F50000000000000000000000000000000000000000000000000000000000
310
00F5F5000000000000F500F500000000000000F5F5F5F500000000000000000000000000000000000000000000000000000000000000F50000000000000000000000F5000000000000000000000000000000000000000000000000000000000000000000000000000000000000000000000000000000000000000000000000
310
00000000000000000000F500000000BE000000000000000000000000000000000000000000000000000000000000000000000000BE000000000000000000F500000000000000000000000000000000000000000000000000F500F5F5000000000000F5F5F5F5F5F5F5F5F5F5F5F5F5F5F5F5F5F5F5F5F5F5F5F5F5F5F5F5F5
310
F5F5F5F5F5000000000000F500F5F5F5F5F5F5F5F5F5F500F500000000000000000000000000000000000000000000000000000000000000F5F500000000000000000000F500000000000000000000000000000000000000000000000000000000000000000000000000000000000000000000000000000000000000000000
310
000000000000000000000000F500000000BE000000000000000000000000000000000000000000000000000000000000000000000000BE000000000000000000F500000000000000000000000000000000000000000000000000F500F5F5000000000000000000000000000000000000000000000000000000000000000000
310
00000000000000000000000000F500F500000000000000F5F500F500000000000000000000000000000000000000000000000000000000000000F5F500000000000000000000F50000000000000000000000000000000000000000000000000000000000000000000000000000000000000000000000000000000000000000
310
0000000000000000000000000000F500000000BE000000000000000000000000000000000000000000000000000000000000000000000000BE000000000000000000F500000000000000000000000000000000000000000000000000F500F5F500000000000000000000000000000000000000000000000000000000000000
310
000000000000000000000000000000F500F500000000000000F50000F50000000000000000000000000000000000000000000000000000000000F5F500F500000000000000000000F5000000000000000000000000000000000000000000000000000000000000000000000000000000000000000000000000000000000000
310
00000000000000000000000000000000F500000000BE000000000000000000000000000000000000000000000000000000000000000000000000BE000000000000000000F500000000000000000000000000000000000000000000000000F500F5F50000000000000000000000000000000000000000000000000000000000
310
0000000000000000000000000000000000F500F500000000000000F5F5F5F500000000000000000000000000000000000000000000000000000000F5F5F5F5F5000000F5000000000000F500000000000000000000000000000000000000000000000000000000000000000000000000000000000000000000000000000000
310
000000000000000000000000000000000000F500000000BE000000000000000000000000000000000000000000000000000000000000000000000000BE000000000000000000F500000000000000000000000000000000000000000000000000F500F5F5000000000000000000000000000000000000000000000000000000
310
00000000000000000000000000000000000000F500F500000000000000F5F5F5F50000000000000000000000000000000000000000000000000000000000F5F500F50000F5F5000000000000F50000000000000000000000000000000000000000000000000000000000000000000000000000000000000000000000000000
310
0000000000000000000000000000000000000000F500000000BE000000000000000000000000000000000000000000000000000000000000000000000000BE000000000000000000F500000000000000000000000000000000000000000000000000F500F5F500000000000000000000000000000000000000000000000000
310
000000000000000000000000000000000000000000F500F500000000000000F50000F50000000000000000000000000000000000000000000000000000000000000000F500F500F5F50000000000F5000000000000000000000000000000000000000000000000000000000000000000000000000000000000000000000000
310
00000000000000000000000000000000000000000000F500000000BE000000000000000000000000000000000000000000000000000000000000000000000000BE000000000000000000F500000000000000000000000000000000000000000000000000F500F5F50000000000000000000000000000000000000000000000
310
0000000000000000000000000000000000000000000000F500F500000000000000F5F500F50000000000000000000000000000000000000000000000000000000000000000F5F500F5F5000000000000F500000000000000000000000000000000000000000000000000000000000000000000000000000000000000000000
310
000000000000000000000000000000000000000000000000F500000000BE000000000000000000000000000000000000000000000000000000000000000000000000BE000000000000000000F500000000000000000000000000000000000000000000000000F500F5F5F5F5F5F5F5F5F5F5F5F5F5F5F5F5F5F5F5F5F5F5F5
310
F5F5F5F5F5F5F5F5F5F5F5F5F5F5F5F5F5F5F5F5F5F5F5F5F5F500F5F5F5F5F5F5F5F5F5F5F5F50000000000000000000000000000000000000000000000000000000000000000F5F5F50000000000000000F50000000000000000000000000000000000000000000000000000000000000000000000000000000000000000
310
0000000000000000000000000000000000000000000000000000F500000000BE000000000000000000000000000000000000000000000000000000000000000000000000BE000000000000000000F500000000000000000000000000000000000000000000000000F500000000000000000000000000000000000000000000
310
0000000000000000000000000000000000000000000000000000000000F500000000000000F500F5F5000000000000000000000000000000000000000000000000000000000000000000F5F50000000000000000F5000000000000000000000000000000000000000000000000000000000000000000000000000000000000
310
00000000000000000000000000000000000000000000000000000000F500000000BE000000000000000000000000000000000000000000000000000000000000000000000000BE000000000000000000F500000000000000000000000000000000000000000000000000F5F5F5F5F5F5F5F5F5F5F5F5F5F5F5F5F5F5F5F5F5
310
F5F5F5F5F5F5F5F5F5F5F5F5F5F5F5F5F5F5F5F5F5F5F5F5F5F5F5F5F5F5F5F5F5F5F5F5F5F5F5F5F5F5F50000000000000000000000000000000000000000000000000000000000000000F500F5F5F5F5F5F5F5F5F5F500000000000000000000000000000000000000000000000000000000000000000000000000000000
310
000000000000000000000000000000000000000000000000000000000000F500000000BE000000000000000000000000000000000000000000000000000000000000000000000000BE000000000000000000F50000000000000000000000000000000000000000000000000000000000000000000000000000000000000000
310
0000000000000000000000000000000000000000000000000000000000000000000000000000000000F5F500000000000000000000000000000000000000000000000000000000000000000000F5F5000000000000000000000000000000000000000000000000000000000000000000000000000000000000000000000000
310
0000000000000000000000000000000000000000000000000000000000000000F500000000BE000000000000000000000000000000000000000000000000000000000000000000000000BE000000000000000000F5000000000000000000000000000000000000000000000000000000000000000000000000000000000000
310
00000000000000000000000000000000000000000000000000000000000000000000000000000000000000F500000000000000000000000000000000000000000000000000000000000000000000F5F5F500000000000000000000000000000000000000000000000000000000000000000000000000000000000000000000
310
00000000000000000000000000000000000000000000000000000000000000000000F500000000BE000000000000000000000000000000000000000000000000000000000000000000000000BE000000000000000000F500000000000000000000000000000000000000000000000000000000000000000000000000000000
310
000000000000000000000000000000000000000000000000000000000000000000000000000000000000000000F5F5F500000000000000000000000000000000000000000000000000000000000000F500F5F50000000000000000000000000000000000000000000000000000000000000000000000000000000000000000
310
000000000000000000000000000000000000000000000000000000000000000000000000F500000000BE000000000000000000000000000000000000000000000000000000000000000000000000BE000000000000000000F50000000000000000000000000000000000000000000000000000000000000000000000000000
310
0000000000000000000000000000000000000000000000000000000000000000000000000000000000000000000000F5F5F50000000000000000000000000000000000000000000000000000000000000000000000000000000000000000000000000000000000000000000000000000000000000000000000000000000000
310
0000000000000000000000000000000000000000000000000000000000000000000000000000F500000000BE000000000000000000000000000000000000000000000000000000000000000000000000BE000000000000000000F5000000000000000000000000000000000000000000000000000000000000000000000000
310
00000000000000000000000000000000000000000000000000000000000000000000000000000000000000000000000000F5F5F5000000000000000000000000000000000000000000000000000000000000000000000000000000000000000000000000000000000000000000000000000000000000000000000000000000
310
00000000000000000000000000000000000000000000000000000000000000000000000000000000F500000000BE000000000000000000000000000000000000000000000000000000000000000000000000BE000000000000000000F500000000000000000000000000000000000000000000000000000000000000000000
310
00000000000000000000000000000000000000000000000000000000000000000000000000000000000000000000000000000000000000000000000000000000000000000000000000000000000000000000000000000000000000000000000000000000000000000000000000000000000000000000000000000000000000
310
000000000000000000000000000000000000000000000000000000000000000000000000000000000000F500000000BE000000000000000000000000000000000000000000000000000000000000000000000000BE000000000000000000F50000000000000000000000000000000000000000000000000000000000000000
310
00000000000000000000000000000000000000000000000000000000000000000000000000000000000000000000000000000000000000000000000000000000000000000000000000000000000000000000000000000000000000000000000000000000000000000000000000000000000000000000000000000000000000
310
0000000000000000000000000000000000000000000000000000000000000000000000000000000000000000F500000000BE000000000000000000000000000000000000000000000000000000000000000000000000BE000000000000000000F5000000000000000000000000000000000000000000000000000000000000
310
00000000000000000000000000000000000000000000000000000000000000000000000000000000000000000000000000000000000000000000000000000000000000000000000000000000000000000000000000000000000000000000000000000000000000000000000000000000000000000000000000000000000000
310
00000000000000000000000000000000000000000000000000000000000000000000000000000000000000000000F500000000BE000000000000000000000000000000000000000000000000000000000000000000000000BE000000000000000000F500000000000000000000000000000000000000000000000000000000
310
00000000000000000000000000000000000000000000000000000000000000000000000000000000000000000000000000000000000000000000000000000000000000000000000000000000000000000000000000000000000000000000000000000000000000000000000000000000000000000000000000000000000000
310
000000000000000000000000000000000000000000000000000000000000000000000000000000000000000000000000F500000000BE000000000000000000000000000000000000000000000000000000000000000000000000BE000000000000000000F50000000000000000000000000000000000000000000000000000
310
00000000000000000000000000000000000000000000000000000000000000000000000000000000000000000000000000000000000000000000000000000000000000000000000000000000000000000000000000000000000000000000000000000000000000000000000000000000000000000000000000000000000000
310
0000000000000000000000000000000000000000000000000000000000000000000000000000000000000000000000000000F500000000BE000000000000000000000000000000000000000000000000000000000000000000000000BE000000000000000000F5000000000000000000000000000000000000000000000000
310
00000000000000000000000000000000000000000000000000000000000000000000000000000000000000000000000000000000000000000000000000000000000000000000000000000000000000000000000000000000000000000000000000000000000000000000000000000000000000000000000000000000000000
310
00000000000000000000000000000000000000000000000000000000000000000000000000000000000000000000000000000000F500000000BE000000000000000000000000000000000000000000000000000000000000000000000000BE000000000000000000F500000000000000000000000000000000000000000000
310
000000000000000000000000000000000000000000000000000000F500F5F5F5F5F5000000000000000000000000000000000000000000000000000000000000000000000000000000000000000000000000000000000000000000000000000000000000000000000000000000000000000000000000000000000000000000
310
000000000000000000000000000000000000000000000000000000000000000000000000000000000000000000000000000000000000F500000000BE000000000000000000000000000000000000000000000000000000000000000000000000BE000000000000000000F50000000000000000000000000000000000000000
310
00000000000000000000000000000000000000000000000000000000F5F5F5F5F5F5F5F500000000000000000000000000000000000000000000000000000000000000000000000000000000000000000000000000000000000000000000000000000000000000000000000000000000000000000000000000000000000000
310
0000000000000000000000000000000000000000000000000000000000000000000000000000000000000000000000000000000000000000F500000000BE000000000000000000000000000000000000000000000000000000000000000000000000BE000000000000000000F5000000000000000000000000000000000000
310
000000000000000000000000000000000000000000000000000000000000F5F5F5F5F5F5F5F50000000000000000000000000000000000000000000000000000000000000000000000000000000000000000000000000000000000000000000000000000000000000000000000000000000000000000000000000000000000
310
00000000000000000000000000000000000000000000000000000000000000000000000000000000000000000000000000000000000000000000F500000000BE000000000000000000000000000000000000000000000000000000000000000000000000BE000000000000000000F500000000000000000000000000000000
310
00000000000000000000000000000000000000000000000000000000000000000000000000000000000000000000000000000000000000000000000000000000000000000000000000000000000000000000000000000000000000000000000000000000000000000000000000000000000000000000000000000000000000
310
000000000000000000000000000000000000000000000000000000000000000000000000000000000000000000000000000000000000000000000000F500000000BE000000000000000000000000000000000000000000000000000000000000000000000000BE000000000000000000F50000000000000000000000000000
310
00000000000000000000000000000000000000000000000000000000000000000000000000000000000000000000000000000000000000000000000000000000000000000000000000000000000000000000000000000000000000000000000000000000000000000000000000000000000000000000000000000000000000
310
0000000000000000000000000000000000000000000000000000000000000000000000000000000000000000000000000000000000000000000000000000F500000000BE000000000000000000000000000000000000000000000000000000000000000000000000BE000000000000000000F5000000000000000000000000
310
00000000000000000000000000000000000000000000000000000000000000000000000000000000000000000000000000000000000000000000000000000000000000000000000000000000000000000000000000000000000000000000000000000000000000000000000000000000000000000000000000000000000000
310
00000000000000000000000000000000000000000000000000000000000000000000000000000000000000000000000000000000000000000000000000000000F500000000BE000000000000000000000000000000000000000000000000000000000000000000000000BE000000000000000000F500000000000000000000
310
00000000000000000000000000000000000000000000000000000000000000000000000000000000000000000000000000000000000000000000000000000000000000000000000000000000000000000000000000000000000000000000000000000000000000000000000000000000000000000000000000000000000000
310
000000000000000000000000000000000000000000000000000000000000000000000000000000000000000000000000000000000000000000000000000000000000F500000000BE000000000000000000000000000000000000000000000000000000000000000000000000BE000000000000000000F50000000000000000
310
00000000000000000000000000000000000000000000000000000000000000000000000000000000000000000000000000000000000000000000000000000000000000000000000000000000000000000000000000000000000000000000000000000000000000000000000000000000000000000000000000000000000000
310
0000000000000000000000000000000000000000000000000000000000000000000000000000000000000000000000000000000000000000000000000000000000000000F500000000BE000000000000000000000000000000000000000000000000000000000000000000000000BE000000000000000000F5000000000000
310
00000000000000000000000000000000000000000000000000000000000000000000000000000000000000000000000000000000000000000000000000000000000000000000000000000000000000000000000000000000000000000000000000000000000000000000000000000000000000000000000000000000000000
310
00000000000000000000000000000000000000000000000000000000000000000000000000000000000000000000000000000000000000000000000000000000000000000000F500000000BE000000000000000000000000000000000000000000000000000000000000000000000000BE000000000000000000F5F5F5F5F5
310
F5F5F5F5F5F5F5F5F5F5F5F5F5F5F5F5F5F5F5F5F5F5F5F5F5F5F5F5F5F5F5F5F5F5F5F5F5F5F5F5F5F5F5F5F5F5F5F5F5F5F5F5F5F5F5F5F5F5F5F5F5F5F5F5F5F5F5F5F5F5F5F5F5F5F5F5F5F5F5F5F5F5F5F5F5F5F5F5F5F5F5F5F5F5F5F5F5F5F5F5F5F5F5F5F5F5F5F5F5F5F5F5F5F5F5F5F5F5F5F5F5F5F5F5F5F5F5
310
F5F5F5F5F5F5F5F5F5F5F5F5F5F5F5F5F5F5F5F5F5F5F5F5F5F5F5F5F5F5F5F5F5F5F5F5F5F5F5F5F5F5F5F5F5F5F5F5F5F5F5F5F5F5F5F5F5F5F5F5F5F5F5F5F5F5F5F5F5F5F5F5F500000000BE000000000000000000000000000000000000000000000000000000000000000000000000BE000000000000000000000000
310
00000000000000000000000000000000000000000000000000000000000000000000000000000000000000000000000000000000000000000000000000000000000000000000000000000000000000000000000000000000000000000000000000000000000000000000000000000000000000000000000000000000000000
310
00000000000000000000000000000000000000000000000000000000000000000000000000000000000000000000000000000000000000000000000000000000000000000000000000000000000000BE000000000000000000000000000000000000000000000000000000000000000000000000BE00000000000000000000
310
00000000000000000000000000000000000000000000000000000000000000000000000000000000000000000000000000000000000000000000000000000000000000000000000000000000000000000000000000000000000000000000000000000000000000000000000000000000000000000000000000000000000000
310
000000000000000000000000000000000000000000000000000000000000000000000000000000000000000000000000000000000000000000000000000000000000000000000000000000000000000000BE000000000000000000000000000000000000000000000000000000000000000000000000BE0000000000000000
310
00000000000000000000000000000000000000000000000000000000000000000000000000000000000000000000000000000000000000000000000000000000000000000000000000000000000000000000000000000000000000000000000000000000000000000000000000000000000000000000000000000000000000
310
0000000000000000000000000000000000000000000000000000000000000000000000000000000000000000000000000000000000000000000000000000000000000000000000000000000000000000000000BE000000000000000000000000000000000000000000000000000000000000000000000000BE000000000000
310
00000000000000000000000000000000000000000000000000000000000000000000000000000000000000000000000000000000000000000000000000000000000000000000000000000000000000000000000000000000000000000000000000000000000000000000000000000000000000000000000000000000000000
310
00000000000000000000000000000000000000000000000000000000000000000000000000000000000000000000000000000000000000000000000000000000000000000000000000000000000000000000000000BE000000000000000000000000000000000000000000000000000000000000000000000000BEBEBEBEBE
310
BEBEBEBEBEBEBEBEBEBEBEBEBEBEBEBEBEBEBEBEBEBEBEBEBEBEBEBEBEBEBEBEBEBEBEBEBEBEBEBEBEBEBEBEBEBEBEBEBEBEBEBEBEBEBEBEBEBEBEBEBEBEBEBEBEBEBEBEBEBEBEBEBEBEBEBEBEBEBEBEBEBEBEBEBEBEBEBEBEBEBEBEBEBEBEBEBEBEBEBEBEBEBEBEBEBEBEBEBEBEBEBEBEBEBEBEBEBEBEBEBEBEBEBEBEBEBE
310
BEBEBEBEBEBEBEBEBEBEBEBEBEBEBEBEBEBEBEBEBEBEBEBEBEBEBEBEBEBEBEBEBEBEBEBEBEBEBEBEBEBEBEBEBEBEBEBEBEBEBEBEBEBEBEBEBEBEBEBEBEBEBEBEBEBEBEBEBEBEBEBEBEBEBEBEBEBEBEBEBEBEBEBEBEBEBEBE000000000000000000000000000000000000000000000000000000000000000000000000000000
310
00000000000000000000000000000000000000000000000000000000000000000000000000000000000000000000000000000000000000000000000000000000000000000000000000000000000000000000000000000000000000000000000000000000000000000000000000000000000000000000000000000000000000
310
000000000000000000000000000000000000000000000000000000000000000000000000000000000000000000000000000000000000000000000000000000000000000000000000000000000000000000000000000000000000000000000000000000000000000000000000
  0
XRECORD
  5
103E
102
{ACAD_REACTORS
330
103D
102
}
330
103D
100
AcDbXrecord
280
     1
102
SHADEPLOT
 70
     0
102
SHADEPLOTRESLEVEL
 70
     2
102
SHADEPLOTCUSTOMDPI
 70
   300
  0
XRECORD
  5
1040
102
{ACAD_REACTORS
330
103F
102
}
330
103F
100
AcDbXrecord
280
     1
102
SHADEPLOT
 70
     0
102
SHADEPLOTRESLEVEL
 70
     2
102
SHADEPLOTCUSTOMDPI
 70
   300
  0
XRECORD
  5
1042
102
{ACAD_REACTORS
330
F83
102
}
330
F83
100
AcDbXrecord
280
     1
102
MATERIAL
148
0.0
149
0.0
149
0.0
 93
        0
 94
      127
282
     0
 72
     0
 77
     0
171
     0
175
     0
179
     0
273
     0
  0
XRECORD
  5
F85
102
{ACAD_REACTORS
330
F83
102
}
330
F83
100
AcDbXrecord
280
     1
270
     1
271
     1
  0
XRECORD
  5
F84
102
{ACAD_REACTORS
330
F83
102
}
330
F83
100
AcDbXrecord
280
     1
270
     1
271
     1
  0
XRECORD
  5
F88
102
{ACAD_REACTORS
330
F83
102
}
330
F83
100
AcDbXrecord
280
     1
270
     1
271
     1
  0
XRECORD
  5
F87
102
{ACAD_REACTORS
330
F83
102
}
330
F83
100
AcDbXrecord
280
     1
270
     1
271
     1
  0
XRECORD
  5
F89
102
{ACAD_REACTORS
330
F83
102
}
330
F83
100
AcDbXrecord
280
     1
270
     1
271
     1
  0
XRECORD
  5
F86
102
{ACAD_REACTORS
330
F83
102
}
330
F83
100
AcDbXrecord
280
     1
270
     1
271
     1
  0
XRECORD
  5
1041
102
{ACAD_REACTORS
330
F7B
102
}
330
F7B
100
AcDbXrecord
280
     1
102
MATERIAL
148
0.0
149
0.0
149
0.0
 93
        0
 94
      127
282
     0
 72
     0
 77
     0
171
     0
175
     0
179
     0
273
     0
  0
XRECORD
  5
F7D
102
{ACAD_REACTORS
330
F7B
102
}
330
F7B
100
AcDbXrecord
280
     1
270
     1
271
     1
  0
XRECORD
  5
F7C
102
{ACAD_REACTORS
330
F7B
102
}
330
F7B
100
AcDbXrecord
280
     1
270
     1
271
     1
  0
XRECORD
  5
F80
102
{ACAD_REACTORS
330
F7B
102
}
330
F7B
100
AcDbXrecord
280
     1
270
     1
271
     1
  0
XRECORD
  5
F7F
102
{ACAD_REACTORS
330
F7B
102
}
330
F7B
100
AcDbXrecord
280
     1
270
     1
271
     1
  0
XRECORD
  5
F81
102
{ACAD_REACTORS
330
F7B
102
}
330
F7B
100
AcDbXrecord
280
     1
270
     1
271
     1
  0
XRECORD
  5
F7E
102
{ACAD_REACTORS
330
F7B
102
}
330
F7B
100
AcDbXrecord
280
     1
270
     1
271
     1
  0
XRECORD
  5
1043
102
{ACAD_REACTORS
330
F8B
102
}
330
F8B
100
AcDbXrecord
280
     1
102
MATERIAL
148
0.0
149
0.0
149
0.0
 93
        0
 94
      127
282
     0
 72
     0
 77
     0
171
     0
175
     0
179
     0
273
     0
  0
XRECORD
  5
F8D
102
{ACAD_REACTORS
330
F8B
102
}
330
F8B
100
AcDbXrecord
280
     1
270
     1
271
     1
  0
XRECORD
  5
F8C
102
{ACAD_REACTORS
330
F8B
102
}
330
F8B
100
AcDbXrecord
280
     1
270
     1
271
     1
  0
XRECORD
  5
F90
102
{ACAD_REACTORS
330
F8B
102
}
330
F8B
100
AcDbXrecord
280
     1
270
     1
271
     1
  0
XRECORD
  5
F8F
102
{ACAD_REACTORS
330
F8B
102
}
330
F8B
100
AcDbXrecord
280
     1
270
     1
271
     1
  0
XRECORD
  5
F91
102
{ACAD_REACTORS
330
F8B
102
}
330
F8B
100
AcDbXrecord
280
     1
270
     1
271
     1
  0
XRECORD
  5
F8E
102
{ACAD_REACTORS
330
F8B
102
}
330
F8B
100
AcDbXrecord
280
     1
270
     1
271
     1
  0
XRECORD
  5
1035
102
{ACAD_REACTORS
330
1034
102
}
330
1034
100
AcDbXrecord
280
     1
102
ACAD_ROUNDTRIP_2012_MLEADER_STYLE
298
     1
  0
CELLSTYLEMAP
  5
1033
102
{ACAD_REACTORS
330
1032
102
}
330
1032
100
AcDbCellStyleMap
 90
        3
300
CELLSTYLE
  1
TABLEFORMAT_BEGIN
 90
        5
170
     1
 91
        0
 92
    32768
 62
   257
 93
        1
300
CONTENTFORMAT
  1
CONTENTFORMAT_BEGIN
 90
        0
 91
        0
 92
        4
 93
        0
300

 40
0.0
140
1.0
 94
        5
 62
     0
340
11
144
6.0
309
CONTENTFORMAT_END
171
     1
301
MARGIN
  1
CELLMARGIN_BEGIN
 40
1.5
 40
1.5
 40
1.5
 40
1.5
 40
0.18
 40
0.18
309
CELLMARGIN_END
 94
        6
 95
        1
302
GRIDFORMAT
  1
GRIDFORMAT_BEGIN
 90
        0
 91
        1
 62
     0
 92
       -2
340
0
 93
        0
 40
0.045
309
GRIDFORMAT_END
 95
        2
302
GRIDFORMAT
  1
GRIDFORMAT_BEGIN
 90
        0
 91
        1
 62
     0
 92
       -2
340
0
 93
        0
 40
0.045
309
GRIDFORMAT_END
 95
        4
302
GRIDFORMAT
  1
GRIDFORMAT_BEGIN
 90
        0
 91
        1
 62
     0
 92
       -2
340
0
 93
        0
 40
0.045
309
GRIDFORMAT_END
 95
        8
302
GRIDFORMAT
  1
GRIDFORMAT_BEGIN
 90
        0
 91
        1
 62
     0
 92
       -2
340
0
 93
        0
 40
0.045
309
GRIDFORMAT_END
 95
       16
302
GRIDFORMAT
  1
GRIDFORMAT_BEGIN
 90
        0
 91
        1
 62
     0
 92
       -2
340
0
 93
        0
 40
0.045
309
GRIDFORMAT_END
 95
       32
302
GRIDFORMAT
  1
GRIDFORMAT_BEGIN
 90
        0
 91
        1
 62
     0
 92
       -2
340
0
 93
        0
 40
0.045
309
GRIDFORMAT_END
309
TABLEFORMAT_END
  1
CELLSTYLE_BEGIN
 90
        1
 91
        1
300
_TITLE
309
CELLSTYLE_END
300
CELLSTYLE
  1
TABLEFORMAT_BEGIN
 90
        5
170
     1
 91
        0
 92
        0
 62
   257
 93
        1
300
CONTENTFORMAT
  1
CONTENTFORMAT_BEGIN
 90
        0
 91
        0
 92
        4
 93
        0
300

 40
0.0
140
1.0
 94
        5
 62
     0
340
11
144
4.5
309
CONTENTFORMAT_END
171
     1
301
MARGIN
  1
CELLMARGIN_BEGIN
 40
1.5
 40
1.5
 40
1.5
 40
1.5
 40
0.18
 40
0.18
309
CELLMARGIN_END
 94
        6
 95
        1
302
GRIDFORMAT
  1
GRIDFORMAT_BEGIN
 90
        0
 91
        1
 62
     0
 92
       -2
340
0
 93
        0
 40
0.045
309
GRIDFORMAT_END
 95
        2
302
GRIDFORMAT
  1
GRIDFORMAT_BEGIN
 90
        0
 91
        1
 62
     0
 92
       -2
340
0
 93
        0
 40
0.045
309
GRIDFORMAT_END
 95
        4
302
GRIDFORMAT
  1
GRIDFORMAT_BEGIN
 90
        0
 91
        1
 62
     0
 92
       -2
340
0
 93
        0
 40
0.045
309
GRIDFORMAT_END
 95
        8
302
GRIDFORMAT
  1
GRIDFORMAT_BEGIN
 90
        0
 91
        1
 62
     0
 92
       -2
340
0
 93
        0
 40
0.045
309
GRIDFORMAT_END
 95
       16
302
GRIDFORMAT
  1
GRIDFORMAT_BEGIN
 90
        0
 91
        1
 62
     0
 92
       -2
340
0
 93
        0
 40
0.045
309
GRIDFORMAT_END
 95
       32
302
GRIDFORMAT
  1
GRIDFORMAT_BEGIN
 90
        0
 91
        1
 62
     0
 92
       -2
340
0
 93
        0
 40
0.045
309
GRIDFORMAT_END
309
TABLEFORMAT_END
  1
CELLSTYLE_BEGIN
 90
        2
 91
        1
300
_HEADER
309
CELLSTYLE_END
300
CELLSTYLE
  1
TABLEFORMAT_BEGIN
 90
        5
170
     1
 91
        0
 92
        0
 62
   257
 93
        1
300
CONTENTFORMAT
  1
CONTENTFORMAT_BEGIN
 90
        0
 91
        0
 92
        4
 93
        0
300

 40
0.0
140
1.0
 94
        2
 62
     0
340
11
144
4.5
309
CONTENTFORMAT_END
171
     1
301
MARGIN
  1
CELLMARGIN_BEGIN
 40
1.5
 40
1.5
 40
1.5
 40
1.5
 40
0.18
 40
0.18
309
CELLMARGIN_END
 94
        6
 95
        1
302
GRIDFORMAT
  1
GRIDFORMAT_BEGIN
 90
        0
 91
        1
 62
     0
 92
       -2
340
0
 93
        0
 40
0.045
309
GRIDFORMAT_END
 95
        2
302
GRIDFORMAT
  1
GRIDFORMAT_BEGIN
 90
        0
 91
        1
 62
     0
 92
       -2
340
0
 93
        0
 40
0.045
309
GRIDFORMAT_END
 95
        4
302
GRIDFORMAT
  1
GRIDFORMAT_BEGIN
 90
        0
 91
        1
 62
     0
 92
       -2
340
0
 93
        0
 40
0.045
309
GRIDFORMAT_END
 95
        8
302
GRIDFORMAT
  1
GRIDFORMAT_BEGIN
 90
        0
 91
        1
 62
     0
 92
       -2
340
0
 93
        0
 40
0.045
309
GRIDFORMAT_END
 95
       16
302
GRIDFORMAT
  1
GRIDFORMAT_BEGIN
 90
        0
 91
        1
 62
     0
 92
       -2
340
0
 93
        0
 40
0.045
309
GRIDFORMAT_END
 95
       32
302
GRIDFORMAT
  1
GRIDFORMAT_BEGIN
 90
        0
 91
        1
 62
     0
 92
       -2
340
0
 93
        0
 40
0.045
309
GRIDFORMAT_END
309
TABLEFORMAT_END
  1
CELLSTYLE_BEGIN
 90
        3
 91
        2
300
_DATA
309
CELLSTYLE_END
  0
XRECORD
  5
103C
102
{ACAD_REACTORS
330
1032
102
}
330
1032
100
AcDbXrecord
280
     1
102
ACAD_ROUNDTRIP_PRE2007_TABLESTYLE
 90
        4
 91
        0
  1

 92
        4
 93
        0
  2

 94
        4
 95
        0
  3

  0
XRECORD
  5
104F
102
{ACAD_REACTORS
330
104E
102
}
330
104E
100
AcDbXrecord
280
     1
102
RTVSPropertyOp0
 70
     1
102
RTVSPropertyOp1
 70
     1
102
RTVSPropertyOp2
 70
     1
102
RTVSPropertyOp3
 70
     1
102
RTVSPropertyOp4
 70
     1
102
RTVSPropertyOp5
 70
     1
102
RTVSPropertyOp6
 70
     1
102
RTVSPropertyOp7
 70
     1
102
RTVSPropertyOp8
 70
     1
102
RTVSPropertyOp9
 70
     1
102
RTVSPropertyOp10
 70
     1
102
RTVSPropertyOp11
 70
     1
102
RTVSPropertyOp12
 70
     1
102
RTVSPropertyOp13
 70
     1
102
RTVSPropertyOp14
 70
     1
102
RTVSPropertyOp15
 70
     1
102
RTVSPropertyOp16
 70
     1
102
RTVSPropertyOp17
 70
     1
102
RTVSPropertyOp18
 70
     1
102
RTVSPropertyOp19
 70
     1
102
RTVSPropertyOp20
 70
     1
102
RTVSPropertyOp21
 70
     1
102
RTVSPropertyOp22
 70
     1
102
RTVSPropertyOp23
 70
     1
102
RTVSPropertyOp24
 70
     1
102
RTVSPropertyOp25
 70
     1
102
RTVSPropertyOp26
 70
     1
102
RTVSPropertyOp27
 70
     1
102
RTVSPropertyOp28
 70
     1
102
RTVSPropertyOp29
 70
     1
102
RTVSPropertyOp30
 70
     1
102
RTVSPropertyOp31
 70
     1
102
RTVSPropertyOp32
 70
     1
  0
XRECORD
  5
104D
102
{ACAD_REACTORS
330
104C
102
}
330
104C
100
AcDbXrecord
280
     1
102
RTVSPropertyOp0
 70
     1
102
RTVSPropertyOp1
 70
     1
102
RTVSPropertyOp2
 70
     1
102
RTVSPropertyOp3
 70
     1
102
RTVSPropertyOp4
 70
     1
102
RTVSPropertyOp5
 70
     1
102
RTVSPropertyOp6
 70
     1
102
RTVSPropertyOp7
 70
     1
102
RTVSPropertyOp8
 70
     1
102
RTVSPropertyOp9
 70
     1
102
RTVSPropertyOp10
 70
     1
102
RTVSPropertyOp11
 70
     1
102
RTVSPropertyOp12
 70
     1
102
RTVSPropertyOp13
 70
     1
102
RTVSPropertyOp14
 70
     1
102
RTVSPropertyOp15
 70
     1
102
RTVSPropertyOp16
 70
     1
102
RTVSPropertyOp17
 70
     1
102
RTVSPropertyOp18
 70
     1
102
RTVSPropertyOp19
 70
     1
102
RTVSPropertyOp20
 70
     1
102
RTVSPropertyOp21
 70
     1
102
RTVSPropertyOp22
 70
     1
102
RTVSPropertyOp23
 70
     1
102
RTVSPropertyOp24
 70
     1
102
RTVSPropertyOp25
 70
     1
102
RTVSPropertyOp26
 70
     1
102
RTVSPropertyOp27
 70
     1
102
RTVSPropertyOp28
 70
     1
102
RTVSPropertyOp29
 70
     1
102
RTVSPropertyOp30
 70
     1
102
RTVSPropertyOp31
 70
     1
102
RTVSPropertyOp32
 70
     1
  0
XRECORD
  5
105B
102
{ACAD_REACTORS
330
105A
102
}
330
105A
100
AcDbXrecord
280
     1
102
RTVSPropertyOp0
 70
     1
102
RTVSPropertyOp1
 70
     1
102
RTVSPropertyOp2
 70
     1
102
RTVSPropertyOp3
 70
     1
102
RTVSPropertyOp4
 70
     1
102
RTVSPropertyOp5
 70
     1
102
RTVSPropertyOp6
 70
     1
102
RTVSPropertyOp7
 70
     1
102
RTVSPropertyOp8
 70
     1
102
RTVSPropertyOp9
 70
     1
102
RTVSPropertyOp10
 70
     1
102
RTVSPropertyOp11
 70
     1
102
RTVSPropertyOp12
 70
     1
102
RTVSPropertyOp13
 70
     1
102
RTVSPropertyOp14
 70
     1
102
RTVSPropertyOp15
 70
     1
102
RTVSPropertyOp16
 70
     1
102
RTVSPropertyOp17
 70
     1
102
RTVSPropertyOp18
 70
     1
102
RTVSPropertyOp19
 70
     1
102
RTVSPropertyOp20
 70
     1
102
RTVSPropertyOp21
 70
     1
102
RTVSPropertyOp22
 70
     1
102
RTVSPropertyOp23
 70
     1
102
RTVSPropertyOp24
 70
     1
102
RTVSPropertyOp25
 70
     1
102
RTVSPropertyOp26
 70
     1
102
RTVSPropertyOp27
 70
     1
102
RTVSPropertyOp28
 70
     1
102
RTVSPropertyOp29
 70
     1
102
RTVSPropertyOp30
 70
     1
102
RTVSPropertyOp31
 70
     1
102
RTVSPropertyOp32
 70
     1
  0
XRECORD
  5
1063
102
{ACAD_REACTORS
330
1062
102
}
330
1062
100
AcDbXrecord
280
     1
102
RTVSPropertyOp0
 70
     1
102
RTVSPropertyOp1
 70
     1
102
RTVSPropertyOp2
 70
     1
102
RTVSPropertyOp3
 70
     1
102
RTVSPropertyOp4
 70
     1
102
RTVSPropertyOp5
 70
     1
102
RTVSPropertyOp6
 70
     1
102
RTVSPropertyOp7
 70
     1
102
RTVSPropertyOp8
 70
     1
102
RTVSPropertyOp9
 70
     1
102
RTVSPropertyOp10
 70
     1
102
RTVSPropertyOp11
 70
     1
102
RTVSPropertyOp12
 70
     1
102
RTVSPropertyOp13
 70
     1
102
RTVSPropertyOp14
 70
     1
102
RTVSPropertyOp15
 70
     1
102
RTVSPropertyOp16
 70
     1
102
RTVSPropertyOp17
 70
     1
102
RTVSPropertyOp18
 70
     1
102
RTVSPropertyOp19
 70
     1
102
RTVSPropertyOp20
 70
     1
102
RTVSPropertyOp21
 70
     1
102
RTVSPropertyOp22
 70
     1
102
RTVSPropertyOp23
 70
     1
102
RTVSPropertyOp24
 70
     1
102
RTVSPropertyOp25
 70
     1
102
RTVSPropertyOp26
 70
     1
102
RTVSPropertyOp27
 70
     1
102
RTVSPropertyOp28
 70
     1
102
RTVSPropertyOp29
 70
     1
102
RTVSPropertyOp30
 70
     1
102
RTVSPropertyOp31
 70
     1
102
RTVSPropertyOp32
 70
     1
  0
XRECORD
  5
1055
102
{ACAD_REACTORS
330
1054
102
}
330
1054
100
AcDbXrecord
280
     1
102
RTVSPropertyOp0
 70
     1
102
RTVSPropertyOp1
 70
     1
102
RTVSPropertyOp2
 70
     1
102
RTVSPropertyOp3
 70
     1
102
RTVSPropertyOp4
 70
     1
102
RTVSPropertyOp5
 70
     1
102
RTVSPropertyOp6
 70
     1
102
RTVSPropertyOp7
 70
     1
102
RTVSPropertyOp8
 70
     1
102
RTVSPropertyOp9
 70
     1
102
RTVSPropertyOp10
 70
     1
102
RTVSPropertyOp11
 70
     1
102
RTVSPropertyOp12
 70
     1
102
RTVSPropertyOp13
 70
     1
102
RTVSPropertyOp14
 70
     1
102
RTVSPropertyOp15
 70
     1
102
RTVSPropertyOp16
 70
     1
102
RTVSPropertyOp17
 70
     1
102
RTVSPropertyOp18
 70
     1
102
RTVSPropertyOp19
 70
     1
102
RTVSPropertyOp20
 70
     1
102
RTVSPropertyOp21
 70
     1
102
RTVSPropertyOp22
 70
     1
102
RTVSPropertyOp23
 70
     1
102
RTVSPropertyOp24
 70
     1
102
RTVSPropertyOp25
 70
     1
102
RTVSPropertyOp26
 70
     1
102
RTVSPropertyOp27
 70
     1
102
RTVSPropertyOp28
 70
     1
102
RTVSPropertyOp29
 70
     1
102
RTVSPropertyOp30
 70
     1
102
RTVSPropertyOp31
 70
     1
102
RTVSPropertyOp32
 70
     1
  0
XRECORD
  5
1059
102
{ACAD_REACTORS
330
1058
102
}
330
1058
100
AcDbXrecord
280
     1
102
RTVSPropertyOp0
 70
     1
102
RTVSPropertyOp1
 70
     1
102
RTVSPropertyOp2
 70
     1
102
RTVSPropertyOp3
 70
     1
102
RTVSPropertyOp4
 70
     1
102
RTVSPropertyOp5
 70
     1
102
RTVSPropertyOp6
 70
     1
102
RTVSPropertyOp7
 70
     1
102
RTVSPropertyOp8
 70
     1
102
RTVSPropertyOp9
 70
     1
102
RTVSPropertyOp10
 70
     1
102
RTVSPropertyOp11
 70
     1
102
RTVSPropertyOp12
 70
     1
102
RTVSPropertyOp13
 70
     1
102
RTVSPropertyOp14
 70
     1
102
RTVSPropertyOp15
 70
     1
102
RTVSPropertyOp16
 70
     1
102
RTVSPropertyOp17
 70
     1
102
RTVSPropertyOp18
 70
     1
102
RTVSPropertyOp19
 70
     1
102
RTVSPropertyOp20
 70
     1
102
RTVSPropertyOp21
 70
     1
102
RTVSPropertyOp22
 70
     1
102
RTVSPropertyOp23
 70
     1
102
RTVSPropertyOp24
 70
     1
102
RTVSPropertyOp25
 70
     1
102
RTVSPropertyOp26
 70
     1
102
RTVSPropertyOp27
 70
     1
102
RTVSPropertyOp28
 70
     1
102
RTVSPropertyOp29
 70
     1
102
RTVSPropertyOp30
 70
     1
102
RTVSPropertyOp31
 70
     1
102
RTVSPropertyOp32
 70
     1
  0
XRECORD
  5
1073
102
{ACAD_REACTORS
330
1072
102
}
330
1072
100
AcDbXrecord
280
     1
102
RTVSPropertyOp0
 70
     0
102
RTVSPropertyOp1
 70
     0
102
RTVSPropertyOp2
 70
     0
102
RTVSPropertyOp3
 70
     0
102
RTVSPropertyOp4
 70
     0
102
RTVSPropertyOp5
 70
     0
102
RTVSPropertyOp6
 70
     0
102
RTVSPropertyOp7
 70
     0
102
RTVSPropertyOp8
 70
     0
102
RTVSPropertyOp9
 70
     0
102
RTVSPropertyOp10
 70
     0
102
RTVSPropertyOp11
 70
     0
102
RTVSPropertyOp12
 70
     0
102
RTVSPropertyOp13
 70
     0
102
RTVSPropertyOp14
 70
     2
102
RTVSPropertyOp15
 70
     0
102
RTVSPropertyOp16
 70
     0
102
RTVSPropertyOp17
 70
     0
102
RTVSPropertyOp18
 70
     0
102
RTVSPropertyOp19
 70
     0
102
RTVSPropertyOp20
 70
     0
102
RTVSPropertyOp21
 70
     0
102
RTVSPropertyOp22
 70
     0
102
RTVSPropertyOp23
 70
     0
102
RTVSPropertyOp24
 70
     0
102
RTVSPropertyOp25
 70
     0
102
RTVSPropertyOp26
 70
     0
102
RTVSPropertyOp27
 70
     0
102
RTVSPropertyOp28
 70
     0
102
RTVSPropertyOp29
 70
     0
102
RTVSPropertyOp30
 70
     0
102
RTVSPropertyOp31
 70
     0
102
RTVSPropertyOp32
 70
     0
  0
XRECORD
  5
1061
102
{ACAD_REACTORS
330
1060
102
}
330
1060
100
AcDbXrecord
280
     1
102
RTVSPropertyOp0
 70
     1
102
RTVSPropertyOp1
 70
     1
102
RTVSPropertyOp2
 70
     1
102
RTVSPropertyOp3
 70
     1
102
RTVSPropertyOp4
 70
     1
102
RTVSPropertyOp5
 70
     1
102
RTVSPropertyOp6
 70
     1
102
RTVSPropertyOp7
 70
     1
102
RTVSPropertyOp8
 70
     1
102
RTVSPropertyOp9
 70
     1
102
RTVSPropertyOp10
 70
     1
102
RTVSPropertyOp11
 70
     1
102
RTVSPropertyOp12
 70
     1
102
RTVSPropertyOp13
 70
     1
102
RTVSPropertyOp14
 70
     1
102
RTVSPropertyOp15
 70
     1
102
RTVSPropertyOp16
 70
     1
102
RTVSPropertyOp17
 70
     1
102
RTVSPropertyOp18
 70
     1
102
RTVSPropertyOp19
 70
     1
102
RTVSPropertyOp20
 70
     1
102
RTVSPropertyOp21
 70
     1
102
RTVSPropertyOp22
 70
     1
102
RTVSPropertyOp23
 70
     1
102
RTVSPropertyOp24
 70
     1
102
RTVSPropertyOp25
 70
     1
102
RTVSPropertyOp26
 70
     1
102
RTVSPropertyOp27
 70
     1
102
RTVSPropertyOp28
 70
     1
102
RTVSPropertyOp29
 70
     1
102
RTVSPropertyOp30
 70
     1
102
RTVSPropertyOp31
 70
     1
102
RTVSPropertyOp32
 70
     1
  0
XRECORD
  5
1045
102
{ACAD_REACTORS
330
1044
102
}
330
1044
100
AcDbXrecord
280
     1
102
RTVSPropertyOp0
 70
     1
102
RTVSPropertyOp1
 70
     1
102
RTVSPropertyOp2
 70
     1
102
RTVSPropertyOp3
 70
     1
102
RTVSPropertyOp4
 70
     1
102
RTVSPropertyOp5
 70
     1
102
RTVSPropertyOp6
 70
     1
102
RTVSPropertyOp7
 70
     1
102
RTVSPropertyOp8
 70
     1
102
RTVSPropertyOp9
 70
     1
102
RTVSPropertyOp10
 70
     1
102
RTVSPropertyOp11
 70
     1
102
RTVSPropertyOp12
 70
     1
102
RTVSPropertyOp13
 70
     1
102
RTVSPropertyOp14
 70
     1
102
RTVSPropertyOp15
 70
     1
102
RTVSPropertyOp16
 70
     1
102
RTVSPropertyOp17
 70
     1
102
RTVSPropertyOp18
 70
     1
102
RTVSPropertyOp19
 70
     1
102
RTVSPropertyOp20
 70
     1
102
RTVSPropertyOp21
 70
     1
102
RTVSPropertyOp22
 70
     1
102
RTVSPropertyOp23
 70
     1
102
RTVSPropertyOp24
 70
     1
102
RTVSPropertyOp25
 70
     1
102
RTVSPropertyOp26
 70
     1
102
RTVSPropertyOp27
 70
     1
102
RTVSPropertyOp28
 70
     1
102
RTVSPropertyOp29
 70
     1
102
RTVSPropertyOp30
 70
     1
102
RTVSPropertyOp31
 70
     1
102
RTVSPropertyOp32
 70
     1
  0
XRECORD
  5
1047
102
{ACAD_REACTORS
330
1046
102
}
330
1046
100
AcDbXrecord
280
     1
102
RTVSPropertyOp0
 70
     1
102
RTVSPropertyOp1
 70
     1
102
RTVSPropertyOp2
 70
     1
102
RTVSPropertyOp3
 70
     1
102
RTVSPropertyOp4
 70
     1
102
RTVSPropertyOp5
 70
     1
102
RTVSPropertyOp6
 70
     1
102
RTVSPropertyOp7
 70
     1
102
RTVSPropertyOp8
 70
     1
102
RTVSPropertyOp9
 70
     1
102
RTVSPropertyOp10
 70
     1
102
RTVSPropertyOp11
 70
     1
102
RTVSPropertyOp12
 70
     1
102
RTVSPropertyOp13
 70
     1
102
RTVSPropertyOp14
 70
     1
102
RTVSPropertyOp15
 70
     1
102
RTVSPropertyOp16
 70
     1
102
RTVSPropertyOp17
 70
     1
102
RTVSPropertyOp18
 70
     1
102
RTVSPropertyOp19
 70
     1
102
RTVSPropertyOp20
 70
     1
102
RTVSPropertyOp21
 70
     1
102
RTVSPropertyOp22
 70
     1
102
RTVSPropertyOp23
 70
     1
102
RTVSPropertyOp24
 70
     1
102
RTVSPropertyOp25
 70
     1
102
RTVSPropertyOp26
 70
     1
102
RTVSPropertyOp27
 70
     1
102
RTVSPropertyOp28
 70
     1
102
RTVSPropertyOp29
 70
     1
102
RTVSPropertyOp30
 70
     1
102
RTVSPropertyOp31
 70
     1
102
RTVSPropertyOp32
 70
     1
  0
XRECORD
  5
1049
102
{ACAD_REACTORS
330
1048
102
}
330
1048
100
AcDbXrecord
280
     1
102
RTVSPropertyOp0
 70
     1
102
RTVSPropertyOp1
 70
     1
102
RTVSPropertyOp2
 70
     1
102
RTVSPropertyOp3
 70
     1
102
RTVSPropertyOp4
 70
     1
102
RTVSPropertyOp5
 70
     1
102
RTVSPropertyOp6
 70
     1
102
RTVSPropertyOp7
 70
     1
102
RTVSPropertyOp8
 70
     1
102
RTVSPropertyOp9
 70
     1
102
RTVSPropertyOp10
 70
     1
102
RTVSPropertyOp11
 70
     1
102
RTVSPropertyOp12
 70
     1
102
RTVSPropertyOp13
 70
     1
102
RTVSPropertyOp14
 70
     1
102
RTVSPropertyOp15
 70
     1
102
RTVSPropertyOp16
 70
     1
102
RTVSPropertyOp17
 70
     1
102
RTVSPropertyOp18
 70
     1
102
RTVSPropertyOp19
 70
     1
102
RTVSPropertyOp20
 70
     1
102
RTVSPropertyOp21
 70
     1
102
RTVSPropertyOp22
 70
     1
102
RTVSPropertyOp23
 70
     1
102
RTVSPropertyOp24
 70
     1
102
RTVSPropertyOp25
 70
     1
102
RTVSPropertyOp26
 70
     1
102
RTVSPropertyOp27
 70
     1
102
RTVSPropertyOp28
 70
     1
102
RTVSPropertyOp29
 70
     1
102
RTVSPropertyOp30
 70
     1
102
RTVSPropertyOp31
 70
     1
102
RTVSPropertyOp32
 70
     1
  0
XRECORD
  5
104B
102
{ACAD_REACTORS
330
104A
102
}
330
104A
100
AcDbXrecord
280
     1
102
RTVSPropertyOp0
 70
     1
102
RTVSPropertyOp1
 70
     1
102
RTVSPropertyOp2
 70
     1
102
RTVSPropertyOp3
 70
     1
102
RTVSPropertyOp4
 70
     1
102
RTVSPropertyOp5
 70
     1
102
RTVSPropertyOp6
 70
     1
102
RTVSPropertyOp7
 70
     1
102
RTVSPropertyOp8
 70
     1
102
RTVSPropertyOp9
 70
     1
102
RTVSPropertyOp10
 70
     1
102
RTVSPropertyOp11
 70
     1
102
RTVSPropertyOp12
 70
     1
102
RTVSPropertyOp13
 70
     1
102
RTVSPropertyOp14
 70
     1
102
RTVSPropertyOp15
 70
     1
102
RTVSPropertyOp16
 70
     1
102
RTVSPropertyOp17
 70
     1
102
RTVSPropertyOp18
 70
     1
102
RTVSPropertyOp19
 70
     1
102
RTVSPropertyOp20
 70
     1
102
RTVSPropertyOp21
 70
     1
102
RTVSPropertyOp22
 70
     1
102
RTVSPropertyOp23
 70
     1
102
RTVSPropertyOp24
 70
     1
102
RTVSPropertyOp25
 70
     1
102
RTVSPropertyOp26
 70
     1
102
RTVSPropertyOp27
 70
     1
102
RTVSPropertyOp28
 70
     1
102
RTVSPropertyOp29
 70
     1
102
RTVSPropertyOp30
 70
     1
102
RTVSPropertyOp31
 70
     1
102
RTVSPropertyOp32
 70
     1
  0
XRECORD
  5
1053
102
{ACAD_REACTORS
330
1052
102
}
330
1052
100
AcDbXrecord
280
     1
102
RTVSPropertyOp0
 70
     1
102
RTVSPropertyOp1
 70
     1
102
RTVSPropertyOp2
 70
     1
102
RTVSPropertyOp3
 70
     1
102
RTVSPropertyOp4
 70
     1
102
RTVSPropertyOp5
 70
     1
102
RTVSPropertyOp6
 70
     1
102
RTVSPropertyOp7
 70
     1
102
RTVSPropertyOp8
 70
     1
102
RTVSPropertyOp9
 70
     1
102
RTVSPropertyOp10
 70
     1
102
RTVSPropertyOp11
 70
     1
102
RTVSPropertyOp12
 70
     1
102
RTVSPropertyOp13
 70
     1
102
RTVSPropertyOp14
 70
     1
102
RTVSPropertyOp15
 70
     1
102
RTVSPropertyOp16
 70
     1
102
RTVSPropertyOp17
 70
     1
102
RTVSPropertyOp18
 70
     1
102
RTVSPropertyOp19
 70
     1
102
RTVSPropertyOp20
 70
     1
102
RTVSPropertyOp21
 70
     1
102
RTVSPropertyOp22
 70
     1
102
RTVSPropertyOp23
 70
     1
102
RTVSPropertyOp24
 70
     1
102
RTVSPropertyOp25
 70
     1
102
RTVSPropertyOp26
 70
     1
102
RTVSPropertyOp27
 70
     1
102
RTVSPropertyOp28
 70
     1
102
RTVSPropertyOp29
 70
     1
102
RTVSPropertyOp30
 70
     1
102
RTVSPropertyOp31
 70
     1
102
RTVSPropertyOp32
 70
     1
  0
XRECORD
  5
106F
102
{ACAD_REACTORS
330
106E
102
}
330
106E
100
AcDbXrecord
280
     1
102
RTVSPropertyOp0
 70
     0
102
RTVSPropertyOp1
 70
     0
102
RTVSPropertyOp2
 70
     0
102
RTVSPropertyOp3
 70
     0
102
RTVSPropertyOp4
 70
     0
102
RTVSPropertyOp5
 70
     0
102
RTVSPropertyOp6
 70
     0
102
RTVSPropertyOp7
 70
     0
102
RTVSPropertyOp8
 70
     0
102
RTVSPropertyOp9
 70
     0
102
RTVSPropertyOp10
 70
     0
102
RTVSPropertyOp11
 70
     0
102
RTVSPropertyOp12
 70
     0
102
RTVSPropertyOp13
 70
     0
102
RTVSPropertyOp14
 70
     2
102
RTVSPropertyOp15
 70
     0
102
RTVSPropertyOp16
 70
     0
102
RTVSPropertyOp17
 70
     0
102
RTVSPropertyOp18
 70
     0
102
RTVSPropertyOp19
 70
     0
102
RTVSPropertyOp20
 70
     0
102
RTVSPropertyOp21
 70
     0
102
RTVSPropertyOp22
 70
     0
102
RTVSPropertyOp23
 70
     0
102
RTVSPropertyOp24
 70
     0
102
RTVSPropertyOp25
 70
     0
102
RTVSPropertyOp26
 70
     0
102
RTVSPropertyOp27
 70
     0
102
RTVSPropertyOp28
 70
     0
102
RTVSPropertyOp29
 70
     0
102
RTVSPropertyOp30
 70
     0
102
RTVSPropertyOp31
 70
     0
102
RTVSPropertyOp32
 70
     0
  0
XRECORD
  5
105F
102
{ACAD_REACTORS
330
105E
102
}
330
105E
100
AcDbXrecord
280
     1
102
RTVSPropertyOp0
 70
     1
102
RTVSPropertyOp1
 70
     1
102
RTVSPropertyOp2
 70
     1
102
RTVSPropertyOp3
 70
     1
102
RTVSPropertyOp4
 70
     1
102
RTVSPropertyOp5
 70
     1
102
RTVSPropertyOp6
 70
     1
102
RTVSPropertyOp7
 70
     1
102
RTVSPropertyOp8
 70
     1
102
RTVSPropertyOp9
 70
     1
102
RTVSPropertyOp10
 70
     1
102
RTVSPropertyOp11
 70
     1
102
RTVSPropertyOp12
 70
     1
102
RTVSPropertyOp13
 70
     1
102
RTVSPropertyOp14
 70
     1
102
RTVSPropertyOp15
 70
     1
102
RTVSPropertyOp16
 70
     1
102
RTVSPropertyOp17
 70
     1
102
RTVSPropertyOp18
 70
     1
102
RTVSPropertyOp19
 70
     1
102
RTVSPropertyOp20
 70
     1
102
RTVSPropertyOp21
 70
     1
102
RTVSPropertyOp22
 70
     1
102
RTVSPropertyOp23
 70
     1
102
RTVSPropertyOp24
 70
     1
102
RTVSPropertyOp25
 70
     1
102
RTVSPropertyOp26
 70
     1
102
RTVSPropertyOp27
 70
     1
102
RTVSPropertyOp28
 70
     1
102
RTVSPropertyOp29
 70
     1
102
RTVSPropertyOp30
 70
     1
102
RTVSPropertyOp31
 70
     1
102
RTVSPropertyOp32
 70
     1
  0
XRECORD
  5
1071
102
{ACAD_REACTORS
330
1070
102
}
330
1070
100
AcDbXrecord
280
     1
102
RTVSPropertyOp0
 70
     0
102
RTVSPropertyOp1
 70
     0
102
RTVSPropertyOp2
 70
     0
102
RTVSPropertyOp3
 70
     0
102
RTVSPropertyOp4
 70
     0
102
RTVSPropertyOp5
 70
     0
102
RTVSPropertyOp6
 70
     0
102
RTVSPropertyOp7
 70
     0
102
RTVSPropertyOp8
 70
     0
102
RTVSPropertyOp9
 70
     0
102
RTVSPropertyOp10
 70
     0
102
RTVSPropertyOp11
 70
     0
102
RTVSPropertyOp12
 70
     0
102
RTVSPropertyOp13
 70
     0
102
RTVSPropertyOp14
 70
     2
102
RTVSPropertyOp15
 70
     0
102
RTVSPropertyOp16
 70
     0
102
RTVSPropertyOp17
 70
     0
102
RTVSPropertyOp18
 70
     0
102
RTVSPropertyOp19
 70
     0
102
RTVSPropertyOp20
 70
     0
102
RTVSPropertyOp21
 70
     0
102
RTVSPropertyOp22
 70
     0
102
RTVSPropertyOp23
 70
     0
102
RTVSPropertyOp24
 70
     0
102
RTVSPropertyOp25
 70
     0
102
RTVSPropertyOp26
 70
     0
102
RTVSPropertyOp27
 70
     0
102
RTVSPropertyOp28
 70
     0
102
RTVSPropertyOp29
 70
     0
102
RTVSPropertyOp30
 70
     0
102
RTVSPropertyOp31
 70
     0
102
RTVSPropertyOp32
 70
     0
  0
XRECORD
  5
1057
102
{ACAD_REACTORS
330
1056
102
}
330
1056
100
AcDbXrecord
280
     1
102
RTVSPropertyOp0
 70
     1
102
RTVSPropertyOp1
 70
     1
102
RTVSPropertyOp2
 70
     1
102
RTVSPropertyOp3
 70
     1
102
RTVSPropertyOp4
 70
     1
102
RTVSPropertyOp5
 70
     1
102
RTVSPropertyOp6
 70
     1
102
RTVSPropertyOp7
 70
     1
102
RTVSPropertyOp8
 70
     1
102
RTVSPropertyOp9
 70
     1
102
RTVSPropertyOp10
 70
     1
102
RTVSPropertyOp11
 70
     1
102
RTVSPropertyOp12
 70
     1
102
RTVSPropertyOp13
 70
     1
102
RTVSPropertyOp14
 70
     1
102
RTVSPropertyOp15
 70
     1
102
RTVSPropertyOp16
 70
     1
102
RTVSPropertyOp17
 70
     1
102
RTVSPropertyOp18
 70
     1
102
RTVSPropertyOp19
 70
     1
102
RTVSPropertyOp20
 70
     1
102
RTVSPropertyOp21
 70
     1
102
RTVSPropertyOp22
 70
     1
102
RTVSPropertyOp23
 70
     1
102
RTVSPropertyOp24
 70
     1
102
RTVSPropertyOp25
 70
     1
102
RTVSPropertyOp26
 70
     1
102
RTVSPropertyOp27
 70
     1
102
RTVSPropertyOp28
 70
     1
102
RTVSPropertyOp29
 70
     1
102
RTVSPropertyOp30
 70
     1
102
RTVSPropertyOp31
 70
     1
102
RTVSPropertyOp32
 70
     1
  0
XRECORD
  5
106D
102
{ACAD_REACTORS
330
106C
102
}
330
106C
100
AcDbXrecord
280
     1
102
RTVSPropertyOp0
 70
     1
102
RTVSPropertyOp1
 70
     1
102
RTVSPropertyOp2
 70
     1
102
RTVSPropertyOp3
 70
     1
102
RTVSPropertyOp4
 70
     1
102
RTVSPropertyOp5
 70
     1
102
RTVSPropertyOp6
 70
     1
102
RTVSPropertyOp7
 70
     1
102
RTVSPropertyOp8
 70
     1
102
RTVSPropertyOp9
 70
     1
102
RTVSPropertyOp10
 70
     1
102
RTVSPropertyOp11
 70
     1
102
RTVSPropertyOp12
 70
     1
102
RTVSPropertyOp13
 70
     1
102
RTVSPropertyOp14
 70
     1
102
RTVSPropertyOp15
 70
     1
102
RTVSPropertyOp16
 70
     1
102
RTVSPropertyOp17
 70
     1
102
RTVSPropertyOp18
 70
     1
102
RTVSPropertyOp19
 70
     1
102
RTVSPropertyOp20
 70
     1
102
RTVSPropertyOp21
 70
     1
102
RTVSPropertyOp22
 70
     1
102
RTVSPropertyOp23
 70
     1
102
RTVSPropertyOp24
 70
     1
102
RTVSPropertyOp25
 70
     1
102
RTVSPropertyOp26
 70
     1
102
RTVSPropertyOp27
 70
     1
102
RTVSPropertyOp28
 70
     1
102
RTVSPropertyOp29
 70
     1
102
RTVSPropertyOp30
 70
     1
102
RTVSPropertyOp31
 70
     1
102
RTVSPropertyOp32
 70
     1
  0
XRECORD
  5
106B
102
{ACAD_REACTORS
330
106A
102
}
330
106A
100
AcDbXrecord
280
     1
102
RTVSPropertyOp0
 70
     1
102
RTVSPropertyOp1
 70
     1
102
RTVSPropertyOp2
 70
     1
102
RTVSPropertyOp3
 70
     1
102
RTVSPropertyOp4
 70
     1
102
RTVSPropertyOp5
 70
     1
102
RTVSPropertyOp6
 70
     1
102
RTVSPropertyOp7
 70
     1
102
RTVSPropertyOp8
 70
     1
102
RTVSPropertyOp9
 70
     1
102
RTVSPropertyOp10
 70
     1
102
RTVSPropertyOp11
 70
     1
102
RTVSPropertyOp12
 70
     1
102
RTVSPropertyOp13
 70
     1
102
RTVSPropertyOp14
 70
     1
102
RTVSPropertyOp15
 70
     1
102
RTVSPropertyOp16
 70
     1
102
RTVSPropertyOp17
 70
     1
102
RTVSPropertyOp18
 70
     1
102
RTVSPropertyOp19
 70
     1
102
RTVSPropertyOp20
 70
     1
102
RTVSPropertyOp21
 70
     1
102
RTVSPropertyOp22
 70
     1
102
RTVSPropertyOp23
 70
     1
102
RTVSPropertyOp24
 70
     1
102
RTVSPropertyOp25
 70
     1
102
RTVSPropertyOp26
 70
     1
102
RTVSPropertyOp27
 70
     1
102
RTVSPropertyOp28
 70
     1
102
RTVSPropertyOp29
 70
     1
102
RTVSPropertyOp30
 70
     1
102
RTVSPropertyOp31
 70
     1
102
RTVSPropertyOp32
 70
     1
  0
XRECORD
  5
1065
102
{ACAD_REACTORS
330
1064
102
}
330
1064
100
AcDbXrecord
280
     1
102
RTVSPropertyOp0
 70
     1
102
RTVSPropertyOp1
 70
     1
102
RTVSPropertyOp2
 70
     1
102
RTVSPropertyOp3
 70
     1
102
RTVSPropertyOp4
 70
     1
102
RTVSPropertyOp5
 70
     1
102
RTVSPropertyOp6
 70
     1
102
RTVSPropertyOp7
 70
     1
102
RTVSPropertyOp8
 70
     1
102
RTVSPropertyOp9
 70
     1
102
RTVSPropertyOp10
 70
     1
102
RTVSPropertyOp11
 70
     1
102
RTVSPropertyOp12
 70
     1
102
RTVSPropertyOp13
 70
     1
102
RTVSPropertyOp14
 70
     1
102
RTVSPropertyOp15
 70
     1
102
RTVSPropertyOp16
 70
     1
102
RTVSPropertyOp17
 70
     1
102
RTVSPropertyOp18
 70
     1
102
RTVSPropertyOp19
 70
     1
102
RTVSPropertyOp20
 70
     1
102
RTVSPropertyOp21
 70
     1
102
RTVSPropertyOp22
 70
     1
102
RTVSPropertyOp23
 70
     1
102
RTVSPropertyOp24
 70
     1
102
RTVSPropertyOp25
 70
     1
102
RTVSPropertyOp26
 70
     1
102
RTVSPropertyOp27
 70
     1
102
RTVSPropertyOp28
 70
     1
102
RTVSPropertyOp29
 70
     1
102
RTVSPropertyOp30
 70
     1
102
RTVSPropertyOp31
 70
     1
102
RTVSPropertyOp32
 70
     1
  0
XRECORD
  5
1067
102
{ACAD_REACTORS
330
1066
102
}
330
1066
100
AcDbXrecord
280
     1
102
RTVSPropertyOp0
 70
     1
102
RTVSPropertyOp1
 70
     1
102
RTVSPropertyOp2
 70
     1
102
RTVSPropertyOp3
 70
     1
102
RTVSPropertyOp4
 70
     1
102
RTVSPropertyOp5
 70
     1
102
RTVSPropertyOp6
 70
     1
102
RTVSPropertyOp7
 70
     1
102
RTVSPropertyOp8
 70
     1
102
RTVSPropertyOp9
 70
     1
102
RTVSPropertyOp10
 70
     1
102
RTVSPropertyOp11
 70
     1
102
RTVSPropertyOp12
 70
     1
102
RTVSPropertyOp13
 70
     1
102
RTVSPropertyOp14
 70
     1
102
RTVSPropertyOp15
 70
     1
102
RTVSPropertyOp16
 70
     1
102
RTVSPropertyOp17
 70
     1
102
RTVSPropertyOp18
 70
     1
102
RTVSPropertyOp19
 70
     1
102
RTVSPropertyOp20
 70
     1
102
RTVSPropertyOp21
 70
     1
102
RTVSPropertyOp22
 70
     1
102
RTVSPropertyOp23
 70
     1
102
RTVSPropertyOp24
 70
     1
102
RTVSPropertyOp25
 70
     1
102
RTVSPropertyOp26
 70
     1
102
RTVSPropertyOp27
 70
     1
102
RTVSPropertyOp28
 70
     1
102
RTVSPropertyOp29
 70
     1
102
RTVSPropertyOp30
 70
     1
102
RTVSPropertyOp31
 70
     1
102
RTVSPropertyOp32
 70
     1
  0
XRECORD
  5
105D
102
{ACAD_REACTORS
330
105C
102
}
330
105C
100
AcDbXrecord
280
     1
102
RTVSPropertyOp0
 70
     1
102
RTVSPropertyOp1
 70
     1
102
RTVSPropertyOp2
 70
     1
102
RTVSPropertyOp3
 70
     1
102
RTVSPropertyOp4
 70
     1
102
RTVSPropertyOp5
 70
     1
102
RTVSPropertyOp6
 70
     1
102
RTVSPropertyOp7
 70
     1
102
RTVSPropertyOp8
 70
     1
102
RTVSPropertyOp9
 70
     1
102
RTVSPropertyOp10
 70
     1
102
RTVSPropertyOp11
 70
     1
102
RTVSPropertyOp12
 70
     1
102
RTVSPropertyOp13
 70
     1
102
RTVSPropertyOp14
 70
     1
102
RTVSPropertyOp15
 70
     1
102
RTVSPropertyOp16
 70
     1
102
RTVSPropertyOp17
 70
     1
102
RTVSPropertyOp18
 70
     1
102
RTVSPropertyOp19
 70
     1
102
RTVSPropertyOp20
 70
     1
102
RTVSPropertyOp21
 70
     1
102
RTVSPropertyOp22
 70
     1
102
RTVSPropertyOp23
 70
     1
102
RTVSPropertyOp24
 70
     1
102
RTVSPropertyOp25
 70
     1
102
RTVSPropertyOp26
 70
     1
102
RTVSPropertyOp27
 70
     1
102
RTVSPropertyOp28
 70
     1
102
RTVSPropertyOp29
 70
     1
102
RTVSPropertyOp30
 70
     1
102
RTVSPropertyOp31
 70
     1
102
RTVSPropertyOp32
 70
     1
  0
XRECORD
  5
1051
102
{ACAD_REACTORS
330
1050
102
}
330
1050
100
AcDbXrecord
280
     1
102
RTVSPropertyOp0
 70
     1
102
RTVSPropertyOp1
 70
     1
102
RTVSPropertyOp2
 70
     1
102
RTVSPropertyOp3
 70
     1
102
RTVSPropertyOp4
 70
     1
102
RTVSPropertyOp5
 70
     1
102
RTVSPropertyOp6
 70
     1
102
RTVSPropertyOp7
 70
     1
102
RTVSPropertyOp8
 70
     1
102
RTVSPropertyOp9
 70
     1
102
RTVSPropertyOp10
 70
     1
102
RTVSPropertyOp11
 70
     1
102
RTVSPropertyOp12
 70
     1
102
RTVSPropertyOp13
 70
     1
102
RTVSPropertyOp14
 70
     1
102
RTVSPropertyOp15
 70
     1
102
RTVSPropertyOp16
 70
     1
102
RTVSPropertyOp17
 70
     1
102
RTVSPropertyOp18
 70
     1
102
RTVSPropertyOp19
 70
     1
102
RTVSPropertyOp20
 70
     1
102
RTVSPropertyOp21
 70
     1
102
RTVSPropertyOp22
 70
     1
102
RTVSPropertyOp23
 70
     1
102
RTVSPropertyOp24
 70
     1
102
RTVSPropertyOp25
 70
     1
102
RTVSPropertyOp26
 70
     1
102
RTVSPropertyOp27
 70
     1
102
RTVSPropertyOp28
 70
     1
102
RTVSPropertyOp29
 70
     1
102
RTVSPropertyOp30
 70
     1
102
RTVSPropertyOp31
 70
     1
102
RTVSPropertyOp32
 70
     1
  0
XRECORD
  5
1069
102
{ACAD_REACTORS
330
1068
102
}
330
1068
100
AcDbXrecord
280
     1
102
RTVSPropertyOp0
 70
     1
102
RTVSPropertyOp1
 70
     1
102
RTVSPropertyOp2
 70
     1
102
RTVSPropertyOp3
 70
     1
102
RTVSPropertyOp4
 70
     1
102
RTVSPropertyOp5
 70
     1
102
RTVSPropertyOp6
 70
     1
102
RTVSPropertyOp7
 70
     1
102
RTVSPropertyOp8
 70
     1
102
RTVSPropertyOp9
 70
     1
102
RTVSPropertyOp10
 70
     1
102
RTVSPropertyOp11
 70
     1
102
RTVSPropertyOp12
 70
     1
102
RTVSPropertyOp13
 70
     1
102
RTVSPropertyOp14
 70
     1
102
RTVSPropertyOp15
 70
     1
102
RTVSPropertyOp16
 70
     1
102
RTVSPropertyOp17
 70
     1
102
RTVSPropertyOp18
 70
     1
102
RTVSPropertyOp19
 70
     1
102
RTVSPropertyOp20
 70
     1
102
RTVSPropertyOp21
 70
     1
102
RTVSPropertyOp22
 70
     1
102
RTVSPropertyOp23
 70
     1
102
RTVSPropertyOp24
 70
     1
102
RTVSPropertyOp25
 70
     1
102
RTVSPropertyOp26
 70
     1
102
RTVSPropertyOp27
 70
     1
102
RTVSPropertyOp28
 70
     1
102
RTVSPropertyOp29
 70
     1
102
RTVSPropertyOp30
 70
     1
102
RTVSPropertyOp31
 70
     1
102
RTVSPropertyOp32
 70
     1
  0
ENDSEC
  0
EOF
