  0
SECTION
  2
HEADER
  9
$ACADVER
  1
AC1015
  9
$ACADMAINTVER
 70
    20
  9
$DWGCODEPAGE
  3
ANSI_932
  9
$INSBASE
 10
0.0
 20
0.0
 30
0.0
  9
$EXTMIN
 10
82.54375252824138
 20
88.72789727074906
 30
-0.0000000349181948
  9
$EXTMAX
 10
4283.056463487556
 20
3059.090457163409
 30
0.0000000814935746
  9
$LIMMIN
 10
82.80008844952817
 20
88.90916338651733
  9
$LIMMAX
 10
502.8000884495281
 20
385.9091633865173
  9
$ORTHOMODE
 70
     0
  9
$REGENMODE
 70
     1
  9
$FILLMODE
 70
     1
  9
$QTEXTMODE
 70
     0
  9
$MIRRTEXT
 70
     0
  9
$LTSCALE
 40
1.0
  9
$ATTMODE
 70
     1
  9
$TEXTSIZE
 40
2.5
  9
$TRACEWID
 40
1.0
  9
$TEXTSTYLE
  7
Standard
  9
$CLAYER
  8
0
  9
$CELTYPE
  6
ByLayer
  9
$CECOLOR
 62
   256
  9
$CELTSCALE
 40
1.0
  9
$DISPSILH
 70
     0
  9
$DIMSCALE
 40
1.0
  9
$DIMASZ
 40
2.5
  9
$DIMEXO
 40
0.625
  9
$DIMDLI
 40
3.75
  9
$DIMRND
 40
0.0
  9
$DIMDLE
 40
0.0
  9
$DIMEXE
 40
1.25
  9
$DIMTP
 40
0.0
  9
$DIMTM
 40
0.0
  9
$DIMTXT
 40
2.5
  9
$DIMCEN
 40
2.5
  9
$DIMTSZ
 40
0.0
  9
$DIMTOL
 70
     0
  9
$DIMLIM
 70
     0
  9
$DIMTIH
 70
     0
  9
$DIMTOH
 70
     0
  9
$DIMSE1
 70
     0
  9
$DIMSE2
 70
     0
  9
$DIMTAD
 70
     2
  9
$DIMZIN
 70
     8
  9
$DIMBLK
  1

  9
$DIMASO
 70
     1
  9
$DIMSHO
 70
     1
  9
$DIMPOST
  1

  9
$DIMAPOST
  1

  9
$DIMALT
 70
     0
  9
$DIMALTD
 70
     3
  9
$DIMALTF
 40
0.03937007874016
  9
$DIMLFAC
 40
1.0
  9
$DIMTOFL
 70
     1
  9
$DIMTVP
 40
0.0
  9
$DIMTIX
 70
     0
  9
$DIMSOXD
 70
     0
  9
$DIMSAH
 70
     0
  9
$DIMBLK1
  1

  9
$DIMBLK2
  1

  9
$DIMSTYLE
  2
ISO-25
  9
$DIMCLRD
 70
     0
  9
$DIMCLRE
 70
     0
  9
$DIMCLRT
 70
     0
  9
$DIMTFAC
 40
1.0
  9
$DIMGAP
 40
0.625
  9
$DIMJUST
 70
     0
  9
$DIMSD1
 70
     0
  9
$DIMSD2
 70
     0
  9
$DIMTOLJ
 70
     0
  9
$DIMTZIN
 70
     8
  9
$DIMALTZ
 70
     0
  9
$DIMALTTZ
 70
     0
  9
$DIMUPT
 70
     0
  9
$DIMDEC
 70
     2
  9
$DIMTDEC
 70
     2
  9
$DIMALTU
 70
     2
  9
$DIMALTTD
 70
     3
  9
$DIMTXSTY
  7
Standard
  9
$DIMAUNIT
 70
     0
  9
$DIMADEC
 70
     0
  9
$DIMALTRND
 40
0.0
  9
$DIMAZIN
 70
     0
  9
$DIMDSEP
 70
    44
  9
$DIMATFIT
 70
     3
  9
$DIMFRAC
 70
     0
  9
$DIMLDRBLK
  1

  9
$DIMLUNIT
 70
     2
  9
$DIMLWD
 70
    -2
  9
$DIMLWE
 70
    -2
  9
$DIMTMOVE
 70
     0
  9
$LUNITS
 70
     2
  9
$LUPREC
 70
     4
  9
$SKETCHINC
 40
1.0
  9
$FILLETRAD
 40
0.0
  9
$AUNITS
 70
     0
  9
$AUPREC
 70
     0
  9
$MENU
  1
.
  9
$ELEVATION
 40
0.0
  9
$PELEVATION
 40
0.0
  9
$THICKNESS
 40
0.0
  9
$LIMCHECK
 70
     0
  9
$CHAMFERA
 40
0.0
  9
$CHAMFERB
 40
0.0
  9
$CHAMFERC
 40
0.0
  9
$CHAMFERD
 40
0.0
  9
$SKPOLY
 70
     0
  9
$TDCREATE
 40
2454427.395492431
  9
$TDUCREATE
 40
2454427.020492431
  9
$TDUPDATE
 40
2457050.698137697
  9
$TDUUPDATE
 40
2457050.323137697
  9
$TDINDWG
 40
0.1659964236
  9
$TDUSRTIMER
 40
0.1659958796
  9
$USRTIMER
 70
     1
  9
$ANGBASE
 50
0.0
  9
$ANGDIR
 70
     0
  9
$PDMODE
 70
     0
  9
$PDSIZE
 40
0.0
  9
$PLINEWID
 40
0.0
  9
$SPLFRAME
 70
     0
  9
$SPLINETYPE
 70
     6
  9
$SPLINESEGS
 70
     8
  9
$HANDSEED
  5
1FA0
  9
$SURFTAB1
 70
     6
  9
$SURFTAB2
 70
     6
  9
$SURFTYPE
 70
     6
  9
$SURFU
 70
     6
  9
$SURFV
 70
     6
  9
$UCSBASE
  2

  9
$UCSNAME
  2

  9
$UCSORG
 10
0.0
 20
0.0
 30
0.0
  9
$UCSXDIR
 10
1.0
 20
0.0
 30
0.0
  9
$UCSYDIR
 10
0.0
 20
1.0
 30
0.0
  9
$UCSORTHOREF
  2

  9
$UCSORTHOVIEW
 70
     0
  9
$UCSORGTOP
 10
0.0
 20
0.0
 30
0.0
  9
$UCSORGBOTTOM
 10
0.0
 20
0.0
 30
0.0
  9
$UCSORGLEFT
 10
0.0
 20
0.0
 30
0.0
  9
$UCSORGRIGHT
 10
0.0
 20
0.0
 30
0.0
  9
$UCSORGFRONT
 10
0.0
 20
0.0
 30
0.0
  9
$UCSORGBACK
 10
0.0
 20
0.0
 30
0.0
  9
$PUCSBASE
  2

  9
$PUCSNAME
  2

  9
$PUCSORG
 10
0.0
 20
0.0
 30
0.0
  9
$PUCSXDIR
 10
1.0
 20
0.0
 30
0.0
  9
$PUCSYDIR
 10
0.0
 20
1.0
 30
0.0
  9
$PUCSORTHOREF
  2

  9
$PUCSORTHOVIEW
 70
     0
  9
$PUCSORGTOP
 10
0.0
 20
0.0
 30
0.0
  9
$PUCSORGBOTTOM
 10
0.0
 20
0.0
 30
0.0
  9
$PUCSORGLEFT
 10
0.0
 20
0.0
 30
0.0
  9
$PUCSORGRIGHT
 10
0.0
 20
0.0
 30
0.0
  9
$PUCSORGFRONT
 10
0.0
 20
0.0
 30
0.0
  9
$PUCSORGBACK
 10
0.0
 20
0.0
 30
0.0
  9
$USERI1
 70
     0
  9
$USERI2
 70
     0
  9
$USERI3
 70
     0
  9
$USERI4
 70
     0
  9
$USERI5
 70
     0
  9
$USERR1
 40
0.0
  9
$USERR2
 40
0.0
  9
$USERR3
 40
0.0
  9
$USERR4
 40
0.0
  9
$USERR5
 40
0.0
  9
$WORLDVIEW
 70
     1
  9
$SHADEDGE
 70
     3
  9
$SHADEDIF
 70
    70
  9
$TILEMODE
 70
     1
  9
$MAXACTVP
 70
    64
  9
$PINSBASE
 10
0.0
 20
0.0
 30
0.0
  9
$PLIMCHECK
 70
     0
  9
$PEXTMIN
 10
0.0
 20
0.0
 30
0.0
  9
$PEXTMAX
 10
0.0
 20
0.0
 30
0.0
  9
$PLIMMIN
 10
0.0
 20
0.0
  9
$PLIMMAX
 10
12.0
 20
9.0
  9
$UNITMODE
 70
     0
  9
$VISRETAIN
 70
     1
  9
$PLINEGEN
 70
     0
  9
$PSLTSCALE
 70
     1
  9
$TREEDEPTH
 70
  3020
  9
$CMLSTYLE
  2
Standard
  9
$CMLJUST
 70
     0
  9
$CMLSCALE
 40
20.0
  9
$PROXYGRAPHICS
 70
     1
  9
$MEASUREMENT
 70
     1
  9
$CELWEIGHT
370
    -1
  9
$ENDCAPS
280
     0
  9
$JOINSTYLE
280
     0
  9
$LWDISPLAY
290
     0
  9
$INSUNITS
 70
     4
  9
$HYPERLINKBASE
  1

  9
$STYLESHEET
  1
monochrome.ctb
  9
$XEDIT
290
     1
  9
$CEPSNTYPE
380
     0
  9
$PSTYLEMODE
290
     1
  9
$FINGERPRINTGUID
  2
{4ECE4D8E-F13A-40A1-9A46-5F0BA8809353}
  9
$VERSIONGUID
  2
{A89FAF5B-3DBB-45F7-AAB2-B75455085B1E}
  9
$EXTNAMES
290
     1
  9
$PSVPSCALE
 40
0.0
  9
$OLESTARTUP
290
     0
  0
ENDSEC
  0
SECTION
  2
CLASSES
  0
CLASS
  1
ACDBDICTIONARYWDFLT
  2
AcDbDictionaryWithDefault
  3
ObjectDBX Classes
 90
        0
280
     0
281
     0
  0
CLASS
  1
DICTIONARYVAR
  2
AcDbDictionaryVar
  3
ObjectDBX Classes
 90
        0
280
     0
281
     0
  0
CLASS
  1
TABLESTYLE
  2
AcDbTableStyle
  3
ObjectDBX Classes
 90
     4095
280
     0
281
     0
  0
CLASS
  1
SORTENTSTABLE
  2
AcDbSortentsTable
  3
ObjectDBX Classes
 90
        0
280
     0
281
     0
  0
CLASS
  1
DIMASSOC
  2
AcDbDimAssoc
  3
"AcDbDimAssoc|Product Desc:     AcDim ARX App For Dimension|Company:          Autodesk, Inc.|WEB Address:      www.autodesk.com"
 90
        0
280
     0
281
     0
  0
CLASS
  1
ACDBPLACEHOLDER
  2
AcDbPlaceHolder
  3
ObjectDBX Classes
 90
        0
280
     0
281
     0
  0
CLASS
  1
LAYOUT
  2
AcDbLayout
  3
ObjectDBX Classes
 90
        0
280
     0
281
     0
  0
CLASS
  1
MATERIAL
  2
AcDbMaterial
  3
ObjectDBX Classes
 90
     1153
280
     0
281
     0
  0
CLASS
  1
VISUALSTYLE
  2
AcDbVisualStyle
  3
ObjectDBX Classes
 90
     4095
280
     0
281
     0
  0
CLASS
  1
SCALE
  2
AcDbScale
  3
ObjectDBX Classes
 90
     1153
280
     0
281
     0
  0
CLASS
  1
MLEADERSTYLE
  2
AcDbMLeaderStyle
  3
ACDB_MLEADERSTYLE_CLASS
 90
     4095
280
     0
281
     0
  0
CLASS
  1
CELLSTYLEMAP
  2
AcDbCellStyleMap
  3
ObjectDBX Classes
 90
     1152
280
     0
281
     0
  0
ENDSEC
  0
SECTION
  2
TABLES
  0
TABLE
  2
VPORT
  5
8
330
0
100
AcDbSymbolTable
 70
     1
  0
VPORT
  5
1EE6
330
8
100
AcDbSymbolTableRecord
100
AcDbViewportTableRecord
  2
*Active
 70
     0
 10
0.0
 20
0.0
 11
1.0
 21
1.0
 12
2182.800108007899
 22
1573.909177217079
 13
0.0
 23
0.0
 14
10.0
 24
10.0
 15
10.0
 25
10.0
 16
0.0
 26
0.0
 36
1.0
 17
0.0
 27
0.0
 37
0.0
 40
2993.418414173845
 41
1.629533678756476
 42
50.0
 43
0.0
 44
0.0
 50
0.0
 51
0.0
 71
     0
 72
  1000
 73
     1
 74
     3
 75
     0
 76
     0
 77
     0
 78
     0
281
     0
 65
     1
110
0.0
120
0.0
130
0.0
111
1.0
121
0.0
131
0.0
112
0.0
122
1.0
132
0.0
 79
     0
146
0.0
1001
ACAD_NAV_VCDISPLAY
1070
     3
  0
ENDTAB
  0
TABLE
  2
LTYPE
  5
5
330
0
100
AcDbSymbolTable
 70
     5
  0
LTYPE
  5
14
330
5
100
AcDbSymbolTableRecord
100
AcDbLinetypeTableRecord
  2
ByBlock
 70
     0
  3

 72
    65
 73
     0
 40
0.0
  0
LTYPE
  5
15
330
5
100
AcDbSymbolTableRecord
100
AcDbLinetypeTableRecord
  2
ByLayer
 70
     0
  3

 72
    65
 73
     0
 40
0.0
  0
LTYPE
  5
16
330
5
100
AcDbSymbolTableRecord
100
AcDbLinetypeTableRecord
  2
Continuous
 70
     0
  3
Solid line
 72
    65
 73
     0
 40
0.0
  0
LTYPE
  5
14E
330
5
100
AcDbSymbolTableRecord
100
AcDbLinetypeTableRecord
  2
CENTER
 70
     0
  3
Center ____ _ ____ _ ____ _ ____ _ ____ _ ____
 72
    65
 73
     4
 40
50.8
 49
31.75
 74
     0
 49
-6.349999999999997
 74
     0
 49
6.349999999999997
 74
     0
 49
-6.349999999999997
 74
     0
  0
LTYPE
  5
185
330
5
100
AcDbSymbolTableRecord
100
AcDbLinetypeTableRecord
  2
DASHEDX2
 70
     0
  3
Dashed (2x) ____  ____  ____  ____  ____  ___
 72
    65
 73
     2
 40
38.1
 49
25.4
 74
     0
 49
-12.7
 74
     0
  0
LTYPE
  5
186
330
5
100
AcDbSymbolTableRecord
100
AcDbLinetypeTableRecord
  2
DASHED
 70
     0
  3
Dashed __ __ __ __ __ __ __ __ __ __ __ __ __ _
 72
    65
 73
     2
 40
19.05
 49
12.7
 74
     0
 49
-6.349999999999997
 74
     0
  0
LTYPE
  5
5E2
330
5
100
AcDbSymbolTableRecord
100
AcDbLinetypeTableRecord
  2
FENCELINE1
 70
     0
  3
Fenceline circle ----0-----0----0-----0----0---
 72
    65
 73
     4
 40
36.83
 49
6.349999999999997
 74
     0
 49
-2.54
 74
     4
 75
   133
340
14D
 46
2.54
 50
0.0
 44
-2.54
 45
0.0
 49
-2.54
 74
     0
 49
25.4
 74
     0
  0
ENDTAB
  0
TABLE
  2
LAYER
  5
2
102
{ACAD_XDICTIONARY
360
101
102
}
330
0
100
AcDbSymbolTable
 70
    11
  0
LAYER
  5
10
330
2
100
AcDbSymbolTableRecord
100
AcDbLayerTableRecord
  2
0
 70
     0
 62
     6
  6
Continuous
370
    -3
390
F
  0
LAYER
  5
FC
330
2
100
AcDbSymbolTableRecord
100
AcDbLayerTableRecord
  2
S-title
 70
     0
 62
     7
  6
Continuous
370
    -3
390
F
1001
AcAecLayerStandard
1000

1000

  0
LAYER
  5
FD
330
2
100
AcDbSymbolTableRecord
100
AcDbLayerTableRecord
  2
DEFPOINTS
 70
     0
 62
     1
  6
Continuous
290
     0
370
    -3
390
F
1001
AcAecLayerStandard
1000

1000

  0
LAYER
  5
FE
330
2
100
AcDbSymbolTableRecord
100
AcDbLayerTableRecord
  2
S-mark
 70
     0
 62
   160
  6
Continuous
370
    -3
390
F
  0
LAYER
  5
FF
330
2
100
AcDbSymbolTableRecord
100
AcDbLayerTableRecord
  2
S-main
 70
     0
 62
     7
  6
Continuous
370
    15
390
F
1001
AcAecLayerStandard
1000

1000

  0
LAYER
  5
14B
330
2
100
AcDbSymbolTableRecord
100
AcDbLayerTableRecord
  2
S-center
 70
     0
 62
     4
  6
CENTER
370
    15
390
F
1001
AcAecLayerStandard
1000

1000

  0
LAYER
  5
14F
330
2
100
AcDbSymbolTableRecord
100
AcDbLayerTableRecord
  2
S-assist
 70
     0
 62
     2
  6
Continuous
370
     9
390
F
1001
AcAecLayerStandard
1000

1000

  0
LAYER
  5
183
330
2
100
AcDbSymbolTableRecord
100
AcDbLayerTableRecord
  2
S-size
 70
     0
 62
     7
  6
Continuous
370
    15
390
F
1001
AcAecLayerStandard
1000

1000

  0
LAYER
  5
184
330
2
100
AcDbSymbolTableRecord
100
AcDbLayerTableRecord
  2
S-cut
 70
     0
 62
     5
  6
DASHED
370
    15
390
F
1001
AcAecLayerStandard
1000

1000

  0
LAYER
  5
5E0
330
2
100
AcDbSymbolTableRecord
100
AcDbLayerTableRecord
  2
S-D
 70
     0
 62
     3
  6
FENCELINE1
370
     9
390
F
1001
AcAecLayerStandard
1000

1000

  0
LAYER
  5
5E1
330
2
100
AcDbSymbolTableRecord
100
AcDbLayerTableRecord
  2
S-\U+03C6
 70
     0
 62
     3
  6
Continuous
370
     9
390
F
1001
AcAecLayerStandard
1000

1000

  0
ENDTAB
  0
TABLE
  2
STYLE
  5
3
330
0
100
AcDbSymbolTable
 70
     3
  0
STYLE
  5
11
330
3
100
AcDbSymbolTableRecord
100
AcDbTextStyleTableRecord
  2
Standard
 70
     0
 40
0.0
 41
1.0
 50
0.0
 71
     0
 42
2.5
  3
txt.shx
  4
extfont2.shx
  0
STYLE
  5
14D
330
3
100
AcDbSymbolTableRecord
100
AcDbTextStyleTableRecord
  2

 70
     1
 40
0.0
 41
1.0
 50
0.0
 71
     0
 42
2.5
  3
ltypeshp.shx
  4

  0
ENDTAB
  0
TABLE
  2
VIEW
  5
6
330
0
100
AcDbSymbolTable
 70
     1
  0
ENDTAB
  0
TABLE
  2
UCS
  5
7
330
0
100
AcDbSymbolTable
 70
     0
  0
ENDTAB
  0
TABLE
  2
APPID
  5
9
330
0
100
AcDbSymbolTable
 70
    14
  0
APPID
  5
12
330
9
100
AcDbSymbolTableRecord
100
AcDbRegAppTableRecord
  2
ACAD
 70
     0
  0
APPID
  5
9E
330
9
100
AcDbSymbolTableRecord
100
AcDbRegAppTableRecord
  2
ACAD_PSEXT
 70
     0
  0
APPID
  5
100
330
9
100
AcDbSymbolTableRecord
100
AcDbRegAppTableRecord
  2
AcAecLayerStandard
 70
     0
  0
APPID
  5
1E4
330
9
100
AcDbSymbolTableRecord
100
AcDbRegAppTableRecord
  2
ACAD_DSTYLE_DIMTEXT_FILL
 70
     0
  0
APPID
  5
1E5
330
9
100
AcDbSymbolTableRecord
100
AcDbRegAppTableRecord
  2
ACAD_DSTYLE_DIMEXT_LENGTH
 70
     0
  0
APPID
  5
1E6
330
9
100
AcDbSymbolTableRecord
100
AcDbRegAppTableRecord
  2
ACAD_DSTYLE_DIMEXT_ENABLED
 70
     0
  0
APPID
  5
1E7
330
9
100
AcDbSymbolTableRecord
100
AcDbRegAppTableRecord
  2
ACAD_DSTYLE_DIM_LINETYPE
 70
     0
  0
APPID
  5
1E8
330
9
100
AcDbSymbolTableRecord
100
AcDbRegAppTableRecord
  2
ACAD_DSTYLE_DIM_EXT1_LINETYPE
 70
     0
  0
APPID
  5
1E9
330
9
100
AcDbSymbolTableRecord
100
AcDbRegAppTableRecord
  2
ACAD_DSTYLE_DIM_EXT2_LINETYPE
 70
     0
  0
APPID
  5
2A5
330
9
100
AcDbSymbolTableRecord
100
AcDbRegAppTableRecord
  2
ACAD_DSTYLE_DIMJOGGED_JOGANGLE_SYMBOL
 70
     0
  0
APPID
  5
309
330
9
100
AcDbSymbolTableRecord
100
AcDbRegAppTableRecord
  2
ACAD_DSTYLE_DIMARC_LENGTH_SYMBOL
 70
     0
  0
APPID
  5
60A
330
9
100
AcDbSymbolTableRecord
100
AcDbRegAppTableRecord
  2
ACAD_EXEMPT_FROM_CAD_STANDARDS
 70
     0
  0
APPID
  5
1F36
330
9
100
AcDbSymbolTableRecord
100
AcDbRegAppTableRecord
  2
ACAD_NAV_VCDISPLAY
 70
     0
  0
APPID
  5
1F9F
330
9
100
AcDbSymbolTableRecord
100
AcDbRegAppTableRecord
  2
ACAD_MLEADERVER
 70
     0
  0
ENDTAB
  0
TABLE
  2
DIMSTYLE
  5
A
330
0
100
AcDbSymbolTable
 70
     2
100
AcDbDimStyleTable
 71
     1
340
27
  0
DIMSTYLE
105
27
102
{ACAD_REACTORS
330
621
330
681
330
6A2
330
6BA
330
6DB
330
6F3
330
714
330
74B
330
779
330
872
330
7F5
330
8C6
330
8AE
330
8FD
330
94E
330
936
330
91E
330
98E
330
A42
330
AC7
330
AE8
330
B12
330
B40
330
B6E
330
B9C
330
BBD
330
BE7
330
C20
330
C3C
330
C66
330
9DD
330
CCF
330
CF0
330
CFF
330
D23
330
DBC
330
DF5
330
E46
330
E79
330
EAC
330
F1C
330
F5E
330
F7F
330
FC5
330
FEF
330
108B
330
10AD
330
10DB
102
}
330
A
100
AcDbSymbolTableRecord
100
AcDbDimStyleTableRecord
  2
ISO-25
 70
     0
 41
2.5
 42
0.625
 43
3.75
 44
1.25
 73
     0
 74
     0
 77
     2
 78
     8
140
2.5
141
2.5
143
0.03937007874016
147
0.625
171
     3
172
     1
271
     2
272
     2
274
     3
278
    44
283
     0
284
     8
340
11
1001
ACAD_DSTYLE_DIMEXT_LENGTH
1070
   378
1040
1.25
1001
ACAD_DSTYLE_DIMJOGGED_JOGANGLE_SYMBOL
1070
   384
1040
1.570796326794896
  0
ENDTAB
  0
TABLE
  2
BLOCK_RECORD
  5
1
330
0
100
AcDbSymbolTable
 70
    53
  0
BLOCK_RECORD
  5
1F
102
{ACAD_XDICTIONARY
360
616
102
}
330
1
100
AcDbSymbolTableRecord
100
AcDbBlockTableRecord
  2
*Model_Space
340
22
  0
BLOCK_RECORD
  5
D2
330
1
100
AcDbSymbolTableRecord
100
AcDbBlockTableRecord
  2
*Paper_Space
340
D3
  0
BLOCK_RECORD
  5
D6
330
1
100
AcDbSymbolTableRecord
100
AcDbBlockTableRecord
  2
*Paper_Space0
340
D7
  0
BLOCK_RECORD
  5
F3
330
1
100
AcDbSymbolTableRecord
100
AcDbBlockTableRecord
  2
AI9-BLK1
340
0
102
{BLKREFS
331
123
102
}
  0
BLOCK_RECORD
  5
F7
330
1
100
AcDbSymbolTableRecord
100
AcDbBlockTableRecord
  2
AI9-BLK2
340
0
102
{BLKREFS
331
F5
102
}
  0
BLOCK_RECORD
  5
622
330
1
100
AcDbSymbolTableRecord
100
AcDbBlockTableRecord
  2
*D3
340
0
  0
BLOCK_RECORD
  5
682
330
1
100
AcDbSymbolTableRecord
100
AcDbBlockTableRecord
  2
*D4
340
0
  0
BLOCK_RECORD
  5
6A5
330
1
100
AcDbSymbolTableRecord
100
AcDbBlockTableRecord
  2
*D5
340
0
  0
BLOCK_RECORD
  5
6BB
330
1
100
AcDbSymbolTableRecord
100
AcDbBlockTableRecord
  2
*D6
340
0
  0
BLOCK_RECORD
  5
6DE
330
1
100
AcDbSymbolTableRecord
100
AcDbBlockTableRecord
  2
*D7
340
0
  0
BLOCK_RECORD
  5
6F4
330
1
100
AcDbSymbolTableRecord
100
AcDbBlockTableRecord
  2
*D8
340
0
  0
BLOCK_RECORD
  5
715
330
1
100
AcDbSymbolTableRecord
100
AcDbBlockTableRecord
  2
*D9
340
0
  0
BLOCK_RECORD
  5
74C
330
1
100
AcDbSymbolTableRecord
100
AcDbBlockTableRecord
  2
*D10
340
0
  0
BLOCK_RECORD
  5
77A
330
1
100
AcDbSymbolTableRecord
100
AcDbBlockTableRecord
  2
*D11
340
0
  0
BLOCK_RECORD
  5
7F6
330
1
100
AcDbSymbolTableRecord
100
AcDbBlockTableRecord
  2
*D12
340
0
  0
BLOCK_RECORD
  5
873
330
1
100
AcDbSymbolTableRecord
100
AcDbBlockTableRecord
  2
*D13
340
0
  0
BLOCK_RECORD
  5
8AF
330
1
100
AcDbSymbolTableRecord
100
AcDbBlockTableRecord
  2
*D14
340
0
  0
BLOCK_RECORD
  5
8C7
330
1
100
AcDbSymbolTableRecord
100
AcDbBlockTableRecord
  2
*D15
340
0
  0
BLOCK_RECORD
  5
8FE
330
1
100
AcDbSymbolTableRecord
100
AcDbBlockTableRecord
  2
*D16
340
0
  0
BLOCK_RECORD
  5
91F
330
1
100
AcDbSymbolTableRecord
100
AcDbBlockTableRecord
  2
*D17
340
0
  0
BLOCK_RECORD
  5
937
330
1
100
AcDbSymbolTableRecord
100
AcDbBlockTableRecord
  2
*D18
340
0
  0
BLOCK_RECORD
  5
94F
330
1
100
AcDbSymbolTableRecord
100
AcDbBlockTableRecord
  2
*D19
340
0
  0
BLOCK_RECORD
  5
98F
330
1
100
AcDbSymbolTableRecord
100
AcDbBlockTableRecord
  2
*D20
340
0
  0
BLOCK_RECORD
  5
9DE
330
1
100
AcDbSymbolTableRecord
100
AcDbBlockTableRecord
  2
*D21
340
0
  0
BLOCK_RECORD
  5
A43
330
1
100
AcDbSymbolTableRecord
100
AcDbBlockTableRecord
  2
*D22
340
0
  0
BLOCK_RECORD
  5
AC8
330
1
100
AcDbSymbolTableRecord
100
AcDbBlockTableRecord
  2
*D23
340
0
  0
BLOCK_RECORD
  5
AE9
330
1
100
AcDbSymbolTableRecord
100
AcDbBlockTableRecord
  2
*D24
340
0
  0
BLOCK_RECORD
  5
B13
330
1
100
AcDbSymbolTableRecord
100
AcDbBlockTableRecord
  2
*D25
340
0
  0
BLOCK_RECORD
  5
B41
330
1
100
AcDbSymbolTableRecord
100
AcDbBlockTableRecord
  2
*D26
340
0
  0
BLOCK_RECORD
  5
B6F
330
1
100
AcDbSymbolTableRecord
100
AcDbBlockTableRecord
  2
*D27
340
0
  0
BLOCK_RECORD
  5
B9D
330
1
100
AcDbSymbolTableRecord
100
AcDbBlockTableRecord
  2
*D28
340
0
  0
BLOCK_RECORD
  5
BBE
330
1
100
AcDbSymbolTableRecord
100
AcDbBlockTableRecord
  2
*D29
340
0
  0
BLOCK_RECORD
  5
BE8
330
1
100
AcDbSymbolTableRecord
100
AcDbBlockTableRecord
  2
*D30
340
0
  0
BLOCK_RECORD
  5
C23
330
1
100
AcDbSymbolTableRecord
100
AcDbBlockTableRecord
  2
*D31
340
0
  0
BLOCK_RECORD
  5
C3D
330
1
100
AcDbSymbolTableRecord
100
AcDbBlockTableRecord
  2
*D32
340
0
  0
BLOCK_RECORD
  5
C67
330
1
100
AcDbSymbolTableRecord
100
AcDbBlockTableRecord
  2
*D33
340
0
  0
BLOCK_RECORD
  5
CD0
330
1
100
AcDbSymbolTableRecord
100
AcDbBlockTableRecord
  2
*D34
340
0
  0
BLOCK_RECORD
  5
CF3
330
1
100
AcDbSymbolTableRecord
100
AcDbBlockTableRecord
  2
*D35
340
0
  0
BLOCK_RECORD
  5
D02
330
1
100
AcDbSymbolTableRecord
100
AcDbBlockTableRecord
  2
*D36
340
0
  0
BLOCK_RECORD
  5
D24
330
1
100
AcDbSymbolTableRecord
100
AcDbBlockTableRecord
  2
*D37
340
0
  0
BLOCK_RECORD
  5
DBD
330
1
100
AcDbSymbolTableRecord
100
AcDbBlockTableRecord
  2
*D38
340
0
  0
BLOCK_RECORD
  5
DF6
330
1
100
AcDbSymbolTableRecord
100
AcDbBlockTableRecord
  2
*D39
340
0
  0
BLOCK_RECORD
  5
E47
330
1
100
AcDbSymbolTableRecord
100
AcDbBlockTableRecord
  2
*D40
340
0
  0
BLOCK_RECORD
  5
E7A
330
1
100
AcDbSymbolTableRecord
100
AcDbBlockTableRecord
  2
*D41
340
0
  0
BLOCK_RECORD
  5
EAD
330
1
100
AcDbSymbolTableRecord
100
AcDbBlockTableRecord
  2
*D42
340
0
  0
BLOCK_RECORD
  5
F1D
330
1
100
AcDbSymbolTableRecord
100
AcDbBlockTableRecord
  2
*D43
340
0
  0
BLOCK_RECORD
  5
F5F
330
1
100
AcDbSymbolTableRecord
100
AcDbBlockTableRecord
  2
*D44
340
0
  0
BLOCK_RECORD
  5
F80
330
1
100
AcDbSymbolTableRecord
100
AcDbBlockTableRecord
  2
*D45
340
0
  0
BLOCK_RECORD
  5
FC6
330
1
100
AcDbSymbolTableRecord
100
AcDbBlockTableRecord
  2
*D46
340
0
  0
BLOCK_RECORD
  5
FF0
330
1
100
AcDbSymbolTableRecord
100
AcDbBlockTableRecord
  2
*D47
340
0
  0
BLOCK_RECORD
  5
108C
330
1
100
AcDbSymbolTableRecord
100
AcDbBlockTableRecord
  2
*D48
340
0
  0
BLOCK_RECORD
  5
10AE
330
1
100
AcDbSymbolTableRecord
100
AcDbBlockTableRecord
  2
*D49
340
0
  0
BLOCK_RECORD
  5
10DE
330
1
100
AcDbSymbolTableRecord
100
AcDbBlockTableRecord
  2
*D50
340
0
  0
BLOCK_RECORD
  5
18BA
330
1
100
AcDbSymbolTableRecord
100
AcDbBlockTableRecord
  2
_Open30
340
0
  0
ENDTAB
  0
ENDSEC
  0
SECTION
  2
BLOCKS
  0
BLOCK
  5
20
330
1F
100
AcDbEntity
  8
0
100
AcDbBlockBegin
  2
*Model_Space
 70
     0
 10
0.0
 20
0.0
 30
0.0
  3
*Model_Space
  1

  0
ENDBLK
  5
21
330
1F
100
AcDbEntity
  8
0
100
AcDbBlockEnd
  0
BLOCK
  5
D4
330
D2
100
AcDbEntity
 67
     1
  8
0
100
AcDbBlockBegin
  2
*Paper_Space
 70
     0
 10
0.0
 20
0.0
 30
0.0
  3
*Paper_Space
  1

  0
ENDBLK
  5
D5
330
D2
100
AcDbEntity
 67
     1
  8
0
100
AcDbBlockEnd
  0
BLOCK
  5
D8
330
D6
100
AcDbEntity
 67
     1
  8
0
100
AcDbBlockBegin
  2
*Paper_Space0
 70
     0
 10
0.0
 20
0.0
 30
0.0
  3
*Paper_Space0
  1

  0
ENDBLK
  5
D9
330
D6
100
AcDbEntity
 67
     1
  8
0
100
AcDbBlockEnd
  0
BLOCK
  5
F4
330
F3
100
AcDbEntity
  8
S-mark
 62
     7
100
AcDbBlockBegin
  2
AI9-BLK1
 70
     0
 10
0.0
 20
0.0
 30
0.0
  3
AI9-BLK1
  1

  0
INSERT
  5
F5
330
F3
100
AcDbEntity
  8
S-mark
 62
     7
100
AcDbBlockReference
  2
AI9-BLK2
 10
0.0
 20
0.0
 30
0.0
  0
ENDBLK
  5
F6
330
F3
100
AcDbEntity
  8
S-mark
100
AcDbBlockEnd
  0
BLOCK
  5
F8
330
F7
100
AcDbEntity
  8
S-mark
 62
     7
100
AcDbBlockBegin
  2
AI9-BLK2
 70
     0
 10
0.0
 20
0.0
 30
0.0
  3
AI9-BLK2
  1

  0
HATCH
  5
F9
330
F7
100
AcDbEntity
  8
S-mark
 62
     7
100
AcDbHatch
 10
0.0
 20
0.0
 30
0.0
210
0.0
220
0.0
230
1.0
  2
SOLID
 70
     1
 71
     0
 91
        1
 92
        1
 93
        1
 72
     4
 94
        3
 73
     0
 74
     0
 95
       59
 96
       55
 40
0.0
 40
0.0
 40
0.0
 40
0.0
 40
1.0
 40
1.0
 40
1.0
 40
2.0
 40
2.0
 40
2.0
 40
3.0
 40
3.0
 40
3.0
 40
4.0
 40
4.0
 40
4.0
 40
5.0
 40
5.0
 40
5.0
 40
6.0
 40
6.0
 40
6.0
 40
7.0
 40
7.0
 40
7.0
 40
8.0
 40
8.0
 40
8.0
 40
9.0
 40
9.0
 40
9.0
 40
10.0
 40
10.0
 40
10.0
 40
11.0
 40
11.0
 40
11.0
 40
12.0
 40
12.0
 40
12.0
 40
13.0
 40
13.0
 40
13.0
 40
14.0
 40
14.0
 40
14.0
 40
15.0
 40
15.0
 40
15.0
 40
16.0
 40
16.0
 40
16.0
 40
17.0
 40
17.0
 40
17.0
 40
18.0
 40
18.0
 40
18.0
 40
18.0
 10
19.11183946397569
 20
10.62743055555555
 10
19.11183946397569
 20
10.62743055555555
 10
19.13285454644096
 20
10.66274278428819
 10
19.13285454644096
 20
10.66274278428819
 10
19.61275634765625
 20
10.33804253472222
 10
20.1877427842882
 20
10.15114610460069
 10
20.80854899088542
 20
10.15114610460069
 10
22.46667344835069
 20
10.15114610460069
 10
23.81060519748264
 20
11.49525010850694
 10
23.81060519748264
 20
13.1497572157118
 10
23.81060519748264
 20
14.20102810329861
 10
23.26731363932291
 20
15.12879231770833
 10
22.44910346137153
 20
15.66502143012153
 10
22.44910346137153
 20
15.66502143012153
 10
22.45599365234375
 20
15.67914632161458
 10
22.45599365234375
 20
15.67914632161458
 10
22.45599365234375
 20
15.67914632161458
 10
-18.13102077907986
 20
42.28561876085069
 10
-18.13102077907986
 20
42.28561876085069
 10
-12.56770833333333
 20
44.67754855685764
 10
-6.436471896701386
 20
46.00046522352428
 10
0.0017225477430556
 20
46.00046522352428
 10
25.40533989800347
 20
46.00046522352428
 10
46.00046522352428
 20
25.40533989800347
 10
46.00046522352428
 20
0.0017225477430556
 10
46.00046522352428
 20
-14.73036702473958
 10
39.07547878689236
 20
-27.84308946397569
 10
28.30507676866319
 20
-36.26393636067708
 10
28.30507676866319
 20
-36.26393636067708
 10
1.067118326822915
 20
-19.00607503255208
 10
1.067118326822915
 20
-19.00607503255208
 10
1.416451009114583
 20
-18.86482611762152
 10
1.761994086371524
 20
-18.72357720269097
 10
2.107881673177083
 20
-18.57922770182291
 10
5.145077853732638
 20
-17.27732611762152
 10
7.381978352864582
 20
-15.23817409939236
 10
8.923314073350692
 20
-12.3032972547743
 10
10.4367445203993
 20
-9.410450575086803
 10
11.01896565755208
 20
-6.288160536024301
 10
10.21832546657986
 20
-3.092145453559026
 10
9.308131239149304
 20
0.53795166015625
 10
7.399548339843748
 20
3.97408989800347
 10
5.371076117621528
 20
6.95495876736111
 10
4.340992567274303
 20
8.468389214409722
 10
3.278869628906248
 20
10.03470187717014
 10
2.92609185112847
 20
11.85147298177083
 10
2.552298990885415
 20
13.76005588107639
 10
3.416673448350693
 20
16.33888210720486
 10
5.554355197482637
 20
16.90336100260416
 10
7.286549207899302
 20
17.35845811631944
 10
9.106937662760415
 20
16.76228434244791
 10
10.6909925672743
 20
16.05311143663194
 10
10.6909925672743
 20
16.05311143663194
 10
19.11183946397569
 20
10.62743055555555
 10
19.11183946397569
 20
10.62743055555555
 97
        0
 75
     2
 76
     1
 98
        1
 10
0.0
 20
0.0
  0
HATCH
  5
FA
330
F7
100
AcDbEntity
  8
S-mark
 62
     7
100
AcDbHatch
 10
0.0
 20
0.0
 30
0.0
210
0.0
220
0.0
230
1.0
  2
SOLID
 70
     1
 71
     0
 91
        1
 92
        1
 93
        1
 72
     4
 94
        3
 73
     0
 74
     0
 95
       68
 96
       64
 40
0.0
 40
0.0
 40
0.0
 40
0.0
 40
1.0
 40
1.0
 40
1.0
 40
2.0
 40
2.0
 40
2.0
 40
3.0
 40
3.0
 40
3.0
 40
4.0
 40
4.0
 40
4.0
 40
5.0
 40
5.0
 40
5.0
 40
6.0
 40
6.0
 40
6.0
 40
7.0
 40
7.0
 40
7.0
 40
8.0
 40
8.0
 40
8.0
 40
9.0
 40
9.0
 40
9.0
 40
10.0
 40
10.0
 40
10.0
 40
11.0
 40
11.0
 40
11.0
 40
12.0
 40
12.0
 40
12.0
 40
13.0
 40
13.0
 40
13.0
 40
14.0
 40
14.0
 40
14.0
 40
15.0
 40
15.0
 40
15.0
 40
16.0
 40
16.0
 40
16.0
 40
17.0
 40
17.0
 40
17.0
 40
18.0
 40
18.0
 40
18.0
 40
19.0
 40
19.0
 40
19.0
 40
20.0
 40
20.0
 40
20.0
 40
21.0
 40
21.0
 40
21.0
 40
21.0
 10
-23.28161078559027
 20
-10.57454833984375
 10
-23.28161078559027
 20
-10.57454833984375
 10
22.7522718641493
 20
-39.98911810980903
 10
22.7522718641493
 20
-39.98911810980903
 10
16.0426038953993
 20
-43.81696370442708
 10
8.278047688802082
 20
-46.00046522352428
 10
0.0017225477430556
 20
-46.00046522352428
 10
-25.40533989800347
 20
-46.00046522352428
 10
-46.00046522352428
 20
-25.40533989800347
 10
-46.00046522352428
 20
0.0017225477430556
 10
-46.00046522352428
 20
16.32820231119791
 10
-37.49504123263888
 20
30.66875678168403
 10
-24.6715345594618
 20
38.8319105360243
 10
-24.6715345594618
 20
38.8319105360243
 10
-0.4709445529513889
 20
23.24268120659722
 10
-0.4709445529513889
 20
23.24268120659722
 10
-0.4709445529513889
 20
23.24268120659722
 10
-0.5345065646701388
 20
23.14397922092014
 10
-0.5345065646701388
 20
23.14397922092014
 10
-2.495971679687499
 20
22.2654798719618
 10
-4.446756998697916
 20
21.18251410590278
 10
-5.77673611111111
 20
19.44325764973958
 10
-7.515992567274301
 20
17.1679443359375
 10
-7.216097005208332
 20
14.03514675564236
 10
-6.394097222222222
 20
11.46700032552083
 10
-5.882672797309028
 20
9.868992784288192
 10
-5.145250108506943
 20
8.344882541232637
 10
-4.309297688802081
 20
6.89139675564236
 10
-3.501422797309026
 20
5.487348090277778
 10
-2.59122856987847
 20
4.150478786892358
 10
-1.677589246961805
 20
2.816882324218748
 10
-0.7250203450520834
 20
1.434020996093749
 10
0.2451185438368055
 20
0.0475423177083333
 10
1.028188747829859
 20
-1.441255696614583
 10
1.811603461371524
 20
-2.926436360677083
 10
2.421729871961805
 20
-4.549076334635416
 10
2.48890923394097
 20
-6.242340766059028
 10
2.555744086371524
 20
-7.847410753038191
 10
2.097201877170137
 20
-9.456270345052082
 10
1.084688313802083
 20
-10.71924235026041
 10
0.0687296549479167
 20
-11.98221435546875
 10
-1.41300591362847
 20
-12.77940945095486
 10
-3.003951009114583
 20
-13.04054768880208
 10
-4.73252766927083
 20
-13.31925591362847
 10
-6.475229220920136
 20
-12.97336832682291
 10
-8.143861219618052
 20
-12.51482611762152
 10
-8.588450792100692
 20
-12.39493679470486
 10
-9.025805664062499
 20
-12.25713297526041
 10
-9.470395236545137
 20
-12.13379855685764
 10
-9.470395236545137
 20
-12.13379855685764
 10
-9.558589680989582
 20
-12.27504747178819
 10
-9.558589680989582
 20
-12.27504747178819
 10
-9.558589680989582
 20
-12.27504747178819
 10
-19.96553412543402
 20
-5.684924316406247
 10
-19.96553412543402
 20
-5.684924316406247
 10
-20.50520833333333
 20
-5.159547254774301
 10
-21.24263102213542
 20
-4.838464355468746
 10
-22.05395100911458
 20
-4.838464355468746
 10
-23.70845811631944
 20
-4.838464355468746
 10
-25.05256212022569
 20
-6.182396104600691
 10
-25.05256212022569
 20
-7.840520562065972
 10
-25.05256212022569
 20
-9.057672797309026
 10
-24.32581922743056
 20
-10.10532633463541
 10
-23.28161078559027
 20
-10.57454833984375
 97
        0
 75
     2
 76
     1
 98
        1
 10
0.0
 20
0.0
  0
ENDBLK
  5
FB
330
F7
100
AcDbEntity
  8
S-mark
100
AcDbBlockEnd
  0
BLOCK
  5
62C
330
622
100
AcDbEntity
  8
0
100
AcDbBlockBegin
  2
*D3
 70
     1
 10
0.0
 20
0.0
 30
0.0
  3
*D3
  1

  0
LINE
  5
678
330
622
100
AcDbEntity
  8
S-size
 62
     0
370
    -2
100
AcDbLine
 10
782.8000884495281
 20
2508.909163386518
 30
0.0
 11
782.8000884495281
 21
2566.627148033786
 31
0.0
  0
LINE
  5
679
330
622
100
AcDbEntity
  8
S-size
 62
     0
370
    -2
100
AcDbLine
 10
1782.800088449528
 20
2508.909163386518
 30
0.0
 11
1782.800088449528
 21
2566.627148033786
 31
0.0
  0
LINE
  5
67A
330
622
100
AcDbEntity
  8
S-size
 62
     0
370
    -2
100
AcDbLine
 10
802.8000884495281
 20
2566.627148033786
 30
0.0
 11
1762.800088449528
 21
2566.627148033786
 31
0.0
  0
SOLID
  5
67B
330
622
100
AcDbEntity
  8
S-size
 62
     0
100
AcDbTrace
 10
802.8000884495281
 20
2569.96048136712
 30
0.0
 11
802.8000884495281
 21
2563.293814700453
 31
0.0
 12
782.8000884495281
 22
2566.627148033786
 32
0.0
 13
782.8000884495281
 23
2566.627148033786
 33
0.0
  0
SOLID
  5
67C
330
622
100
AcDbEntity
  8
S-size
 62
     0
100
AcDbTrace
 10
1762.800088449528
 20
2569.96048136712
 30
0.0
 11
1762.800088449528
 21
2563.293814700453
 31
0.0
 12
1782.800088449528
 22
2566.627148033786
 32
0.0
 13
1782.800088449528
 23
2566.627148033786
 33
0.0
  0
MTEXT
  5
67D
330
622
100
AcDbEntity
  8
S-size
 62
     0
100
AcDbMText
 10
1282.800088449528
 20
2596.627148033787
 30
0.0
 40
30.0
 41
0.0
 71
     5
 72
     1
  1
1000
 73
     1
 44
1.0
1001
ACAD
1000
MTEXTBEGIN
1070
    73
1070
     1
1070
    44
1040
1.0
1070
    74
1070
     0
1000
MTEXTEND
  0
POINT
  5
67E
330
622
100
AcDbEntity
  8
DEFPOINTS
 62
     0
100
AcDbPoint
 10
782.8000884495281
 20
2458.909163386517
 30
0.0
  0
POINT
  5
67F
330
622
100
AcDbEntity
  8
DEFPOINTS
 62
     0
100
AcDbPoint
 10
1782.800088449528
 20
2458.909163386517
 30
0.0
  0
POINT
  5
680
330
622
100
AcDbEntity
  8
DEFPOINTS
 62
     0
100
AcDbPoint
 10
1782.800088449528
 20
2566.627148033786
 30
0.0
  0
ENDBLK
  5
62D
330
622
100
AcDbEntity
  8
0
100
AcDbBlockEnd
  0
BLOCK
  5
68C
330
682
100
AcDbEntity
  8
0
100
AcDbBlockBegin
  2
*D4
 70
     1
 10
0.0
 20
0.0
 30
0.0
  3
*D4
  1

  0
LINE
  5
1102
330
682
100
AcDbEntity
  8
S-size
 62
     0
370
    -2
100
AcDbLine
 10
982.8000884495279
 20
2118.909163386518
 30
0.0
 11
982.8000884495279
 21
2167.927564740236
 31
0.0
  0
LINE
  5
1103
330
682
100
AcDbEntity
  8
S-size
 62
     0
370
    -2
100
AcDbLine
 10
1182.800088449528
 20
2118.909163386518
 30
0.0
 11
1182.800088449528
 21
2167.927564740236
 31
0.0
  0
LINE
  5
1104
330
682
100
AcDbEntity
  8
S-size
 62
     0
370
    -2
100
AcDbLine
 10
1002.800088449528
 20
2167.927564740236
 30
0.0
 11
1162.800088449528
 21
2167.927564740236
 31
0.0
  0
SOLID
  5
1105
330
682
100
AcDbEntity
  8
S-size
 62
     0
100
AcDbTrace
 10
1002.800088449528
 20
2171.26089807357
 30
0.0
 11
1002.800088449528
 21
2164.594231406903
 31
0.0
 12
982.8000884495279
 22
2167.927564740236
 32
0.0
 13
982.8000884495279
 23
2167.927564740236
 33
0.0
  0
SOLID
  5
1106
330
682
100
AcDbEntity
  8
S-size
 62
     0
100
AcDbTrace
 10
1162.800088449528
 20
2171.26089807357
 30
0.0
 11
1162.800088449528
 21
2164.594231406903
 31
0.0
 12
1182.800088449528
 22
2167.927564740236
 32
0.0
 13
1182.800088449528
 23
2167.927564740236
 33
0.0
  0
MTEXT
  5
1107
330
682
100
AcDbEntity
  8
S-size
 62
     0
100
AcDbMText
 10
1082.800088449528
 20
2197.927564740236
 30
0.0
 40
30.0
 41
0.0
 71
     5
 72
     1
  1
200
 73
     1
 44
1.0
1001
ACAD
1000
MTEXTBEGIN
1070
    73
1070
     1
1070
    44
1040
1.0
1070
    74
1070
     0
1000
MTEXTEND
  0
POINT
  5
1108
330
682
100
AcDbEntity
  8
DEFPOINTS
 62
     0
100
AcDbPoint
 10
982.8000884495279
 20
2068.909163386518
 30
0.0
  0
POINT
  5
1109
330
682
100
AcDbEntity
  8
DEFPOINTS
 62
     0
100
AcDbPoint
 10
1182.800088449528
 20
2068.909163386518
 30
0.0
  0
POINT
  5
110A
330
682
100
AcDbEntity
  8
DEFPOINTS
 62
     0
100
AcDbPoint
 10
1182.800088449528
 20
2167.927564740236
 30
0.0
  0
ENDBLK
  5
68D
330
682
100
AcDbEntity
  8
0
100
AcDbBlockEnd
  0
BLOCK
  5
6AF
330
6A5
100
AcDbEntity
  8
0
100
AcDbBlockBegin
  2
*D5
 70
     1
 10
0.0
 20
0.0
 30
0.0
  3
*D5
  1

  0
LINE
  5
111D
330
6A5
100
AcDbEntity
  8
S-size
 62
     0
370
    -2
100
AcDbLine
 10
1382.800088449528
 20
2118.909163386518
 30
0.0
 11
1382.800088449528
 21
2167.927564740236
 31
0.0
  0
LINE
  5
111E
330
6A5
100
AcDbEntity
  8
S-size
 62
     0
370
    -2
100
AcDbLine
 10
1582.800088449528
 20
2118.909163386518
 30
0.0
 11
1582.800088449528
 21
2167.927564740236
 31
0.0
  0
LINE
  5
111F
330
6A5
100
AcDbEntity
  8
S-size
 62
     0
370
    -2
100
AcDbLine
 10
1402.800088449528
 20
2167.927564740236
 30
0.0
 11
1562.800088449528
 21
2167.927564740236
 31
0.0
  0
SOLID
  5
1120
330
6A5
100
AcDbEntity
  8
S-size
 62
     0
100
AcDbTrace
 10
1402.800088449528
 20
2171.26089807357
 30
0.0
 11
1402.800088449528
 21
2164.594231406903
 31
0.0
 12
1382.800088449528
 22
2167.927564740236
 32
0.0
 13
1382.800088449528
 23
2167.927564740236
 33
0.0
  0
SOLID
  5
1121
330
6A5
100
AcDbEntity
  8
S-size
 62
     0
100
AcDbTrace
 10
1562.800088449528
 20
2171.26089807357
 30
0.0
 11
1562.800088449528
 21
2164.594231406903
 31
0.0
 12
1582.800088449528
 22
2167.927564740236
 32
0.0
 13
1582.800088449528
 23
2167.927564740236
 33
0.0
  0
MTEXT
  5
1122
330
6A5
100
AcDbEntity
  8
S-size
 62
     0
100
AcDbMText
 10
1482.800088449528
 20
2197.927564740236
 30
0.0
 40
30.0
 41
0.0
 71
     5
 72
     1
  1
200
 73
     1
 44
1.0
1001
ACAD
1000
MTEXTBEGIN
1070
    73
1070
     1
1070
    44
1040
1.0
1070
    74
1070
     0
1000
MTEXTEND
  0
POINT
  5
1123
330
6A5
100
AcDbEntity
  8
DEFPOINTS
 62
     0
100
AcDbPoint
 10
1382.800088449528
 20
2068.909163386518
 30
0.0
  0
POINT
  5
1124
330
6A5
100
AcDbEntity
  8
DEFPOINTS
 62
     0
100
AcDbPoint
 10
1582.800088449528
 20
2068.909163386518
 30
0.0
  0
POINT
  5
1125
330
6A5
100
AcDbEntity
  8
DEFPOINTS
 62
     0
100
AcDbPoint
 10
1582.800088449528
 20
2167.927564740236
 30
0.0
  0
ENDBLK
  5
6B0
330
6A5
100
AcDbEntity
  8
0
100
AcDbBlockEnd
  0
BLOCK
  5
6C5
330
6BB
100
AcDbEntity
  8
0
100
AcDbBlockBegin
  2
*D6
 70
     1
 10
0.0
 20
0.0
 30
0.0
  3
*D6
  1

  0
LINE
  5
6D2
330
6BB
100
AcDbEntity
  8
S-size
 62
     0
370
    -2
100
AcDbLine
 10
1007.800088449528
 20
1958.909163386517
 30
0.0
 11
1007.800088449528
 21
1916.549679921673
 31
0.0
  0
LINE
  5
6D3
330
6BB
100
AcDbEntity
  8
S-size
 62
     0
370
    -2
100
AcDbLine
 10
1157.800088449528
 20
1958.909163386517
 30
0.0
 11
1157.800088449528
 21
1916.549679921673
 31
0.0
  0
LINE
  5
6D4
330
6BB
100
AcDbEntity
  8
S-size
 62
     0
370
    -2
100
AcDbLine
 10
1027.800088449528
 20
1916.549679921673
 30
0.0
 11
1137.800088449528
 21
1916.549679921673
 31
0.0
  0
SOLID
  5
6D5
330
6BB
100
AcDbEntity
  8
S-size
 62
     0
100
AcDbTrace
 10
1027.800088449528
 20
1919.883013255007
 30
0.0
 11
1027.800088449528
 21
1913.21634658834
 31
0.0
 12
1007.800088449528
 22
1916.549679921673
 32
0.0
 13
1007.800088449528
 23
1916.549679921673
 33
0.0
  0
SOLID
  5
6D6
330
6BB
100
AcDbEntity
  8
S-size
 62
     0
100
AcDbTrace
 10
1137.800088449528
 20
1919.883013255007
 30
0.0
 11
1137.800088449528
 21
1913.21634658834
 31
0.0
 12
1157.800088449528
 22
1916.549679921673
 32
0.0
 13
1157.800088449528
 23
1916.549679921673
 33
0.0
  0
MTEXT
  5
6D7
330
6BB
100
AcDbEntity
  8
S-size
 62
     0
100
AcDbMText
 10
1082.800088449528
 20
1886.549679921673
 30
0.0
 40
30.0
 41
0.0
 71
     5
 72
     1
  1
150
 73
     1
 44
1.0
1001
ACAD
1000
MTEXTBEGIN
1070
    73
1070
     1
1070
    44
1040
1.0
1070
    74
1070
     0
1000
MTEXTEND
  0
POINT
  5
6D8
330
6BB
100
AcDbEntity
  8
DEFPOINTS
 62
     0
100
AcDbPoint
 10
1007.800088449528
 20
2008.909163386517
 30
0.0
  0
POINT
  5
6D9
330
6BB
100
AcDbEntity
  8
DEFPOINTS
 62
     0
100
AcDbPoint
 10
1157.800088449528
 20
2008.909163386517
 30
0.0
  0
POINT
  5
6DA
330
6BB
100
AcDbEntity
  8
DEFPOINTS
 62
     0
100
AcDbPoint
 10
1157.800088449528
 20
1916.549679921673
 30
0.0
  0
ENDBLK
  5
6C6
330
6BB
100
AcDbEntity
  8
0
100
AcDbBlockEnd
  0
BLOCK
  5
6E8
330
6DE
100
AcDbEntity
  8
0
100
AcDbBlockBegin
  2
*D7
 70
     1
 10
0.0
 20
0.0
 30
0.0
  3
*D7
  1

  0
LINE
  5
6EA
330
6DE
100
AcDbEntity
  8
S-size
 62
     0
370
    -2
100
AcDbLine
 10
1407.800088449528
 20
1958.909163386517
 30
0.0
 11
1407.800088449528
 21
1916.549679921673
 31
0.0
  0
LINE
  5
6EB
330
6DE
100
AcDbEntity
  8
S-size
 62
     0
370
    -2
100
AcDbLine
 10
1557.800088449528
 20
1958.909163386517
 30
0.0
 11
1557.800088449528
 21
1916.549679921673
 31
0.0
  0
LINE
  5
6EC
330
6DE
100
AcDbEntity
  8
S-size
 62
     0
370
    -2
100
AcDbLine
 10
1427.800088449528
 20
1916.549679921673
 30
0.0
 11
1537.800088449528
 21
1916.549679921673
 31
0.0
  0
SOLID
  5
6ED
330
6DE
100
AcDbEntity
  8
S-size
 62
     0
100
AcDbTrace
 10
1427.800088449528
 20
1919.883013255007
 30
0.0
 11
1427.800088449528
 21
1913.21634658834
 31
0.0
 12
1407.800088449528
 22
1916.549679921673
 32
0.0
 13
1407.800088449528
 23
1916.549679921673
 33
0.0
  0
SOLID
  5
6EE
330
6DE
100
AcDbEntity
  8
S-size
 62
     0
100
AcDbTrace
 10
1537.800088449528
 20
1919.883013255007
 30
0.0
 11
1537.800088449528
 21
1913.21634658834
 31
0.0
 12
1557.800088449528
 22
1916.549679921673
 32
0.0
 13
1557.800088449528
 23
1916.549679921673
 33
0.0
  0
MTEXT
  5
6EF
330
6DE
100
AcDbEntity
  8
S-size
 62
     0
100
AcDbMText
 10
1482.800088449528
 20
1886.549679921673
 30
0.0
 40
30.0
 41
0.0
 71
     5
 72
     1
  1
150
 73
     1
 44
1.0
1001
ACAD
1000
MTEXTBEGIN
1070
    73
1070
     1
1070
    44
1040
1.0
1070
    74
1070
     0
1000
MTEXTEND
  0
POINT
  5
6F0
330
6DE
100
AcDbEntity
  8
DEFPOINTS
 62
     0
100
AcDbPoint
 10
1407.800088449528
 20
2008.909163386517
 30
0.0
  0
POINT
  5
6F1
330
6DE
100
AcDbEntity
  8
DEFPOINTS
 62
     0
100
AcDbPoint
 10
1557.800088449528
 20
2008.909163386517
 30
0.0
  0
POINT
  5
6F2
330
6DE
100
AcDbEntity
  8
DEFPOINTS
 62
     0
100
AcDbPoint
 10
1557.800088449528
 20
1916.549679921673
 30
0.0
  0
ENDBLK
  5
6E9
330
6DE
100
AcDbEntity
  8
0
100
AcDbBlockEnd
  0
BLOCK
  5
6FE
330
6F4
100
AcDbEntity
  8
0
100
AcDbBlockBegin
  2
*D8
 70
     1
 10
0.0
 20
0.0
 30
0.0
  3
*D8
  1

  0
LINE
  5
1EB8
330
6F4
100
AcDbEntity
  8
S-size
 62
     0
370
    -2
100
AcDbLine
 10
732.8000884495281
 20
2008.909163386517
 30
0.0
 11
622.8177274859953
 21
2008.909163386517
 31
0.0
  0
LINE
  5
1EB9
330
6F4
100
AcDbEntity
  8
S-size
 62
     0
370
    -2
100
AcDbLine
 10
732.8000884495281
 20
2458.909163386517
 30
0.0
 11
622.8177274859953
 21
2458.909163386517
 31
0.0
  0
LINE
  5
1EBA
330
6F4
100
AcDbEntity
  8
S-size
 62
     0
370
    -2
100
AcDbLine
 10
622.8177274859953
 20
2028.909163386517
 30
0.0
 11
622.8177274859953
 21
2438.909163386517
 31
0.0
  0
SOLID
  5
1EBB
330
6F4
100
AcDbEntity
  8
S-size
 62
     0
100
AcDbTrace
 10
619.4843941526617
 20
2028.909163386517
 30
0.0
 11
626.1510608193285
 21
2028.909163386517
 31
0.0
 12
622.8177274859953
 22
2008.909163386517
 32
0.0
 13
622.8177274859953
 23
2008.909163386517
 33
0.0
  0
SOLID
  5
1EBC
330
6F4
100
AcDbEntity
  8
S-size
 62
     0
100
AcDbTrace
 10
619.4843941526619
 20
2438.909163386517
 30
0.0
 11
626.1510608193288
 21
2438.909163386517
 31
0.0
 12
622.8177274859953
 22
2458.909163386517
 32
0.0
 13
622.8177274859953
 23
2458.909163386517
 33
0.0
  0
MTEXT
  5
1EBD
330
6F4
100
AcDbEntity
  8
S-size
 62
     0
100
AcDbMText
 10
592.8177274859947
 20
2233.909163386517
 30
0.0
 40
30.0
 41
0.0
 71
     5
 72
     1
  1
450
 11
0.0000000000000001
 21
1.0
 31
0.0
 73
     1
 44
1.0
1001
ACAD
1000
MTEXTBEGIN
1070
    73
1070
     1
1070
    44
1040
1.0
1070
    74
1070
     0
1000
MTEXTEND
  0
POINT
  5
1EBE
330
6F4
100
AcDbEntity
  8
DEFPOINTS
 62
     0
100
AcDbPoint
 10
782.8000884495281
 20
2008.909163386517
 30
0.0
  0
POINT
  5
1EBF
330
6F4
100
AcDbEntity
  8
DEFPOINTS
 62
     0
100
AcDbPoint
 10
782.8000884495281
 20
2458.909163386517
 30
0.0
  0
POINT
  5
1EC0
330
6F4
100
AcDbEntity
  8
DEFPOINTS
 62
     0
100
AcDbPoint
 10
622.8177274859953
 20
2458.909163386517
 30
0.0
  0
ENDBLK
  5
6FF
330
6F4
100
AcDbEntity
  8
0
100
AcDbBlockEnd
  0
BLOCK
  5
71F
330
715
100
AcDbEntity
  8
0
100
AcDbBlockBegin
  2
*D9
 70
     1
 10
0.0
 20
0.0
 30
0.0
  3
*D9
  1

  0
LINE
  5
737
330
715
100
AcDbEntity
  8
S-size
 62
     0
370
    -2
100
AcDbLine
 10
732.8000884495281
 20
2008.909163386517
 30
0.0
 11
686.5918333242592
 21
2008.909163386517
 31
0.0
  0
LINE
  5
738
330
715
100
AcDbEntity
  8
S-size
 62
     0
370
    -2
100
AcDbLine
 10
732.8000884495281
 20
2068.909163386518
 30
0.0
 11
686.5918333242592
 21
2068.909163386518
 31
0.0
  0
LINE
  5
739
330
715
100
AcDbEntity
  8
S-size
 62
     0
370
    -2
100
AcDbLine
 10
686.5918333242592
 20
1988.909163386517
 30
0.0
 11
686.5918333242592
 21
1968.909163386517
 31
0.0
  0
LINE
  5
73A
330
715
100
AcDbEntity
  8
S-size
 62
     0
370
    -2
100
AcDbLine
 10
686.5918333242592
 20
2088.909163386517
 30
0.0
 11
686.5918333242592
 21
2108.909163386517
 31
0.0
  0
LINE
  5
73B
330
715
100
AcDbEntity
  8
S-size
 62
     0
370
    -2
100
AcDbLine
 10
686.5918333242592
 20
2008.909163386517
 30
0.0
 11
686.5918333242592
 21
2068.909163386518
 31
0.0
  0
SOLID
  5
73C
330
715
100
AcDbEntity
  8
S-size
 62
     0
100
AcDbTrace
 10
683.2584999909259
 20
1988.909163386517
 30
0.0
 11
689.9251666575926
 21
1988.909163386517
 31
0.0
 12
686.5918333242592
 22
2008.909163386517
 32
0.0
 13
686.5918333242592
 23
2008.909163386517
 33
0.0
  0
SOLID
  5
73D
330
715
100
AcDbEntity
  8
S-size
 62
     0
100
AcDbTrace
 10
683.2584999909259
 20
2088.909163386517
 30
0.0
 11
689.9251666575926
 21
2088.909163386517
 31
0.0
 12
686.5918333242592
 22
2068.909163386518
 32
0.0
 13
686.5918333242592
 23
2068.909163386518
 33
0.0
  0
MTEXT
  5
73E
330
715
100
AcDbEntity
  8
S-size
 62
     0
100
AcDbMText
 10
656.5918333242589
 20
2038.909163386517
 30
0.0
 40
30.0
 41
0.0
 71
     5
 72
     1
  1
60
 11
0.0000000000000001
 21
1.0
 31
0.0
 73
     1
 44
1.0
1001
ACAD
1000
MTEXTBEGIN
1070
    73
1070
     1
1070
    44
1040
1.0
1070
    74
1070
     0
1000
MTEXTEND
  0
POINT
  5
73F
330
715
100
AcDbEntity
  8
DEFPOINTS
 62
     0
100
AcDbPoint
 10
782.8000884495281
 20
2008.909163386517
 30
0.0
  0
POINT
  5
740
330
715
100
AcDbEntity
  8
DEFPOINTS
 62
     0
100
AcDbPoint
 10
782.8000884495281
 20
2068.909163386518
 30
0.0
  0
POINT
  5
741
330
715
100
AcDbEntity
  8
DEFPOINTS
 62
     0
100
AcDbPoint
 10
686.5918333242592
 20
2068.909163386518
 30
0.0
  0
ENDBLK
  5
720
330
715
100
AcDbEntity
  8
0
100
AcDbBlockEnd
  0
BLOCK
  5
756
330
74C
100
AcDbEntity
  8
0
100
AcDbBlockBegin
  2
*D10
 70
     1
 10
0.0
 20
0.0
 30
0.0
  3
*D10
  1

  0
LINE
  5
76E
330
74C
100
AcDbEntity
  8
S-size
 62
     0
370
    -2
100
AcDbLine
 10
782.8000884495281
 20
1958.909163386517
 30
0.0
 11
782.8000884495281
 21
1916.549679921673
 31
0.0
  0
LINE
  5
76F
330
74C
100
AcDbEntity
  8
S-size
 62
     0
370
    -2
100
AcDbLine
 10
832.8000884495281
 20
1958.909163386517
 30
0.0
 11
832.8000884495281
 21
1916.549679921673
 31
0.0
  0
LINE
  5
770
330
74C
100
AcDbEntity
  8
S-size
 62
     0
370
    -2
100
AcDbLine
 10
762.8000884495281
 20
1916.549679921673
 30
0.0
 11
742.8000884495282
 21
1916.549679921673
 31
0.0
  0
LINE
  5
771
330
74C
100
AcDbEntity
  8
S-size
 62
     0
370
    -2
100
AcDbLine
 10
852.8000884495281
 20
1916.549679921673
 30
0.0
 11
872.8000884495282
 21
1916.549679921673
 31
0.0
  0
LINE
  5
772
330
74C
100
AcDbEntity
  8
S-size
 62
     0
370
    -2
100
AcDbLine
 10
782.8000884495281
 20
1916.549679921673
 30
0.0
 11
832.8000884495281
 21
1916.549679921673
 31
0.0
  0
SOLID
  5
773
330
74C
100
AcDbEntity
  8
S-size
 62
     0
100
AcDbTrace
 10
762.8000884495281
 20
1919.883013255007
 30
0.0
 11
762.8000884495281
 21
1913.21634658834
 31
0.0
 12
782.8000884495281
 22
1916.549679921673
 32
0.0
 13
782.8000884495281
 23
1916.549679921673
 33
0.0
  0
SOLID
  5
774
330
74C
100
AcDbEntity
  8
S-size
 62
     0
100
AcDbTrace
 10
852.8000884495281
 20
1919.883013255007
 30
0.0
 11
852.8000884495281
 21
1913.21634658834
 31
0.0
 12
832.8000884495281
 22
1916.549679921673
 32
0.0
 13
832.8000884495281
 23
1916.549679921673
 33
0.0
  0
MTEXT
  5
775
330
74C
100
AcDbEntity
  8
S-size
 62
     0
100
AcDbMText
 10
807.8000884495281
 20
1886.549679921673
 30
0.0
 40
30.0
 41
0.0
 71
     5
 72
     1
  1
50
 73
     1
 44
1.0
1001
ACAD
1000
MTEXTBEGIN
1070
    73
1070
     1
1070
    44
1040
1.0
1070
    74
1070
     0
1000
MTEXTEND
  0
POINT
  5
776
330
74C
100
AcDbEntity
  8
DEFPOINTS
 62
     0
100
AcDbPoint
 10
782.8000884495281
 20
2008.909163386517
 30
0.0
  0
POINT
  5
777
330
74C
100
AcDbEntity
  8
DEFPOINTS
 62
     0
100
AcDbPoint
 10
832.8000884495281
 20
2008.909163386517
 30
0.0
  0
POINT
  5
778
330
74C
100
AcDbEntity
  8
DEFPOINTS
 62
     0
100
AcDbPoint
 10
832.8000884495281
 20
1916.549679921673
 30
0.0
  0
ENDBLK
  5
757
330
74C
100
AcDbEntity
  8
0
100
AcDbBlockEnd
  0
BLOCK
  5
784
330
77A
100
AcDbEntity
  8
0
100
AcDbBlockBegin
  2
*D11
 70
     1
 10
0.0
 20
0.0
 30
0.0
  3
*D11
  1

  0
LINE
  5
79C
330
77A
100
AcDbEntity
  8
S-size
 62
     0
370
    -2
100
AcDbLine
 10
1782.800088449528
 20
1958.909163386517
 30
0.0
 11
1782.800088449528
 21
1916.549679921673
 31
0.0
  0
LINE
  5
79D
330
77A
100
AcDbEntity
  8
S-size
 62
     0
370
    -2
100
AcDbLine
 10
1812.800088449528
 20
1958.909163386517
 30
0.0
 11
1812.800088449528
 21
1916.549679921673
 31
0.0
  0
LINE
  5
79E
330
77A
100
AcDbEntity
  8
S-size
 62
     0
370
    -2
100
AcDbLine
 10
1762.800088449528
 20
1916.549679921673
 30
0.0
 11
1742.800088449528
 21
1916.549679921673
 31
0.0
  0
LINE
  5
79F
330
77A
100
AcDbEntity
  8
S-size
 62
     0
370
    -2
100
AcDbLine
 10
1832.800088449528
 20
1916.549679921673
 30
0.0
 11
1852.800088449528
 21
1916.549679921673
 31
0.0
  0
LINE
  5
7A0
330
77A
100
AcDbEntity
  8
S-size
 62
     0
370
    -2
100
AcDbLine
 10
1782.800088449528
 20
1916.549679921673
 30
0.0
 11
1812.800088449528
 21
1916.549679921673
 31
0.0
  0
SOLID
  5
7A1
330
77A
100
AcDbEntity
  8
S-size
 62
     0
100
AcDbTrace
 10
1762.800088449528
 20
1919.883013255007
 30
0.0
 11
1762.800088449528
 21
1913.21634658834
 31
0.0
 12
1782.800088449528
 22
1916.549679921673
 32
0.0
 13
1782.800088449528
 23
1916.549679921673
 33
0.0
  0
SOLID
  5
7A2
330
77A
100
AcDbEntity
  8
S-size
 62
     0
100
AcDbTrace
 10
1832.800088449528
 20
1919.883013255007
 30
0.0
 11
1832.800088449528
 21
1913.21634658834
 31
0.0
 12
1812.800088449528
 22
1916.549679921673
 32
0.0
 13
1812.800088449528
 23
1916.549679921673
 33
0.0
  0
MTEXT
  5
7A3
330
77A
100
AcDbEntity
  8
S-size
 62
     0
100
AcDbMText
 10
1797.800088449528
 20
1886.549679921673
 30
0.0
 40
30.0
 41
0.0
 71
     5
 72
     1
  1
30
 73
     1
 44
1.0
1001
ACAD
1000
MTEXTBEGIN
1070
    73
1070
     1
1070
    44
1040
1.0
1070
    74
1070
     0
1000
MTEXTEND
  0
POINT
  5
7A4
330
77A
100
AcDbEntity
  8
DEFPOINTS
 62
     0
100
AcDbPoint
 10
1782.800088449528
 20
2008.909163386517
 30
0.0
  0
POINT
  5
7A5
330
77A
100
AcDbEntity
  8
DEFPOINTS
 62
     0
100
AcDbPoint
 10
1812.800088449528
 20
2008.909163386517
 30
0.0
  0
POINT
  5
7A6
330
77A
100
AcDbEntity
  8
DEFPOINTS
 62
     0
100
AcDbPoint
 10
1812.800088449528
 20
1916.549679921673
 30
0.0
  0
ENDBLK
  5
785
330
77A
100
AcDbEntity
  8
0
100
AcDbBlockEnd
  0
BLOCK
  5
800
330
7F6
100
AcDbEntity
  8
0
100
AcDbBlockBegin
  2
*D12
 70
     1
 10
0.0
 20
0.0
 30
0.0
  3
*D12
  1

  0
LINE
  5
8A5
330
7F6
100
AcDbEntity
  8
S-size
 62
     0
370
    -2
100
AcDbLine
 10
3282.800088449528
 20
1958.909163386517
 30
0.0
 11
3282.800088449528
 21
1796.217744945777
 31
0.0
  0
LINE
  5
8A6
330
7F6
100
AcDbEntity
  8
S-size
 62
     0
370
    -2
100
AcDbLine
 10
3632.800088449528
 20
1958.909163386517
 30
0.0
 11
3632.800088449528
 21
1796.217744945777
 31
0.0
  0
LINE
  5
8A7
330
7F6
100
AcDbEntity
  8
S-size
 62
     0
370
    -2
100
AcDbLine
 10
3302.800088449528
 20
1796.217744945777
 30
0.0
 11
3612.800088449529
 21
1796.217744945777
 31
0.0
  0
SOLID
  5
8A8
330
7F6
100
AcDbEntity
  8
S-size
 62
     0
100
AcDbTrace
 10
3302.800088449528
 20
1799.551078279111
 30
0.0
 11
3302.800088449528
 21
1792.884411612444
 31
0.0
 12
3282.800088449528
 22
1796.217744945777
 32
0.0
 13
3282.800088449528
 23
1796.217744945777
 33
0.0
  0
SOLID
  5
8A9
330
7F6
100
AcDbEntity
  8
S-size
 62
     0
100
AcDbTrace
 10
3612.800088449529
 20
1799.551078279111
 30
0.0
 11
3612.800088449529
 21
1792.884411612444
 31
0.0
 12
3632.800088449528
 22
1796.217744945777
 32
0.0
 13
3632.800088449528
 23
1796.217744945777
 33
0.0
  0
MTEXT
  5
8AA
330
7F6
100
AcDbEntity
  8
S-size
 62
     0
100
AcDbMText
 10
3457.800088449528
 20
1766.217744945777
 30
0.0
 40
30.0
 41
0.0
 71
     5
 72
     1
  1
350
 73
     1
 44
1.0
1001
ACAD
1000
MTEXTBEGIN
1070
    73
1070
     1
1070
    44
1040
1.0
1070
    74
1070
     0
1000
MTEXTEND
  0
POINT
  5
8AB
330
7F6
100
AcDbEntity
  8
DEFPOINTS
 62
     0
100
AcDbPoint
 10
3282.800088449528
 20
2008.909163386517
 30
0.0
  0
POINT
  5
8AC
330
7F6
100
AcDbEntity
  8
DEFPOINTS
 62
     0
100
AcDbPoint
 10
3632.800088449528
 20
2008.909163386517
 30
0.0
  0
POINT
  5
8AD
330
7F6
100
AcDbEntity
  8
DEFPOINTS
 62
     0
100
AcDbPoint
 10
3632.800088449528
 20
1796.217744945777
 30
0.0
  0
ENDBLK
  5
801
330
7F6
100
AcDbEntity
  8
0
100
AcDbBlockEnd
  0
BLOCK
  5
87D
330
873
100
AcDbEntity
  8
0
100
AcDbBlockBegin
  2
*D13
 70
     1
 10
0.0
 20
0.0
 30
0.0
  3
*D13
  1

  0
LINE
  5
88A
330
873
100
AcDbEntity
  8
S-size
 62
     0
370
    -2
100
AcDbLine
 10
3422.800088449528
 20
1958.909163386517
 30
0.0
 11
3422.800088449528
 21
1853.780566275766
 31
0.0
  0
LINE
  5
88B
330
873
100
AcDbEntity
  8
S-size
 62
     0
370
    -2
100
AcDbLine
 10
3512.800088449529
 20
1958.909163386517
 30
0.0
 11
3512.800088449529
 21
1853.780566275766
 31
0.0
  0
LINE
  5
88C
330
873
100
AcDbEntity
  8
S-size
 62
     0
370
    -2
100
AcDbLine
 10
3442.800088449529
 20
1853.780566275766
 30
0.0
 11
3492.800088449528
 21
1853.780566275766
 31
0.0
  0
SOLID
  5
88D
330
873
100
AcDbEntity
  8
S-size
 62
     0
100
AcDbTrace
 10
3442.800088449529
 20
1857.1138996091
 30
0.0
 11
3442.800088449529
 21
1850.447232942433
 31
0.0
 12
3422.800088449528
 22
1853.780566275766
 32
0.0
 13
3422.800088449528
 23
1853.780566275766
 33
0.0
  0
SOLID
  5
88E
330
873
100
AcDbEntity
  8
S-size
 62
     0
100
AcDbTrace
 10
3492.800088449528
 20
1857.1138996091
 30
0.0
 11
3492.800088449528
 21
1850.447232942433
 31
0.0
 12
3512.800088449529
 22
1853.780566275766
 32
0.0
 13
3512.800088449529
 23
1853.780566275766
 33
0.0
  0
MTEXT
  5
88F
330
873
100
AcDbEntity
  8
S-size
 62
     0
100
AcDbMText
 10
3467.800088449529
 20
1823.780566275766
 30
0.0
 40
30.0
 41
0.0
 71
     5
 72
     1
  1
90
 73
     1
 44
1.0
1001
ACAD
1000
MTEXTBEGIN
1070
    73
1070
     1
1070
    44
1040
1.0
1070
    74
1070
     0
1000
MTEXTEND
  0
POINT
  5
890
330
873
100
AcDbEntity
  8
DEFPOINTS
 62
     0
100
AcDbPoint
 10
3422.800088449528
 20
2008.909163386517
 30
0.0
  0
POINT
  5
891
330
873
100
AcDbEntity
  8
DEFPOINTS
 62
     0
100
AcDbPoint
 10
3512.800088449529
 20
2008.909163386517
 30
0.0
  0
POINT
  5
892
330
873
100
AcDbEntity
  8
DEFPOINTS
 62
     0
100
AcDbPoint
 10
3512.800088449529
 20
1853.780566275766
 30
0.0
  0
ENDBLK
  5
87E
330
873
100
AcDbEntity
  8
0
100
AcDbBlockEnd
  0
BLOCK
  5
8B9
330
8AF
100
AcDbEntity
  8
0
100
AcDbBlockBegin
  2
*D14
 70
     1
 10
0.0
 20
0.0
 30
0.0
  3
*D14
  1

  0
LINE
  5
8F2
330
8AF
100
AcDbEntity
  8
S-size
 62
     0
370
    -2
100
AcDbLine
 10
3422.800088449528
 20
1958.909163386517
 30
0.0
 11
3422.800088449528
 21
1853.780566275766
 31
0.0
  0
LINE
  5
8F3
330
8AF
100
AcDbEntity
  8
S-size
 62
     0
370
    -2
100
AcDbLine
 10
3367.800088449528
 20
1958.909163386517
 30
0.0
 11
3367.800088449528
 21
1853.780566275766
 31
0.0
  0
LINE
  5
8F4
330
8AF
100
AcDbEntity
  8
S-size
 62
     0
370
    -2
100
AcDbLine
 10
3442.800088449529
 20
1853.780566275766
 30
0.0
 11
3462.800088449529
 21
1853.780566275766
 31
0.0
  0
LINE
  5
8F5
330
8AF
100
AcDbEntity
  8
S-size
 62
     0
370
    -2
100
AcDbLine
 10
3347.800088449528
 20
1853.780566275766
 30
0.0
 11
3327.800088449528
 21
1853.780566275766
 31
0.0
  0
LINE
  5
8F6
330
8AF
100
AcDbEntity
  8
S-size
 62
     0
370
    -2
100
AcDbLine
 10
3422.800088449528
 20
1853.780566275766
 30
0.0
 11
3367.800088449528
 21
1853.780566275766
 31
0.0
  0
SOLID
  5
8F7
330
8AF
100
AcDbEntity
  8
S-size
 62
     0
100
AcDbTrace
 10
3442.800088449529
 20
1857.1138996091
 30
0.0
 11
3442.800088449529
 21
1850.447232942433
 31
0.0
 12
3422.800088449528
 22
1853.780566275766
 32
0.0
 13
3422.800088449528
 23
1853.780566275766
 33
0.0
  0
SOLID
  5
8F8
330
8AF
100
AcDbEntity
  8
S-size
 62
     0
100
AcDbTrace
 10
3347.800088449528
 20
1857.1138996091
 30
0.0
 11
3347.800088449528
 21
1850.447232942433
 31
0.0
 12
3367.800088449528
 22
1853.780566275766
 32
0.0
 13
3367.800088449528
 23
1853.780566275766
 33
0.0
  0
MTEXT
  5
8F9
330
8AF
100
AcDbEntity
  8
S-size
 62
     0
100
AcDbMText
 10
3395.300088449528
 20
1823.780566275766
 30
0.0
 40
30.0
 41
0.0
 71
     5
 72
     1
  1
55
 73
     1
 44
1.0
1001
ACAD
1000
MTEXTBEGIN
1070
    73
1070
     1
1070
    44
1040
1.0
1070
    74
1070
     0
1000
MTEXTEND
  0
POINT
  5
8FA
330
8AF
100
AcDbEntity
  8
DEFPOINTS
 62
     0
100
AcDbPoint
 10
3422.800088449528
 20
2008.909163386517
 30
0.0
  0
POINT
  5
8FB
330
8AF
100
AcDbEntity
  8
DEFPOINTS
 62
     0
100
AcDbPoint
 10
3367.800088449528
 20
2008.909163386517
 30
0.0
  0
POINT
  5
8FC
330
8AF
100
AcDbEntity
  8
DEFPOINTS
 62
     0
100
AcDbPoint
 10
3367.800088449528
 20
1853.780566275766
 30
0.0
  0
ENDBLK
  5
8BA
330
8AF
100
AcDbEntity
  8
0
100
AcDbBlockEnd
  0
BLOCK
  5
8D1
330
8C7
100
AcDbEntity
  8
0
100
AcDbBlockBegin
  2
*D15
 70
     1
 10
0.0
 20
0.0
 30
0.0
  3
*D15
  1

  0
LINE
  5
8DE
330
8C7
100
AcDbEntity
  8
S-size
 62
     0
370
    -2
100
AcDbLine
 10
3367.800088449528
 20
1958.909163386517
 30
0.0
 11
3367.800088449528
 21
1853.780566275766
 31
0.0
  0
LINE
  5
8DF
330
8C7
100
AcDbEntity
  8
S-size
 62
     0
370
    -2
100
AcDbLine
 10
3282.800088449528
 20
1958.909163386517
 30
0.0
 11
3282.800088449528
 21
1853.780566275766
 31
0.0
  0
LINE
  5
8E0
330
8C7
100
AcDbEntity
  8
S-size
 62
     0
370
    -2
100
AcDbLine
 10
3347.800088449528
 20
1853.780566275766
 30
0.0
 11
3302.800088449528
 21
1853.780566275766
 31
0.0
  0
SOLID
  5
8E1
330
8C7
100
AcDbEntity
  8
S-size
 62
     0
100
AcDbTrace
 10
3347.800088449528
 20
1857.1138996091
 30
0.0
 11
3347.800088449528
 21
1850.447232942433
 31
0.0
 12
3367.800088449528
 22
1853.780566275766
 32
0.0
 13
3367.800088449528
 23
1853.780566275766
 33
0.0
  0
SOLID
  5
8E2
330
8C7
100
AcDbEntity
  8
S-size
 62
     0
100
AcDbTrace
 10
3302.800088449528
 20
1857.1138996091
 30
0.0
 11
3302.800088449528
 21
1850.447232942433
 31
0.0
 12
3282.800088449528
 22
1853.780566275766
 32
0.0
 13
3282.800088449528
 23
1853.780566275766
 33
0.0
  0
MTEXT
  5
8E3
330
8C7
100
AcDbEntity
  8
S-size
 62
     0
100
AcDbMText
 10
3325.300088449528
 20
1823.780566275766
 30
0.0
 40
30.0
 41
0.0
 71
     5
 72
     1
  1
85
 73
     1
 44
1.0
1001
ACAD
1000
MTEXTBEGIN
1070
    73
1070
     1
1070
    44
1040
1.0
1070
    74
1070
     0
1000
MTEXTEND
  0
POINT
  5
8E4
330
8C7
100
AcDbEntity
  8
DEFPOINTS
 62
     0
100
AcDbPoint
 10
3367.800088449528
 20
2008.909163386517
 30
0.0
  0
POINT
  5
8E5
330
8C7
100
AcDbEntity
  8
DEFPOINTS
 62
     0
100
AcDbPoint
 10
3282.800088449528
 20
2008.909163386517
 30
0.0
  0
POINT
  5
8E6
330
8C7
100
AcDbEntity
  8
DEFPOINTS
 62
     0
100
AcDbPoint
 10
3282.800088449528
 20
1853.780566275766
 30
0.0
  0
ENDBLK
  5
8D2
330
8C7
100
AcDbEntity
  8
0
100
AcDbBlockEnd
  0
BLOCK
  5
908
330
8FE
100
AcDbEntity
  8
0
100
AcDbBlockBegin
  2
*D16
 70
     1
 10
0.0
 20
0.0
 30
0.0
  3
*D16
  1

  0
LINE
  5
915
330
8FE
100
AcDbEntity
  8
S-size
 62
     0
370
    -2
100
AcDbLine
 10
2432.800088449528
 20
1958.909163386517
 30
0.0
 11
2432.800088449528
 21
1853.780566275766
 31
0.0
  0
LINE
  5
916
330
8FE
100
AcDbEntity
  8
S-size
 62
     0
370
    -2
100
AcDbLine
 10
2547.800088449529
 20
1958.909163386517
 30
0.0
 11
2547.800088449529
 21
1853.780566275766
 31
0.0
  0
LINE
  5
917
330
8FE
100
AcDbEntity
  8
S-size
 62
     0
370
    -2
100
AcDbLine
 10
2452.800088449528
 20
1853.780566275766
 30
0.0
 11
2527.800088449528
 21
1853.780566275766
 31
0.0
  0
SOLID
  5
918
330
8FE
100
AcDbEntity
  8
S-size
 62
     0
100
AcDbTrace
 10
2452.800088449528
 20
1857.1138996091
 30
0.0
 11
2452.800088449528
 21
1850.447232942433
 31
0.0
 12
2432.800088449528
 22
1853.780566275766
 32
0.0
 13
2432.800088449528
 23
1853.780566275766
 33
0.0
  0
SOLID
  5
919
330
8FE
100
AcDbEntity
  8
S-size
 62
     0
100
AcDbTrace
 10
2527.800088449528
 20
1857.1138996091
 30
0.0
 11
2527.800088449528
 21
1850.447232942433
 31
0.0
 12
2547.800088449529
 22
1853.780566275766
 32
0.0
 13
2547.800088449529
 23
1853.780566275766
 33
0.0
  0
MTEXT
  5
91A
330
8FE
100
AcDbEntity
  8
S-size
 62
     0
100
AcDbMText
 10
2490.300088449528
 20
1823.780566275766
 30
0.0
 40
30.0
 41
0.0
 71
     5
 72
     1
  1
115
 73
     1
 44
1.0
1001
ACAD
1000
MTEXTBEGIN
1070
    73
1070
     1
1070
    44
1040
1.0
1070
    74
1070
     0
1000
MTEXTEND
  0
POINT
  5
91B
330
8FE
100
AcDbEntity
  8
DEFPOINTS
 62
     0
100
AcDbPoint
 10
2432.800088449528
 20
2008.909163386517
 30
0.0
  0
POINT
  5
91C
330
8FE
100
AcDbEntity
  8
DEFPOINTS
 62
     0
100
AcDbPoint
 10
2547.800088449529
 20
2008.909163386517
 30
0.0
  0
POINT
  5
91D
330
8FE
100
AcDbEntity
  8
DEFPOINTS
 62
     0
100
AcDbPoint
 10
2547.800088449529
 20
1853.780566275766
 30
0.0
  0
ENDBLK
  5
909
330
8FE
100
AcDbEntity
  8
0
100
AcDbBlockEnd
  0
BLOCK
  5
929
330
91F
100
AcDbEntity
  8
0
100
AcDbBlockBegin
  2
*D17
 70
     1
 10
0.0
 20
0.0
 30
0.0
  3
*D17
  1

  0
LINE
  5
97A
330
91F
100
AcDbEntity
  8
S-size
 62
     0
370
    -2
100
AcDbLine
 10
2547.800088449529
 20
1958.909163386517
 30
0.0
 11
2547.800088449529
 21
1853.780566275766
 31
0.0
  0
LINE
  5
97B
330
91F
100
AcDbEntity
  8
S-size
 62
     0
370
    -2
100
AcDbLine
 10
2647.800088449529
 20
1958.909163386517
 30
0.0
 11
2647.800088449529
 21
1853.780566275766
 31
0.0
  0
LINE
  5
97C
330
91F
100
AcDbEntity
  8
S-size
 62
     0
370
    -2
100
AcDbLine
 10
2567.800088449529
 20
1853.780566275766
 30
0.0
 11
2627.800088449528
 21
1853.780566275766
 31
0.0
  0
SOLID
  5
97D
330
91F
100
AcDbEntity
  8
S-size
 62
     0
100
AcDbTrace
 10
2567.800088449529
 20
1857.1138996091
 30
0.0
 11
2567.800088449529
 21
1850.447232942433
 31
0.0
 12
2547.800088449529
 22
1853.780566275766
 32
0.0
 13
2547.800088449529
 23
1853.780566275766
 33
0.0
  0
SOLID
  5
97E
330
91F
100
AcDbEntity
  8
S-size
 62
     0
100
AcDbTrace
 10
2627.800088449528
 20
1857.1138996091
 30
0.0
 11
2627.800088449528
 21
1850.447232942433
 31
0.0
 12
2647.800088449529
 22
1853.780566275766
 32
0.0
 13
2647.800088449529
 23
1853.780566275766
 33
0.0
  0
MTEXT
  5
97F
330
91F
100
AcDbEntity
  8
S-size
 62
     0
100
AcDbMText
 10
2597.800088449528
 20
1823.780566275766
 30
0.0
 40
30.0
 41
0.0
 71
     5
 72
     1
  1
100
 73
     1
 44
1.0
1001
ACAD
1000
MTEXTBEGIN
1070
    73
1070
     1
1070
    44
1040
1.0
1070
    74
1070
     0
1000
MTEXTEND
  0
POINT
  5
980
330
91F
100
AcDbEntity
  8
DEFPOINTS
 62
     0
100
AcDbPoint
 10
2547.800088449529
 20
2008.909163386517
 30
0.0
  0
POINT
  5
981
330
91F
100
AcDbEntity
  8
DEFPOINTS
 62
     0
100
AcDbPoint
 10
2647.800088449529
 20
2008.909163386517
 30
0.0
  0
POINT
  5
982
330
91F
100
AcDbEntity
  8
DEFPOINTS
 62
     0
100
AcDbPoint
 10
2647.800088449529
 20
1853.780566275766
 30
0.0
  0
ENDBLK
  5
92A
330
91F
100
AcDbEntity
  8
0
100
AcDbBlockEnd
  0
BLOCK
  5
941
330
937
100
AcDbEntity
  8
0
100
AcDbBlockBegin
  2
*D18
 70
     1
 10
0.0
 20
0.0
 30
0.0
  3
*D18
  1

  0
LINE
  5
983
330
937
100
AcDbEntity
  8
S-size
 62
     0
370
    -2
100
AcDbLine
 10
2647.800088449529
 20
1958.909163386517
 30
0.0
 11
2647.800088449529
 21
1853.780566275766
 31
0.0
  0
LINE
  5
984
330
937
100
AcDbEntity
  8
S-size
 62
     0
370
    -2
100
AcDbLine
 10
2697.800088449529
 20
1958.909163386517
 30
0.0
 11
2697.800088449529
 21
1853.780566275766
 31
0.0
  0
LINE
  5
985
330
937
100
AcDbEntity
  8
S-size
 62
     0
370
    -2
100
AcDbLine
 10
2627.800088449528
 20
1853.780566275766
 30
0.0
 11
2607.800088449528
 21
1853.780566275766
 31
0.0
  0
LINE
  5
986
330
937
100
AcDbEntity
  8
S-size
 62
     0
370
    -2
100
AcDbLine
 10
2717.800088449529
 20
1853.780566275766
 30
0.0
 11
2737.800088449529
 21
1853.780566275766
 31
0.0
  0
LINE
  5
987
330
937
100
AcDbEntity
  8
S-size
 62
     0
370
    -2
100
AcDbLine
 10
2647.800088449529
 20
1853.780566275766
 30
0.0
 11
2697.800088449529
 21
1853.780566275766
 31
0.0
  0
SOLID
  5
988
330
937
100
AcDbEntity
  8
S-size
 62
     0
100
AcDbTrace
 10
2627.800088449528
 20
1857.1138996091
 30
0.0
 11
2627.800088449528
 21
1850.447232942433
 31
0.0
 12
2647.800088449529
 22
1853.780566275766
 32
0.0
 13
2647.800088449529
 23
1853.780566275766
 33
0.0
  0
SOLID
  5
989
330
937
100
AcDbEntity
  8
S-size
 62
     0
100
AcDbTrace
 10
2717.800088449529
 20
1857.1138996091
 30
0.0
 11
2717.800088449529
 21
1850.447232942433
 31
0.0
 12
2697.800088449529
 22
1853.780566275766
 32
0.0
 13
2697.800088449529
 23
1853.780566275766
 33
0.0
  0
MTEXT
  5
98A
330
937
100
AcDbEntity
  8
S-size
 62
     0
100
AcDbMText
 10
2672.800088449529
 20
1823.780566275766
 30
0.0
 40
30.0
 41
0.0
 71
     5
 72
     1
  1
50
 73
     1
 44
1.0
1001
ACAD
1000
MTEXTBEGIN
1070
    73
1070
     1
1070
    44
1040
1.0
1070
    74
1070
     0
1000
MTEXTEND
  0
POINT
  5
98B
330
937
100
AcDbEntity
  8
DEFPOINTS
 62
     0
100
AcDbPoint
 10
2647.800088449529
 20
2008.909163386517
 30
0.0
  0
POINT
  5
98C
330
937
100
AcDbEntity
  8
DEFPOINTS
 62
     0
100
AcDbPoint
 10
2697.800088449529
 20
2008.909163386517
 30
0.0
  0
POINT
  5
98D
330
937
100
AcDbEntity
  8
DEFPOINTS
 62
     0
100
AcDbPoint
 10
2697.800088449529
 20
1853.780566275766
 30
0.0
  0
ENDBLK
  5
942
330
937
100
AcDbEntity
  8
0
100
AcDbBlockEnd
  0
BLOCK
  5
959
330
94F
100
AcDbEntity
  8
0
100
AcDbBlockBegin
  2
*D19
 70
     1
 10
0.0
 20
0.0
 30
0.0
  3
*D19
  1

  0
LINE
  5
1EAF
330
94F
100
AcDbEntity
  8
S-size
 62
     0
370
    -2
100
AcDbLine
 10
2697.800088449529
 20
1958.909163386517
 30
0.0
 11
2697.800088449529
 21
1853.780566275766
 31
0.0
  0
LINE
  5
1EB0
330
94F
100
AcDbEntity
  8
S-size
 62
     0
370
    -2
100
AcDbLine
 10
2782.800088449528
 20
1958.284163386517
 30
0.0
 11
2782.800088449528
 21
1853.780566275766
 31
0.0
  0
LINE
  5
1EB1
330
94F
100
AcDbEntity
  8
S-size
 62
     0
370
    -2
100
AcDbLine
 10
2717.800088449529
 20
1853.780566275766
 30
0.0
 11
2762.800088449528
 21
1853.780566275766
 31
0.0
  0
SOLID
  5
1EB2
330
94F
100
AcDbEntity
  8
S-size
 62
     0
100
AcDbTrace
 10
2717.800088449529
 20
1857.113899609099
 30
0.0
 11
2717.800088449529
 21
1850.447232942433
 31
0.0
 12
2697.800088449529
 22
1853.780566275766
 32
0.0
 13
2697.800088449529
 23
1853.780566275766
 33
0.0
  0
SOLID
  5
1EB3
330
94F
100
AcDbEntity
  8
S-size
 62
     0
100
AcDbTrace
 10
2762.800088449528
 20
1857.113899609099
 30
0.0
 11
2762.800088449528
 21
1850.447232942433
 31
0.0
 12
2782.800088449528
 22
1853.780566275766
 32
0.0
 13
2782.800088449528
 23
1853.780566275766
 33
0.0
  0
MTEXT
  5
1EB4
330
94F
100
AcDbEntity
  8
S-size
 62
     0
100
AcDbMText
 10
2740.300088449529
 20
1823.780566275766
 30
0.0
 40
30.0
 41
0.0
 71
     5
 72
     1
  1
85
 73
     1
 44
1.0
1001
ACAD
1000
MTEXTBEGIN
1070
    73
1070
     1
1070
    44
1040
1.0
1070
    74
1070
     0
1000
MTEXTEND
  0
POINT
  5
1EB5
330
94F
100
AcDbEntity
  8
DEFPOINTS
 62
     0
100
AcDbPoint
 10
2697.800088449529
 20
2008.909163386517
 30
0.0
  0
POINT
  5
1EB6
330
94F
100
AcDbEntity
  8
DEFPOINTS
 62
     0
100
AcDbPoint
 10
2782.800088449528
 20
2008.284163386517
 30
0.0
  0
POINT
  5
1EB7
330
94F
100
AcDbEntity
  8
DEFPOINTS
 62
     0
100
AcDbPoint
 10
2782.800088449528
 20
1853.780566275766
 30
0.0
  0
ENDBLK
  5
95A
330
94F
100
AcDbEntity
  8
0
100
AcDbBlockEnd
  0
BLOCK
  5
999
330
98F
100
AcDbEntity
  8
0
100
AcDbBlockBegin
  2
*D20
 70
     1
 10
0.0
 20
0.0
 30
0.0
  3
*D20
  1

  0
LINE
  5
9A6
330
98F
100
AcDbEntity
  8
S-size
 62
     0
370
    -2
100
AcDbLine
 10
2432.800088449528
 20
1958.909163386517
 30
0.0
 11
2432.800088449528
 21
1796.217744945777
 31
0.0
  0
LINE
  5
9A7
330
98F
100
AcDbEntity
  8
S-size
 62
     0
370
    -2
100
AcDbLine
 10
2782.800088449528
 20
1958.909163386517
 30
0.0
 11
2782.800088449528
 21
1796.217744945777
 31
0.0
  0
LINE
  5
9A8
330
98F
100
AcDbEntity
  8
S-size
 62
     0
370
    -2
100
AcDbLine
 10
2452.800088449528
 20
1796.217744945777
 30
0.0
 11
2762.800088449528
 21
1796.217744945777
 31
0.0
  0
SOLID
  5
9A9
330
98F
100
AcDbEntity
  8
S-size
 62
     0
100
AcDbTrace
 10
2452.800088449528
 20
1799.551078279111
 30
0.0
 11
2452.800088449528
 21
1792.884411612444
 31
0.0
 12
2432.800088449528
 22
1796.217744945777
 32
0.0
 13
2432.800088449528
 23
1796.217744945777
 33
0.0
  0
SOLID
  5
9AA
330
98F
100
AcDbEntity
  8
S-size
 62
     0
100
AcDbTrace
 10
2762.800088449528
 20
1799.551078279111
 30
0.0
 11
2762.800088449528
 21
1792.884411612444
 31
0.0
 12
2782.800088449528
 22
1796.217744945777
 32
0.0
 13
2782.800088449528
 23
1796.217744945777
 33
0.0
  0
MTEXT
  5
9AB
330
98F
100
AcDbEntity
  8
S-size
 62
     0
100
AcDbMText
 10
2607.800088449528
 20
1766.217744945777
 30
0.0
 40
30.0
 41
0.0
 71
     5
 72
     1
  1
350
 73
     1
 44
1.0
1001
ACAD
1000
MTEXTBEGIN
1070
    73
1070
     1
1070
    44
1040
1.0
1070
    74
1070
     0
1000
MTEXTEND
  0
POINT
  5
9AC
330
98F
100
AcDbEntity
  8
DEFPOINTS
 62
     0
100
AcDbPoint
 10
2432.800088449528
 20
2008.909163386517
 30
0.0
  0
POINT
  5
9AD
330
98F
100
AcDbEntity
  8
DEFPOINTS
 62
     0
100
AcDbPoint
 10
2782.800088449528
 20
2008.909163386517
 30
0.0
  0
POINT
  5
9AE
330
98F
100
AcDbEntity
  8
DEFPOINTS
 62
     0
100
AcDbPoint
 10
2782.800088449528
 20
1796.217744945777
 30
0.0
  0
ENDBLK
  5
99A
330
98F
100
AcDbEntity
  8
0
100
AcDbBlockEnd
  0
BLOCK
  5
9E8
330
9DE
100
AcDbEntity
  8
0
100
AcDbBlockBegin
  2
*D21
 70
     1
 10
0.0
 20
0.0
 30
0.0
  3
*D21
  1

  0
LINE
  5
CB3
330
9DE
100
AcDbEntity
  8
S-size
 62
     0
370
    -2
100
AcDbLine
 10
3367.800088449528
 20
2133.909163386517
 30
0.0
 11
3367.800088449528
 21
2129.878789043786
 31
0.0
  0
LINE
  5
CB4
330
9DE
100
AcDbEntity
  8
S-size
 62
     0
370
    -2
100
AcDbLine
 10
3417.800088449528
 20
2083.909163386517
 30
0.0
 11
3417.800088449528
 21
2129.878789043786
 31
0.0
  0
LINE
  5
CB5
330
9DE
100
AcDbEntity
  8
S-size
 62
     0
370
    -2
100
AcDbLine
 10
3382.800088449528
 20
2129.878789043786
 30
0.0
 11
3402.800088449529
 21
2129.878789043786
 31
0.0
  0
SOLID
  5
CB6
330
9DE
100
AcDbEntity
  8
S-size
 62
     0
100
AcDbTrace
 10
3382.800088449528
 20
2132.378789043786
 30
0.0
 11
3382.800088449528
 21
2127.378789043786
 31
0.0
 12
3367.800088449528
 22
2129.878789043786
 32
0.0
 13
3367.800088449528
 23
2129.878789043786
 33
0.0
  0
SOLID
  5
CB7
330
9DE
100
AcDbEntity
  8
S-size
 62
     0
100
AcDbTrace
 10
3402.800088449529
 20
2132.378789043786
 30
0.0
 11
3402.800088449529
 21
2127.378789043786
 31
0.0
 12
3417.800088449528
 22
2129.878789043786
 32
0.0
 13
3417.800088449528
 23
2129.878789043786
 33
0.0
  0
MTEXT
  5
CB8
330
9DE
100
AcDbEntity
  8
S-size
 62
     0
100
AcDbMText
 10
3392.800088449528
 20
2149.878789043786
 30
0.0
 40
20.0
 41
0.0
 71
     5
 72
     1
  1
50
 73
     1
 44
1.0
1001
ACAD
1000
MTEXTBEGIN
1070
    73
1070
     1
1070
    44
1040
1.0
1070
    74
1070
     0
1000
MTEXTEND
  0
POINT
  5
CB9
330
9DE
100
AcDbEntity
  8
DEFPOINTS
 62
     0
100
AcDbPoint
 10
3367.800088449528
 20
2118.909163386518
 30
0.0
  0
POINT
  5
CBA
330
9DE
100
AcDbEntity
  8
DEFPOINTS
 62
     0
100
AcDbPoint
 10
3417.800088449528
 20
2068.909163386518
 30
0.0
  0
POINT
  5
CBB
330
9DE
100
AcDbEntity
  8
DEFPOINTS
 62
     0
100
AcDbPoint
 10
3417.800088449528
 20
2129.878789043786
 30
0.0
  0
ENDBLK
  5
9E9
330
9DE
100
AcDbEntity
  8
0
100
AcDbBlockEnd
  0
BLOCK
  5
A4D
330
A43
100
AcDbEntity
  8
0
100
AcDbBlockBegin
  2
*D22
 70
     1
 10
0.0
 20
0.0
 30
0.0
  3
*D22
  1

  0
LINE
  5
ABC
330
A43
100
AcDbEntity
  8
S-size
 62
     0
370
    -2
100
AcDbLine
 10
3325.46956655205
 20
2259.73112104213
 30
0.0
 11
3329.545647949634
 21
2300.491935017943
 31
0.0
  0
LINE
  5
ABD
330
A43
100
AcDbEntity
  8
S-size
 62
     0
370
    -2
100
AcDbLine
 10
3350.3454963073
 20
2257.243528066604
 30
0.0
 11
3354.421577704882
 21
2298.004342042418
 31
0.0
  0
LINE
  5
ABE
330
A43
100
AcDbEntity
  8
S-size
 62
     0
370
    -2
100
AcDbLine
 10
3314.620090096482
 20
2301.984490803258
 30
0.0
 11
3299.694532243332
 21
2303.477046588573
 31
0.0
  0
LINE
  5
ABF
330
A43
100
AcDbEntity
  8
S-size
 62
     0
370
    -2
100
AcDbLine
 10
3369.347135558032
 20
2296.511786257102
 30
0.0
 11
3384.272693411181
 21
2295.019230471787
 31
0.0
  0
LINE
  5
AC0
330
A43
100
AcDbEntity
  8
S-size
 62
     0
370
    -2
100
AcDbLine
 10
3329.545647949634
 20
2300.491935017943
 30
0.0
 11
3354.421577704882
 21
2298.004342042418
 31
0.0
  0
SOLID
  5
AC1
330
A43
100
AcDbEntity
  8
S-size
 62
     0
100
AcDbTrace
 10
3314.868849394035
 20
2304.472083778783
 30
0.0
 11
3314.371330798929
 21
2299.496897827733
 31
0.0
 12
3329.545647949634
 22
2300.491935017943
 32
0.0
 13
3329.545647949634
 23
2300.491935017943
 33
0.0
  0
SOLID
  5
AC2
330
A43
100
AcDbEntity
  8
S-size
 62
     0
100
AcDbTrace
 10
3369.595894855584
 20
2298.999379232627
 30
0.0
 11
3369.098376260481
 21
2294.024193281578
 31
0.0
 12
3354.421577704882
 22
2298.004342042418
 32
0.0
 13
3354.421577704882
 23
2298.004342042418
 33
0.0
  0
MTEXT
  5
AC3
330
A43
100
AcDbEntity
  8
S-size
 62
     0
100
AcDbMText
 10
3343.973687207677
 20
2319.14888233438
 30
0.0
 40
20.0
 41
0.0
 71
     5
 72
     1
  1
25
 11
0.9950371902099877
 21
-0.099503719021013
 31
0.0
 73
     1
 44
1.0
1001
ACAD
1000
MTEXTBEGIN
1070
    73
1070
     1
1070
    44
1040
1.0
1070
    74
1070
     0
1000
MTEXTEND
  0
POINT
  5
AC4
330
A43
100
AcDbEntity
  8
DEFPOINTS
 62
     0
100
AcDbPoint
 10
3323.977010766736
 20
2244.805563188979
 30
0.0
  0
POINT
  5
AC5
330
A43
100
AcDbEntity
  8
DEFPOINTS
 62
     0
100
AcDbPoint
 10
3348.852940521985
 20
2242.317970213454
 30
0.0
  0
POINT
  5
AC6
330
A43
100
AcDbEntity
  8
DEFPOINTS
 62
     0
100
AcDbPoint
 10
3354.421577704882
 20
2298.004342042418
 30
0.0
  0
ENDBLK
  5
A4E
330
A43
100
AcDbEntity
  8
0
100
AcDbBlockEnd
  0
BLOCK
  5
AD2
330
AC8
100
AcDbEntity
  8
0
100
AcDbBlockBegin
  2
*D23
 70
     1
 10
0.0
 20
0.0
 30
0.0
  3
*D23
  1

  0
LINE
  5
ADF
330
AC8
100
AcDbEntity
  8
S-size
 62
     0
370
    -2
100
AcDbLine
 10
3303.329989069876
 20
2113.709413378814
 30
0.0
 11
3246.427321550677
 21
2119.399680130735
 31
0.0
  0
LINE
  5
AE0
330
AC8
100
AcDbEntity
  8
S-size
 62
     0
370
    -2
100
AcDbLine
 10
3315.767953947503
 20
2238.089062155062
 30
0.0
 11
3258.865286428303
 21
2243.779328906983
 31
0.0
  0
LINE
  5
AE1
330
AC8
100
AcDbEntity
  8
S-size
 62
     0
370
    -2
100
AcDbLine
 10
3247.919877335995
 20
2134.325237983885
 30
0.0
 11
3257.372730642988
 21
2228.853771053833
 31
0.0
  0
SOLID
  5
AE2
330
AC8
100
AcDbEntity
  8
S-size
 62
     0
100
AcDbTrace
 10
3245.432284360467
 20
2134.573997281437
 30
0.0
 11
3250.407470311517
 21
2134.076478686332
 31
0.0
 12
3246.427321550677
 22
2119.399680130735
 32
0.0
 13
3246.427321550677
 23
2119.399680130735
 33
0.0
  0
SOLID
  5
AE3
330
AC8
100
AcDbEntity
  8
S-size
 62
     0
100
AcDbTrace
 10
3254.885137667463
 20
2229.102530351386
 30
0.0
 11
3259.860323618513
 21
2228.605011756281
 31
0.0
 12
3258.865286428303
 22
2243.779328906983
 32
0.0
 13
3258.865286428303
 23
2243.779328906983
 33
0.0
  0
MTEXT
  5
AE4
330
AC8
100
AcDbEntity
  8
S-size
 62
     0
100
AcDbMText
 10
3232.745560185291
 20
2183.579578899279
 30
0.0
 40
20.0
 41
0.0
 71
     5
 72
     1
  1
125
 11
0.0995037190210134
 21
0.9950371902099877
 31
0.0
 73
     1
 44
1.0
1001
ACAD
1000
MTEXTBEGIN
1070
    73
1070
     1
1070
    44
1040
1.0
1070
    74
1070
     0
1000
MTEXTEND
  0
POINT
  5
AE5
330
AC8
100
AcDbEntity
  8
DEFPOINTS
 62
     0
100
AcDbPoint
 10
3318.255546923026
 20
2112.216857593499
 30
0.0
  0
POINT
  5
AE6
330
AC8
100
AcDbEntity
  8
DEFPOINTS
 62
     0
100
AcDbPoint
 10
3330.693511800653
 20
2236.596506369747
 30
0.0
  0
POINT
  5
AE7
330
AC8
100
AcDbEntity
  8
DEFPOINTS
 62
     0
100
AcDbPoint
 10
3258.865286428303
 20
2243.779328906983
 30
0.0
  0
ENDBLK
  5
AD3
330
AC8
100
AcDbEntity
  8
0
100
AcDbBlockEnd
  0
BLOCK
  5
AF3
330
AE9
100
AcDbEntity
  8
0
100
AcDbBlockBegin
  2
*D24
 70
     1
 10
0.0
 20
0.0
 30
0.0
  3
*D24
  1

  0
LINE
  5
B09
330
AE9
100
AcDbEntity
  8
S-size
 62
     0
370
    -2
100
AcDbLine
 10
3309.051452913585
 20
2246.298118974294
 30
0.0
 11
3218.587543238589
 21
2255.344509941794
 31
0.0
  0
LINE
  5
B0A
330
AE9
100
AcDbEntity
  8
S-size
 62
     0
370
    -2
100
AcDbLine
 10
3295.120932250645
 20
2106.992912344896
 30
0.0
 11
3204.657022575649
 21
2116.039303312396
 31
0.0
  0
LINE
  5
B0B
330
AE9
100
AcDbEntity
  8
S-size
 62
     0
370
    -2
100
AcDbLine
 10
3217.094987453274
 20
2240.418952088644
 30
0.0
 11
3206.149578360964
 21
2130.964861165546
 31
0.0
  0
SOLID
  5
B0C
330
AE9
100
AcDbEntity
  8
S-size
 62
     0
100
AcDbTrace
 10
3214.607394477749
 20
2240.667711386197
 30
0.0
 11
3219.582580428799
 21
2240.170192791092
 31
0.0
 12
3218.587543238589
 22
2255.344509941794
 32
0.0
 13
3218.587543238589
 23
2255.344509941794
 33
0.0
  0
SOLID
  5
B0D
330
AE9
100
AcDbEntity
  8
S-size
 62
     0
100
AcDbTrace
 10
3203.661985385439
 20
2131.213620463098
 30
0.0
 11
3208.637171336489
 21
2130.716101867993
 31
0.0
 12
3204.657022575649
 22
2116.039303312396
 32
0.0
 13
3204.657022575649
 23
2116.039303312396
 33
0.0
  0
MTEXT
  5
B0E
330
AE9
100
AcDbEntity
  8
S-size
 62
     0
100
AcDbMText
 10
3191.72153910292
 20
2187.681981007515
 30
0.0
 40
20.0
 41
0.0
 71
     5
 72
     1
  1
140
 11
0.0995037190210006
 21
0.9950371902099892
 31
0.0
 73
     1
 44
1.0
1001
ACAD
1000
MTEXTBEGIN
1070
    73
1070
     1
1070
    44
1040
1.0
1070
    74
1070
     0
1000
MTEXTEND
  0
POINT
  5
B0F
330
AE9
100
AcDbEntity
  8
DEFPOINTS
 62
     0
100
AcDbPoint
 10
3323.977010766736
 20
2244.805563188979
 30
0.0
  0
POINT
  5
B10
330
AE9
100
AcDbEntity
  8
DEFPOINTS
 62
     0
100
AcDbPoint
 10
3310.046490103796
 20
2105.500356559581
 30
0.0
  0
POINT
  5
B11
330
AE9
100
AcDbEntity
  8
DEFPOINTS
 62
     0
100
AcDbPoint
 10
3204.657022575649
 20
2116.039303312396
 30
0.0
  0
ENDBLK
  5
AF4
330
AE9
100
AcDbEntity
  8
0
100
AcDbBlockEnd
  0
BLOCK
  5
B1D
330
B13
100
AcDbEntity
  8
0
100
AcDbBlockBegin
  2
*D25
 70
     1
 10
0.0
 20
0.0
 30
0.0
  3
*D25
  1

  0
LINE
  5
B35
330
B13
100
AcDbEntity
  8
S-size
 62
     0
370
    -2
100
AcDbLine
 10
3316.762991137711
 20
2097.291299740348
 30
0.0
 11
3312.056644095085
 21
2050.227829314081
 31
0.0
  0
LINE
  5
B36
330
B13
100
AcDbEntity
  8
S-size
 62
     0
370
    -2
100
AcDbLine
 10
3326.713363039811
 20
2096.296262550139
 30
0.0
 11
3322.007015997185
 21
2049.232792123872
 31
0.0
  0
LINE
  5
B37
330
B13
100
AcDbEntity
  8
S-size
 62
     0
370
    -2
100
AcDbLine
 10
3297.131086241935
 20
2051.720385099397
 30
0.0
 11
3282.205528388785
 21
2053.212940884712
 31
0.0
  0
LINE
  5
B38
330
B13
100
AcDbEntity
  8
S-size
 62
     0
370
    -2
100
AcDbLine
 10
3336.932573850334
 20
2047.740236338556
 30
0.0
 11
3351.858131703485
 21
2046.247680553241
 31
0.0
  0
LINE
  5
B39
330
B13
100
AcDbEntity
  8
S-size
 62
     0
370
    -2
100
AcDbLine
 10
3312.056644095085
 20
2050.227829314081
 30
0.0
 11
3322.007015997185
 21
2049.232792123872
 31
0.0
  0
SOLID
  5
B3A
330
B13
100
AcDbEntity
  8
S-size
 62
     0
100
AcDbTrace
 10
3297.379845539487
 20
2054.207978074922
 30
0.0
 11
3296.882326944383
 21
2049.232792123872
 31
0.0
 12
3312.056644095085
 22
2050.227829314081
 32
0.0
 13
3312.056644095085
 23
2050.227829314081
 33
0.0
  0
SOLID
  5
B3B
330
B13
100
AcDbEntity
  8
S-size
 62
     0
100
AcDbTrace
 10
3337.181333147887
 20
2050.227829314081
 30
0.0
 11
3336.683814552781
 21
2045.252643363032
 31
0.0
 12
3322.007015997185
 22
2049.232792123872
 32
0.0
 13
3322.007015997185
 23
2049.232792123872
 33
0.0
  0
MTEXT
  5
B3C
330
B13
100
AcDbEntity
  8
S-size
 62
     0
100
AcDbMText
 10
3315.041755665715
 20
2029.829566914777
 30
0.0
 40
20.0
 41
0.0
 71
     5
 72
     1
  1
10
 11
0.9950371902099888
 21
-0.0995037190210033
 31
0.0
 73
     1
 44
1.0
1001
ACAD
1000
MTEXTBEGIN
1070
    73
1070
     1
1070
    44
1040
1.0
1070
    74
1070
     0
1000
MTEXTEND
  0
POINT
  5
B3D
330
B13
100
AcDbEntity
  8
DEFPOINTS
 62
     0
100
AcDbPoint
 10
3318.255546923027
 20
2112.216857593498
 30
0.0
  0
POINT
  5
B3E
330
B13
100
AcDbEntity
  8
DEFPOINTS
 62
     0
100
AcDbPoint
 10
3328.205918825127
 20
2111.221820403288
 30
0.0
  0
POINT
  5
B3F
330
B13
100
AcDbEntity
  8
DEFPOINTS
 62
     0
100
AcDbPoint
 10
3322.007015997185
 20
2049.232792123872
 30
0.0
  0
ENDBLK
  5
B1E
330
B13
100
AcDbEntity
  8
0
100
AcDbBlockEnd
  0
BLOCK
  5
B4B
330
B41
100
AcDbEntity
  8
0
100
AcDbBlockBegin
  2
*D26
 70
     1
 10
0.0
 20
0.0
 30
0.0
  3
*D26
  1

  0
LINE
  5
B63
330
B41
100
AcDbEntity
  8
S-size
 62
     0
370
    -2
100
AcDbLine
 10
2705.304308689657
 20
2281.373179929197
 30
0.0
 11
2699.886744508675
 21
2335.548821739023
 31
0.0
  0
LINE
  5
B64
330
B41
100
AcDbEntity
  8
S-size
 62
     0
370
    -2
100
AcDbLine
 10
2745.105796298056
 20
2285.353328690036
 30
0.0
 11
2739.688232117075
 21
2339.528970499863
 31
0.0
  0
LINE
  5
B65
330
B41
100
AcDbEntity
  8
S-size
 62
     0
370
    -2
100
AcDbLine
 10
2684.961186655525
 20
2334.056265953708
 30
0.0
 11
2670.035628802375
 21
2332.563710168393
 31
0.0
  0
LINE
  5
B66
330
B41
100
AcDbEntity
  8
S-size
 62
     0
370
    -2
100
AcDbLine
 10
2754.613789970225
 20
2341.021526285178
 30
0.0
 11
2769.539347823374
 21
2342.514082070493
 31
0.0
  0
LINE
  5
B67
330
B41
100
AcDbEntity
  8
S-size
 62
     0
370
    -2
100
AcDbLine
 10
2699.886744508675
 20
2335.548821739023
 30
0.0
 11
2739.688232117075
 21
2339.528970499863
 31
0.0
  0
SOLID
  5
B68
330
B41
100
AcDbEntity
  8
S-size
 62
     0
100
AcDbTrace
 10
2684.712427357973
 20
2336.543858929234
 30
0.0
 11
2685.209945953078
 21
2331.568672978184
 31
0.0
 12
2699.886744508675
 22
2335.548821739023
 32
0.0
 13
2699.886744508675
 23
2335.548821739023
 33
0.0
  0
SOLID
  5
B69
330
B41
100
AcDbEntity
  8
S-size
 62
     0
100
AcDbTrace
 10
2754.365030672672
 20
2343.509119260703
 30
0.0
 11
2754.862549267777
 21
2338.533933309653
 31
0.0
 12
2739.688232117075
 22
2339.528970499863
 32
0.0
 13
2739.688232117075
 23
2339.528970499863
 33
0.0
  0
MTEXT
  5
B6A
330
B41
100
AcDbEntity
  8
S-size
 62
     0
100
AcDbMText
 10
2717.797413932455
 20
2357.439639923643
 30
0.0
 40
20.0
 41
0.0
 71
     5
 72
     1
  1
40
 11
0.9950371902099897
 21
0.0995037190209932
 31
0.0
 73
     1
 44
1.0
1001
ACAD
1000
MTEXTBEGIN
1070
    73
1070
     1
1070
    44
1040
1.0
1070
    74
1070
     0
1000
MTEXTEND
  0
POINT
  5
B6B
330
B41
100
AcDbEntity
  8
DEFPOINTS
 62
     0
100
AcDbPoint
 10
2706.796864474972
 20
2266.447622076046
 30
0.0
  0
POINT
  5
B6C
330
B41
100
AcDbEntity
  8
DEFPOINTS
 62
     0
100
AcDbPoint
 10
2746.598352083371
 20
2270.427770836886
 30
0.0
  0
POINT
  5
B6D
330
B41
100
AcDbEntity
  8
DEFPOINTS
 62
     0
100
AcDbPoint
 10
2739.688232117075
 20
2339.528970499863
 30
0.0
  0
ENDBLK
  5
B4C
330
B41
100
AcDbEntity
  8
0
100
AcDbBlockEnd
  0
BLOCK
  5
B79
330
B6F
100
AcDbEntity
  8
0
100
AcDbBlockBegin
  2
*D27
 70
     1
 10
0.0
 20
0.0
 30
0.0
  3
*D27
  1

  0
LINE
  5
B91
330
B6F
100
AcDbEntity
  8
S-size
 62
     0
370
    -2
100
AcDbLine
 10
2733.165350015536
 20
2078.136833828805
 30
0.0
 11
2739.047180054347
 21
2019.318533440705
 31
0.0
  0
LINE
  5
B92
330
B6F
100
AcDbEntity
  8
S-size
 62
     0
370
    -2
100
AcDbLine
 10
2758.041279770786
 20
2080.624426804331
 30
0.0
 11
2763.923109809597
 21
2021.80612641623
 31
0.0
  0
LINE
  5
B93
330
B6F
100
AcDbEntity
  8
S-size
 62
     0
370
    -2
100
AcDbLine
 10
2724.121622201197
 20
2017.82597765539
 30
0.0
 11
2709.196064348048
 21
2016.333421870075
 31
0.0
  0
LINE
  5
B94
330
B6F
100
AcDbEntity
  8
S-size
 62
     0
370
    -2
100
AcDbLine
 10
2778.848667662747
 20
2023.298682201545
 30
0.0
 11
2793.774225515897
 21
2024.791237986861
 31
0.0
  0
LINE
  5
B95
330
B6F
100
AcDbEntity
  8
S-size
 62
     0
370
    -2
100
AcDbLine
 10
2739.047180054347
 20
2019.318533440705
 30
0.0
 11
2763.923109809597
 21
2021.80612641623
 31
0.0
  0
SOLID
  5
B96
330
B6F
100
AcDbEntity
  8
S-size
 62
     0
100
AcDbTrace
 10
2723.872862903645
 20
2020.313570630915
 30
0.0
 11
2724.370381498749
 21
2015.338384679865
 31
0.0
 12
2739.047180054347
 22
2019.318533440705
 32
0.0
 13
2739.047180054347
 23
2019.318533440705
 33
0.0
  0
SOLID
  5
B97
330
B6F
100
AcDbEntity
  8
S-size
 62
     0
100
AcDbTrace
 10
2778.599908365194
 20
2025.78627517707
 30
0.0
 11
2779.097426960299
 21
2020.81108922602
 31
0.0
 12
2763.923109809597
 22
2021.80612641623
 32
0.0
 13
2763.923109809597
 23
2021.80612641623
 33
0.0
  0
MTEXT
  5
B98
330
B6F
100
AcDbEntity
  8
S-size
 62
     0
100
AcDbMText
 10
2753.475219312392
 20
2000.661586124268
 30
0.0
 40
20.0
 41
0.0
 71
     5
 72
     1
  1
25
 11
0.9950371902099877
 21
0.0995037190210116
 31
0.0
 73
     1
 44
1.0
1001
ACAD
1000
MTEXTBEGIN
1070
    73
1070
     1
1070
    44
1040
1.0
1070
    74
1070
     0
1000
MTEXTEND
  0
POINT
  5
B99
330
B6F
100
AcDbEntity
  8
DEFPOINTS
 62
     0
100
AcDbPoint
 10
2731.672794230221
 20
2093.062391681955
 30
0.0
  0
POINT
  5
B9A
330
B6F
100
AcDbEntity
  8
DEFPOINTS
 62
     0
100
AcDbPoint
 10
2756.548723985471
 20
2095.54998465748
 30
0.0
  0
POINT
  5
B9B
330
B6F
100
AcDbEntity
  8
DEFPOINTS
 62
     0
100
AcDbPoint
 10
2763.923109809597
 20
2021.80612641623
 30
0.0
  0
ENDBLK
  5
B7A
330
B6F
100
AcDbEntity
  8
0
100
AcDbBlockEnd
  0
BLOCK
  5
BA7
330
B9D
100
AcDbEntity
  8
0
100
AcDbBlockBegin
  2
*D28
 70
     1
 10
0.0
 20
0.0
 30
0.0
  3
*D28
  1

  0
LINE
  5
BB4
330
B9D
100
AcDbEntity
  8
S-size
 62
     0
370
    -2
100
AcDbLine
 10
2755.553686795263
 20
2256.248490876394
 30
0.0
 11
2811.10999700861
 21
2261.804121897728
 31
0.0
  0
LINE
  5
BB5
330
B9D
100
AcDbEntity
  8
S-size
 62
     0
370
    -2
100
AcDbLine
 10
2771.474281838621
 20
2097.042540442796
 30
0.0
 11
2827.030592051971
 21
2102.598171464131
 31
0.0
  0
LINE
  5
BB6
330
B9D
100
AcDbEntity
  8
S-size
 62
     0
370
    -2
100
AcDbLine
 10
2812.602552793925
 20
2246.878564044579
 30
0.0
 11
2825.538036266655
 21
2117.523729317281
 31
0.0
  0
SOLID
  5
BB7
330
B9D
100
AcDbEntity
  8
S-size
 62
     0
100
AcDbTrace
 10
2815.09014576945
 20
2247.127323342132
 30
0.0
 11
2810.1149598184
 21
2246.629804747026
 31
0.0
 12
2811.10999700861
 22
2261.804121897728
 32
0.0
 13
2811.10999700861
 23
2261.804121897728
 33
0.0
  0
SOLID
  5
BB8
330
B9D
100
AcDbEntity
  8
S-size
 62
     0
100
AcDbTrace
 10
2828.02562924218
 20
2117.772488614833
 30
0.0
 11
2823.050443291129
 21
2117.274970019728
 31
0.0
 12
2827.030592051971
 22
2102.598171464131
 32
0.0
 13
2827.030592051971
 23
2102.598171464131
 33
0.0
  0
MTEXT
  5
BB9
330
B9D
100
AcDbEntity
  8
S-size
 62
     0
100
AcDbMText
 10
2838.971038334489
 20
2184.19122106135
 30
0.0
 40
20.0
 41
0.0
 71
     5
 72
     1
  1
160
 11
0.0995037190209979
 21
-0.9950371902099893
 31
0.0
 73
     1
 44
1.0
1001
ACAD
1000
MTEXTBEGIN
1070
    73
1070
     1
1070
    44
1040
1.0
1070
    74
1070
     0
1000
MTEXTEND
  0
POINT
  5
BBA
330
B9D
100
AcDbEntity
  8
DEFPOINTS
 62
     0
100
AcDbPoint
 10
2740.628128942113
 20
2254.755935091079
 30
0.0
  0
POINT
  5
BBB
330
B9D
100
AcDbEntity
  8
DEFPOINTS
 62
     0
100
AcDbPoint
 10
2756.548723985472
 20
2095.549984657481
 30
0.0
  0
POINT
  5
BBC
330
B9D
100
AcDbEntity
  8
DEFPOINTS
 62
     0
100
AcDbPoint
 10
2827.030592051971
 20
2102.598171464131
 30
0.0
  0
ENDBLK
  5
BA8
330
B9D
100
AcDbEntity
  8
0
100
AcDbBlockEnd
  0
BLOCK
  5
BC8
330
BBE
100
AcDbEntity
  8
0
100
AcDbBlockBegin
  2
*D29
 70
     1
 10
0.0
 20
0.0
 30
0.0
  3
*D29
  1

  0
LINE
  5
BDE
330
BBE
100
AcDbEntity
  8
S-size
 62
     0
370
    -2
100
AcDbLine
 10
2761.523909936521
 20
2271.920326622202
 30
0.0
 11
2852.5950982034
 21
2281.02744544889
 31
0.0
  0
LINE
  5
BDF
330
BBE
100
AcDbEntity
  8
S-size
 62
     0
370
    -2
100
AcDbLine
 10
2780.429616550511
 20
2082.863260482303
 30
0.0
 11
2871.500804817389
 21
2091.970379308991
 31
0.0
  0
LINE
  5
BE0
330
BBE
100
AcDbEntity
  8
S-size
 62
     0
370
    -2
100
AcDbLine
 10
2854.087653988714
 20
2266.101887595739
 30
0.0
 11
2870.008249032073
 21
2106.895937162141
 31
0.0
  0
SOLID
  5
BE1
330
BBE
100
AcDbEntity
  8
S-size
 62
     0
100
AcDbTrace
 10
2856.575246964239
 20
2266.350646893292
 30
0.0
 11
2851.600061013188
 21
2265.853128298187
 31
0.0
 12
2852.5950982034
 22
2281.02744544889
 32
0.0
 13
2852.5950982034
 23
2281.02744544889
 33
0.0
  0
SOLID
  5
BE2
330
BBE
100
AcDbEntity
  8
S-size
 62
     0
100
AcDbTrace
 10
2872.495842007598
 20
2107.144696459693
 30
0.0
 11
2867.520656056548
 21
2106.647177864588
 31
0.0
 12
2871.500804817389
 22
2091.970379308991
 32
0.0
 13
2871.500804817389
 23
2091.970379308991
 33
0.0
  0
MTEXT
  5
BE3
330
BBE
100
AcDbEntity
  8
S-size
 62
     0
100
AcDbMText
 10
2881.948695314593
 20
2188.48898675936
 30
0.0
 40
20.0
 41
0.0
 71
     5
 72
     1
  1
190
 11
0.0995037190209997
 21
-0.9950371902099892
 31
0.0
 73
     1
 44
1.0
1001
ACAD
1000
MTEXTBEGIN
1070
    73
1070
     1
1070
    44
1040
1.0
1070
    74
1070
     0
1000
MTEXTEND
  0
POINT
  5
BE4
330
BBE
100
AcDbEntity
  8
DEFPOINTS
 62
     0
100
AcDbPoint
 10
2746.598352083372
 20
2270.427770836886
 30
0.0
  0
POINT
  5
BE5
330
BBE
100
AcDbEntity
  8
DEFPOINTS
 62
     0
100
AcDbPoint
 10
2765.504058697361
 20
2081.370704696988
 30
0.0
  0
POINT
  5
BE6
330
BBE
100
AcDbEntity
  8
DEFPOINTS
 62
     0
100
AcDbPoint
 10
2871.500804817389
 20
2091.970379308991
 30
0.0
  0
ENDBLK
  5
BC9
330
BBE
100
AcDbEntity
  8
0
100
AcDbBlockEnd
  0
BLOCK
  5
BF2
330
BE8
100
AcDbEntity
  8
0
100
AcDbBlockBegin
  2
*D30
 70
     1
 10
0.0
 20
0.0
 30
0.0
  3
*D30
  1

  0
LINE
  5
C15
330
BE8
100
AcDbEntity
  8
S-size
 62
     0
370
    -2
100
AcDbLine
 10
2697.800088449529
 20
2508.909163386518
 30
0.0
 11
2697.800088449529
 21
2541.276325463244
 31
0.0
  0
LINE
  5
C16
330
BE8
100
AcDbEntity
  8
S-size
 62
     0
370
    -2
100
AcDbLine
 10
2737.800088449529
 20
2508.909163386518
 30
0.0
 11
2737.800088449529
 21
2541.276325463244
 31
0.0
  0
LINE
  5
C17
330
BE8
100
AcDbEntity
  8
S-size
 62
     0
370
    -2
100
AcDbLine
 10
2677.800088449528
 20
2541.276325463244
 30
0.0
 11
2657.800088449528
 21
2541.276325463244
 31
0.0
  0
LINE
  5
C18
330
BE8
100
AcDbEntity
  8
S-size
 62
     0
370
    -2
100
AcDbLine
 10
2757.800088449528
 20
2541.276325463244
 30
0.0
 11
2777.800088449528
 21
2541.276325463244
 31
0.0
  0
LINE
  5
C19
330
BE8
100
AcDbEntity
  8
S-size
 62
     0
370
    -2
100
AcDbLine
 10
2697.800088449529
 20
2541.276325463244
 30
0.0
 11
2737.800088449529
 21
2541.276325463244
 31
0.0
  0
SOLID
  5
C1A
330
BE8
100
AcDbEntity
  8
S-size
 62
     0
100
AcDbTrace
 10
2677.800088449528
 20
2544.609658796578
 30
0.0
 11
2677.800088449528
 21
2537.94299212991
 31
0.0
 12
2697.800088449529
 22
2541.276325463244
 32
0.0
 13
2697.800088449529
 23
2541.276325463244
 33
0.0
  0
SOLID
  5
C1B
330
BE8
100
AcDbEntity
  8
S-size
 62
     0
100
AcDbTrace
 10
2757.800088449528
 20
2544.609658796578
 30
0.0
 11
2757.800088449528
 21
2537.94299212991
 31
0.0
 12
2737.800088449529
 22
2541.276325463244
 32
0.0
 13
2737.800088449529
 23
2541.276325463244
 33
0.0
  0
MTEXT
  5
C1C
330
BE8
100
AcDbEntity
  8
S-size
 62
     0
100
AcDbMText
 10
2717.800088449529
 20
2571.276325463244
 30
0.0
 40
30.0
 41
0.0
 71
     5
 72
     1
  1
40
 73
     1
 44
1.0
1001
ACAD
1000
MTEXTBEGIN
1070
    73
1070
     1
1070
    44
1040
1.0
1070
    74
1070
     0
1000
MTEXTEND
  0
POINT
  5
C1D
330
BE8
100
AcDbEntity
  8
DEFPOINTS
 62
     0
100
AcDbPoint
 10
2697.800088449529
 20
2458.909163386517
 30
0.0
  0
POINT
  5
C1E
330
BE8
100
AcDbEntity
  8
DEFPOINTS
 62
     0
100
AcDbPoint
 10
2737.800088449529
 20
2458.909163386517
 30
0.0
  0
POINT
  5
C1F
330
BE8
100
AcDbEntity
  8
DEFPOINTS
 62
     0
100
AcDbPoint
 10
2737.800088449529
 20
2541.276325463244
 30
0.0
  0
ENDBLK
  5
BF3
330
BE8
100
AcDbEntity
  8
0
100
AcDbBlockEnd
  0
BLOCK
  5
C2F
330
C23
100
AcDbEntity
  8
0
100
AcDbBlockBegin
  2
*D31
 70
     1
 10
0.0
 20
0.0
 30
0.0
  3
*D31
  1

  0
LINE
  5
C31
330
C23
100
AcDbEntity
  8
S-size
 62
     0
370
    -2
100
AcDbLine
 10
3327.800088449528
 20
2508.909163386518
 30
0.0
 11
3327.800088449528
 21
2541.276325463244
 31
0.0
  0
LINE
  5
C32
330
C23
100
AcDbEntity
  8
S-size
 62
     0
370
    -2
100
AcDbLine
 10
3367.800088449528
 20
2508.909163386518
 30
0.0
 11
3367.800088449528
 21
2541.276325463244
 31
0.0
  0
LINE
  5
C33
330
C23
100
AcDbEntity
  8
S-size
 62
     0
370
    -2
100
AcDbLine
 10
3307.800088449528
 20
2541.276325463244
 30
0.0
 11
3287.800088449528
 21
2541.276325463244
 31
0.0
  0
LINE
  5
C34
330
C23
100
AcDbEntity
  8
S-size
 62
     0
370
    -2
100
AcDbLine
 10
3387.800088449528
 20
2541.276325463244
 30
0.0
 11
3407.800088449528
 21
2541.276325463244
 31
0.0
  0
LINE
  5
C35
330
C23
100
AcDbEntity
  8
S-size
 62
     0
370
    -2
100
AcDbLine
 10
3327.800088449528
 20
2541.276325463244
 30
0.0
 11
3367.800088449528
 21
2541.276325463244
 31
0.0
  0
SOLID
  5
C36
330
C23
100
AcDbEntity
  8
S-size
 62
     0
100
AcDbTrace
 10
3307.800088449528
 20
2544.609658796578
 30
0.0
 11
3307.800088449528
 21
2537.94299212991
 31
0.0
 12
3327.800088449528
 22
2541.276325463244
 32
0.0
 13
3327.800088449528
 23
2541.276325463244
 33
0.0
  0
SOLID
  5
C37
330
C23
100
AcDbEntity
  8
S-size
 62
     0
100
AcDbTrace
 10
3387.800088449528
 20
2544.609658796578
 30
0.0
 11
3387.800088449528
 21
2537.94299212991
 31
0.0
 12
3367.800088449528
 22
2541.276325463244
 32
0.0
 13
3367.800088449528
 23
2541.276325463244
 33
0.0
  0
MTEXT
  5
C38
330
C23
100
AcDbEntity
  8
S-size
 62
     0
100
AcDbMText
 10
3347.800088449528
 20
2571.276325463244
 30
0.0
 40
30.0
 41
0.0
 71
     5
 72
     1
  1
40
 73
     1
 44
1.0
1001
ACAD
1000
MTEXTBEGIN
1070
    73
1070
     1
1070
    44
1040
1.0
1070
    74
1070
     0
1000
MTEXTEND
  0
POINT
  5
C39
330
C23
100
AcDbEntity
  8
DEFPOINTS
 62
     0
100
AcDbPoint
 10
3327.800088449528
 20
2458.909163386517
 30
0.0
  0
POINT
  5
C3A
330
C23
100
AcDbEntity
  8
DEFPOINTS
 62
     0
100
AcDbPoint
 10
3367.800088449528
 20
2458.909163386517
 30
0.0
  0
POINT
  5
C3B
330
C23
100
AcDbEntity
  8
DEFPOINTS
 62
     0
100
AcDbPoint
 10
3367.800088449528
 20
2541.276325463244
 30
0.0
  0
ENDBLK
  5
C30
330
C23
100
AcDbEntity
  8
0
100
AcDbBlockEnd
  0
BLOCK
  5
C47
330
C3D
100
AcDbEntity
  8
0
100
AcDbBlockBegin
  2
*D32
 70
     1
 10
0.0
 20
0.0
 30
0.0
  3
*D32
  1

  0
LINE
  5
C5D
330
C3D
100
AcDbEntity
  8
S-size
 62
     0
370
    -2
100
AcDbLine
 10
2647.800088449529
 20
2458.909163386517
 30
0.0
 11
2610.822297482373
 21
2458.909163386517
 31
0.0
  0
LINE
  5
C5E
330
C3D
100
AcDbEntity
  8
S-size
 62
     0
370
    -2
100
AcDbLine
 10
2647.800088449529
 20
2173.909163386517
 30
0.0
 11
2610.822297482373
 21
2173.909163386517
 31
0.0
  0
LINE
  5
C5F
330
C3D
100
AcDbEntity
  8
S-size
 62
     0
370
    -2
100
AcDbLine
 10
2610.822297482373
 20
2438.909163386517
 30
0.0
 11
2610.822297482373
 21
2193.909163386518
 31
0.0
  0
SOLID
  5
C60
330
C3D
100
AcDbEntity
  8
S-size
 62
     0
100
AcDbTrace
 10
2607.48896414904
 20
2438.909163386517
 30
0.0
 11
2614.155630815707
 21
2438.909163386517
 31
0.0
 12
2610.822297482373
 22
2458.909163386517
 32
0.0
 13
2610.822297482373
 23
2458.909163386517
 33
0.0
  0
SOLID
  5
C61
330
C3D
100
AcDbEntity
  8
S-size
 62
     0
100
AcDbTrace
 10
2607.48896414904
 20
2193.909163386518
 30
0.0
 11
2614.155630815707
 21
2193.909163386518
 31
0.0
 12
2610.822297482373
 22
2173.909163386517
 32
0.0
 13
2610.822297482373
 23
2173.909163386517
 33
0.0
  0
MTEXT
  5
C62
330
C3D
100
AcDbEntity
  8
S-size
 62
     0
100
AcDbMText
 10
2580.822297482372
 20
2316.409163386518
 30
0.0
 40
30.0
 41
0.0
 71
     5
 72
     1
  1
285
 11
0.0000000000000001
 21
1.0
 31
0.0
 73
     1
 44
1.0
1001
ACAD
1000
MTEXTBEGIN
1070
    73
1070
     1
1070
    44
1040
1.0
1070
    74
1070
     0
1000
MTEXTEND
  0
POINT
  5
C63
330
C3D
100
AcDbEntity
  8
DEFPOINTS
 62
     0
100
AcDbPoint
 10
2697.800088449529
 20
2458.909163386517
 30
0.0
  0
POINT
  5
C64
330
C3D
100
AcDbEntity
  8
DEFPOINTS
 62
     0
100
AcDbPoint
 10
2697.800088449529
 20
2173.909163386517
 30
0.0
  0
POINT
  5
C65
330
C3D
100
AcDbEntity
  8
DEFPOINTS
 62
     0
100
AcDbPoint
 10
2610.822297482373
 20
2173.909163386517
 30
0.0
  0
ENDBLK
  5
C48
330
C3D
100
AcDbEntity
  8
0
100
AcDbBlockEnd
  0
BLOCK
  5
C71
330
C67
100
AcDbEntity
  8
0
100
AcDbBlockBegin
  2
*D33
 70
     1
 10
0.0
 20
0.0
 30
0.0
  3
*D33
  1

  0
LINE
  5
C87
330
C67
100
AcDbEntity
  8
S-size
 62
     0
370
    -2
100
AcDbLine
 10
3417.800088449528
 20
2458.909163386517
 30
0.0
 11
3484.238406993107
 21
2458.909163386517
 31
0.0
  0
LINE
  5
C88
330
C67
100
AcDbEntity
  8
S-size
 62
     0
370
    -2
100
AcDbLine
 10
3417.800088449528
 20
2173.909163386517
 30
0.0
 11
3484.238406993107
 21
2173.909163386517
 31
0.0
  0
LINE
  5
C89
330
C67
100
AcDbEntity
  8
S-size
 62
     0
370
    -2
100
AcDbLine
 10
3484.238406993107
 20
2438.909163386517
 30
0.0
 11
3484.238406993107
 21
2193.909163386518
 31
0.0
  0
SOLID
  5
C8A
330
C67
100
AcDbEntity
  8
S-size
 62
     0
100
AcDbTrace
 10
3480.905073659773
 20
2438.909163386517
 30
0.0
 11
3487.571740326441
 21
2438.909163386517
 31
0.0
 12
3484.238406993107
 22
2458.909163386517
 32
0.0
 13
3484.238406993107
 23
2458.909163386517
 33
0.0
  0
SOLID
  5
C8B
330
C67
100
AcDbEntity
  8
S-size
 62
     0
100
AcDbTrace
 10
3480.905073659773
 20
2193.909163386518
 30
0.0
 11
3487.571740326441
 21
2193.909163386518
 31
0.0
 12
3484.238406993107
 22
2173.909163386517
 32
0.0
 13
3484.238406993107
 23
2173.909163386517
 33
0.0
  0
MTEXT
  5
C8C
330
C67
100
AcDbEntity
  8
S-size
 62
     0
100
AcDbMText
 10
3514.238406993106
 20
2316.409163386518
 30
0.0
 40
30.0
 41
0.0
 71
     5
 72
     1
  1
285
 11
0.0000000000000001
 21
1.0
 31
0.0
 73
     1
 44
1.0
1001
ACAD
1000
MTEXTBEGIN
1070
    73
1070
     1
1070
    44
1040
1.0
1070
    74
1070
     0
1000
MTEXTEND
  0
POINT
  5
C8D
330
C67
100
AcDbEntity
  8
DEFPOINTS
 62
     0
100
AcDbPoint
 10
3367.800088449528
 20
2458.909163386517
 30
0.0
  0
POINT
  5
C8E
330
C67
100
AcDbEntity
  8
DEFPOINTS
 62
     0
100
AcDbPoint
 10
3367.800088449528
 20
2173.909163386517
 30
0.0
  0
POINT
  5
C8F
330
C67
100
AcDbEntity
  8
DEFPOINTS
 62
     0
100
AcDbPoint
 10
3484.238406993107
 20
2173.909163386517
 30
0.0
  0
ENDBLK
  5
C72
330
C67
100
AcDbEntity
  8
0
100
AcDbBlockEnd
  0
BLOCK
  5
CDA
330
CD0
100
AcDbEntity
  8
0
100
AcDbBlockBegin
  2
*D34
 70
     1
 10
0.0
 20
0.0
 30
0.0
  3
*D34
  1

  0
LINE
  5
110B
330
CD0
100
AcDbEntity
  8
S-size
 62
     0
370
    -2
100
AcDbLine
 10
782.8000884495281
 20
2118.909163386518
 30
0.0
 11
782.8000884495281
 21
2167.927564740236
 31
0.0
  0
LINE
  5
110C
330
CD0
100
AcDbEntity
  8
S-size
 62
     0
370
    -2
100
AcDbLine
 10
982.8000884495279
 20
2118.909163386518
 30
0.0
 11
982.8000884495279
 21
2167.927564740236
 31
0.0
  0
LINE
  5
110D
330
CD0
100
AcDbEntity
  8
S-size
 62
     0
370
    -2
100
AcDbLine
 10
802.8000884495281
 20
2167.927564740236
 30
0.0
 11
962.8000884495282
 21
2167.927564740236
 31
0.0
  0
SOLID
  5
110E
330
CD0
100
AcDbEntity
  8
S-size
 62
     0
100
AcDbTrace
 10
802.8000884495281
 20
2171.26089807357
 30
0.0
 11
802.8000884495281
 21
2164.594231406903
 31
0.0
 12
782.8000884495281
 22
2167.927564740236
 32
0.0
 13
782.8000884495281
 23
2167.927564740236
 33
0.0
  0
SOLID
  5
110F
330
CD0
100
AcDbEntity
  8
S-size
 62
     0
100
AcDbTrace
 10
962.8000884495282
 20
2171.26089807357
 30
0.0
 11
962.8000884495282
 21
2164.594231406903
 31
0.0
 12
982.8000884495279
 22
2167.927564740236
 32
0.0
 13
982.8000884495279
 23
2167.927564740236
 33
0.0
  0
MTEXT
  5
1110
330
CD0
100
AcDbEntity
  8
S-size
 62
     0
100
AcDbMText
 10
882.8000884495281
 20
2197.927564740236
 30
0.0
 40
30.0
 41
0.0
 71
     5
 72
     1
  1
200
 73
     1
 44
1.0
1001
ACAD
1000
MTEXTBEGIN
1070
    73
1070
     1
1070
    44
1040
1.0
1070
    74
1070
     0
1000
MTEXTEND
  0
POINT
  5
1111
330
CD0
100
AcDbEntity
  8
DEFPOINTS
 62
     0
100
AcDbPoint
 10
782.8000884495281
 20
2068.909163386518
 30
0.0
  0
POINT
  5
1112
330
CD0
100
AcDbEntity
  8
DEFPOINTS
 62
     0
100
AcDbPoint
 10
982.8000884495279
 20
2068.909163386518
 30
0.0
  0
POINT
  5
1113
330
CD0
100
AcDbEntity
  8
DEFPOINTS
 62
     0
100
AcDbPoint
 10
982.8000884495279
 20
2167.927564740236
 30
0.0
  0
ENDBLK
  5
CDB
330
CD0
100
AcDbEntity
  8
0
100
AcDbBlockEnd
  0
BLOCK
  5
CFD
330
CF3
100
AcDbEntity
  8
0
100
AcDbBlockBegin
  2
*D35
 70
     1
 10
0.0
 20
0.0
 30
0.0
  3
*D35
  1

  0
LINE
  5
1114
330
CF3
100
AcDbEntity
  8
S-size
 62
     0
370
    -2
100
AcDbLine
 10
1182.800088449528
 20
2118.909163386518
 30
0.0
 11
1182.800088449528
 21
2167.927564740236
 31
0.0
  0
LINE
  5
1115
330
CF3
100
AcDbEntity
  8
S-size
 62
     0
370
    -2
100
AcDbLine
 10
1382.800088449528
 20
2118.909163386518
 30
0.0
 11
1382.800088449528
 21
2167.927564740236
 31
0.0
  0
LINE
  5
1116
330
CF3
100
AcDbEntity
  8
S-size
 62
     0
370
    -2
100
AcDbLine
 10
1202.800088449528
 20
2167.927564740236
 30
0.0
 11
1362.800088449528
 21
2167.927564740236
 31
0.0
  0
SOLID
  5
1117
330
CF3
100
AcDbEntity
  8
S-size
 62
     0
100
AcDbTrace
 10
1202.800088449528
 20
2171.26089807357
 30
0.0
 11
1202.800088449528
 21
2164.594231406903
 31
0.0
 12
1182.800088449528
 22
2167.927564740236
 32
0.0
 13
1182.800088449528
 23
2167.927564740236
 33
0.0
  0
SOLID
  5
1118
330
CF3
100
AcDbEntity
  8
S-size
 62
     0
100
AcDbTrace
 10
1362.800088449528
 20
2171.26089807357
 30
0.0
 11
1362.800088449528
 21
2164.594231406903
 31
0.0
 12
1382.800088449528
 22
2167.927564740236
 32
0.0
 13
1382.800088449528
 23
2167.927564740236
 33
0.0
  0
MTEXT
  5
1119
330
CF3
100
AcDbEntity
  8
S-size
 62
     0
100
AcDbMText
 10
1282.800088449528
 20
2197.927564740236
 30
0.0
 40
30.0
 41
0.0
 71
     5
 72
     1
  1
200
 73
     1
 44
1.0
1001
ACAD
1000
MTEXTBEGIN
1070
    73
1070
     1
1070
    44
1040
1.0
1070
    74
1070
     0
1000
MTEXTEND
  0
POINT
  5
111A
330
CF3
100
AcDbEntity
  8
DEFPOINTS
 62
     0
100
AcDbPoint
 10
1182.800088449528
 20
2068.909163386518
 30
0.0
  0
POINT
  5
111B
330
CF3
100
AcDbEntity
  8
DEFPOINTS
 62
     0
100
AcDbPoint
 10
1382.800088449528
 20
2068.909163386518
 30
0.0
  0
POINT
  5
111C
330
CF3
100
AcDbEntity
  8
DEFPOINTS
 62
     0
100
AcDbPoint
 10
1382.800088449528
 20
2167.927564740236
 30
0.0
  0
ENDBLK
  5
CFE
330
CF3
100
AcDbEntity
  8
0
100
AcDbBlockEnd
  0
BLOCK
  5
D0C
330
D02
100
AcDbEntity
  8
0
100
AcDbBlockBegin
  2
*D36
 70
     1
 10
0.0
 20
0.0
 30
0.0
  3
*D36
  1

  0
LINE
  5
1126
330
D02
100
AcDbEntity
  8
S-size
 62
     0
370
    -2
100
AcDbLine
 10
1582.800088449528
 20
2118.909163386518
 30
0.0
 11
1582.800088449528
 21
2167.927564740236
 31
0.0
  0
LINE
  5
1127
330
D02
100
AcDbEntity
  8
S-size
 62
     0
370
    -2
100
AcDbLine
 10
1782.800088449528
 20
2118.909163386518
 30
0.0
 11
1782.800088449528
 21
2167.927564740236
 31
0.0
  0
LINE
  5
1128
330
D02
100
AcDbEntity
  8
S-size
 62
     0
370
    -2
100
AcDbLine
 10
1602.800088449528
 20
2167.927564740236
 30
0.0
 11
1762.800088449528
 21
2167.927564740236
 31
0.0
  0
SOLID
  5
1129
330
D02
100
AcDbEntity
  8
S-size
 62
     0
100
AcDbTrace
 10
1602.800088449528
 20
2171.26089807357
 30
0.0
 11
1602.800088449528
 21
2164.594231406903
 31
0.0
 12
1582.800088449528
 22
2167.927564740236
 32
0.0
 13
1582.800088449528
 23
2167.927564740236
 33
0.0
  0
SOLID
  5
112A
330
D02
100
AcDbEntity
  8
S-size
 62
     0
100
AcDbTrace
 10
1762.800088449528
 20
2171.26089807357
 30
0.0
 11
1762.800088449528
 21
2164.594231406903
 31
0.0
 12
1782.800088449528
 22
2167.927564740236
 32
0.0
 13
1782.800088449528
 23
2167.927564740236
 33
0.0
  0
MTEXT
  5
112B
330
D02
100
AcDbEntity
  8
S-size
 62
     0
100
AcDbMText
 10
1682.800088449528
 20
2197.927564740236
 30
0.0
 40
30.0
 41
0.0
 71
     5
 72
     1
  1
200
 73
     1
 44
1.0
1001
ACAD
1000
MTEXTBEGIN
1070
    73
1070
     1
1070
    44
1040
1.0
1070
    74
1070
     0
1000
MTEXTEND
  0
POINT
  5
112C
330
D02
100
AcDbEntity
  8
DEFPOINTS
 62
     0
100
AcDbPoint
 10
1582.800088449528
 20
2068.909163386518
 30
0.0
  0
POINT
  5
112D
330
D02
100
AcDbEntity
  8
DEFPOINTS
 62
     0
100
AcDbPoint
 10
1782.800088449528
 20
2068.909163386518
 30
0.0
  0
POINT
  5
112E
330
D02
100
AcDbEntity
  8
DEFPOINTS
 62
     0
100
AcDbPoint
 10
1782.800088449528
 20
2167.927564740236
 30
0.0
  0
ENDBLK
  5
D0D
330
D02
100
AcDbEntity
  8
0
100
AcDbBlockEnd
  0
BLOCK
  5
D2E
330
D24
100
AcDbEntity
  8
0
100
AcDbBlockBegin
  2
*D37
 70
     1
 10
0.0
 20
0.0
 30
0.0
  3
*D37
  1

  0
LINE
  5
D51
330
D24
100
AcDbEntity
  8
S-size
 62
     0
370
    -2
100
AcDbLine
 10
782.8000884495281
 20
2286.67156732465
 30
0.0
 11
782.8000884495281
 21
2335.428618043777
 31
0.0
  0
LINE
  5
D52
330
D24
100
AcDbEntity
  8
S-size
 62
     0
370
    -2
100
AcDbLine
 10
807.8000884495281
 20
2270.999731578843
 30
0.0
 11
807.8000884495281
 21
2335.428618043777
 31
0.0
  0
LINE
  5
D53
330
D24
100
AcDbEntity
  8
S-size
 62
     0
370
    -2
100
AcDbLine
 10
767.8000884495282
 20
2335.428618043777
 30
0.0
 11
752.8000884495281
 21
2335.428618043777
 31
0.0
  0
LINE
  5
D54
330
D24
100
AcDbEntity
  8
S-size
 62
     0
370
    -2
100
AcDbLine
 10
822.8000884495282
 20
2335.428618043777
 30
0.0
 11
837.8000884495282
 21
2335.428618043777
 31
0.0
  0
LINE
  5
D55
330
D24
100
AcDbEntity
  8
S-size
 62
     0
370
    -2
100
AcDbLine
 10
782.8000884495281
 20
2335.428618043777
 30
0.0
 11
807.8000884495281
 21
2335.428618043777
 31
0.0
  0
SOLID
  5
D56
330
D24
100
AcDbEntity
  8
S-size
 62
     0
100
AcDbTrace
 10
767.8000884495282
 20
2337.928618043777
 30
0.0
 11
767.8000884495282
 21
2332.928618043776
 31
0.0
 12
782.8000884495281
 22
2335.428618043777
 32
0.0
 13
782.8000884495281
 23
2335.428618043777
 33
0.0
  0
SOLID
  5
D57
330
D24
100
AcDbEntity
  8
S-size
 62
     0
100
AcDbTrace
 10
822.8000884495282
 20
2337.928618043777
 30
0.0
 11
822.8000884495282
 21
2332.928618043776
 31
0.0
 12
807.8000884495281
 22
2335.428618043777
 32
0.0
 13
807.8000884495281
 23
2335.428618043777
 33
0.0
  0
MTEXT
  5
D58
330
D24
100
AcDbEntity
  8
S-size
 62
     0
100
AcDbMText
 10
795.3000884495281
 20
2355.428618043777
 30
0.0
 40
20.0
 41
0.0
 71
     5
 72
     1
  1
25
 73
     1
 44
1.0
1001
ACAD
1000
MTEXTBEGIN
1070
    73
1070
     1
1070
    44
1040
1.0
1070
    74
1070
     0
1000
MTEXTEND
  0
POINT
  5
D59
330
D24
100
AcDbEntity
  8
DEFPOINTS
 62
     0
100
AcDbPoint
 10
782.8000884495281
 20
2271.671567324649
 30
0.0
  0
POINT
  5
D5A
330
D24
100
AcDbEntity
  8
DEFPOINTS
 62
     0
100
AcDbPoint
 10
807.8000884495281
 20
2255.999731578842
 30
0.0
  0
POINT
  5
D5B
330
D24
100
AcDbEntity
  8
DEFPOINTS
 62
     0
100
AcDbPoint
 10
807.8000884495281
 20
2335.428618043777
 30
0.0
  0
ENDBLK
  5
D2F
330
D24
100
AcDbEntity
  8
0
100
AcDbBlockEnd
  0
BLOCK
  5
DC7
330
DBD
100
AcDbEntity
  8
0
100
AcDbBlockBegin
  2
*D38
 70
     1
 10
0.0
 20
0.0
 30
0.0
  3
*D38
  1

  0
LINE
  5
1013
330
DBD
100
AcDbEntity
  8
S-size
 62
     0
370
    -2
100
AcDbLine
 10
1197.800088449528
 20
1193.909163386517
 30
0.0
 11
1228.324082997014
 21
1193.909163386517
 31
0.0
  0
LINE
  5
1014
330
DBD
100
AcDbEntity
  8
S-size
 62
     0
370
    -2
100
AcDbLine
 10
1197.800088449528
 20
1293.909163386517
 30
0.0
 11
1228.324082997014
 21
1293.909163386517
 31
0.0
  0
LINE
  5
1015
330
DBD
100
AcDbEntity
  8
S-size
 62
     0
370
    -2
100
AcDbLine
 10
1228.324082997014
 20
1208.909163386517
 30
0.0
 11
1228.324082997014
 21
1278.909163386517
 31
0.0
  0
SOLID
  5
1016
330
DBD
100
AcDbEntity
  8
S-size
 62
     0
100
AcDbTrace
 10
1225.824082997015
 20
1208.909163386517
 30
0.0
 11
1230.824082997014
 21
1208.909163386517
 31
0.0
 12
1228.324082997014
 22
1193.909163386517
 32
0.0
 13
1228.324082997014
 23
1193.909163386517
 33
0.0
  0
SOLID
  5
1017
330
DBD
100
AcDbEntity
  8
S-size
 62
     0
100
AcDbTrace
 10
1225.824082997015
 20
1278.909163386517
 30
0.0
 11
1230.824082997014
 21
1278.909163386517
 31
0.0
 12
1228.324082997014
 22
1293.909163386517
 32
0.0
 13
1228.324082997014
 23
1293.909163386517
 33
0.0
  0
MTEXT
  5
1018
330
DBD
100
AcDbEntity
  8
S-size
 62
     0
100
AcDbMText
 10
1248.324082997014
 20
1243.909163386518
 30
0.0
 40
20.0
 41
0.0
 71
     5
 72
     1
  1
100
 11
0.0000000000000001
 21
1.0
 31
0.0
 73
     1
 44
1.0
1001
ACAD
1000
MTEXTBEGIN
1070
    73
1070
     1
1070
    44
1040
1.0
1070
    74
1070
     0
1000
MTEXTEND
  0
POINT
  5
1019
330
DBD
100
AcDbEntity
  8
DEFPOINTS
 62
     0
100
AcDbPoint
 10
1182.800088449528
 20
1193.909163386517
 30
0.0
  0
POINT
  5
101A
330
DBD
100
AcDbEntity
  8
DEFPOINTS
 62
     0
100
AcDbPoint
 10
1182.800088449528
 20
1293.909163386517
 30
0.0
  0
POINT
  5
101B
330
DBD
100
AcDbEntity
  8
DEFPOINTS
 62
     0
100
AcDbPoint
 10
1228.324082997014
 20
1293.909163386517
 30
0.0
  0
ENDBLK
  5
DC8
330
DBD
100
AcDbEntity
  8
0
100
AcDbBlockEnd
  0
BLOCK
  5
E00
330
DF6
100
AcDbEntity
  8
0
100
AcDbBlockBegin
  2
*D39
 70
     1
 10
0.0
 20
0.0
 30
0.0
  3
*D39
  1

  0
LINE
  5
101C
330
DF6
100
AcDbEntity
  8
S-size
 62
     0
370
    -2
100
AcDbLine
 10
1422.800088449528
 20
1218.909163386517
 30
0.0
 11
1474.68387990203
 21
1218.909163386517
 31
0.0
  0
LINE
  5
101D
330
DF6
100
AcDbEntity
  8
S-size
 62
     0
370
    -2
100
AcDbLine
 10
1422.800088449528
 20
1268.909163386517
 30
0.0
 11
1474.68387990203
 21
1268.909163386517
 31
0.0
  0
LINE
  5
101E
330
DF6
100
AcDbEntity
  8
S-size
 62
     0
370
    -2
100
AcDbLine
 10
1474.68387990203
 20
1233.909163386517
 30
0.0
 11
1474.68387990203
 21
1253.909163386518
 31
0.0
  0
SOLID
  5
101F
330
DF6
100
AcDbEntity
  8
S-size
 62
     0
100
AcDbTrace
 10
1472.183879902029
 20
1233.909163386517
 30
0.0
 11
1477.18387990203
 21
1233.909163386517
 31
0.0
 12
1474.68387990203
 22
1218.909163386517
 32
0.0
 13
1474.68387990203
 23
1218.909163386517
 33
0.0
  0
SOLID
  5
1020
330
DF6
100
AcDbEntity
  8
S-size
 62
     0
100
AcDbTrace
 10
1472.183879902029
 20
1253.909163386518
 30
0.0
 11
1477.18387990203
 21
1253.909163386518
 31
0.0
 12
1474.68387990203
 22
1268.909163386517
 32
0.0
 13
1474.68387990203
 23
1268.909163386517
 33
0.0
  0
MTEXT
  5
1021
330
DF6
100
AcDbEntity
  8
S-size
 62
     0
100
AcDbMText
 10
1494.683879902029
 20
1243.909163386518
 30
0.0
 40
20.0
 41
0.0
 71
     5
 72
     1
  1
50
 11
0.0000000000000001
 21
1.0
 31
0.0
 73
     1
 44
1.0
1001
ACAD
1000
MTEXTBEGIN
1070
    73
1070
     1
1070
    44
1040
1.0
1070
    74
1070
     0
1000
MTEXTEND
  0
POINT
  5
1022
330
DF6
100
AcDbEntity
  8
DEFPOINTS
 62
     0
100
AcDbPoint
 10
1407.800088449528
 20
1218.909163386517
 30
0.0
  0
POINT
  5
1023
330
DF6
100
AcDbEntity
  8
DEFPOINTS
 62
     0
100
AcDbPoint
 10
1407.800088449528
 20
1268.909163386517
 30
0.0
  0
POINT
  5
1024
330
DF6
100
AcDbEntity
  8
DEFPOINTS
 62
     0
100
AcDbPoint
 10
1474.68387990203
 20
1268.909163386517
 30
0.0
  0
ENDBLK
  5
E01
330
DF6
100
AcDbEntity
  8
0
100
AcDbBlockEnd
  0
BLOCK
  5
E51
330
E47
100
AcDbEntity
  8
0
100
AcDbBlockBegin
  2
*D40
 70
     1
 10
0.0
 20
0.0
 30
0.0
  3
*D40
  1

  0
LINE
  5
1025
330
E47
100
AcDbEntity
  8
S-size
 62
     0
370
    -2
100
AcDbLine
 10
982.8000884495279
 20
1308.909163386517
 30
0.0
 11
982.8000884495279
 21
1335.361991543701
 31
0.0
  0
LINE
  5
1026
330
E47
100
AcDbEntity
  8
S-size
 62
     0
370
    -2
100
AcDbLine
 10
1182.800088449528
 20
1308.909163386517
 30
0.0
 11
1182.800088449528
 21
1335.361991543701
 31
0.0
  0
LINE
  5
1027
330
E47
100
AcDbEntity
  8
S-size
 62
     0
370
    -2
100
AcDbLine
 10
997.800088449528
 20
1335.361991543701
 30
0.0
 11
1167.800088449528
 21
1335.361991543701
 31
0.0
  0
SOLID
  5
1028
330
E47
100
AcDbEntity
  8
S-size
 62
     0
100
AcDbTrace
 10
997.800088449528
 20
1337.861991543701
 30
0.0
 11
997.800088449528
 21
1332.861991543701
 31
0.0
 12
982.8000884495279
 22
1335.361991543701
 32
0.0
 13
982.8000884495279
 23
1335.361991543701
 33
0.0
  0
SOLID
  5
1029
330
E47
100
AcDbEntity
  8
S-size
 62
     0
100
AcDbTrace
 10
1167.800088449528
 20
1337.861991543701
 30
0.0
 11
1167.800088449528
 21
1332.861991543701
 31
0.0
 12
1182.800088449528
 22
1335.361991543701
 32
0.0
 13
1182.800088449528
 23
1335.361991543701
 33
0.0
  0
MTEXT
  5
102A
330
E47
100
AcDbEntity
  8
S-size
 62
     0
100
AcDbMText
 10
1082.800088449528
 20
1355.361991543701
 30
0.0
 40
20.0
 41
0.0
 71
     5
 72
     1
  1
200
 73
     1
 44
1.0
1001
ACAD
1000
MTEXTBEGIN
1070
    73
1070
     1
1070
    44
1040
1.0
1070
    74
1070
     0
1000
MTEXTEND
  0
POINT
  5
102B
330
E47
100
AcDbEntity
  8
DEFPOINTS
 62
     0
100
AcDbPoint
 10
982.8000884495279
 20
1293.909163386517
 30
0.0
  0
POINT
  5
102C
330
E47
100
AcDbEntity
  8
DEFPOINTS
 62
     0
100
AcDbPoint
 10
1182.800088449528
 20
1293.909163386517
 30
0.0
  0
POINT
  5
102D
330
E47
100
AcDbEntity
  8
DEFPOINTS
 62
     0
100
AcDbPoint
 10
1182.800088449528
 20
1335.361991543701
 30
0.0
  0
ENDBLK
  5
E52
330
E47
100
AcDbEntity
  8
0
100
AcDbBlockEnd
  0
BLOCK
  5
E84
330
E7A
100
AcDbEntity
  8
0
100
AcDbBlockBegin
  2
*D41
 70
     1
 10
0.0
 20
0.0
 30
0.0
  3
*D41
  1

  0
LINE
  5
102E
330
E7A
100
AcDbEntity
  8
S-size
 62
     0
370
    -2
100
AcDbLine
 10
1407.800088449528
 20
1283.909163386517
 30
0.0
 11
1407.800088449528
 21
1335.361991543701
 31
0.0
  0
LINE
  5
102F
330
E7A
100
AcDbEntity
  8
S-size
 62
     0
370
    -2
100
AcDbLine
 10
1557.800088449528
 20
1283.909163386517
 30
0.0
 11
1557.800088449528
 21
1335.361991543701
 31
0.0
  0
LINE
  5
1030
330
E7A
100
AcDbEntity
  8
S-size
 62
     0
370
    -2
100
AcDbLine
 10
1422.800088449528
 20
1335.361991543701
 30
0.0
 11
1542.800088449528
 21
1335.361991543701
 31
0.0
  0
SOLID
  5
1031
330
E7A
100
AcDbEntity
  8
S-size
 62
     0
100
AcDbTrace
 10
1422.800088449528
 20
1337.861991543701
 30
0.0
 11
1422.800088449528
 21
1332.861991543701
 31
0.0
 12
1407.800088449528
 22
1335.361991543701
 32
0.0
 13
1407.800088449528
 23
1335.361991543701
 33
0.0
  0
SOLID
  5
1032
330
E7A
100
AcDbEntity
  8
S-size
 62
     0
100
AcDbTrace
 10
1542.800088449528
 20
1337.861991543701
 30
0.0
 11
1542.800088449528
 21
1332.861991543701
 31
0.0
 12
1557.800088449528
 22
1335.361991543701
 32
0.0
 13
1557.800088449528
 23
1335.361991543701
 33
0.0
  0
MTEXT
  5
1033
330
E7A
100
AcDbEntity
  8
S-size
 62
     0
100
AcDbMText
 10
1482.800088449528
 20
1355.361991543701
 30
0.0
 40
20.0
 41
0.0
 71
     5
 72
     1
  1
150
 73
     1
 44
1.0
1001
ACAD
1000
MTEXTBEGIN
1070
    73
1070
     1
1070
    44
1040
1.0
1070
    74
1070
     0
1000
MTEXTEND
  0
POINT
  5
1034
330
E7A
100
AcDbEntity
  8
DEFPOINTS
 62
     0
100
AcDbPoint
 10
1407.800088449528
 20
1268.909163386517
 30
0.0
  0
POINT
  5
1035
330
E7A
100
AcDbEntity
  8
DEFPOINTS
 62
     0
100
AcDbPoint
 10
1557.800088449528
 20
1268.909163386517
 30
0.0
  0
POINT
  5
1036
330
E7A
100
AcDbEntity
  8
DEFPOINTS
 62
     0
100
AcDbPoint
 10
1557.800088449528
 20
1335.361991543701
 30
0.0
  0
ENDBLK
  5
E85
330
E7A
100
AcDbEntity
  8
0
100
AcDbBlockEnd
  0
BLOCK
  5
EB7
330
EAD
100
AcDbEntity
  8
0
100
AcDbBlockBegin
  2
*D42
 70
     1
 10
0.0
 20
0.0
 30
0.0
  3
*D42
  1

  0
LINE
  5
1037
330
EAD
100
AcDbEntity
  8
S-size
 62
     0
370
    -2
100
AcDbLine
 10
1767.800088449528
 20
1198.909163386517
 30
0.0
 11
1736.047119513869
 21
1198.909163386517
 31
0.0
  0
LINE
  5
1038
330
EAD
100
AcDbEntity
  8
S-size
 62
     0
370
    -2
100
AcDbLine
 10
1767.800088449528
 20
1288.909163386517
 30
0.0
 11
1736.047119513869
 21
1288.909163386517
 31
0.0
  0
LINE
  5
1039
330
EAD
100
AcDbEntity
  8
S-size
 62
     0
370
    -2
100
AcDbLine
 10
1736.047119513869
 20
1213.909163386517
 30
0.0
 11
1736.047119513869
 21
1273.909163386517
 31
0.0
  0
SOLID
  5
103A
330
EAD
100
AcDbEntity
  8
S-size
 62
     0
100
AcDbTrace
 10
1733.547119513869
 20
1213.909163386517
 30
0.0
 11
1738.547119513869
 21
1213.909163386517
 31
0.0
 12
1736.047119513869
 22
1198.909163386517
 32
0.0
 13
1736.047119513869
 23
1198.909163386517
 33
0.0
  0
SOLID
  5
103B
330
EAD
100
AcDbEntity
  8
S-size
 62
     0
100
AcDbTrace
 10
1733.547119513869
 20
1273.909163386517
 30
0.0
 11
1738.547119513869
 21
1273.909163386517
 31
0.0
 12
1736.047119513869
 22
1288.909163386517
 32
0.0
 13
1736.047119513869
 23
1288.909163386517
 33
0.0
  0
MTEXT
  5
103C
330
EAD
100
AcDbEntity
  8
S-size
 62
     0
100
AcDbMText
 10
1716.047119513868
 20
1243.909163386518
 30
0.0
 40
20.0
 41
0.0
 71
     5
 72
     1
  1
90
 11
0.0000000000000001
 21
1.0
 31
0.0
 73
     1
 44
1.0
1001
ACAD
1000
MTEXTBEGIN
1070
    73
1070
     1
1070
    44
1040
1.0
1070
    74
1070
     0
1000
MTEXTEND
  0
POINT
  5
103D
330
EAD
100
AcDbEntity
  8
DEFPOINTS
 62
     0
100
AcDbPoint
 10
1782.800088449528
 20
1198.909163386517
 30
0.0
  0
POINT
  5
103E
330
EAD
100
AcDbEntity
  8
DEFPOINTS
 62
     0
100
AcDbPoint
 10
1782.800088449528
 20
1288.909163386517
 30
0.0
  0
POINT
  5
103F
330
EAD
100
AcDbEntity
  8
DEFPOINTS
 62
     0
100
AcDbPoint
 10
1736.047119513869
 20
1288.909163386517
 30
0.0
  0
ENDBLK
  5
EB8
330
EAD
100
AcDbEntity
  8
0
100
AcDbBlockEnd
  0
BLOCK
  5
F27
330
F1D
100
AcDbEntity
  8
0
100
AcDbBlockBegin
  2
*D43
 70
     1
 10
0.0
 20
0.0
 30
0.0
  3
*D43
  1

  0
LINE
  5
1E99
330
F1D
100
AcDbEntity
  8
S-size
 62
     0
370
    -2
100
AcDbLine
 10
1782.800088449528
 20
1303.909163386517
 30
0.0
 11
1782.800088449528
 21
1320.174960454803
 31
0.0
  0
LINE
  5
1E9A
330
F1D
100
AcDbEntity
  8
S-size
 62
     0
370
    -2
100
AcDbLine
 10
1812.800088449528
 20
1258.909163386517
 30
0.0
 11
1812.800088449528
 21
1320.174960454803
 31
0.0
  0
LINE
  5
1E9B
330
F1D
100
AcDbEntity
  8
S-size
 62
     0
370
    -2
100
AcDbLine
 10
1767.800088449528
 20
1320.174960454803
 30
0.0
 11
1752.800088449528
 21
1320.174960454803
 31
0.0
  0
LINE
  5
1E9C
330
F1D
100
AcDbEntity
  8
S-size
 62
     0
370
    -2
100
AcDbLine
 10
1827.800088449528
 20
1320.174960454803
 30
0.0
 11
1842.800088449528
 21
1320.174960454803
 31
0.0
  0
LINE
  5
1E9D
330
F1D
100
AcDbEntity
  8
S-size
 62
     0
370
    -2
100
AcDbLine
 10
1782.800088449528
 20
1320.174960454803
 30
0.0
 11
1812.800088449528
 21
1320.174960454803
 31
0.0
  0
SOLID
  5
1E9E
330
F1D
100
AcDbEntity
  8
S-size
 62
     0
100
AcDbTrace
 10
1767.800088449528
 20
1322.674960454803
 30
0.0
 11
1767.800088449528
 21
1317.674960454803
 31
0.0
 12
1782.800088449528
 22
1320.174960454803
 32
0.0
 13
1782.800088449528
 23
1320.174960454803
 33
0.0
  0
SOLID
  5
1E9F
330
F1D
100
AcDbEntity
  8
S-size
 62
     0
100
AcDbTrace
 10
1827.800088449528
 20
1322.674960454803
 30
0.0
 11
1827.800088449528
 21
1317.674960454803
 31
0.0
 12
1812.800088449528
 22
1320.174960454803
 32
0.0
 13
1812.800088449528
 23
1320.174960454803
 33
0.0
  0
MTEXT
  5
1EA0
330
F1D
100
AcDbEntity
  8
S-size
 62
     0
100
AcDbMText
 10
1797.800088449528
 20
1340.174960454803
 30
0.0
 40
20.0
 41
0.0
 71
     5
 72
     1
  1
30
 73
     1
 44
1.0
1001
ACAD
1000
MTEXTBEGIN
1070
    73
1070
     1
1070
    44
1040
1.0
1070
    74
1070
     0
1000
MTEXTEND
  0
POINT
  5
1EA1
330
F1D
100
AcDbEntity
  8
DEFPOINTS
 62
     0
100
AcDbPoint
 10
1782.800088449528
 20
1288.909163386517
 30
0.0
  0
POINT
  5
1EA2
330
F1D
100
AcDbEntity
  8
DEFPOINTS
 62
     0
100
AcDbPoint
 10
1812.800088449528
 20
1243.909163386517
 30
0.0
  0
POINT
  5
1EA3
330
F1D
100
AcDbEntity
  8
DEFPOINTS
 62
     0
100
AcDbPoint
 10
1812.800088449528
 20
1320.174960454803
 30
0.0
  0
ENDBLK
  5
F28
330
F1D
100
AcDbEntity
  8
0
100
AcDbBlockEnd
  0
BLOCK
  5
F69
330
F5F
100
AcDbEntity
  8
0
100
AcDbBlockBegin
  2
*D44
 70
     1
 10
0.0
 20
0.0
 30
0.0
  3
*D44
  1

  0
LINE
  5
104B
330
F5F
100
AcDbEntity
  8
S-size
 62
     0
370
    -2
100
AcDbLine
 10
767.8000884495279
 20
1193.909163386517
 30
0.0
 11
736.6400973684336
 21
1193.909163386517
 31
0.0
  0
LINE
  5
104C
330
F5F
100
AcDbEntity
  8
S-size
 62
     0
370
    -2
100
AcDbLine
 10
767.8000884495282
 20
1293.909163386517
 30
0.0
 11
736.6400973684336
 21
1293.909163386517
 31
0.0
  0
LINE
  5
104D
330
F5F
100
AcDbEntity
  8
S-size
 62
     0
370
    -2
100
AcDbLine
 10
736.6400973684336
 20
1208.909163386517
 30
0.0
 11
736.6400973684336
 21
1278.909163386517
 31
0.0
  0
SOLID
  5
104E
330
F5F
100
AcDbEntity
  8
S-size
 62
     0
100
AcDbTrace
 10
734.1400973684336
 20
1208.909163386517
 30
0.0
 11
739.1400973684339
 21
1208.909163386517
 31
0.0
 12
736.6400973684336
 22
1193.909163386517
 32
0.0
 13
736.6400973684336
 23
1193.909163386517
 33
0.0
  0
SOLID
  5
104F
330
F5F
100
AcDbEntity
  8
S-size
 62
     0
100
AcDbTrace
 10
734.1400973684336
 20
1278.909163386517
 30
0.0
 11
739.1400973684339
 21
1278.909163386517
 31
0.0
 12
736.6400973684336
 22
1293.909163386517
 32
0.0
 13
736.6400973684336
 23
1293.909163386517
 33
0.0
  0
MTEXT
  5
1050
330
F5F
100
AcDbEntity
  8
S-size
 62
     0
100
AcDbMText
 10
716.6400973684337
 20
1243.909163386517
 30
0.0
 40
20.0
 41
0.0
 71
     5
 72
     1
  1
100
 11
0.0000000000000001
 21
1.0
 31
0.0
 73
     1
 44
1.0
1001
ACAD
1000
MTEXTBEGIN
1070
    73
1070
     1
1070
    44
1040
1.0
1070
    74
1070
     0
1000
MTEXTEND
  0
POINT
  5
1051
330
F5F
100
AcDbEntity
  8
DEFPOINTS
 62
     0
100
AcDbPoint
 10
782.8000884495279
 20
1193.909163386517
 30
0.0
  0
POINT
  5
1052
330
F5F
100
AcDbEntity
  8
DEFPOINTS
 62
     0
100
AcDbPoint
 10
782.8000884495281
 20
1293.909163386517
 30
0.0
  0
POINT
  5
1053
330
F5F
100
AcDbEntity
  8
DEFPOINTS
 62
     0
100
AcDbPoint
 10
736.6400973684336
 20
1293.909163386517
 30
0.0
  0
ENDBLK
  5
F6A
330
F5F
100
AcDbEntity
  8
0
100
AcDbBlockEnd
  0
BLOCK
  5
F8A
330
F80
100
AcDbEntity
  8
0
100
AcDbBlockBegin
  2
*D45
 70
     1
 10
0.0
 20
0.0
 30
0.0
  3
*D45
  1

  0
LINE
  5
1EA4
330
F80
100
AcDbEntity
  8
S-size
 62
     0
370
    -2
100
AcDbLine
 10
782.8000884495279
 20
1308.909163386517
 30
0.0
 11
782.8000884495279
 21
1329.227193212226
 31
0.0
  0
LINE
  5
1EA5
330
F80
100
AcDbEntity
  8
S-size
 62
     0
370
    -2
100
AcDbLine
 10
832.8000884495278
 20
1258.909163386517
 30
0.0
 11
832.8000884495278
 21
1329.227193212226
 31
0.0
  0
LINE
  5
1EA6
330
F80
100
AcDbEntity
  8
S-size
 62
     0
370
    -2
100
AcDbLine
 10
767.8000884495279
 20
1329.227193212226
 30
0.0
 11
752.8000884495279
 21
1329.227193212226
 31
0.0
  0
LINE
  5
1EA7
330
F80
100
AcDbEntity
  8
S-size
 62
     0
370
    -2
100
AcDbLine
 10
847.8000884495276
 20
1329.227193212226
 30
0.0
 11
862.8000884495277
 21
1329.227193212226
 31
0.0
  0
LINE
  5
1EA8
330
F80
100
AcDbEntity
  8
S-size
 62
     0
370
    -2
100
AcDbLine
 10
782.8000884495279
 20
1329.227193212226
 30
0.0
 11
832.8000884495278
 21
1329.227193212226
 31
0.0
  0
SOLID
  5
1EA9
330
F80
100
AcDbEntity
  8
S-size
 62
     0
100
AcDbTrace
 10
767.8000884495279
 20
1331.727193212226
 30
0.0
 11
767.8000884495279
 21
1326.727193212226
 31
0.0
 12
782.8000884495279
 22
1329.227193212226
 32
0.0
 13
782.8000884495279
 23
1329.227193212226
 33
0.0
  0
SOLID
  5
1EAA
330
F80
100
AcDbEntity
  8
S-size
 62
     0
100
AcDbTrace
 10
847.8000884495276
 20
1331.727193212226
 30
0.0
 11
847.8000884495276
 21
1326.727193212226
 31
0.0
 12
832.8000884495278
 22
1329.227193212226
 32
0.0
 13
832.8000884495278
 23
1329.227193212226
 33
0.0
  0
MTEXT
  5
1EAB
330
F80
100
AcDbEntity
  8
S-size
 62
     0
100
AcDbMText
 10
807.8000884495278
 20
1349.227193212226
 30
0.0
 40
20.0
 41
0.0
 71
     5
 72
     1
  1
50
 73
     1
 44
1.0
1001
ACAD
1000
MTEXTBEGIN
1070
    73
1070
     1
1070
    44
1040
1.0
1070
    74
1070
     0
1000
MTEXTEND
  0
POINT
  5
1EAC
330
F80
100
AcDbEntity
  8
DEFPOINTS
 62
     0
100
AcDbPoint
 10
782.8000884495279
 20
1293.909163386517
 30
0.0
  0
POINT
  5
1EAD
330
F80
100
AcDbEntity
  8
DEFPOINTS
 62
     0
100
AcDbPoint
 10
832.8000884495278
 20
1243.909163386517
 30
0.0
  0
POINT
  5
1EAE
330
F80
100
AcDbEntity
  8
DEFPOINTS
 62
     0
100
AcDbPoint
 10
832.8000884495278
 20
1329.227193212226
 30
0.0
  0
ENDBLK
  5
F8B
330
F80
100
AcDbEntity
  8
0
100
AcDbBlockEnd
  0
BLOCK
  5
FD0
330
FC6
100
AcDbEntity
  8
0
100
AcDbBlockBegin
  2
*D46
 70
     1
 10
0.0
 20
0.0
 30
0.0
  3
*D46
  1

  0
LINE
  5
105F
330
FC6
100
AcDbEntity
  8
S-size
 62
     0
370
    -2
100
AcDbLine
 10
732.8000884495281
 20
1058.909163386517
 30
0.0
 11
622.8177274859951
 21
1058.909163386517
 31
0.0
  0
LINE
  5
1060
330
FC6
100
AcDbEntity
  8
S-size
 62
     0
370
    -2
100
AcDbLine
 10
732.8000884495281
 20
1408.909163386517
 30
0.0
 11
622.8177274859953
 21
1408.909163386517
 31
0.0
  0
LINE
  5
1061
330
FC6
100
AcDbEntity
  8
S-size
 62
     0
370
    -2
100
AcDbLine
 10
622.8177274859951
 20
1078.909163386517
 30
0.0
 11
622.8177274859953
 21
1388.909163386517
 31
0.0
  0
SOLID
  5
1062
330
FC6
100
AcDbEntity
  8
S-size
 62
     0
100
AcDbTrace
 10
619.4843941526617
 20
1078.909163386517
 30
0.0
 11
626.1510608193282
 21
1078.909163386517
 31
0.0
 12
622.8177274859951
 22
1058.909163386517
 32
0.0
 13
622.8177274859951
 23
1058.909163386517
 33
0.0
  0
SOLID
  5
1063
330
FC6
100
AcDbEntity
  8
S-size
 62
     0
100
AcDbTrace
 10
619.4843941526617
 20
1388.909163386517
 30
0.0
 11
626.1510608193285
 21
1388.909163386517
 31
0.0
 12
622.8177274859953
 22
1408.909163386517
 32
0.0
 13
622.8177274859953
 23
1408.909163386517
 33
0.0
  0
MTEXT
  5
1064
330
FC6
100
AcDbEntity
  8
S-size
 62
     0
100
AcDbMText
 10
592.8177274859947
 20
1233.909163386518
 30
0.0
 40
30.0
 41
0.0
 71
     5
 72
     1
  1
350
 11
0.0000000000000001
 21
1.0
 31
0.0
 73
     1
 44
1.0
1001
ACAD
1000
MTEXTBEGIN
1070
    73
1070
     1
1070
    44
1040
1.0
1070
    74
1070
     0
1000
MTEXTEND
  0
POINT
  5
1065
330
FC6
100
AcDbEntity
  8
DEFPOINTS
 62
     0
100
AcDbPoint
 10
782.8000884495281
 20
1058.909163386517
 30
0.0
  0
POINT
  5
1066
330
FC6
100
AcDbEntity
  8
DEFPOINTS
 62
     0
100
AcDbPoint
 10
782.8000884495281
 20
1408.909163386517
 30
0.0
  0
POINT
  5
1067
330
FC6
100
AcDbEntity
  8
DEFPOINTS
 62
     0
100
AcDbPoint
 10
622.8177274859953
 20
1408.909163386517
 30
0.0
  0
ENDBLK
  5
FD1
330
FC6
100
AcDbEntity
  8
0
100
AcDbBlockEnd
  0
BLOCK
  5
FFA
330
FF0
100
AcDbEntity
  8
0
100
AcDbBlockBegin
  2
*D47
 70
     1
 10
0.0
 20
0.0
 30
0.0
  3
*D47
  1

  0
LINE
  5
1068
330
FF0
100
AcDbEntity
  8
S-size
 62
     0
370
    -2
100
AcDbLine
 10
782.8000884495281
 20
1458.909163386517
 30
0.0
 11
782.8000884495281
 21
1514.410046139779
 31
0.0
  0
LINE
  5
1069
330
FF0
100
AcDbEntity
  8
S-size
 62
     0
370
    -2
100
AcDbLine
 10
1782.800088449528
 20
1458.909163386517
 30
0.0
 11
1782.800088449528
 21
1514.410046139779
 31
0.0
  0
LINE
  5
106A
330
FF0
100
AcDbEntity
  8
S-size
 62
     0
370
    -2
100
AcDbLine
 10
802.8000884495281
 20
1514.410046139779
 30
0.0
 11
1762.800088449528
 21
1514.410046139779
 31
0.0
  0
SOLID
  5
106B
330
FF0
100
AcDbEntity
  8
S-size
 62
     0
100
AcDbTrace
 10
802.8000884495281
 20
1517.743379473112
 30
0.0
 11
802.8000884495281
 21
1511.076712806446
 31
0.0
 12
782.8000884495281
 22
1514.410046139779
 32
0.0
 13
782.8000884495281
 23
1514.410046139779
 33
0.0
  0
SOLID
  5
106C
330
FF0
100
AcDbEntity
  8
S-size
 62
     0
100
AcDbTrace
 10
1762.800088449528
 20
1517.743379473112
 30
0.0
 11
1762.800088449528
 21
1511.076712806446
 31
0.0
 12
1782.800088449528
 22
1514.410046139779
 32
0.0
 13
1782.800088449528
 23
1514.410046139779
 33
0.0
  0
MTEXT
  5
106D
330
FF0
100
AcDbEntity
  8
S-size
 62
     0
100
AcDbMText
 10
1282.800088449528
 20
1544.410046139779
 30
0.0
 40
30.0
 41
0.0
 71
     5
 72
     1
  1
1000
 73
     1
 44
1.0
1001
ACAD
1000
MTEXTBEGIN
1070
    73
1070
     1
1070
    44
1040
1.0
1070
    74
1070
     0
1000
MTEXTEND
  0
POINT
  5
106E
330
FF0
100
AcDbEntity
  8
DEFPOINTS
 62
     0
100
AcDbPoint
 10
782.8000884495281
 20
1408.909163386517
 30
0.0
  0
POINT
  5
106F
330
FF0
100
AcDbEntity
  8
DEFPOINTS
 62
     0
100
AcDbPoint
 10
1782.800088449528
 20
1408.909163386517
 30
0.0
  0
POINT
  5
1070
330
FF0
100
AcDbEntity
  8
DEFPOINTS
 62
     0
100
AcDbPoint
 10
1782.800088449528
 20
1514.410046139779
 30
0.0
  0
ENDBLK
  5
FFB
330
FF0
100
AcDbEntity
  8
0
100
AcDbBlockEnd
  0
BLOCK
  5
1096
330
108C
100
AcDbEntity
  8
0
100
AcDbBlockBegin
  2
*D48
 70
     1
 10
0.0
 20
0.0
 30
0.0
  3
*D48
  1

  0
LINE
  5
10A3
330
108C
100
AcDbEntity
  8
S-size
 62
     0
370
    -2
100
AcDbLine
 10
3512.800088449529
 20
1958.909163386517
 30
0.0
 11
3512.800088449529
 21
1853.780566275766
 31
0.0
  0
LINE
  5
10A4
330
108C
100
AcDbEntity
  8
S-size
 62
     0
370
    -2
100
AcDbLine
 10
3632.800088449528
 20
1958.909163386517
 30
0.0
 11
3632.800088449528
 21
1853.780566275766
 31
0.0
  0
LINE
  5
10A5
330
108C
100
AcDbEntity
  8
S-size
 62
     0
370
    -2
100
AcDbLine
 10
3532.800088449528
 20
1853.780566275766
 30
0.0
 11
3612.800088449529
 21
1853.780566275766
 31
0.0
  0
SOLID
  5
10A6
330
108C
100
AcDbEntity
  8
S-size
 62
     0
100
AcDbTrace
 10
3532.800088449528
 20
1857.1138996091
 30
0.0
 11
3532.800088449528
 21
1850.447232942433
 31
0.0
 12
3512.800088449529
 22
1853.780566275766
 32
0.0
 13
3512.800088449529
 23
1853.780566275766
 33
0.0
  0
SOLID
  5
10A7
330
108C
100
AcDbEntity
  8
S-size
 62
     0
100
AcDbTrace
 10
3612.800088449529
 20
1857.1138996091
 30
0.0
 11
3612.800088449529
 21
1850.447232942433
 31
0.0
 12
3632.800088449528
 22
1853.780566275766
 32
0.0
 13
3632.800088449528
 23
1853.780566275766
 33
0.0
  0
MTEXT
  5
10A8
330
108C
100
AcDbEntity
  8
S-size
 62
     0
100
AcDbMText
 10
3572.800088449528
 20
1823.780566275766
 30
0.0
 40
30.0
 41
0.0
 71
     5
 72
     1
  1
120
 73
     1
 44
1.0
1001
ACAD
1000
MTEXTBEGIN
1070
    73
1070
     1
1070
    44
1040
1.0
1070
    74
1070
     0
1000
MTEXTEND
  0
POINT
  5
10A9
330
108C
100
AcDbEntity
  8
DEFPOINTS
 62
     0
100
AcDbPoint
 10
3512.800088449529
 20
2008.909163386517
 30
0.0
  0
POINT
  5
10AA
330
108C
100
AcDbEntity
  8
DEFPOINTS
 62
     0
100
AcDbPoint
 10
3632.800088449528
 20
2008.909163386517
 30
0.0
  0
POINT
  5
10AB
330
108C
100
AcDbEntity
  8
DEFPOINTS
 62
     0
100
AcDbPoint
 10
3632.800088449528
 20
1853.780566275766
 30
0.0
  0
ENDBLK
  5
1097
330
108C
100
AcDbEntity
  8
0
100
AcDbBlockEnd
  0
BLOCK
  5
10B8
330
10AE
100
AcDbEntity
  8
0
100
AcDbBlockBegin
  2
*D49
 70
     1
 10
0.0
 20
0.0
 30
0.0
  3
*D49
  1

  0
LINE
  5
10D0
330
10AE
100
AcDbEntity
  8
S-size
 62
     0
370
    -2
100
AcDbLine
 10
3682.800088449528
 20
2008.909163386517
 30
0.0
 11
3722.805993164888
 21
2008.909163386517
 31
0.0
  0
LINE
  5
10D1
330
10AE
100
AcDbEntity
  8
S-size
 62
     0
370
    -2
100
AcDbLine
 10
3682.800088449528
 20
2068.909163386518
 30
0.0
 11
3722.805993164888
 21
2068.909163386518
 31
0.0
  0
LINE
  5
10D2
330
10AE
100
AcDbEntity
  8
S-size
 62
     0
370
    -2
100
AcDbLine
 10
3722.805993164888
 20
1988.909163386517
 30
0.0
 11
3722.805993164888
 21
1968.909163386517
 31
0.0
  0
LINE
  5
10D3
330
10AE
100
AcDbEntity
  8
S-size
 62
     0
370
    -2
100
AcDbLine
 10
3722.805993164888
 20
2088.909163386517
 30
0.0
 11
3722.805993164888
 21
2108.909163386517
 31
0.0
  0
LINE
  5
10D4
330
10AE
100
AcDbEntity
  8
S-size
 62
     0
370
    -2
100
AcDbLine
 10
3722.805993164888
 20
2008.909163386517
 30
0.0
 11
3722.805993164888
 21
2068.909163386518
 31
0.0
  0
SOLID
  5
10D5
330
10AE
100
AcDbEntity
  8
S-size
 62
     0
100
AcDbTrace
 10
3719.472659831556
 20
1988.909163386517
 30
0.0
 11
3726.139326498222
 21
1988.909163386517
 31
0.0
 12
3722.805993164888
 22
2008.909163386517
 32
0.0
 13
3722.805993164888
 23
2008.909163386517
 33
0.0
  0
SOLID
  5
10D6
330
10AE
100
AcDbEntity
  8
S-size
 62
     0
100
AcDbTrace
 10
3719.472659831556
 20
2088.909163386517
 30
0.0
 11
3726.139326498222
 21
2088.909163386517
 31
0.0
 12
3722.805993164888
 22
2068.909163386518
 32
0.0
 13
3722.805993164888
 23
2068.909163386518
 33
0.0
  0
MTEXT
  5
10D7
330
10AE
100
AcDbEntity
  8
S-size
 62
     0
100
AcDbMText
 10
3752.805993164888
 20
2038.909163386518
 30
0.0
 40
30.0
 41
0.0
 71
     5
 72
     1
  1
60
 11
0.0000000000000001
 21
1.0
 31
0.0
 73
     1
 44
1.0
1001
ACAD
1000
MTEXTBEGIN
1070
    73
1070
     1
1070
    44
1040
1.0
1070
    74
1070
     0
1000
MTEXTEND
  0
POINT
  5
10D8
330
10AE
100
AcDbEntity
  8
DEFPOINTS
 62
     0
100
AcDbPoint
 10
3632.800088449528
 20
2008.909163386517
 30
0.0
  0
POINT
  5
10D9
330
10AE
100
AcDbEntity
  8
DEFPOINTS
 62
     0
100
AcDbPoint
 10
3632.800088449528
 20
2068.909163386518
 30
0.0
  0
POINT
  5
10DA
330
10AE
100
AcDbEntity
  8
DEFPOINTS
 62
     0
100
AcDbPoint
 10
3722.805993164888
 20
2068.909163386518
 30
0.0
  0
ENDBLK
  5
10B9
330
10AE
100
AcDbEntity
  8
0
100
AcDbBlockEnd
  0
BLOCK
  5
10EA
330
10DE
100
AcDbEntity
  8
0
100
AcDbBlockBegin
  2
*D50
 70
     1
 10
0.0
 20
0.0
 30
0.0
  3
*D50
  1

  0
LINE
  5
10F7
330
10DE
100
AcDbEntity
  8
S-size
 62
     0
370
    -2
100
AcDbLine
 10
2382.800088449528
 20
2008.909163386518
 30
0.0
 11
2342.794183734169
 21
2008.909163386518
 31
0.0
  0
LINE
  5
10F8
330
10DE
100
AcDbEntity
  8
S-size
 62
     0
370
    -2
100
AcDbLine
 10
2382.800088449528
 20
2068.909163386518
 30
0.0
 11
2342.794183734169
 21
2068.909163386518
 31
0.0
  0
LINE
  5
10F9
330
10DE
100
AcDbEntity
  8
S-size
 62
     0
370
    -2
100
AcDbLine
 10
2342.794183734169
 20
1988.909163386517
 30
0.0
 11
2342.794183734169
 21
1968.909163386517
 31
0.0
  0
LINE
  5
10FA
330
10DE
100
AcDbEntity
  8
S-size
 62
     0
370
    -2
100
AcDbLine
 10
2342.794183734169
 20
2088.909163386517
 30
0.0
 11
2342.794183734169
 21
2108.909163386517
 31
0.0
  0
LINE
  5
10FB
330
10DE
100
AcDbEntity
  8
S-size
 62
     0
370
    -2
100
AcDbLine
 10
2342.794183734169
 20
2008.909163386518
 30
0.0
 11
2342.794183734169
 21
2068.909163386518
 31
0.0
  0
SOLID
  5
10FC
330
10DE
100
AcDbEntity
  8
S-size
 62
     0
100
AcDbTrace
 10
2339.460850400836
 20
1988.909163386517
 30
0.0
 11
2346.127517067503
 21
1988.909163386517
 31
0.0
 12
2342.794183734169
 22
2008.909163386518
 32
0.0
 13
2342.794183734169
 23
2008.909163386518
 33
0.0
  0
SOLID
  5
10FD
330
10DE
100
AcDbEntity
  8
S-size
 62
     0
100
AcDbTrace
 10
2339.460850400836
 20
2088.909163386517
 30
0.0
 11
2346.127517067503
 21
2088.909163386517
 31
0.0
 12
2342.794183734169
 22
2068.909163386518
 32
0.0
 13
2342.794183734169
 23
2068.909163386518
 33
0.0
  0
MTEXT
  5
10FE
330
10DE
100
AcDbEntity
  8
S-size
 62
     0
100
AcDbMText
 10
2312.794183734169
 20
2038.909163386517
 30
0.0
 40
30.0
 41
0.0
 71
     5
 72
     1
  1
60
 11
0.0000000000000001
 21
1.0
 31
0.0
 73
     1
 44
1.0
1001
ACAD
1000
MTEXTBEGIN
1070
    73
1070
     1
1070
    44
1040
1.0
1070
    74
1070
     0
1000
MTEXTEND
  0
POINT
  5
10FF
330
10DE
100
AcDbEntity
  8
DEFPOINTS
 62
     0
100
AcDbPoint
 10
2432.800088449528
 20
2008.909163386518
 30
0.0
  0
POINT
  5
1100
330
10DE
100
AcDbEntity
  8
DEFPOINTS
 62
     0
100
AcDbPoint
 10
2432.800088449528
 20
2068.909163386518
 30
0.0
  0
POINT
  5
1101
330
10DE
100
AcDbEntity
  8
DEFPOINTS
 62
     0
100
AcDbPoint
 10
2342.794183734169
 20
2068.909163386518
 30
0.0
  0
ENDBLK
  5
10EB
330
10DE
100
AcDbEntity
  8
0
100
AcDbBlockEnd
  0
BLOCK
  5
18BE
330
18BA
100
AcDbEntity
  8
0
100
AcDbBlockBegin
  2
_Open30
 70
     0
 10
0.0
 20
0.0
 30
0.0
  3
_Open30
  1

  0
LINE
  5
18BB
330
18BA
100
AcDbEntity
  8
0
  6
ByBlock
 62
     0
370
    -2
100
AcDbLine
 10
-1.0
 20
0.26794919
 30
0.0
 11
0.0
 21
0.0
 31
0.0
  0
LINE
  5
18BC
330
18BA
100
AcDbEntity
  8
0
  6
ByBlock
 62
     0
370
    -2
100
AcDbLine
 10
0.0
 20
0.0
 30
0.0
 11
-1.0
 21
-0.26794919
 31
0.0
  0
LINE
  5
18BD
330
18BA
100
AcDbEntity
  8
0
  6
ByBlock
 62
     0
370
    -2
100
AcDbLine
 10
0.0
 20
0.0
 30
0.0
 11
-1.0
 21
0.0
 31
0.0
  0
ENDBLK
  5
18BF
330
18BA
100
AcDbEntity
  8
0
100
AcDbBlockEnd
  0
ENDSEC
  0
SECTION
  2
ENTITIES
  0
INSERT
  5
123
330
1F
100
AcDbEntity
  8
S-title
 62
     7
100
AcDbBlockReference
  2
AI9-BLK1
 10
3257.800088449528
 20
263.9091633865173
 30
0.0
 41
1.15200000000186
 42
1.152000000000156
 43
1.152
  0
MTEXT
  5
124
330
1F
100
AcDbEntity
  8
S-title
100
AcDbMText
 10
3332.800088449528
 20
288.9091633865173
 30
0.0
 40
60.0
 41
850.0
 71
     4
 72
     5
  1
{\fHGMaruGothicMPRO|b0|i0|c128|p50; 新生興産株式会社}
 73
     1
 44
1.0
1001
ACAD
1000
MTEXTBEGIN
1070
    73
1070
     1
1070
    44
1040
1.0
1070
    74
1070
     0
1000
MTEXTEND
1000
ACAD_MTEXT_DEFINED_HEIGHT_BEGIN
1070
    46
1040
10.0
1000
ACAD_MTEXT_DEFINED_HEIGHT_END
  0
MTEXT
  5
125
330
1F
100
AcDbEntity
  8
S-title
100
AcDbMText
 10
3332.800088449528
 20
213.9091633865173
 30
0.0
 40
60.0
 41
850.0
 71
     4
 72
     5
  1
{\fCentury Gothic|b0|i0|c0|p34;\H0.5x;                              SHINSEI KOSAN CO.,LTD}
 73
     1
 44
1.0
1001
ACAD
1000
MTEXTBEGIN
1070
    73
1070
     1
1070
    44
1040
1.0
1070
    74
1070
     0
1000
MTEXTEND
1000
ACAD_MTEXT_DEFINED_HEIGHT_BEGIN
1070
    46
1040
5.0
1000
ACAD_MTEXT_DEFINED_HEIGHT_END
  0
LWPOLYLINE
  5
126
330
1F
100
AcDbEntity
  8
DEFPOINTS
100
AcDbPolyline
 90
        4
 70
     1
 43
0.0
 10
82.80008844952817
 20
88.90916338651733
 10
4282.800088449529
 20
88.90916338651733
 10
4282.800088449529
 20
3058.909163386517
 10
82.80008844952817
 20
3058.909163386517
  0
LWPOLYLINE
  5
127
330
1F
100
AcDbEntity
  8
S-title
100
AcDbPolyline
 90
        4
 70
     1
 43
0.0
 10
4182.800088449528
 20
188.9091633865173
 10
3182.800088449528
 20
188.9091633865173
 10
3182.800088449528
 20
338.9091633865173
 10
4182.800088449528
 20
338.9091633865173
  0
LWPOLYLINE
  5
128
330
1F
100
AcDbEntity
  8
S-title
100
AcDbPolyline
 90
        4
 70
     1
 43
0.0
 10
3182.800088449528
 20
338.9091633865173
 10
3332.800088449528
 20
338.9091633865173
 10
3332.800088449528
 20
438.9091633865173
 10
3182.800088449528
 20
438.9091633865173
  0
LWPOLYLINE
  5
129
330
1F
100
AcDbEntity
  8
S-title
100
AcDbPolyline
 90
        4
 70
     1
 43
0.0
 10
3182.800088449528
 20
438.9091633865173
 10
3332.800088449528
 20
438.9091633865173
 10
3332.800088449528
 20
538.9091633865173
 10
3182.800088449528
 20
538.9091633865173
  0
LWPOLYLINE
  5
132
330
1F
100
AcDbEntity
  8
S-title
100
AcDbPolyline
 90
        4
 70
     1
 43
0.0
 10
3932.800088449528
 20
438.9091633865173
 10
4032.800088449528
 20
438.9091633865173
 10
4032.800088449528
 20
538.9091633865173
 10
3932.800088449528
 20
538.9091633865173
  0
LWPOLYLINE
  5
133
330
1F
100
AcDbEntity
  8
S-title
100
AcDbPolyline
 90
        4
 70
     1
 43
0.0
 10
3932.800088449528
 20
338.9091633865173
 10
3332.800088449528
 20
338.9091633865173
 10
3332.800088449528
 20
438.9091633865173
 10
3932.800088449528
 20
438.9091633865173
  0
LWPOLYLINE
  5
134
330
1F
100
AcDbEntity
  8
S-title
100
AcDbPolyline
 90
        4
 70
     1
 43
0.0
 10
3932.800088449528
 20
438.9091633865173
 10
3332.800088449528
 20
438.9091633865173
 10
3332.800088449528
 20
538.9091633865173
 10
3932.800088449528
 20
538.9091633865173
  0
MTEXT
  5
135
330
1F
100
AcDbEntity
  8
S-title
100
AcDbMText
 10
3982.800088449528
 20
488.9091633865173
 30
0.0
 40
25.0
 41
100.0
 71
     5
 72
     5
  1
{\fHGSeikaishotaiPRO|b0|i0|c128|p66;縮尺}
 73
     1
 44
1.0
1001
ACAD
1000
MTEXTBEGIN
1070
    73
1070
     1
1070
    44
1040
1.0
1070
    74
1070
     0
1000
MTEXTEND
  0
LWPOLYLINE
  5
136
330
1F
100
AcDbEntity
  8
S-title
100
AcDbPolyline
 90
        4
 70
     1
 43
0.0
 10
4032.800088449528
 20
438.9091633865173
 10
4182.800088449528
 20
438.9091633865173
 10
4182.800088449528
 20
538.9091633865173
 10
4032.800088449528
 20
538.9091633865173
  0
MTEXT
  5
137
330
1F
100
AcDbEntity
  8
S-title
100
AcDbMText
 10
4107.800088449528
 20
488.9091633865173
 30
0.0
 40
25.0
 41
150.0
 71
     5
 72
     5
  1
1：10
 73
     1
 44
1.0
1001
ACAD
1000
MTEXTBEGIN
1070
    73
1070
     1
1070
    44
1040
1.0
1070
    74
1070
     0
1000
MTEXTEND
  0
MTEXT
  5
138
330
1F
100
AcDbEntity
  8
S-title
100
AcDbMText
 10
3257.800088449528
 20
488.9091633865173
 30
0.0
 40
25.0
 41
150.0
 71
     5
 72
     5
  1
{\fHGSeikaishotaiPRO|b0|i0|c128|p66;製品名}
 73
     1
 44
1.0
1001
ACAD
1000
MTEXTBEGIN
1070
    73
1070
     1
1070
    44
1040
1.0
1070
    74
1070
     0
1000
MTEXTEND
  0
MTEXT
  5
139
330
1F
100
AcDbEntity
  8
S-title
100
AcDbMText
 10
3257.800088449528
 20
388.9091633865173
 30
0.0
 40
25.0
 41
150.0
 71
     5
 72
     5
  1
{\fHGSeikaishotaiPRO|b0|i0|c128|p66;規格}
 73
     1
 44
1.0
1001
ACAD
1000
MTEXTBEGIN
1070
    73
1070
     1
1070
    44
1040
1.0
1070
    74
1070
     0
1000
MTEXTEND
  0
LWPOLYLINE
  5
163
330
1F
100
AcDbEntity
  8
S-title
100
AcDbPolyline
 90
        4
 70
     1
 43
0.0
 10
282.8000884495282
 20
188.9091633865173
 10
4182.800088449528
 20
188.9091633865173
 10
4182.800088449528
 20
2958.909163386517
 10
282.8000884495282
 20
2958.909163386517
  0
LWPOLYLINE
  5
5FE
102
{ACAD_REACTORS
330
638
102
}
330
1F
100
AcDbEntity
  8
S-main
100
AcDbPolyline
 90
        4
 70
     1
 43
0.0
 10
782.8000884495281
 20
2008.909163386517
 10
1782.800088449528
 20
2008.909163386517
 10
1782.800088449528
 20
2458.909163386517
 10
782.8000884495281
 20
2458.909163386517
  0
LWPOLYLINE
  5
607
102
{ACAD_REACTORS
330
762
102
}
330
1F
100
AcDbEntity
  8
S-cut
100
AcDbPolyline
 90
        4
 70
     1
 43
0.0
 10
782.8000884495281
 20
2008.909163386517
 10
832.8000884495281
 20
2008.909163386517
 10
832.8000884495281
 20
2068.909163386518
 10
782.8000884495281
 20
2068.909163386518
  0
LWPOLYLINE
  5
608
102
{ACAD_REACTORS
330
790
102
}
330
1F
100
AcDbEntity
  8
S-main
100
AcDbPolyline
 90
        4
 70
     1
 43
0.0
 10
1782.800088449528
 20
2008.909163386517
 10
1812.800088449528
 20
2008.909163386517
 10
1812.800088449528
 20
2068.909163386518
 10
1782.800088449528
 20
2068.909163386518
  0
LINE
  5
610
102
{ACAD_REACTORS
330
72B
102
}
330
1F
100
AcDbEntity
  8
S-cut
100
AcDbLine
 10
782.8000884495281
 20
2068.909163386518
 30
0.0
 11
1782.800088449528
 21
2068.909163386518
 31
0.0
  0
LINE
  5
61D
102
{ACAD_REACTORS
330
698
330
6D1
330
CE6
102
}
330
1F
100
AcDbEntity
  8
S-cut
100
AcDbLine
 10
982.8000884495279
 20
2068.909163386518
 30
0.0
 11
1007.800088449528
 21
2008.909163386517
 31
0.0
  0
LINE
  5
61E
102
{ACAD_REACTORS
330
698
330
6D1
102
}
330
1F
100
AcDbEntity
  8
S-cut
100
AcDbLine
 10
1157.800088449528
 20
2008.909163386517
 30
0.0
 11
1182.800088449528
 21
2068.909163386518
 31
0.0
  0
LINE
  5
61F
330
1F
100
AcDbEntity
  8
S-cut
100
AcDbLine
 10
1382.800088449528
 20
2068.909163386518
 30
0.0
 11
1407.800088449528
 21
2008.909163386517
 31
0.0
  0
LINE
  5
620
330
1F
100
AcDbEntity
  8
S-cut
100
AcDbLine
 10
1557.800088449528
 20
2008.909163386517
 30
0.0
 11
1582.800088449528
 21
2068.909163386518
 31
0.0
  0
DIMENSION
  5
621
102
{ACAD_XDICTIONARY
360
62E
102
}
102
{ACAD_REACTORS
330
638
102
}
330
1F
100
AcDbEntity
  8
S-size
100
AcDbDimension
  2
*D3
 10
1782.800088449528
 20
2566.627148033786
 30
0.0
 11
1282.800088449528
 21
2596.627148033787
 31
0.0
 70
    32
 71
     5
 42
1000.0
  3
ISO-25
100
AcDbAlignedDimension
 13
782.8000884495281
 23
2458.909163386517
 33
0.0
 14
1782.800088449528
 24
2458.909163386517
 34
0.0
100
AcDbRotatedDimension
1001
ACAD
1000
DSTYLE
1002
{
1070
   271
1070
     1
1070
   147
1040
15.0
1070
   140
1040
30.0
1070
    42
1040
50.0
1070
    44
1040
0.0
1070
    41
1040
20.0
1002
}
  0
DIMENSION
  5
681
102
{ACAD_XDICTIONARY
360
68E
102
}
102
{ACAD_REACTORS
330
698
102
}
330
1F
100
AcDbEntity
  8
S-size
100
AcDbDimension
  2
*D4
 10
1182.800088449528
 20
2167.927564740236
 30
0.0
 11
1082.800088449528
 21
2197.927564740236
 31
0.0
 70
    32
 71
     5
 42
200.0
  3
ISO-25
100
AcDbAlignedDimension
 13
982.8000884495279
 23
2068.909163386518
 33
0.0
 14
1182.800088449528
 24
2068.909163386518
 34
0.0
100
AcDbRotatedDimension
1001
ACAD
1000
DSTYLE
1002
{
1070
    41
1040
20.0
1070
    42
1040
50.0
1070
    44
1040
0.0
1070
   140
1040
30.0
1070
   147
1040
15.0
1070
   271
1070
     1
1002
}
  0
DIMENSION
  5
6A2
330
1F
100
AcDbEntity
  8
S-size
100
AcDbDimension
  2
*D5
 10
1582.800088449528
 20
2167.927564740236
 30
0.0
 11
1482.800088449528
 21
2197.927564740236
 31
0.0
 70
    32
 71
     5
 42
200.0
  3
ISO-25
100
AcDbAlignedDimension
 13
1382.800088449528
 23
2068.909163386518
 33
0.0
 14
1582.800088449528
 24
2068.909163386518
 34
0.0
100
AcDbRotatedDimension
1001
ACAD
1000
DSTYLE
1002
{
1070
    41
1040
20.0
1070
    42
1040
50.0
1070
    44
1040
0.0
1070
   140
1040
30.0
1070
   147
1040
15.0
1070
   271
1070
     1
1002
}
  0
DIMENSION
  5
6BA
102
{ACAD_XDICTIONARY
360
6C7
102
}
102
{ACAD_REACTORS
330
6D1
102
}
330
1F
100
AcDbEntity
  8
S-size
100
AcDbDimension
  2
*D6
 10
1157.800088449528
 20
1916.549679921673
 30
0.0
 11
1082.800088449528
 21
1886.549679921673
 31
0.0
 70
    32
 71
     5
 42
150.0
  3
ISO-25
100
AcDbAlignedDimension
 13
1007.800088449528
 23
2008.909163386517
 33
0.0
 14
1157.800088449528
 24
2008.909163386517
 34
0.0
100
AcDbRotatedDimension
1001
ACAD
1000
DSTYLE
1002
{
1070
    41
1040
20.0
1070
    42
1040
50.0
1070
    44
1040
0.0
1070
   140
1040
30.0
1070
   147
1040
15.0
1070
   271
1070
     1
1002
}
  0
DIMENSION
  5
6DB
330
1F
100
AcDbEntity
  8
S-size
100
AcDbDimension
  2
*D7
 10
1557.800088449528
 20
1916.549679921673
 30
0.0
 11
1482.800088449528
 21
1886.549679921673
 31
0.0
 70
    32
 71
     5
 42
150.0
  3
ISO-25
100
AcDbAlignedDimension
 13
1407.800088449528
 23
2008.909163386517
 33
0.0
 14
1557.800088449528
 24
2008.909163386517
 34
0.0
100
AcDbRotatedDimension
1001
ACAD
1000
DSTYLE
1002
{
1070
    41
1040
20.0
1070
    42
1040
50.0
1070
    44
1040
0.0
1070
   140
1040
30.0
1070
   147
1040
15.0
1070
   271
1070
     1
1002
}
  0
DIMENSION
  5
6F3
330
1F
100
AcDbEntity
  8
S-size
100
AcDbDimension
  2
*D8
 10
622.8177274859953
 20
2458.909163386517
 30
0.0
 11
592.8177274859947
 21
2233.909163386517
 31
0.0
 70
    32
 71
     5
 42
449.9999999999994
  3
ISO-25
100
AcDbAlignedDimension
 13
782.8000884495281
 23
2008.909163386517
 33
0.0
 14
782.8000884495281
 24
2458.909163386517
 34
0.0
 50
90.0
100
AcDbRotatedDimension
1001
ACAD
1000
DSTYLE
1002
{
1070
    41
1040
20.0
1070
    42
1040
50.0
1070
    44
1040
0.0
1070
   140
1040
30.0
1070
   147
1040
15.0
1070
   271
1070
     1
1002
}
  0
DIMENSION
  5
714
102
{ACAD_XDICTIONARY
360
721
102
}
102
{ACAD_REACTORS
330
72B
102
}
330
1F
100
AcDbEntity
  8
S-size
100
AcDbDimension
  2
*D9
 10
686.5918333242592
 20
2068.909163386518
 30
0.0
 11
686.5918333242589
 21
2038.909163386517
 31
0.0
 70
   160
 71
     5
 42
59.99999999999977
  3
ISO-25
100
AcDbAlignedDimension
 13
782.8000884495281
 23
2008.909163386517
 33
0.0
 14
782.8000884495281
 24
2068.909163386518
 34
0.0
 50
90.0
100
AcDbRotatedDimension
1001
ACAD
1000
DSTYLE
1002
{
1070
    41
1040
20.0
1070
    42
1040
50.0
1070
    44
1040
0.0
1070
   140
1040
30.0
1070
   147
1040
15.0
1070
   271
1070
     1
1002
}
  0
DIMENSION
  5
74B
102
{ACAD_XDICTIONARY
360
758
102
}
102
{ACAD_REACTORS
330
762
102
}
330
1F
100
AcDbEntity
  8
S-size
100
AcDbDimension
  2
*D10
 10
832.8000884495281
 20
1916.549679921673
 30
0.0
 11
807.8000884495281
 21
1916.549679921673
 31
0.0
 70
   160
 71
     5
 42
50.0
  3
ISO-25
100
AcDbAlignedDimension
 13
782.8000884495281
 23
2008.909163386517
 33
0.0
 14
832.8000884495281
 24
2008.909163386517
 34
0.0
100
AcDbRotatedDimension
1001
ACAD
1000
DSTYLE
1002
{
1070
    41
1040
20.0
1070
    42
1040
50.0
1070
    44
1040
0.0
1070
   140
1040
30.0
1070
   147
1040
15.0
1070
   271
1070
     1
1002
}
  0
DIMENSION
  5
779
102
{ACAD_XDICTIONARY
360
786
102
}
102
{ACAD_REACTORS
330
790
102
}
330
1F
100
AcDbEntity
  8
S-size
100
AcDbDimension
  2
*D11
 10
1812.800088449528
 20
1916.549679921673
 30
0.0
 11
1797.800088449528
 21
1916.549679921673
 31
0.0
 70
   160
 71
     5
 42
30.0
  3
ISO-25
100
AcDbAlignedDimension
 13
1782.800088449528
 23
2008.909163386517
 33
0.0
 14
1812.800088449528
 24
2008.909163386517
 34
0.0
100
AcDbRotatedDimension
1001
ACAD
1000
DSTYLE
1002
{
1070
    41
1040
20.0
1070
    42
1040
50.0
1070
    44
1040
0.0
1070
   140
1040
30.0
1070
   147
1040
15.0
1070
   271
1070
     1
1002
}
  0
LINE
  5
7AA
330
1F
100
AcDbEntity
  8
S-main
100
AcDbLine
 10
2737.800088449529
 20
2458.909163386517
 30
0.0
 11
2782.800088449528
 21
2008.909163386517
 31
0.0
  0
LINE
  5
7AB
102
{ACAD_REACTORS
330
9A5
102
}
330
1F
100
AcDbEntity
  8
S-main
100
AcDbLine
 10
2782.800088449528
 20
2008.909163386517
 30
0.0
 11
2432.800088449528
 21
2008.909163386517
 31
0.0
  0
LINE
  5
7AC
102
{ACAD_REACTORS
330
914
330
9A5
102
}
330
1F
100
AcDbEntity
  8
S-main
100
AcDbLine
 10
2432.800088449528
 20
2008.909163386517
 30
0.0
 11
2432.800088449528
 21
2068.909163386518
 31
0.0
  0
LINE
  5
7AD
330
1F
100
AcDbEntity
  8
S-main
100
AcDbLine
 10
2432.800088449528
 20
2068.909163386518
 30
0.0
 11
2647.800088449529
 21
2068.909163386518
 31
0.0
  0
LINE
  5
7AF
330
1F
100
AcDbEntity
  8
S-main
100
AcDbLine
 10
2737.800088449529
 20
2458.909163386517
 30
0.0
 11
2697.800088449529
 21
2458.909163386517
 31
0.0
  0
LINE
  5
7B0
102
{ACAD_REACTORS
330
BFE
330
C53
102
}
330
1F
100
AcDbEntity
  8
S-main
100
AcDbLine
 10
2697.800088449529
 20
2458.909163386517
 30
0.0
 11
2697.800088449529
 21
2118.909163386518
 31
0.0
  0
LINE
  5
7B2
330
1F
100
AcDbEntity
  8
S-main
100
AcDbLine
 10
2697.800088449529
 20
2118.909163386518
 30
0.0
 11
2647.800088449529
 21
2068.909163386518
 31
0.0
  0
LINE
  5
7B6
330
1F
100
AcDbEntity
  8
S-cut
100
AcDbLine
 10
2647.800088449529
 20
2068.909163386518
 30
0.0
 11
2622.800088449528
 21
2008.909163386517
 31
0.0
  0
LINE
  5
7B7
330
1F
100
AcDbEntity
  8
S-cut
100
AcDbLine
 10
2547.800088449529
 20
2068.909163386518
 30
0.0
 11
2572.800088449529
 21
2008.909163386517
 31
0.0
  0
LINE
  5
7B8
102
{ACAD_REACTORS
330
935
330
94D
102
}
330
1F
100
AcDbEntity
  8
S-main
100
AcDbLine
 10
2647.800088449529
 20
2068.909163386518
 30
0.0
 11
2647.800088449529
 21
2008.909163386517
 31
0.0
  0
LINE
  5
7B9
102
{ACAD_REACTORS
330
914
330
935
102
}
330
1F
100
AcDbEntity
  8
S-main
100
AcDbLine
 10
2547.800088449529
 20
2068.909163386518
 30
0.0
 11
2547.800088449529
 21
2008.909163386517
 31
0.0
  0
LWPOLYLINE
  5
7BD
102
{ACAD_REACTORS
330
B85
330
BB3
102
}
330
1F
100
AcDbEntity
  8
S-main
100
AcDbPolyline
 90
        4
 70
     1
 43
0.0
 10
2740.628128942113
 20
2254.755935091079
 10
2715.752199186861
 20
2252.268342115554
 10
2731.672794230222
 20
2093.062391681955
 10
2756.548723985472
 20
2095.54998465748
  0
LWPOLYLINE
  5
7BE
102
{ACAD_REACTORS
330
B57
330
BD4
102
}
330
1F
100
AcDbEntity
  8
S-main
100
AcDbPolyline
 90
        4
 70
     1
 43
0.0
 10
2765.504058697361
 20
2081.370704696988
 10
2725.702571088962
 20
2077.390555936149
 10
2706.796864474972
 20
2266.447622076046
 10
2746.598352083371
 20
2270.427770836886
  0
LINE
  5
7BF
330
1F
100
AcDbEntity
  8
S-center
100
AcDbLine
 10
2746.598352083372
 20
2069.430258414469
 30
0.0
 11
2725.702571088962
 21
2278.388068358566
 31
0.0
  0
LINE
  5
7C0
330
1F
100
AcDbEntity
  8
S-center
100
AcDbLine
 10
2706.299345879867
 20
2170.924051815887
 30
0.0
 11
2766.001577292466
 21
2176.894274957148
 31
0.0
  0
LINE
  5
7CE
330
1F
100
AcDbEntity
  8
S-main
100
AcDbLine
 10
3327.800088449528
 20
2458.909163386517
 30
0.0
 11
3282.800088449528
 21
2008.909163386517
 31
0.0
  0
LINE
  5
7CF
102
{ACAD_REACTORS
330
80C
330
8DD
102
}
330
1F
100
AcDbEntity
  8
S-main
100
AcDbLine
 10
3282.800088449528
 20
2008.909163386517
 30
0.0
 11
3632.800088449528
 21
2008.909163386517
 31
0.0
  0
LINE
  5
7D0
102
{ACAD_REACTORS
330
80C
330
10A2
330
10C4
102
}
330
1F
100
AcDbEntity
  8
S-main
100
AcDbLine
 10
3632.800088449528
 20
2008.909163386517
 30
0.0
 11
3632.800088449528
 21
2068.909163386518
 31
0.0
  0
LINE
  5
7D1
102
{ACAD_REACTORS
330
10C4
102
}
330
1F
100
AcDbEntity
  8
S-main
100
AcDbLine
 10
3632.800088449528
 20
2068.909163386518
 30
0.0
 11
3417.800088449528
 21
2068.909163386518
 31
0.0
  0
LINE
  5
7D2
330
1F
100
AcDbEntity
  8
S-main
100
AcDbLine
 10
3327.800088449528
 20
2458.909163386517
 30
0.0
 11
3367.800088449528
 21
2458.909163386517
 31
0.0
  0
LINE
  5
7D3
102
{ACAD_REACTORS
330
C7D
102
}
330
1F
100
AcDbEntity
  8
S-main
100
AcDbLine
 10
3367.800088449528
 20
2458.909163386517
 30
0.0
 11
3367.800088449528
 21
2118.909163386518
 31
0.0
  0
LINE
  5
7D4
102
{ACAD_REACTORS
330
9F4
102
}
330
1F
100
AcDbEntity
  8
S-main
100
AcDbLine
 10
3367.800088449528
 20
2118.909163386518
 30
0.0
 11
3417.800088449528
 21
2068.909163386518
 31
0.0
  0
LINE
  5
7D5
330
1F
100
AcDbEntity
  8
S-cut
100
AcDbLine
 10
3417.800088449528
 20
2068.909163386518
 30
0.0
 11
3442.800088449529
 21
2008.909163386517
 31
0.0
  0
LINE
  5
7D6
330
1F
100
AcDbEntity
  8
S-cut
100
AcDbLine
 10
3517.800088449528
 20
2068.909163386518
 30
0.0
 11
3492.800088449528
 21
2008.909163386517
 31
0.0
  0
LINE
  5
7D7
102
{ACAD_REACTORS
330
889
330
8C5
102
}
330
1F
100
AcDbEntity
  8
S-main
100
AcDbLine
 10
3422.800088449528
 20
2068.909163386518
 30
0.0
 11
3422.800088449528
 21
2008.909163386517
 31
0.0
  0
LWPOLYLINE
  5
7ED
102
{ACAD_REACTORS
330
A59
330
AFF
102
}
330
1F
100
AcDbEntity
  8
S-main
100
AcDbPolyline
 90
        4
 70
     1
 43
0.0
 10
3310.046490103794
 20
2105.500356559581
 10
3334.922419859044
 20
2103.012763584056
 10
3348.852940521985
 20
2242.317970213454
 10
3323.977010766736
 20
2244.805563188979
  0
LWPOLYLINE
  5
7EF
102
{ACAD_REACTORS
330
ADE
330
B29
102
}
330
1F
100
AcDbEntity
  8
S-main
100
AcDbPolyline
 90
        4
 70
     1
 43
0.0
 10
3318.255546923026
 20
2112.216857593498
 10
3328.205918825125
 20
2111.221820403288
 10
3340.643883702753
 20
2235.601469179536
 10
3330.693511800653
 20
2236.596506369747
  0
LINE
  5
7F0
330
1F
100
AcDbEntity
  8
S-center
100
AcDbLine
 10
3321.489417791208
 20
2094.306188169719
 30
0.0
 11
3337.41001283457
 21
2253.512138603316
 31
0.0
  0
LINE
  5
7F1
330
1F
100
AcDbEntity
  8
S-center
100
AcDbLine
 10
3307.061378533165
 20
2176.147997064491
 30
0.0
 11
3351.838052092614
 21
2171.670329708545
 31
0.0
  0
LINE
  5
7F4
102
{ACAD_REACTORS
330
889
330
10A2
102
}
330
1F
100
AcDbEntity
  8
S-main
100
AcDbLine
 10
3512.800088449529
 20
2068.909163386518
 30
0.0
 11
3512.800088449529
 21
2008.909163386517
 31
0.0
  0
DIMENSION
  5
7F5
102
{ACAD_XDICTIONARY
360
802
102
}
102
{ACAD_REACTORS
330
80C
102
}
330
1F
100
AcDbEntity
  8
S-size
100
AcDbDimension
  2
*D12
 10
3632.800088449528
 20
1796.217744945777
 30
0.0
 11
3457.800088449528
 21
1766.217744945777
 31
0.0
 70
    32
 71
     5
 42
350.0
  3
ISO-25
100
AcDbAlignedDimension
 13
3282.800088449528
 23
2008.909163386517
 33
0.0
 14
3632.800088449528
 24
2008.909163386517
 34
0.0
100
AcDbRotatedDimension
1001
ACAD
1000
DSTYLE
1002
{
1070
    41
1040
20.0
1070
    42
1040
50.0
1070
    44
1040
0.0
1070
   140
1040
30.0
1070
   147
1040
15.0
1070
   271
1070
     1
1002
}
  0
DIMENSION
  5
872
102
{ACAD_XDICTIONARY
360
87F
102
}
102
{ACAD_REACTORS
330
889
102
}
330
1F
100
AcDbEntity
  8
S-size
100
AcDbDimension
  2
*D13
 10
3512.800088449529
 20
1853.780566275766
 30
0.0
 11
3467.800088449529
 21
1823.780566275766
 31
0.0
 70
    32
 71
     5
 42
90.0
  3
ISO-25
100
AcDbAlignedDimension
 13
3422.800088449528
 23
2008.909163386517
 33
0.0
 14
3512.800088449529
 24
2008.909163386517
 34
0.0
100
AcDbRotatedDimension
1001
ACAD
1000
DSTYLE
1002
{
1070
    41
1040
20.0
1070
    42
1040
50.0
1070
    44
1040
0.0
1070
   140
1040
30.0
1070
   147
1040
15.0
1070
   271
1070
     1
1002
}
  0
DIMENSION
  5
8AE
102
{ACAD_XDICTIONARY
360
8BB
102
}
102
{ACAD_REACTORS
330
8C5
102
}
330
1F
100
AcDbEntity
  8
S-size
100
AcDbDimension
  2
*D14
 10
3367.800088449528
 20
1853.780566275766
 30
0.0
 11
3395.300088449528
 21
1853.780566275766
 31
0.0
 70
   160
 71
     5
 42
55.0
  3
ISO-25
100
AcDbAlignedDimension
 13
3422.800088449528
 23
2008.909163386517
 33
0.0
 14
3367.800088449528
 24
2008.909163386517
 34
0.0
100
AcDbRotatedDimension
1001
ACAD
1000
DSTYLE
1002
{
1070
    41
1040
20.0
1070
    42
1040
50.0
1070
    44
1040
0.0
1070
   140
1040
30.0
1070
   147
1040
15.0
1070
   271
1070
     1
1002
}
  0
DIMENSION
  5
8C6
102
{ACAD_XDICTIONARY
360
8D3
102
}
102
{ACAD_REACTORS
330
8DD
102
}
330
1F
100
AcDbEntity
  8
S-size
100
AcDbDimension
  2
*D15
 10
3282.800088449528
 20
1853.780566275766
 30
0.0
 11
3325.300088449528
 21
1823.780566275766
 31
0.0
 70
    32
 71
     5
 42
85.0
  3
ISO-25
100
AcDbAlignedDimension
 13
3367.800088449528
 23
2008.909163386517
 33
0.0
 14
3282.800088449528
 24
2008.909163386517
 34
0.0
100
AcDbRotatedDimension
1001
ACAD
1000
DSTYLE
1002
{
1070
    41
1040
20.0
1070
    42
1040
50.0
1070
    44
1040
0.0
1070
   140
1040
30.0
1070
   147
1040
15.0
1070
   271
1070
     1
1002
}
  0
DIMENSION
  5
8FD
102
{ACAD_XDICTIONARY
360
90A
102
}
102
{ACAD_REACTORS
330
914
102
}
330
1F
100
AcDbEntity
  8
S-size
100
AcDbDimension
  2
*D16
 10
2547.800088449529
 20
1853.780566275766
 30
0.0
 11
2490.300088449528
 21
1823.780566275766
 31
0.0
 70
    32
 71
     5
 42
115.0
  3
ISO-25
100
AcDbAlignedDimension
 13
2432.800088449528
 23
2008.909163386517
 33
0.0
 14
2547.800088449529
 24
2008.909163386517
 34
0.0
100
AcDbRotatedDimension
1001
ACAD
1000
DSTYLE
1002
{
1070
    41
1040
20.0
1070
    42
1040
50.0
1070
    44
1040
0.0
1070
   140
1040
30.0
1070
   147
1040
15.0
1070
   271
1070
     1
1002
}
  0
DIMENSION
  5
91E
102
{ACAD_XDICTIONARY
360
92B
102
}
102
{ACAD_REACTORS
330
935
102
}
330
1F
100
AcDbEntity
  8
S-size
100
AcDbDimension
  2
*D17
 10
2647.800088449529
 20
1853.780566275766
 30
0.0
 11
2597.800088449528
 21
1823.780566275766
 31
0.0
 70
    32
 71
     5
 42
100.0
  3
ISO-25
100
AcDbAlignedDimension
 13
2547.800088449529
 23
2008.909163386517
 33
0.0
 14
2647.800088449529
 24
2008.909163386517
 34
0.0
100
AcDbRotatedDimension
1001
ACAD
1000
DSTYLE
1002
{
1070
    41
1040
20.0
1070
    42
1040
50.0
1070
    44
1040
0.0
1070
   140
1040
30.0
1070
   147
1040
15.0
1070
   271
1070
     1
1002
}
  0
DIMENSION
  5
936
102
{ACAD_XDICTIONARY
360
943
102
}
102
{ACAD_REACTORS
330
94D
102
}
330
1F
100
AcDbEntity
  8
S-size
100
AcDbDimension
  2
*D18
 10
2697.800088449529
 20
1853.780566275766
 30
0.0
 11
2672.800088449529
 21
1853.780566275766
 31
0.0
 70
   160
 71
     5
 42
50.0
  3
ISO-25
100
AcDbAlignedDimension
 13
2647.800088449529
 23
2008.909163386517
 33
0.0
 14
2697.800088449529
 24
2008.909163386517
 34
0.0
100
AcDbRotatedDimension
1001
ACAD
1000
DSTYLE
1002
{
1070
    41
1040
20.0
1070
    42
1040
50.0
1070
    44
1040
0.0
1070
   140
1040
30.0
1070
   147
1040
15.0
1070
   271
1070
     1
1002
}
  0
DIMENSION
  5
94E
330
1F
100
AcDbEntity
  8
S-size
100
AcDbDimension
  2
*D19
 10
2782.800088449528
 20
1853.780566275766
 30
0.0
 11
2740.300088449529
 21
1823.780566275766
 31
0.0
 70
    32
 71
     5
 42
84.99999999999909
  3
ISO-25
100
AcDbAlignedDimension
 13
2697.800088449529
 23
2008.909163386517
 33
0.0
 14
2782.800088449528
 24
2008.284163386517
 34
0.0
100
AcDbRotatedDimension
1001
ACAD
1000
DSTYLE
1002
{
1070
    41
1040
20.0
1070
    42
1040
50.0
1070
    44
1040
0.0
1070
   140
1040
30.0
1070
   147
1040
15.0
1070
   271
1070
     1
1002
}
  0
DIMENSION
  5
98E
102
{ACAD_XDICTIONARY
360
99B
102
}
102
{ACAD_REACTORS
330
9A5
102
}
330
1F
100
AcDbEntity
  8
S-size
100
AcDbDimension
  2
*D20
 10
2782.800088449528
 20
1796.217744945777
 30
0.0
 11
2607.800088449528
 21
1766.217744945777
 31
0.0
 70
    32
 71
     5
 42
350.0
  3
ISO-25
100
AcDbAlignedDimension
 13
2432.800088449528
 23
2008.909163386517
 33
0.0
 14
2782.800088449528
 24
2008.909163386517
 34
0.0
100
AcDbRotatedDimension
1001
ACAD
1000
DSTYLE
1002
{
1070
    41
1040
20.0
1070
    42
1040
50.0
1070
    44
1040
0.0
1070
   140
1040
30.0
1070
   147
1040
15.0
1070
   271
1070
     1
1002
}
  0
DIMENSION
  5
9DD
102
{ACAD_XDICTIONARY
360
9EA
102
}
102
{ACAD_REACTORS
330
9F4
102
}
330
1F
100
AcDbEntity
  8
S-size
100
AcDbDimension
  2
*D21
 10
3417.800088449528
 20
2129.878789043786
 30
0.0
 11
3392.800088449528
 21
2129.878789043786
 31
0.0
 70
   160
 71
     5
 42
50.0
  3
ISO-25
100
AcDbAlignedDimension
 13
3367.800088449528
 23
2118.909163386518
 33
0.0
 14
3417.800088449528
 24
2068.909163386518
 34
0.0
100
AcDbRotatedDimension
1001
ACAD
1000
DSTYLE
1002
{
1070
    41
1040
15.0
1070
    42
1040
15.0
1070
    44
1040
0.0
1070
   140
1040
20.0
1070
   147
1040
10.0
1070
   271
1070
     1
1002
}
  0
DIMENSION
  5
A42
102
{ACAD_XDICTIONARY
360
A4F
102
}
102
{ACAD_REACTORS
330
A59
102
}
330
1F
100
AcDbEntity
  8
S-size
100
AcDbDimension
  2
*D22
 10
3354.421577704882
 20
2298.004342042418
 30
0.0
 11
3341.983612827257
 21
2299.248138530181
 31
0.0
 70
   161
 71
     5
 42
25.0
  3
ISO-25
100
AcDbAlignedDimension
 13
3323.977010766736
 23
2244.805563188979
 33
0.0
 14
3348.852940521985
 24
2242.317970213454
 34
0.0
1001
ACAD
1000
DSTYLE
1002
{
1070
    41
1040
15.0
1070
    42
1040
15.0
1070
    44
1040
0.0
1070
   140
1040
20.0
1070
   147
1040
10.0
1070
   271
1070
     1
1002
}
  0
DIMENSION
  5
AC7
102
{ACAD_XDICTIONARY
360
AD4
102
}
102
{ACAD_REACTORS
330
ADE
102
}
330
1F
100
AcDbEntity
  8
S-size
100
AcDbDimension
  2
*D23
 10
3258.865286428303
 20
2243.779328906983
 30
0.0
 11
3232.745560185291
 21
2183.579578899279
 31
0.0
 70
    33
 71
     5
 42
124.9999999999995
  3
ISO-25
100
AcDbAlignedDimension
 13
3318.255546923026
 23
2112.216857593498
 33
0.0
 14
3330.693511800653
 24
2236.596506369747
 34
0.0
1001
ACAD
1000
DSTYLE
1002
{
1070
    41
1040
15.0
1070
    42
1040
15.0
1070
    44
1040
0.0
1070
   140
1040
20.0
1070
   147
1040
10.0
1070
   271
1070
     1
1002
}
  0
DIMENSION
  5
AE8
102
{ACAD_XDICTIONARY
360
AF5
102
}
102
{ACAD_REACTORS
330
AFF
102
}
330
1F
100
AcDbEntity
  8
S-size
100
AcDbDimension
  2
*D24
 10
3204.657022575649
 20
2116.039303312396
 30
0.0
 11
3191.72153910292
 21
2187.681981007515
 31
0.0
 70
    33
 71
     5
 42
140.0
  3
ISO-25
100
AcDbAlignedDimension
 13
3323.977010766736
 23
2244.805563188979
 33
0.0
 14
3310.046490103796
 24
2105.500356559581
 34
0.0
1001
ACAD
1000
DSTYLE
1002
{
1070
    41
1040
15.0
1070
    42
1040
15.0
1070
    44
1040
0.0
1070
   140
1040
20.0
1070
   147
1040
10.0
1070
   271
1070
     1
1002
}
  0
DIMENSION
  5
B12
102
{ACAD_XDICTIONARY
360
B1F
102
}
102
{ACAD_REACTORS
330
B29
102
}
330
1F
100
AcDbEntity
  8
S-size
100
AcDbDimension
  2
*D25
 10
3322.007015997185
 20
2049.232792123872
 30
0.0
 11
3317.031830046135
 21
2049.730310718977
 31
0.0
 70
   161
 71
     5
 42
10.0
  3
ISO-25
100
AcDbAlignedDimension
 13
3318.255546923026
 23
2112.216857593498
 33
0.0
 14
3328.205918825125
 24
2111.221820403288
 34
0.0
1001
ACAD
1000
DSTYLE
1002
{
1070
    41
1040
15.0
1070
    42
1040
15.0
1070
    44
1040
0.0
1070
   140
1040
20.0
1070
   147
1040
10.0
1070
   271
1070
     1
1002
}
  0
DIMENSION
  5
B40
102
{ACAD_XDICTIONARY
360
B4D
102
}
102
{ACAD_REACTORS
330
B57
102
}
330
1F
100
AcDbEntity
  8
S-size
100
AcDbDimension
  2
*D26
 10
2739.688232117075
 20
2339.528970499863
 30
0.0
 11
2719.787488312875
 21
2337.538896119443
 31
0.0
 70
   161
 71
     5
 42
40.0
  3
ISO-25
100
AcDbAlignedDimension
 13
2706.796864474972
 23
2266.447622076046
 33
0.0
 14
2746.598352083371
 24
2270.427770836886
 34
0.0
1001
ACAD
1000
DSTYLE
1002
{
1070
    41
1040
15.0
1070
    42
1040
15.0
1070
    44
1040
0.0
1070
   140
1040
20.0
1070
   147
1040
10.0
1070
   271
1070
     1
1002
}
  0
DIMENSION
  5
B6E
102
{ACAD_XDICTIONARY
360
B7B
102
}
102
{ACAD_REACTORS
330
B85
102
}
330
1F
100
AcDbEntity
  8
S-size
100
AcDbDimension
  2
*D27
 10
2763.923109809597
 20
2021.80612641623
 30
0.0
 11
2751.485144931972
 21
2020.562329928468
 31
0.0
 70
   161
 71
     5
 42
25.00000000000046
  3
ISO-25
100
AcDbAlignedDimension
 13
2731.672794230222
 23
2093.062391681955
 33
0.0
 14
2756.548723985472
 24
2095.54998465748
 34
0.0
1001
ACAD
1000
DSTYLE
1002
{
1070
    41
1040
15.0
1070
    42
1040
15.0
1070
    44
1040
0.0
1070
   140
1040
20.0
1070
   147
1040
10.0
1070
   271
1070
     1
1002
}
  0
DIMENSION
  5
B9C
102
{ACAD_XDICTIONARY
360
BA9
102
}
102
{ACAD_REACTORS
330
BB3
102
}
330
1F
100
AcDbEntity
  8
S-size
100
AcDbDimension
  2
*D28
 10
2827.030592051971
 20
2102.598171464131
 30
0.0
 11
2838.971038334489
 21
2184.19122106135
 31
0.0
 70
    33
 71
     5
 42
160.0
  3
ISO-25
100
AcDbAlignedDimension
 13
2740.628128942113
 23
2254.755935091079
 33
0.0
 14
2756.548723985472
 24
2095.54998465748
 34
0.0
1001
ACAD
1000
DSTYLE
1002
{
1070
    41
1040
15.0
1070
    42
1040
15.0
1070
    44
1040
0.0
1070
   140
1040
20.0
1070
   147
1040
10.0
1070
   271
1070
     1
1002
}
  0
DIMENSION
  5
BBD
102
{ACAD_XDICTIONARY
360
BCA
102
}
102
{ACAD_REACTORS
330
BD4
102
}
330
1F
100
AcDbEntity
  8
S-size
100
AcDbDimension
  2
*D29
 10
2871.500804817389
 20
2091.970379308991
 30
0.0
 11
2881.948695314593
 21
2188.48898675936
 31
0.0
 70
    33
 71
     5
 42
190.0000000000002
  3
ISO-25
100
AcDbAlignedDimension
 13
2746.598352083371
 23
2270.427770836886
 33
0.0
 14
2765.504058697361
 24
2081.370704696988
 34
0.0
1001
ACAD
1000
DSTYLE
1002
{
1070
    41
1040
15.0
1070
    42
1040
15.0
1070
    44
1040
0.0
1070
   140
1040
20.0
1070
   147
1040
10.0
1070
   271
1070
     1
1002
}
  0
DIMENSION
  5
BE7
102
{ACAD_XDICTIONARY
360
BF4
102
}
102
{ACAD_REACTORS
330
BFE
102
}
330
1F
100
AcDbEntity
  8
S-size
100
AcDbDimension
  2
*D30
 10
2737.800088449529
 20
2541.276325463244
 30
0.0
 11
2717.800088449529
 21
2541.276325463244
 31
0.0
 70
   160
 71
     5
 42
40.0
  3
ISO-25
100
AcDbAlignedDimension
 13
2697.800088449529
 23
2458.909163386517
 33
0.0
 14
2737.800088449529
 24
2458.909163386517
 34
0.0
100
AcDbRotatedDimension
1001
ACAD
1000
DSTYLE
1002
{
1070
    41
1040
20.0
1070
    42
1040
50.0
1070
    44
1040
0.0
1070
   140
1040
30.0
1070
   147
1040
15.0
1070
   271
1070
     1
1002
}
  0
DIMENSION
  5
C20
330
1F
100
AcDbEntity
  8
S-size
100
AcDbDimension
  2
*D31
 10
3367.800088449528
 20
2541.276325463244
 30
0.0
 11
3347.800088449528
 21
2541.276325463244
 31
0.0
 70
   160
 71
     5
 42
40.0
  3
ISO-25
100
AcDbAlignedDimension
 13
3327.800088449528
 23
2458.909163386517
 33
0.0
 14
3367.800088449528
 24
2458.909163386517
 34
0.0
100
AcDbRotatedDimension
1001
ACAD
1000
DSTYLE
1002
{
1070
    41
1040
20.0
1070
    42
1040
50.0
1070
    44
1040
0.0
1070
   140
1040
30.0
1070
   147
1040
15.0
1070
   271
1070
     1
1002
}
  0
DIMENSION
  5
C3C
102
{ACAD_XDICTIONARY
360
C49
102
}
102
{ACAD_REACTORS
330
C53
102
}
330
1F
100
AcDbEntity
  8
S-size
100
AcDbDimension
  2
*D32
 10
2610.822297482373
 20
2173.909163386517
 30
0.0
 11
2580.822297482372
 21
2316.409163386518
 31
0.0
 70
    32
 71
     5
 42
285.0
  3
ISO-25
100
AcDbAlignedDimension
 13
2697.800088449529
 23
2458.909163386517
 33
0.0
 14
2697.800088449529
 24
2173.909163386517
 34
0.0
 50
90.0
100
AcDbRotatedDimension
1001
ACAD
1000
DSTYLE
1002
{
1070
    41
1040
20.0
1070
    42
1040
50.0
1070
    44
1040
0.0
1070
   140
1040
30.0
1070
   147
1040
15.0
1070
   271
1070
     1
1002
}
  0
DIMENSION
  5
C66
102
{ACAD_XDICTIONARY
360
C73
102
}
102
{ACAD_REACTORS
330
C7D
102
}
330
1F
100
AcDbEntity
  8
S-size
100
AcDbDimension
  2
*D33
 10
3484.238406993107
 20
2173.909163386517
 30
0.0
 11
3514.238406993106
 21
2316.409163386518
 31
0.0
 70
    32
 71
     5
 42
285.0
  3
ISO-25
100
AcDbAlignedDimension
 13
3367.800088449528
 23
2458.909163386517
 33
0.0
 14
3367.800088449528
 24
2173.909163386517
 34
0.0
 50
90.0
100
AcDbRotatedDimension
1001
ACAD
1000
DSTYLE
1002
{
1070
    41
1040
20.0
1070
    42
1040
50.0
1070
    44
1040
0.0
1070
   140
1040
30.0
1070
   147
1040
15.0
1070
   271
1070
     1
1002
}
  0
DIMENSION
  5
CCF
102
{ACAD_XDICTIONARY
360
CDC
102
}
102
{ACAD_REACTORS
330
CE6
102
}
330
1F
100
AcDbEntity
  8
S-size
100
AcDbDimension
  2
*D34
 10
982.8000884495279
 20
2167.927564740236
 30
0.0
 11
882.8000884495281
 21
2197.927564740236
 31
0.0
 70
    32
 71
     5
 42
200.0
  3
ISO-25
100
AcDbAlignedDimension
 13
782.8000884495281
 23
2068.909163386518
 33
0.0
 14
982.8000884495279
 24
2068.909163386518
 34
0.0
100
AcDbRotatedDimension
1001
ACAD
1000
DSTYLE
1002
{
1070
    41
1040
20.0
1070
    42
1040
50.0
1070
    44
1040
0.0
1070
   140
1040
30.0
1070
   147
1040
15.0
1070
   271
1070
     1
1002
}
  0
DIMENSION
  5
CF0
330
1F
100
AcDbEntity
  8
S-size
100
AcDbDimension
  2
*D35
 10
1382.800088449528
 20
2167.927564740236
 30
0.0
 11
1282.800088449528
 21
2197.927564740236
 31
0.0
 70
    32
 71
     5
 42
200.0
  3
ISO-25
100
AcDbAlignedDimension
 13
1182.800088449528
 23
2068.909163386518
 33
0.0
 14
1382.800088449528
 24
2068.909163386518
 34
0.0
100
AcDbRotatedDimension
1001
ACAD
1000
DSTYLE
1002
{
1070
    41
1040
20.0
1070
    42
1040
50.0
1070
    44
1040
0.0
1070
   140
1040
30.0
1070
   147
1040
15.0
1070
   271
1070
     1
1002
}
  0
DIMENSION
  5
CFF
330
1F
100
AcDbEntity
  8
S-size
100
AcDbDimension
  2
*D36
 10
1782.800088449528
 20
2167.927564740236
 30
0.0
 11
1682.800088449528
 21
2197.927564740236
 31
0.0
 70
    32
 71
     5
 42
200.0
  3
ISO-25
100
AcDbAlignedDimension
 13
1582.800088449528
 23
2068.909163386518
 33
0.0
 14
1782.800088449528
 24
2068.909163386518
 34
0.0
100
AcDbRotatedDimension
1001
ACAD
1000
DSTYLE
1002
{
1070
    41
1040
20.0
1070
    42
1040
50.0
1070
    44
1040
0.0
1070
   140
1040
30.0
1070
   147
1040
15.0
1070
   271
1070
     1
1002
}
  0
LINE
  5
D20
102
{ACAD_REACTORS
330
D3A
102
}
330
1F
100
AcDbEntity
  8
S-cut
100
AcDbLine
 10
782.8000884495281
 20
2271.671567324649
 30
0.0
 11
807.8000884495281
 21
2255.999731578842
 31
0.0
  0
LINE
  5
D21
330
1F
100
AcDbEntity
  8
S-cut
100
AcDbLine
 10
782.8000884495281
 20
2078.634352423912
 30
0.0
 11
807.8000884495281
 21
2094.306188169719
 31
0.0
  0
LINE
  5
D22
102
{ACAD_REACTORS
330
D3A
102
}
330
1F
100
AcDbEntity
  8
S-cut
100
AcDbLine
 10
807.8000884495281
 20
2094.306188169719
 30
0.0
 11
807.8000884495281
 21
2255.999731578842
 31
0.0
  0
DIMENSION
  5
D23
102
{ACAD_XDICTIONARY
360
D30
102
}
102
{ACAD_REACTORS
330
D3A
102
}
330
1F
100
AcDbEntity
  8
S-size
100
AcDbDimension
  2
*D37
 10
807.8000884495281
 20
2335.428618043777
 30
0.0
 11
795.3000884495281
 21
2335.428618043777
 31
0.0
 70
   160
 71
     5
 42
25.0
  3
ISO-25
100
AcDbAlignedDimension
 13
782.8000884495281
 23
2271.671567324649
 33
0.0
 14
807.8000884495281
 24
2255.999731578842
 34
0.0
100
AcDbRotatedDimension
1001
ACAD
1000
DSTYLE
1002
{
1070
    41
1040
15.0
1070
    42
1040
15.0
1070
    44
1040
0.0
1070
   140
1040
20.0
1070
   147
1040
10.0
1070
   271
1070
     1
1002
}
  0
LINE
  5
D66
330
1F
100
AcDbEntity
  8
S-main
100
AcDbLine
 10
1782.800088449528
 20
2244.805563188979
 30
0.0
 11
1802.800088449528
 21
2236.596506369747
 31
0.0
  0
LINE
  5
D67
330
1F
100
AcDbEntity
  8
S-main
100
AcDbLine
 10
1802.800088449528
 20
2236.596506369747
 30
0.0
 11
1802.800088449528
 21
2111.221820403288
 31
0.0
  0
LINE
  5
D68
330
1F
100
AcDbEntity
  8
S-main
100
AcDbLine
 10
1802.800088449528
 20
2111.221820403288
 30
0.0
 11
1782.800088449528
 21
2103.012763584056
 31
0.0
  0
LINE
  5
D6C
330
1F
100
AcDbEntity
  8
S-main
100
AcDbLine
 10
782.8000884495281
 20
1103.909163386517
 30
0.0
 11
1782.800088449528
 21
1103.909163386517
 31
0.0
  0
LINE
  5
D6D
330
1F
100
AcDbEntity
  8
S-main
100
AcDbLine
 10
782.8000884495281
 20
1143.909163386517
 30
0.0
 11
1782.800088449528
 21
1143.909163386517
 31
0.0
  0
LINE
  5
D6E
330
1F
100
AcDbEntity
  8
S-main
100
AcDbLine
 10
782.8000884495281
 20
1193.909163386517
 30
0.0
 11
1782.800088449528
 21
1193.909163386517
 31
0.0
  0
ARC
  5
D71
330
1F
100
AcDbEntity
  8
S-main
100
AcDbCircle
 10
782.8000884495281
 20
1243.909163386517
 30
0.0
 40
49.99999999999976
100
AcDbArc
 50
270.0
 51
90.0
  0
LINE
  5
D72
330
1F
100
AcDbEntity
  8
S-main
100
AcDbLine
 10
782.8000884495281
 20
1193.909163386517
 30
0.0
 11
782.8000884495281
 21
1058.909163386517
 31
0.0
  0
LINE
  5
D73
330
1F
100
AcDbEntity
  8
S-main
100
AcDbLine
 10
782.8000884495281
 20
1058.909163386517
 30
0.0
 11
1782.800088449528
 21
1058.909163386517
 31
0.0
  0
LINE
  5
D74
330
1F
100
AcDbEntity
  8
S-main
100
AcDbLine
 10
1782.800088449528
 20
1058.909163386517
 30
0.0
 11
1782.800088449528
 21
1198.909163386517
 31
0.0
  0
LINE
  5
D75
102
{ACAD_REACTORS
330
F75
102
}
330
1F
100
AcDbEntity
  8
S-main
100
AcDbLine
 10
782.8000884495281
 20
1293.909163386517
 30
0.0
 11
782.8000884495281
 21
1408.909163386517
 31
0.0
  0
LINE
  5
D76
102
{ACAD_REACTORS
330
FDC
330
1006
102
}
330
1F
100
AcDbEntity
  8
S-main
100
AcDbLine
 10
782.8000884495281
 20
1408.909163386517
 30
0.0
 11
1782.800088449528
 21
1408.909163386517
 31
0.0
  0
LINE
  5
D7A
102
{ACAD_REACTORS
330
1006
102
}
330
1F
100
AcDbEntity
  8
S-main
100
AcDbLine
 10
1782.800088449528
 20
1288.909163386517
 30
0.0
 11
1782.800088449528
 21
1408.909163386517
 31
0.0
  0
LINE
  5
D8E
330
1F
100
AcDbEntity
  8
S-main
100
AcDbLine
 10
1782.800088449528
 20
1124.962015458974
 30
0.0
 11
1802.800088449528
 21
1116.752958639742
 31
0.0
  0
LINE
  5
D8F
330
1F
100
AcDbEntity
  8
S-main
100
AcDbLine
 10
1802.800088449528
 20
1106.703083018621
 30
0.0
 11
1782.800088449528
 21
1099.986581984703
 31
0.0
  0
LINE
  5
D90
330
1F
100
AcDbEntity
  8
S-main
100
AcDbLine
 10
1802.800088449528
 20
1116.752958639742
 30
0.0
 11
1802.800088449528
 21
1106.703083018621
 31
0.0
  0
LINE
  5
D92
330
1F
100
AcDbEntity
  8
S-main
100
AcDbLine
 10
1782.800088449528
 20
1086.155565040783
 30
0.0
 11
1802.800088449528
 21
1094.364621860015
 31
0.0
  0
LINE
  5
D93
330
1F
100
AcDbEntity
  8
S-main
100
AcDbLine
 10
1802.800088449528
 20
1094.364621860015
 30
0.0
 11
1802.800088449528
 21
1106.703083018621
 31
0.0
  0
LINE
  5
DA4
330
1F
100
AcDbEntity
  8
S-cut
100
AcDbLine
 10
782.8000884495281
 20
1134.912387361074
 30
0.0
 11
807.8000884495281
 21
1125.957052649184
 31
0.0
  0
LINE
  5
DA5
330
1F
100
AcDbEntity
  8
S-cut
100
AcDbLine
 10
807.8000884495281
 20
1125.957052649184
 30
0.0
 11
807.8000884495281
 21
1085.160527850574
 31
0.0
  0
LINE
  5
DA6
330
1F
100
AcDbEntity
  8
S-cut
100
AcDbLine
 10
807.8000884495281
 20
1101.081122893934
 30
0.0
 11
782.8000884495281
 21
1095.110899752675
 31
0.0
  0
LINE
  5
DA9
330
1F
100
AcDbEntity
  8
S-cut
100
AcDbLine
 10
807.8000884495281
 20
1085.160527850574
 30
0.0
 11
782.8000884495281
 21
1076.205193138685
 31
0.0
  0
LWPOLYLINE
  5
DAF
330
1F
100
AcDbEntity
  8
S-main
100
AcDbPolyline
 90
        4
 70
     1
 43
0.0
 10
982.8000884495279
 20
1193.909163386517
 10
1182.800088449528
 20
1193.909163386517
 10
1182.800088449528
 20
1293.909163386517
 10
982.8000884495279
 20
1293.909163386517
  0
LWPOLYLINE
  5
DB1
330
1F
100
AcDbEntity
  8
S-main
100
AcDbPolyline
 90
        4
 70
     1
 43
0.0
 10
1007.800088449528
 20
1218.909163386517
 10
1157.800088449528
 20
1218.909163386517
 10
1157.800088449528
 20
1268.909163386517
 10
1007.800088449528
 20
1268.909163386517
  0
LINE
  5
DB2
102
{ACAD_REACTORS
330
E5D
102
}
330
1F
100
AcDbEntity
  8
S-main
100
AcDbLine
 10
982.8000884495279
 20
1293.909163386517
 30
0.0
 11
1007.800088449528
 21
1268.909163386517
 31
0.0
  0
LINE
  5
DB3
330
1F
100
AcDbEntity
  8
S-main
100
AcDbLine
 10
982.8000884495279
 20
1193.909163386517
 30
0.0
 11
1007.800088449528
 21
1218.909163386517
 31
0.0
  0
LINE
  5
DB4
102
{ACAD_REACTORS
330
DD3
330
E5D
102
}
330
1F
100
AcDbEntity
  8
S-main
100
AcDbLine
 10
1182.800088449528
 20
1293.909163386517
 30
0.0
 11
1157.800088449528
 21
1268.909163386517
 31
0.0
  0
LINE
  5
DB5
102
{ACAD_REACTORS
330
DD3
102
}
330
1F
100
AcDbEntity
  8
S-main
100
AcDbLine
 10
1157.800088449528
 20
1218.909163386517
 30
0.0
 11
1182.800088449528
 21
1193.909163386517
 31
0.0
  0
LWPOLYLINE
  5
DB6
330
1F
100
AcDbEntity
  8
S-main
100
AcDbPolyline
 90
        4
 70
     1
 43
0.0
 10
1382.800088449528
 20
1193.909163386517
 10
1582.800088449528
 20
1193.909163386517
 10
1582.800088449528
 20
1293.909163386517
 10
1382.800088449528
 20
1293.909163386517
  0
LWPOLYLINE
  5
DB7
330
1F
100
AcDbEntity
  8
S-main
100
AcDbPolyline
 90
        4
 70
     1
 43
0.0
 10
1407.800088449528
 20
1218.909163386517
 10
1557.800088449528
 20
1218.909163386517
 10
1557.800088449528
 20
1268.909163386517
 10
1407.800088449528
 20
1268.909163386517
  0
LINE
  5
DB8
102
{ACAD_REACTORS
330
E90
102
}
330
1F
100
AcDbEntity
  8
S-main
100
AcDbLine
 10
1382.800088449528
 20
1293.909163386517
 30
0.0
 11
1407.800088449528
 21
1268.909163386517
 31
0.0
  0
LINE
  5
DB9
330
1F
100
AcDbEntity
  8
S-main
100
AcDbLine
 10
1382.800088449528
 20
1193.909163386517
 30
0.0
 11
1407.800088449528
 21
1218.909163386517
 31
0.0
  0
LINE
  5
DBA
102
{ACAD_REACTORS
330
E90
102
}
330
1F
100
AcDbEntity
  8
S-main
100
AcDbLine
 10
1582.800088449528
 20
1293.909163386517
 30
0.0
 11
1557.800088449528
 21
1268.909163386517
 31
0.0
  0
LINE
  5
DBB
330
1F
100
AcDbEntity
  8
S-main
100
AcDbLine
 10
1557.800088449528
 20
1218.909163386517
 30
0.0
 11
1582.800088449528
 21
1193.909163386517
 31
0.0
  0
DIMENSION
  5
DBC
102
{ACAD_XDICTIONARY
360
DC9
102
}
102
{ACAD_REACTORS
330
DD3
102
}
330
1F
100
AcDbEntity
  8
S-size
100
AcDbDimension
  2
*D38
 10
1228.324082997014
 20
1293.909163386517
 30
0.0
 11
1248.324082997014
 21
1243.909163386518
 31
0.0
 70
    32
 71
     5
 42
100.0
  3
ISO-25
100
AcDbAlignedDimension
 13
1182.800088449528
 23
1193.909163386517
 33
0.0
 14
1182.800088449528
 24
1293.909163386517
 34
0.0
 50
90.0
100
AcDbRotatedDimension
1001
ACAD
1000
DSTYLE
1002
{
1070
    41
1040
15.0
1070
    42
1040
15.0
1070
    44
1040
0.0
1070
   140
1040
20.0
1070
   147
1040
10.0
1070
   271
1070
     1
1002
}
  0
DIMENSION
  5
DF5
330
1F
100
AcDbEntity
  8
S-size
100
AcDbDimension
  2
*D39
 10
1474.68387990203
 20
1268.909163386517
 30
0.0
 11
1474.683879902029
 21
1243.909163386518
 31
0.0
 70
   160
 71
     5
 42
50.0
  3
ISO-25
100
AcDbAlignedDimension
 13
1407.800088449528
 23
1218.909163386517
 33
0.0
 14
1407.800088449528
 24
1268.909163386517
 34
0.0
 50
90.0
100
AcDbRotatedDimension
1001
ACAD
1000
DSTYLE
1002
{
1070
    41
1040
15.0
1070
    42
1040
15.0
1070
    44
1040
0.0
1070
   140
1040
20.0
1070
   147
1040
10.0
1070
   271
1070
     1
1002
}
  0
DIMENSION
  5
E46
102
{ACAD_XDICTIONARY
360
E53
102
}
102
{ACAD_REACTORS
330
E5D
102
}
330
1F
100
AcDbEntity
  8
S-size
100
AcDbDimension
  2
*D40
 10
1182.800088449528
 20
1335.361991543701
 30
0.0
 11
1082.800088449528
 21
1355.361991543701
 31
0.0
 70
    32
 71
     5
 42
200.0
  3
ISO-25
100
AcDbAlignedDimension
 13
982.8000884495279
 23
1293.909163386517
 33
0.0
 14
1182.800088449528
 24
1293.909163386517
 34
0.0
100
AcDbRotatedDimension
1001
ACAD
1000
DSTYLE
1002
{
1070
    41
1040
15.0
1070
    42
1040
15.0
1070
    44
1040
0.0
1070
   140
1040
20.0
1070
   147
1040
10.0
1070
   271
1070
     1
1002
}
  0
DIMENSION
  5
E79
102
{ACAD_XDICTIONARY
360
E86
102
}
102
{ACAD_REACTORS
330
E90
102
}
330
1F
100
AcDbEntity
  8
S-size
100
AcDbDimension
  2
*D41
 10
1557.800088449528
 20
1335.361991543701
 30
0.0
 11
1482.800088449528
 21
1355.361991543701
 31
0.0
 70
    32
 71
     5
 42
150.0
  3
ISO-25
100
AcDbAlignedDimension
 13
1407.800088449528
 23
1268.909163386517
 33
0.0
 14
1557.800088449528
 24
1268.909163386517
 34
0.0
100
AcDbRotatedDimension
1001
ACAD
1000
DSTYLE
1002
{
1070
    41
1040
15.0
1070
    42
1040
15.0
1070
    44
1040
0.0
1070
   140
1040
20.0
1070
   147
1040
10.0
1070
   271
1070
     1
1002
}
  0
DIMENSION
  5
EAC
330
1F
100
AcDbEntity
  8
S-size
100
AcDbDimension
  2
*D42
 10
1736.047119513869
 20
1288.909163386517
 30
0.0
 11
1716.047119513868
 21
1243.909163386518
 31
0.0
 70
    32
 71
     5
 42
90.0
  3
ISO-25
100
AcDbAlignedDimension
 13
1782.800088449528
 23
1198.909163386517
 33
0.0
 14
1782.800088449528
 24
1288.909163386517
 34
0.0
 50
90.0
100
AcDbRotatedDimension
1001
ACAD
1000
DSTYLE
1002
{
1070
    41
1040
15.0
1070
    42
1040
15.0
1070
    44
1040
0.0
1070
   140
1040
20.0
1070
   147
1040
10.0
1070
   271
1070
     1
1002
}
  0
ARC
  5
F1B
330
1F
100
AcDbEntity
  8
S-main
100
AcDbCircle
 10
1764.050088449529
 20
1243.909163386517
 30
0.0
 40
48.74999999999985
100
AcDbArc
 50
292.6198649480401
 51
67.38013505196073
  0
DIMENSION
  5
F1C
330
1F
100
AcDbEntity
  8
S-size
100
AcDbDimension
  2
*D43
 10
1812.800088449528
 20
1320.174960454803
 30
0.0
 11
1797.800088449528
 21
1320.174960454803
 31
0.0
 70
   160
 71
     5
 42
30.0
  3
ISO-25
100
AcDbAlignedDimension
 13
1782.800088449528
 23
1288.909163386517
 33
0.0
 14
1812.800088449528
 24
1243.909163386517
 34
0.0
100
AcDbRotatedDimension
1001
ACAD
1000
DSTYLE
1002
{
1070
    41
1040
15.0
1070
    42
1040
15.0
1070
    44
1040
0.0
1070
   140
1040
20.0
1070
   147
1040
10.0
1070
   271
1070
     1
1002
}
  0
DIMENSION
  5
F5E
102
{ACAD_XDICTIONARY
360
F6B
102
}
102
{ACAD_REACTORS
330
F75
102
}
330
1F
100
AcDbEntity
  8
S-size
100
AcDbDimension
  2
*D44
 10
736.6400973684336
 20
1293.909163386517
 30
0.0
 11
716.6400973684337
 21
1243.909163386517
 31
0.0
 70
    32
 71
     5
 42
99.99999999999957
  3
ISO-25
100
AcDbAlignedDimension
 13
782.8000884495279
 23
1193.909163386517
 33
0.0
 14
782.8000884495281
 24
1293.909163386517
 34
0.0
 50
90.0
100
AcDbRotatedDimension
1001
ACAD
1000
DSTYLE
1002
{
1070
    41
1040
15.0
1070
    42
1040
15.0
1070
    44
1040
0.0
1070
   140
1040
20.0
1070
   147
1040
10.0
1070
   271
1070
     1
1002
}
  0
DIMENSION
  5
F7F
330
1F
100
AcDbEntity
  8
S-size
100
AcDbDimension
  2
*D45
 10
832.8000884495278
 20
1329.227193212226
 30
0.0
 11
807.8000884495278
 21
1329.227193212226
 31
0.0
 70
   160
 71
     5
 42
49.99999999999977
  3
ISO-25
100
AcDbAlignedDimension
 13
782.8000884495279
 23
1293.909163386517
 33
0.0
 14
832.8000884495278
 24
1243.909163386517
 34
0.0
100
AcDbRotatedDimension
1001
ACAD
1000
DSTYLE
1002
{
1070
    41
1040
15.0
1070
    42
1040
15.0
1070
    44
1040
0.0
1070
   140
1040
20.0
1070
   147
1040
10.0
1070
   271
1070
     1
1002
}
  0
DIMENSION
  5
FC5
102
{ACAD_XDICTIONARY
360
FD2
102
}
102
{ACAD_REACTORS
330
FDC
102
}
330
1F
100
AcDbEntity
  8
S-size
100
AcDbDimension
  2
*D46
 10
622.8177274859953
 20
1408.909163386517
 30
0.0
 11
592.8177274859947
 21
1233.909163386518
 31
0.0
 70
    32
 71
     5
 42
349.9999999999998
  3
ISO-25
100
AcDbAlignedDimension
 13
782.8000884495281
 23
1058.909163386517
 33
0.0
 14
782.8000884495281
 24
1408.909163386517
 34
0.0
 50
90.0
100
AcDbRotatedDimension
1001
ACAD
1000
DSTYLE
1002
{
1070
    41
1040
20.0
1070
    42
1040
50.0
1070
    44
1040
0.0
1070
   140
1040
30.0
1070
   147
1040
15.0
1070
   271
1070
     1
1002
}
  0
DIMENSION
  5
FEF
102
{ACAD_XDICTIONARY
360
FFC
102
}
102
{ACAD_REACTORS
330
1006
102
}
330
1F
100
AcDbEntity
  8
S-size
100
AcDbDimension
  2
*D47
 10
1782.800088449528
 20
1514.410046139779
 30
0.0
 11
1282.800088449528
 21
1544.410046139779
 31
0.0
 70
    32
 71
     5
 42
1000.0
  3
ISO-25
100
AcDbAlignedDimension
 13
782.8000884495281
 23
1408.909163386517
 33
0.0
 14
1782.800088449528
 24
1408.909163386517
 34
0.0
100
AcDbRotatedDimension
1001
ACAD
1000
DSTYLE
1002
{
1070
    41
1040
20.0
1070
    42
1040
50.0
1070
    44
1040
0.0
1070
   140
1040
30.0
1070
   147
1040
15.0
1070
   271
1070
     1
1002
}
  0
MTEXT
  5
107C
330
1F
100
AcDbEntity
  8
S-size
100
AcDbMText
 10
1282.800088449528
 20
1658.909163386517
 30
0.0
 40
30.0
 41
1000.0
 71
     5
 72
     5
  1
平面図
 73
     1
 44
1.0
1001
ACAD
1000
MTEXTBEGIN
1070
    73
1070
     1
1070
    44
1040
1.0
1070
    74
1070
     0
1000
MTEXTEND
1000
ACAD_MTEXT_DEFINED_HEIGHT_BEGIN
1070
    46
1040
100.0
1000
ACAD_MTEXT_DEFINED_HEIGHT_END
  0
MTEXT
  5
107D
330
1F
100
AcDbEntity
  8
S-size
100
AcDbMText
 10
1282.800088449528
 20
2708.909163386517
 30
0.0
 40
30.0
 41
1000.0
 71
     5
 72
     5
  1
正面図
 73
     1
 44
1.0
1001
ACAD
1000
MTEXTBEGIN
1070
    73
1070
     1
1070
    44
1040
1.0
1070
    74
1070
     0
1000
MTEXTEND
1000
ACAD_MTEXT_DEFINED_HEIGHT_BEGIN
1070
    46
1040
100.0
1000
ACAD_MTEXT_DEFINED_HEIGHT_END
  0
MTEXT
  5
1080
330
1F
100
AcDbEntity
  8
S-size
100
AcDbMText
 10
3032.800088449528
 20
2708.909163386517
 30
0.0
 40
30.0
 41
1000.0
 71
     5
 72
     5
  1
側面図
 73
     1
 44
1.0
1001
ACAD
1000
MTEXTBEGIN
1070
    73
1070
     1
1070
    44
1040
1.0
1070
    74
1070
     0
1000
MTEXTEND
1000
ACAD_MTEXT_DEFINED_HEIGHT_BEGIN
1070
    46
1040
100.0
1000
ACAD_MTEXT_DEFINED_HEIGHT_END
  0
MTEXT
  5
1084
330
1F
100
AcDbEntity
  8
S-title
100
AcDbMText
 10
3632.800088449528
 20
488.9091633865173
 30
0.0
 40
30.0
 41
600.0
 71
     5
 72
     5
  1
Ｌ形ノリ止
 73
     1
 44
1.0
1001
ACAD
1000
MTEXTBEGIN
1070
    73
1070
     1
1070
    44
1040
1.0
1070
    74
1070
     0
1000
MTEXTEND
  0
MTEXT
  5
1086
330
1F
100
AcDbEntity
  8
S-title
100
AcDbMText
 10
3632.800088449528
 20
388.9091633865173
 30
0.0
 40
30.0
 41
600.0
 71
     5
 72
     5
  1
45
 73
     1
 44
1.0
1001
ACAD
1000
MTEXTBEGIN
1070
    73
1070
     1
1070
    44
1040
1.0
1070
    74
1070
     0
1000
MTEXTEND
  0
MTEXT
  5
1089
330
1F
100
AcDbEntity
  8
S-title
100
AcDbMText
 10
3557.800088449528
 20
688.9091633865172
 30
0.0
 40
30.0
 41
750.0
 71
     5
 72
     5
  1
参考質量105kg
 73
     1
 44
1.0
1001
ACAD
1000
MTEXTBEGIN
1070
    73
1070
     1
1070
    44
1040
1.0
1070
    74
1070
     0
1000
MTEXTEND
1000
ACAD_MTEXT_DEFINED_HEIGHT_BEGIN
1070
    46
1040
100.0
1000
ACAD_MTEXT_DEFINED_HEIGHT_END
  0
DIMENSION
  5
108B
102
{ACAD_XDICTIONARY
360
1098
102
}
102
{ACAD_REACTORS
330
10A2
102
}
330
1F
100
AcDbEntity
  8
S-size
100
AcDbDimension
  2
*D48
 10
3632.800088449528
 20
1853.780566275766
 30
0.0
 11
3572.800088449528
 21
1823.780566275766
 31
0.0
 70
    32
 71
     5
 42
120.0
  3
ISO-25
100
AcDbAlignedDimension
 13
3512.800088449529
 23
2008.909163386517
 33
0.0
 14
3632.800088449528
 24
2008.909163386517
 34
0.0
100
AcDbRotatedDimension
1001
ACAD
1000
DSTYLE
1002
{
1070
    41
1040
20.0
1070
    42
1040
50.0
1070
    44
1040
0.0
1070
   140
1040
30.0
1070
   147
1040
15.0
1070
   271
1070
     1
1002
}
  0
DIMENSION
  5
10AD
102
{ACAD_XDICTIONARY
360
10BA
102
}
102
{ACAD_REACTORS
330
10C4
102
}
330
1F
100
AcDbEntity
  8
S-size
100
AcDbDimension
  2
*D49
 10
3722.805993164888
 20
2068.909163386518
 30
0.0
 11
3722.805993164888
 21
2038.909163386518
 31
0.0
 70
   160
 71
     5
 42
60.0
  3
ISO-25
100
AcDbAlignedDimension
 13
3632.800088449528
 23
2008.909163386517
 33
0.0
 14
3632.800088449528
 24
2068.909163386518
 34
0.0
 50
90.0
100
AcDbRotatedDimension
1001
ACAD
1000
DSTYLE
1002
{
1070
    41
1040
20.0
1070
    42
1040
50.0
1070
    44
1040
0.0
1070
   140
1040
30.0
1070
   147
1040
15.0
1070
   271
1070
     1
1002
}
  0
DIMENSION
  5
10DB
330
1F
100
AcDbEntity
  8
S-size
100
AcDbDimension
  2
*D50
 10
2342.794183734169
 20
2068.909163386518
 30
0.0
 11
2342.794183734169
 21
2038.909163386517
 31
0.0
 70
   160
 71
     5
 42
59.99999999999977
  3
ISO-25
100
AcDbAlignedDimension
 13
2432.800088449528
 23
2008.909163386518
 33
0.0
 14
2432.800088449528
 24
2068.909163386518
 34
0.0
 50
90.0
100
AcDbRotatedDimension
1001
ACAD
1000
DSTYLE
1002
{
1070
    41
1040
20.0
1070
    42
1040
50.0
1070
    44
1040
0.0
1070
   140
1040
30.0
1070
   147
1040
15.0
1070
   271
1070
     1
1002
}
  0
ENDSEC
  0
SECTION
  2
OBJECTS
  0
DICTIONARY
  5
C
330
0
100
AcDbDictionary
281
     1
  3
ACAD_2007HEADERVARS_RT
350
1F63
  3
ACAD_CIP_PREVIOUS_PRODUCT_INFO
350
1F32
  3
ACAD_COLOR
350
6B
  3
ACAD_GROUP
350
D
  3
ACAD_LAYOUT
350
1A
  3
ACAD_MATERIAL
350
6A
  3
ACAD_MLEADERSTYLE
350
1F2B
  3
ACAD_MLINESTYLE
350
17
  3
ACAD_PLOTSETTINGS
350
19
  3
ACAD_PLOTSTYLENAME
350
E
  3
ACAD_SCALELIST
350
1F19
  3
ACAD_TABLESTYLE
350
7E
  3
ACAD_VISUALSTYLE
350
1F00
  3
ACDB_RECOMPOSE_DATA
350
1F61
  3
AcDbVariableDictionary
350
5E
  3
DWGPROPS
350
1F62
  0
DICTIONARY
  5
101
330
2
100
AcDbDictionary
280
     1
281
     1
  3
ACAD_LAYERFILTERS
360
5E4
  3
ACAD_LAYERSTATES
360
102
  3
ACLYDICTIONARY
360
5E3
  0
DICTIONARY
  5
616
330
1F
100
AcDbDictionary
280
     1
281
     1
  3
ACAD_SORTENTS
360
617
  0
DICTIONARY
  5
62E
330
621
100
AcDbDictionary
280
     1
281
     1
  3
ACAD_DIMASSOC
360
638
  0
DICTIONARY
  5
68E
330
681
100
AcDbDictionary
280
     1
281
     1
  3
ACAD_DIMASSOC
360
698
  0
DICTIONARY
  5
6C7
330
6BA
100
AcDbDictionary
280
     1
281
     1
  3
ACAD_DIMASSOC
360
6D1
  0
DICTIONARY
  5
721
330
714
100
AcDbDictionary
280
     1
281
     1
  3
ACAD_DIMASSOC
360
72B
  0
DICTIONARY
  5
758
330
74B
100
AcDbDictionary
280
     1
281
     1
  3
ACAD_DIMASSOC
360
762
  0
DICTIONARY
  5
786
330
779
100
AcDbDictionary
280
     1
281
     1
  3
ACAD_DIMASSOC
360
790
  0
DICTIONARY
  5
802
330
7F5
100
AcDbDictionary
280
     1
281
     1
  3
ACAD_DIMASSOC
360
80C
  0
DICTIONARY
  5
87F
330
872
100
AcDbDictionary
280
     1
281
     1
  3
ACAD_DIMASSOC
360
889
  0
DICTIONARY
  5
8BB
330
8AE
100
AcDbDictionary
280
     1
281
     1
  3
ACAD_DIMASSOC
360
8C5
  0
DICTIONARY
  5
8D3
330
8C6
100
AcDbDictionary
280
     1
281
     1
  3
ACAD_DIMASSOC
360
8DD
  0
DICTIONARY
  5
90A
330
8FD
100
AcDbDictionary
280
     1
281
     1
  3
ACAD_DIMASSOC
360
914
  0
DICTIONARY
  5
92B
330
91E
100
AcDbDictionary
280
     1
281
     1
  3
ACAD_DIMASSOC
360
935
  0
DICTIONARY
  5
943
330
936
100
AcDbDictionary
280
     1
281
     1
  3
ACAD_DIMASSOC
360
94D
  0
DICTIONARY
  5
99B
330
98E
100
AcDbDictionary
280
     1
281
     1
  3
ACAD_DIMASSOC
360
9A5
  0
DICTIONARY
  5
9EA
330
9DD
100
AcDbDictionary
280
     1
281
     1
  3
ACAD_DIMASSOC
360
9F4
  0
DICTIONARY
  5
A4F
330
A42
100
AcDbDictionary
280
     1
281
     1
  3
ACAD_DIMASSOC
360
A59
  0
DICTIONARY
  5
AD4
330
AC7
100
AcDbDictionary
280
     1
281
     1
  3
ACAD_DIMASSOC
360
ADE
  0
DICTIONARY
  5
AF5
330
AE8
100
AcDbDictionary
280
     1
281
     1
  3
ACAD_DIMASSOC
360
AFF
  0
DICTIONARY
  5
B1F
330
B12
100
AcDbDictionary
280
     1
281
     1
  3
ACAD_DIMASSOC
360
B29
  0
DICTIONARY
  5
B4D
330
B40
100
AcDbDictionary
280
     1
281
     1
  3
ACAD_DIMASSOC
360
B57
  0
DICTIONARY
  5
B7B
330
B6E
100
AcDbDictionary
280
     1
281
     1
  3
ACAD_DIMASSOC
360
B85
  0
DICTIONARY
  5
BA9
330
B9C
100
AcDbDictionary
280
     1
281
     1
  3
ACAD_DIMASSOC
360
BB3
  0
DICTIONARY
  5
BCA
330
BBD
100
AcDbDictionary
280
     1
281
     1
  3
ACAD_DIMASSOC
360
BD4
  0
DICTIONARY
  5
BF4
330
BE7
100
AcDbDictionary
280
     1
281
     1
  3
ACAD_DIMASSOC
360
BFE
  0
DICTIONARY
  5
C49
330
C3C
100
AcDbDictionary
280
     1
281
     1
  3
ACAD_DIMASSOC
360
C53
  0
DICTIONARY
  5
C73
330
C66
100
AcDbDictionary
280
     1
281
     1
  3
ACAD_DIMASSOC
360
C7D
  0
DICTIONARY
  5
CDC
330
CCF
100
AcDbDictionary
280
     1
281
     1
  3
ACAD_DIMASSOC
360
CE6
  0
DICTIONARY
  5
D30
330
D23
100
AcDbDictionary
280
     1
281
     1
  3
ACAD_DIMASSOC
360
D3A
  0
DICTIONARY
  5
DC9
330
DBC
100
AcDbDictionary
280
     1
281
     1
  3
ACAD_DIMASSOC
360
DD3
  0
DICTIONARY
  5
E53
330
E46
100
AcDbDictionary
280
     1
281
     1
  3
ACAD_DIMASSOC
360
E5D
  0
DICTIONARY
  5
E86
330
E79
100
AcDbDictionary
280
     1
281
     1
  3
ACAD_DIMASSOC
360
E90
  0
DICTIONARY
  5
F6B
330
F5E
100
AcDbDictionary
280
     1
281
     1
  3
ACAD_DIMASSOC
360
F75
  0
DICTIONARY
  5
FD2
330
FC5
100
AcDbDictionary
280
     1
281
     1
  3
ACAD_DIMASSOC
360
FDC
  0
DICTIONARY
  5
FFC
330
FEF
100
AcDbDictionary
280
     1
281
     1
  3
ACAD_DIMASSOC
360
1006
  0
DICTIONARY
  5
1098
330
108B
100
AcDbDictionary
280
     1
281
     1
  3
ACAD_DIMASSOC
360
10A2
  0
DICTIONARY
  5
10BA
330
10AD
100
AcDbDictionary
280
     1
281
     1
  3
ACAD_DIMASSOC
360
10C4
  0
DICTIONARY
  5
1F63
102
{ACAD_REACTORS
330
C
102
}
330
C
100
AcDbDictionary
281
     1
  3
DIMFXL
350
1F64
  3
DIMJOGANG
350
1F65
  0
XRECORD
  5
1F32
102
{ACAD_REACTORS
330
C
102
}
330
C
100
AcDbXrecord
280
     1
300
ACD
300
2012
300
ACD_F_S
  0
DICTIONARY
  5
6B
102
{ACAD_REACTORS
330
C
102
}
330
C
100
AcDbDictionary
281
     1
  0
DICTIONARY
  5
D
102
{ACAD_REACTORS
330
C
102
}
330
C
100
AcDbDictionary
281
     1
  0
DICTIONARY
  5
1A
102
{ACAD_REACTORS
330
C
102
}
330
C
100
AcDbDictionary
281
     1
  3
Model
350
22
  3
レイアウト1
350
D3
  3
レイアウト2
350
D7
  0
DICTIONARY
  5
6A
102
{ACAD_REACTORS
330
C
102
}
330
C
100
AcDbDictionary
281
     1
  3
ByBlock
350
1EF0
  3
ByLayer
350
1EE8
  3
Global
350
1EF8
  0
DICTIONARY
  5
1F2B
102
{ACAD_REACTORS
330
C
102
}
330
C
100
AcDbDictionary
281
     1
  3
Standard
350
1F2C
  0
DICTIONARY
  5
17
102
{ACAD_REACTORS
330
C
102
}
330
C
100
AcDbDictionary
281
     1
  3
Standard
350
18
  0
DICTIONARY
  5
19
102
{ACAD_REACTORS
330
C
102
}
330
C
100
AcDbDictionary
281
     1
  0
ACDBDICTIONARYWDFLT
  5
E
102
{ACAD_REACTORS
330
C
102
}
330
C
100
AcDbDictionary
281
     1
  3
Normal
350
F
100
AcDbDictionaryWithDefault
340
F
  0
DICTIONARY
  5
1F19
102
{ACAD_REACTORS
330
C
102
}
330
C
100
AcDbDictionary
281
     1
  3
A0
350
1F1A
  3
A1
350
1F1B
  3
A2
350
1F1C
  3
A3
350
1F1D
  3
A4
350
1F1E
  3
A5
350
1F1F
  3
A6
350
1F20
  3
A7
350
1F21
  3
A8
350
1F22
  3
A9
350
1F23
  3
B0
350
1F24
  3
B1
350
1F25
  3
B2
350
1F26
  3
B3
350
1F27
  3
B4
350
1F28
  3
B5
350
1F29
  3
B6
350
1F2A
  0
DICTIONARY
  5
7E
102
{ACAD_REACTORS
330
C
102
}
330
C
100
AcDbDictionary
281
     1
  3
Standard
350
7F
  0
DICTIONARY
  5
1F00
102
{ACAD_REACTORS
330
C
102
}
330
C
100
AcDbDictionary
281
     1
  3
2dWireframe
350
1F06
  3
Basic
350
1F05
  3
Brighten
350
1F0C
  3
ColorChange
350
1F10
  3
Conceptual
350
1F09
  3
Dim
350
1F0B
  3
EdgeColorOff
350
1F18
  3
Facepattern
350
1F0F
  3
Flat
350
1F01
  3
FlatWithEdges
350
1F02
  3
Gouraud
350
1F03
  3
GouraudWithEdges
350
1F04
  3
Hidden
350
1F08
  3
JitterOff
350
1F16
  3
Linepattern
350
1F0E
  3
OverhangOff
350
1F17
  3
Realistic
350
1F0A
  3
Shaded
350
1F15
  3
Shaded with edges
350
1F14
  3
Shades of Gray
350
1F11
  3
Sketchy
350
1F12
  3
Thicken
350
1F0D
  3
Wireframe
350
1F07
  3
X-Ray
350
1F13
  0
XRECORD
  5
1F61
102
{ACAD_REACTORS
330
C
102
}
330
C
100
AcDbXrecord
280
     1
 90
        1
330
7F
  0
DICTIONARY
  5
5E
102
{ACAD_REACTORS
330
C
102
}
330
C
100
AcDbDictionary
281
     1
  3
CANNOSCALE
350
1F59
  3
CMLEADERSTYLE
350
1F58
  3
CTABLESTYLE
350
84
  3
DIMASSOC
350
5F
  3
HIDETEXT
350
63
  3
INDEXCTL
350
1F5B
  3
PROJECTNAME
350
1E74
  3
SORTENTS
350
1F5A
  3
XCLIPFRAME
350
1F5C
  0
XRECORD
  5
1F62
102
{ACAD_REACTORS
330
C
102
}
330
C
100
AcDbXrecord
280
     1
  1
DWGPROPS COOKIE
  2

  3

  4

  6

  7

  8
tom
  9

300
=
301
=
302
=
303
=
304
=
305
=
306
=
307
=
308
=
309
=
 40
0.1659962384259259
 41
2454427.395492431
 42
2457050.698137697
  1

 90
        0
  0
DICTIONARY
  5
5E4
102
{ACAD_REACTORS
330
101
102
}
330
101
100
AcDbDictionary
281
     1
  0
DICTIONARY
  5
102
102
{ACAD_REACTORS
330
101
102
}
330
101
100
AcDbDictionary
281
     1
  0
DICTIONARY
  5
5E3
102
{ACAD_REACTORS
330
101
102
}
330
101
100
AcDbDictionary
281
     1
1001
ACAD
1000
<All
  0
SORTENTSTABLE
  5
617
102
{ACAD_REACTORS
330
616
102
}
330
616
100
AcDbSortentsTable
330
1F
331
7D5
  5
CCA
331
7ED
  5
D22
331
D67
  5
D8C
331
1080
  5
1144
331
D20
  5
D7D
331
DB6
  5
1011
331
F1C
  5
10DB
331
7F5
  5
D63
331
125
  5
7B0
331
7B6
  5
7F5
331
6A2
  5
7D5
331
7BE
  5
91E
331
135
  5
7B8
331
B6E
  5
D73
331
D8F
  5
DAD
331
BBD
  5
D75
331
7CE
  5
BE7
331
6BA
  5
7D6
331
AE8
  5
D6F
331
7D6
  5
CCB
331
E46
  5
1086
331
DAF
  5
F1B
331
D68
  5
D8D
331
DB7
  5
1012
331
D21
  5
D7E
331
1089
  5
114C
331
7AF
  5
7F2
331
126
  5
7B1
331
7B7
  5
80D
331
136
  5
7B9
331
7BF
  5
936
331
C3C
  5
D78
331
A42
  5
D6D
331
D90
  5
DAE
331
7CF
  5
C20
331
7D7
  5
CCC
331
7EF
  5
D5C
331
B40
  5
D72
331
DB8
  5
107C
331
D71
  5
D96
331
D22
  5
D7F
331
8FD
  5
D67
331
6DB
  5
7D7
331
127
  5
7B2
331
7B0
  5
7F3
331
8AE
  5
D65
331
61D
  5
7CF
331
7B8
  5
851
331
6F3
  5
7D8
331
137
  5
7BA
331
779
  5
7E1
331
7C0
  5
94E
331
8C6
  5
D66
331
FC5
  5
113C
331
F5E
  5
113A
331
5FE
  5
7BF
331
7D0
  5
C3C
331
DA9
  5
F1A
331
DB1
  5
F5E
331
D72
  5
D97
331
D23
  5
D80
331
DB9
  5
107D
331
BE7
  5
D76
331
108B
  5
114E
331
7F0
  5
D5D
331
128
  5
7B3
331
61E
  5
7D0
331
7B9
  5
872
331
B12
  5
D71
331
D7A
  5
D9C
331
91E
  5
D68
331
D92
  5
DAF
331
138
  5
7BB
331
74B
  5
7E0
331
714
  5
7DB
331
7D1
  5
C66
331
936
  5
D69
331
607
  5
779
331
F7F
  5
113B
331
107C
  5
1141
331
94E
  5
D6A
331
DB2
  5
F7F
331
1084
  5
1146
331
DBA
  5
107F
331
C66
  5
D79
331
D73
  5
D98
331
10DB
  5
115C
331
7F1
  5
D5E
331
7AA
  5
7EE
331
9DD
  5
D6C
331
129
  5
7B4
331
7B2
  5
7F4
331
61F
  5
7D1
331
E79
  5
1087
331
98E
  5
D6B
331
D93
  5
DB0
331
FEF
  5
113D
331
139
  5
7BC
331
7D2
  5
CC7
331
C20
  5
D77
331
107D
  5
1142
331
DB3
  5
FC5
331
D6C
  5
D92
331
DBB
  5
1080
331
D74
  5
D99
331
608
  5
7A7
331
7AB
  5
7EF
331
610
  5
7CA
331
132
  5
7B5
331
620
  5
7D2
331
872
  5
D64
331
DA4
  5
DF5
331
10AD
  5
115B
331
7D3
  5
CC8
331
DB4
  5
FEF
331
CCF
  5
D7A
331
D6D
  5
D93
331
1086
  5
1147
331
DBC
  5
1081
331
D75
  5
D9A
331
123
  5
7AD
331
7AC
  5
7F0
331
621
  5
7D3
331
133
  5
7B6
331
CFF
  5
D7C
331
DA5
  5
E46
331
7D4
  5
CC9
331
163
  5
7BD
331
681
  5
7D4
331
B9C
  5
D74
331
D66
  5
D8B
331
DB5
  5
1010
331
AC7
  5
D6E
331
D6E
  5
D94
331
D76
  5
D9B
331
F1B
  5
10AD
331
7F4
  5
D61
331
124
  5
7AF
331
7AD
  5
7F1
331
7BD
  5
8FD
331
134
  5
7B7
331
CF0
  5
D7B
331
D8E
  5
DAC
331
DF5
  5
1084
331
DA6
  5
E79
331
EAC
  5
1088
  0
DIMASSOC
  5
638
102
{ACAD_REACTORS
330
62E
102
}
330
62E
100
AcDbDimAssoc
330
621
 90
        2
 70
     0
 71
     0
  1
AcDbOsnapPointRef
 72
     1
331
5FE
 73
     2
 91
        2
 40
1.0
 10
0.0
 20
0.0
 30
2.000000000000000E+50
 75
     0
  0
DIMASSOC
  5
698
102
{ACAD_REACTORS
330
68E
102
}
330
68E
100
AcDbDimAssoc
330
681
 90
        3
 70
     0
 71
     0
  1
AcDbOsnapPointRef
 72
    13
331
61D
 73
     2
 91
        0
 40
0.0
 10
0.0
 20
0.0
 30
2.000000000000000E+50
 75
     0
  1
AcDbOsnapPointRef
 72
     1
331
61E
 73
     2
 91
        0
 40
1.0
 10
0.0
 20
0.0
 30
2.000000000000000E+50
 75
     0
  0
DIMASSOC
  5
6D1
102
{ACAD_REACTORS
330
6C7
102
}
330
6C7
100
AcDbDimAssoc
330
6BA
 90
        3
 70
     0
 71
     0
  1
AcDbOsnapPointRef
 72
     1
331
61D
 73
     2
 91
        0
 40
1.0
 10
0.0
 20
0.0
 30
2.000000000000000E+50
 75
     0
  1
AcDbOsnapPointRef
 72
    13
331
61E
 73
     2
 91
        0
 40
0.0
 10
0.0
 20
0.0
 30
2.000000000000000E+50
 75
     0
  0
DIMASSOC
  5
72B
102
{ACAD_REACTORS
330
721
102
}
330
721
100
AcDbDimAssoc
330
714
 90
        2
 70
     0
 71
     0
  1
AcDbOsnapPointRef
 72
    13
331
610
 73
     2
 91
        0
 40
0.0
 10
0.0
 20
0.0
 30
2.000000000000000E+50
 75
     0
  0
DIMASSOC
  5
762
102
{ACAD_REACTORS
330
758
102
}
330
758
100
AcDbDimAssoc
330
74B
 90
        2
 70
     0
 71
     0
  1
AcDbOsnapPointRef
 72
    13
331
607
 73
     2
 91
        2
 40
0.0
 10
0.0
 20
0.0
 30
2.000000000000000E+50
 75
     0
  0
DIMASSOC
  5
790
102
{ACAD_REACTORS
330
786
102
}
330
786
100
AcDbDimAssoc
330
779
 90
        2
 70
     0
 71
     0
  1
AcDbOsnapPointRef
 72
     1
331
608
 73
     2
 91
        1
 40
1.0
 10
0.0
 20
0.0
 30
2.000000000000000E+50
 75
     0
  0
DIMASSOC
  5
80C
102
{ACAD_REACTORS
330
802
102
}
330
802
100
AcDbDimAssoc
330
7F5
 90
        3
 70
     0
 71
     0
  1
AcDbOsnapPointRef
 72
    13
331
7CF
 73
     2
 91
        0
 40
0.0
 10
0.0
 20
0.0
 30
2.000000000000000E+50
 75
     0
  1
AcDbOsnapPointRef
 72
    13
331
7D0
 73
     2
 91
        0
 40
0.0
 10
0.0
 20
0.0
 30
2.000000000000000E+50
 75
     0
  0
DIMASSOC
  5
889
102
{ACAD_REACTORS
330
87F
102
}
330
87F
100
AcDbDimAssoc
330
872
 90
        3
 70
     0
 71
     0
  1
AcDbOsnapPointRef
 72
     1
331
7D7
 73
     2
 91
        0
 40
1.0
 10
0.0
 20
0.0
 30
2.000000000000000E+50
 75
     0
  1
AcDbOsnapPointRef
 72
     1
331
7F4
 73
     2
 91
        0
 40
1.0
 10
0.0
 20
0.0
 30
2.000000000000000E+50
 75
     0
  0
DIMASSOC
  5
8C5
102
{ACAD_REACTORS
330
8BB
102
}
330
8BB
100
AcDbDimAssoc
330
8AE
 90
        1
 70
     0
 71
     0
  1
AcDbOsnapPointRef
 72
     1
331
7D7
 73
     2
 91
        0
 40
1.0
 10
0.0
 20
0.0
 30
2.000000000000000E+50
 75
     0
  0
DIMASSOC
  5
8DD
102
{ACAD_REACTORS
330
8D3
102
}
330
8D3
100
AcDbDimAssoc
330
8C6
 90
        2
 70
     0
 71
     0
  1
AcDbOsnapPointRef
 72
    13
331
7CF
 73
     2
 91
        0
 40
0.0
 10
0.0
 20
0.0
 30
2.000000000000000E+50
 75
     0
  0
DIMASSOC
  5
914
102
{ACAD_REACTORS
330
90A
102
}
330
90A
100
AcDbDimAssoc
330
8FD
 90
        3
 70
     0
 71
     0
  1
AcDbOsnapPointRef
 72
    13
331
7AC
 73
     2
 91
        0
 40
0.0
 10
0.0
 20
0.0
 30
2.000000000000000E+50
 75
     0
  1
AcDbOsnapPointRef
 72
     1
331
7B9
 73
     2
 91
        0
 40
1.0
 10
0.0
 20
0.0
 30
2.000000000000000E+50
 75
     0
  0
DIMASSOC
  5
935
102
{ACAD_REACTORS
330
92B
102
}
330
92B
100
AcDbDimAssoc
330
91E
 90
        3
 70
     0
 71
     0
  1
AcDbOsnapPointRef
 72
     1
331
7B9
 73
     2
 91
        0
 40
1.0
 10
0.0
 20
0.0
 30
2.000000000000000E+50
 75
     0
  1
AcDbOsnapPointRef
 72
     1
331
7B8
 73
     2
 91
        0
 40
1.0
 10
0.0
 20
0.0
 30
2.000000000000000E+50
 75
     0
  0
DIMASSOC
  5
94D
102
{ACAD_REACTORS
330
943
102
}
330
943
100
AcDbDimAssoc
330
936
 90
        1
 70
     0
 71
     0
  1
AcDbOsnapPointRef
 72
     1
331
7B8
 73
     2
 91
        0
 40
1.0
 10
0.0
 20
0.0
 30
2.000000000000000E+50
 75
     0
  0
DIMASSOC
  5
9A5
102
{ACAD_REACTORS
330
99B
102
}
330
99B
100
AcDbDimAssoc
330
98E
 90
        3
 70
     0
 71
     0
  1
AcDbOsnapPointRef
 72
    13
331
7AC
 73
     2
 91
        0
 40
0.0
 10
0.0
 20
0.0
 30
2.000000000000000E+50
 75
     0
  1
AcDbOsnapPointRef
 72
    13
331
7AB
 73
     2
 91
        0
 40
0.0
 10
0.0
 20
0.0
 30
2.000000000000000E+50
 75
     0
  0
DIMASSOC
  5
9F4
102
{ACAD_REACTORS
330
9EA
102
}
330
9EA
100
AcDbDimAssoc
330
9DD
 90
        1
 70
     0
 71
     0
  1
AcDbOsnapPointRef
 72
    13
331
7D4
 73
     2
 91
        0
 40
0.0
 10
0.0
 20
0.0
 30
2.000000000000000E+50
 75
     0
  0
DIMASSOC
  5
A59
102
{ACAD_REACTORS
330
A4F
102
}
330
A4F
100
AcDbDimAssoc
330
A42
 90
        3
 70
     0
 71
     0
  1
AcDbOsnapPointRef
 72
     1
331
7ED
 73
     2
 91
        3
 40
1.0
 10
0.0
 20
0.0
 30
2.000000000000000E+50
 75
     0
  1
AcDbOsnapPointRef
 72
     1
331
7ED
 73
     2
 91
        2
 40
1.0
 10
0.0
 20
0.0
 30
2.000000000000000E+50
 75
     0
  0
DIMASSOC
  5
ADE
102
{ACAD_REACTORS
330
AD4
102
}
330
AD4
100
AcDbDimAssoc
330
AC7
 90
        3
 70
     0
 71
     0
  1
AcDbOsnapPointRef
 72
    13
331
7EF
 73
     2
 91
        1
 40
0.0
 10
0.0
 20
0.0
 30
2.000000000000000E+50
 75
     0
  1
AcDbOsnapPointRef
 72
     1
331
7EF
 73
     2
 91
        3
 40
0.9999999999999998
 10
0.0
 20
0.0
 30
2.000000000000000E+50
 75
     0
  0
DIMASSOC
  5
AFF
102
{ACAD_REACTORS
330
AF5
102
}
330
AF5
100
AcDbDimAssoc
330
AE8
 90
        1
 70
     0
 71
     0
  1
AcDbOsnapPointRef
 72
     1
331
7ED
 73
     2
 91
        3
 40
1.0
 10
0.0
 20
0.0
 30
2.000000000000000E+50
 75
     0
  0
DIMASSOC
  5
B29
102
{ACAD_REACTORS
330
B1F
102
}
330
B1F
100
AcDbDimAssoc
330
B12
 90
        3
 70
     0
 71
     0
  1
AcDbOsnapPointRef
 72
    13
331
7EF
 73
     2
 91
        1
 40
0.0
 10
0.0
 20
0.0
 30
2.000000000000000E+50
 75
     0
  1
AcDbOsnapPointRef
 72
     1
331
7EF
 73
     2
 91
        1
 40
0.9999999999999998
 10
0.0
 20
0.0
 30
2.000000000000000E+50
 75
     0
  0
DIMASSOC
  5
B57
102
{ACAD_REACTORS
330
B4D
102
}
330
B4D
100
AcDbDimAssoc
330
B40
 90
        3
 70
     0
 71
     0
  1
AcDbOsnapPointRef
 72
     1
331
7BE
 73
     2
 91
        2
 40
1.0
 10
0.0
 20
0.0
 30
2.000000000000000E+50
 75
     0
  1
AcDbOsnapPointRef
 72
     1
331
7BE
 73
     2
 91
        3
 40
1.0
 10
0.0
 20
0.0
 30
2.000000000000000E+50
 75
     0
  0
DIMASSOC
  5
B85
102
{ACAD_REACTORS
330
B7B
102
}
330
B7B
100
AcDbDimAssoc
330
B6E
 90
        3
 70
     0
 71
     0
  1
AcDbOsnapPointRef
 72
     1
331
7BD
 73
     2
 91
        2
 40
1.0
 10
0.0
 20
0.0
 30
2.000000000000000E+50
 75
     0
  1
AcDbOsnapPointRef
 72
     1
331
7BD
 73
     2
 91
        3
 40
0.9999999999999998
 10
0.0
 20
0.0
 30
2.000000000000000E+50
 75
     0
  0
DIMASSOC
  5
BB3
102
{ACAD_REACTORS
330
BA9
102
}
330
BA9
100
AcDbDimAssoc
330
B9C
 90
        3
 70
     0
 71
     0
  1
AcDbOsnapPointRef
 72
    13
331
7BD
 73
     2
 91
        1
 40
0.0
 10
0.0
 20
0.0
 30
2.000000000000000E+50
 75
     0
  1
AcDbOsnapPointRef
 72
     1
331
7BD
 73
     2
 91
        3
 40
0.9999999999999998
 10
0.0
 20
0.0
 30
2.000000000000000E+50
 75
     0
  0
DIMASSOC
  5
BD4
102
{ACAD_REACTORS
330
BCA
102
}
330
BCA
100
AcDbDimAssoc
330
BBD
 90
        3
 70
     0
 71
     0
  1
AcDbOsnapPointRef
 72
     1
331
7BE
 73
     2
 91
        3
 40
1.0
 10
0.0
 20
0.0
 30
2.000000000000000E+50
 75
     0
  1
AcDbOsnapPointRef
 72
    13
331
7BE
 73
     2
 91
        1
 40
0.0
 10
0.0
 20
0.0
 30
2.000000000000000E+50
 75
     0
  0
DIMASSOC
  5
BFE
102
{ACAD_REACTORS
330
BF4
102
}
330
BF4
100
AcDbDimAssoc
330
BE7
 90
        1
 70
     0
 71
     0
  1
AcDbOsnapPointRef
 72
    13
331
7B0
 73
     2
 91
        0
 40
0.0
 10
0.0
 20
0.0
 30
2.000000000000000E+50
 75
     0
  0
DIMASSOC
  5
C53
102
{ACAD_REACTORS
330
C49
102
}
330
C49
100
AcDbDimAssoc
330
C3C
 90
        1
 70
     0
 71
     0
  1
AcDbOsnapPointRef
 72
    13
331
7B0
 73
     2
 91
        0
 40
0.0
 10
0.0
 20
0.0
 30
2.000000000000000E+50
 75
     0
  0
DIMASSOC
  5
C7D
102
{ACAD_REACTORS
330
C73
102
}
330
C73
100
AcDbDimAssoc
330
C66
 90
        1
 70
     0
 71
     0
  1
AcDbOsnapPointRef
 72
    13
331
7D3
 73
     2
 91
        0
 40
0.0
 10
0.0
 20
0.0
 30
2.000000000000000E+50
 75
     0
  0
DIMASSOC
  5
CE6
102
{ACAD_REACTORS
330
CDC
102
}
330
CDC
100
AcDbDimAssoc
330
CCF
 90
        2
 70
     0
 71
     0
  1
AcDbOsnapPointRef
 72
    13
331
61D
 73
     2
 91
        0
 40
0.0
 10
0.0
 20
0.0
 30
2.000000000000000E+50
 75
     0
  0
DIMASSOC
  5
D3A
102
{ACAD_REACTORS
330
D30
102
}
330
D30
100
AcDbDimAssoc
330
D23
 90
        3
 70
     0
 71
     0
  1
AcDbOsnapPointRef
 72
    13
331
D20
 73
     2
 91
        0
 40
0.0
 10
0.0
 20
0.0
 30
2.000000000000000E+50
 75
     0
  1
AcDbOsnapPointRef
 72
     1
331
D22
 73
     2
 91
        0
 40
1.0
 10
0.0
 20
0.0
 30
2.000000000000000E+50
 75
     0
  0
DIMASSOC
  5
DD3
102
{ACAD_REACTORS
330
DC9
102
}
330
DC9
100
AcDbDimAssoc
330
DBC
 90
        3
 70
     0
 71
     0
  1
AcDbOsnapPointRef
 72
     1
331
DB5
 73
     2
 91
        0
 40
1.0
 10
0.0
 20
0.0
 30
2.000000000000000E+50
 75
     0
  1
AcDbOsnapPointRef
 72
    13
331
DB4
 73
     2
 91
        0
 40
0.0
 10
0.0
 20
0.0
 30
2.000000000000000E+50
 75
     0
  0
DIMASSOC
  5
E5D
102
{ACAD_REACTORS
330
E53
102
}
330
E53
100
AcDbDimAssoc
330
E46
 90
        3
 70
     0
 71
     0
  1
AcDbOsnapPointRef
 72
    13
331
DB2
 73
     2
 91
        0
 40
0.0
 10
0.0
 20
0.0
 30
2.000000000000000E+50
 75
     0
  1
AcDbOsnapPointRef
 72
    13
331
DB4
 73
     2
 91
        0
 40
0.0
 10
0.0
 20
0.0
 30
2.000000000000000E+50
 75
     0
  0
DIMASSOC
  5
E90
102
{ACAD_REACTORS
330
E86
102
}
330
E86
100
AcDbDimAssoc
330
E79
 90
        3
 70
     0
 71
     0
  1
AcDbOsnapPointRef
 72
     1
331
DB8
 73
     2
 91
        0
 40
1.0
 10
0.0
 20
0.0
 30
2.000000000000000E+50
 75
     0
  1
AcDbOsnapPointRef
 72
     1
331
DBA
 73
     2
 91
        0
 40
1.0
 10
0.0
 20
0.0
 30
2.000000000000000E+50
 75
     0
  0
DIMASSOC
  5
F75
102
{ACAD_REACTORS
330
F6B
102
}
330
F6B
100
AcDbDimAssoc
330
F5E
 90
        2
 70
     0
 71
     0
  1
AcDbOsnapPointRef
 72
    13
331
D75
 73
     2
 91
        0
 40
0.0
 10
0.0
 20
0.0
 30
2.000000000000000E+50
 75
     0
  0
DIMASSOC
  5
FDC
102
{ACAD_REACTORS
330
FD2
102
}
330
FD2
100
AcDbDimAssoc
330
FC5
 90
        2
 70
     0
 71
     0
  1
AcDbOsnapPointRef
 72
    13
331
D76
 73
     2
 91
        0
 40
0.0
 10
0.0
 20
0.0
 30
2.000000000000000E+50
 75
     0
  0
DIMASSOC
  5
1006
102
{ACAD_REACTORS
330
FFC
102
}
330
FFC
100
AcDbDimAssoc
330
FEF
 90
        3
 70
     0
 71
     0
  1
AcDbOsnapPointRef
 72
    13
331
D76
 73
     2
 91
        0
 40
0.0
 10
0.0
 20
0.0
 30
2.000000000000000E+50
 75
     0
  1
AcDbOsnapPointRef
 72
     1
331
D7A
 73
     2
 91
        0
 40
1.0
 10
0.0
 20
0.0
 30
2.000000000000000E+50
 75
     0
  0
DIMASSOC
  5
10A2
102
{ACAD_REACTORS
330
1098
102
}
330
1098
100
AcDbDimAssoc
330
108B
 90
        3
 70
     0
 71
     0
  1
AcDbOsnapPointRef
 72
     1
331
7F4
 73
     2
 91
        0
 40
1.0
 10
0.0
 20
0.0
 30
2.000000000000000E+50
 75
     0
  1
AcDbOsnapPointRef
 72
    13
331
7D0
 73
     2
 91
        0
 40
0.0
 10
0.0
 20
0.0
 30
2.000000000000000E+50
 75
     0
  0
DIMASSOC
  5
10C4
102
{ACAD_REACTORS
330
10BA
102
}
330
10BA
100
AcDbDimAssoc
330
10AD
 90
        3
 70
     0
 71
     0
  1
AcDbOsnapPointRef
 72
    13
331
7D0
 73
     2
 91
        0
 40
0.0
 10
0.0
 20
0.0
 30
2.000000000000000E+50
 75
     0
  1
AcDbOsnapPointRef
 72
    13
331
7D1
 73
     2
 91
        0
 40
0.0
 10
0.0
 20
0.0
 30
2.000000000000000E+50
 75
     0
  0
XRECORD
  5
1F64
102
{ACAD_REACTORS
330
1F63
102
}
330
1F63
100
AcDbXrecord
280
     1
 40
1.25
  0
XRECORD
  5
1F65
102
{ACAD_REACTORS
330
1F63
102
}
330
1F63
100
AcDbXrecord
280
     1
 40
1.570796326794896
  0
LAYOUT
  5
22
102
{ACAD_XDICTIONARY
360
1F4E
102
}
102
{ACAD_REACTORS
330
1A
102
}
330
1A
100
AcDbPlotSettings
  1

  2
Bullzip PDF Printer
  4
A3
  6

 40
3.174999952316284
 41
3.174999952316284
 42
3.17498779296875
 43
3.17498779296875
 44
297.0530090332031
 45
420.1583251953125
 46
-3.148489356040926
 47
-3.095831274986267
 48
82.80008844952817
 49
88.90916338651733
140
4282.800088449529
141
3058.909163386517
142
1.0
143
10.0
 70
 11940
 72
     1
 73
     1
 74
     4
  7
monochrome.ctb
 75
     0
147
0.9670387630912188
148
-82.80008844952817
149
-88.90916338651733
100
AcDbLayout
  1
Model
 70
     1
 71
     0
 10
0.0
 20
0.0
 11
12.0
 21
9.0
 12
0.0
 22
0.0
 32
0.0
 14
0.0
 24
0.0
 34
0.0
 15
0.0
 25
0.0
 35
0.0
146
0.0
 13
0.0
 23
0.0
 33
0.0
 16
1.0
 26
0.0
 36
0.0
 17
0.0
 27
1.0
 37
0.0
 76
     0
330
1F
331
1EE6
1001
ACAD_PSEXT
1000
Bullzip PDF Printer
1000
Bullzip PDF Printer
1000
BULLZIP
1000
Bullzip PDF Printer 9.6.0.1582
1070
     0
  0
LAYOUT
  5
D3
102
{ACAD_XDICTIONARY
360
1F68
102
}
102
{ACAD_REACTORS
330
1A
102
}
330
1A
100
AcDbPlotSettings
  1

  2
C:\Documents and Settings\basas\Application Data\Autodesk\AutoCAD 2005\R16.1\enu\plotters\Default Windows System Printer.pc3
  4

  6

 40
0.0
 41
0.0
 42
0.0
 43
0.0
 44
0.0
 45
0.0
 46
0.0
 47
0.0
 48
0.0
 49
0.0
140
0.0
141
0.0
142
1.0
143
1.0
 70
   688
 72
     0
 73
     0
 74
     5
  7
monochrome.ctb
 75
    16
147
1.0
148
0.0
149
0.0
100
AcDbLayout
  1
レイアウト1
 70
     1
 71
     1
 10
0.0
 20
0.0
 11
12.0
 21
9.0
 12
0.0
 22
0.0
 32
0.0
 14
0.0
 24
0.0
 34
0.0
 15
0.0
 25
0.0
 35
0.0
146
0.0
 13
0.0
 23
0.0
 33
0.0
 16
1.0
 26
0.0
 36
0.0
 17
0.0
 27
1.0
 37
0.0
 76
     0
330
D2
  0
LAYOUT
  5
D7
102
{ACAD_XDICTIONARY
360
1F6A
102
}
102
{ACAD_REACTORS
330
1A
102
}
330
1A
100
AcDbPlotSettings
  1

  2
C:\Documents and Settings\basas\Application Data\Autodesk\AutoCAD 2005\R16.1\enu\plotters\Default Windows System Printer.pc3
  4

  6

 40
0.0
 41
0.0
 42
0.0
 43
0.0
 44
0.0
 45
0.0
 46
0.0
 47
0.0
 48
0.0
 49
0.0
140
0.0
141
0.0
142
1.0
143
1.0
 70
   688
 72
     0
 73
     0
 74
     5
  7
monochrome.ctb
 75
    16
147
1.0
148
0.0
149
0.0
100
AcDbLayout
  1
レイアウト2
 70
     1
 71
     2
 10
0.0
 20
0.0
 11
12.0
 21
9.0
 12
0.0
 22
0.0
 32
0.0
 14
0.0
 24
0.0
 34
0.0
 15
0.0
 25
0.0
 35
0.0
146
0.0
 13
0.0
 23
0.0
 33
0.0
 16
1.0
 26
0.0
 36
0.0
 17
0.0
 27
1.0
 37
0.0
 76
     0
330
D6
  0
MATERIAL
  5
1EF0
102
{ACAD_XDICTIONARY
360
1EF1
102
}
102
{ACAD_REACTORS
330
6A
102
}
330
6A
100
AcDbMaterial
  1
ByBlock
 72
     0
 43
0.0008202099737533
 43
0.0
 43
0.0
 43
0.0
 43
0.0
 43
0.0008202099737533
 43
0.0
 43
0.0
 43
0.0
 43
0.0
 43
1.0
 43
0.0
 43
0.0
 43
0.0
 43
0.0
 43
1.0
 77
     0
 47
0.0008202099737533
 47
0.0
 47
0.0
 47
0.0
 47
0.0
 47
0.0008202099737533
 47
0.0
 47
0.0
 47
0.0
 47
0.0
 47
1.0
 47
0.0
 47
0.0
 47
0.0
 47
0.0
 47
1.0
171
     0
 49
0.0008202099737533
 49
0.0
 49
0.0
 49
0.0
 49
0.0
 49
0.0008202099737533
 49
0.0
 49
0.0
 49
0.0
 49
0.0
 49
1.0
 49
0.0
 49
0.0
 49
0.0
 49
0.0
 49
1.0
175
     0
142
0.0008202099737533
142
0.0
142
0.0
142
0.0
142
0.0
142
0.0008202099737533
142
0.0
142
0.0
142
0.0
142
0.0
142
1.0
142
0.0
142
0.0
142
0.0
142
0.0
142
1.0
179
     0
144
0.0008202099737533
144
0.0
144
0.0
144
0.0
144
0.0
144
0.0008202099737533
144
0.0
144
0.0
144
0.0
144
0.0
144
1.0
144
0.0
144
0.0
144
0.0
144
0.0
144
1.0
147
0.0008202099737533
147
0.0
147
0.0
147
0.0
147
0.0
147
0.0008202099737533
147
0.0
147
0.0
147
0.0
147
0.0
147
1.0
147
0.0
147
0.0
147
0.0
147
0.0
147
1.0
  0
MATERIAL
  5
1EE8
102
{ACAD_XDICTIONARY
360
1EE9
102
}
102
{ACAD_REACTORS
330
6A
102
}
330
6A
100
AcDbMaterial
  1
ByLayer
 72
     0
 43
0.0008202099737533
 43
0.0
 43
0.0
 43
0.0
 43
0.0
 43
0.0008202099737533
 43
0.0
 43
0.0
 43
0.0
 43
0.0
 43
1.0
 43
0.0
 43
0.0
 43
0.0
 43
0.0
 43
1.0
 77
     0
 47
0.0008202099737533
 47
0.0
 47
0.0
 47
0.0
 47
0.0
 47
0.0008202099737533
 47
0.0
 47
0.0
 47
0.0
 47
0.0
 47
1.0
 47
0.0
 47
0.0
 47
0.0
 47
0.0
 47
1.0
171
     0
 49
0.0008202099737533
 49
0.0
 49
0.0
 49
0.0
 49
0.0
 49
0.0008202099737533
 49
0.0
 49
0.0
 49
0.0
 49
0.0
 49
1.0
 49
0.0
 49
0.0
 49
0.0
 49
0.0
 49
1.0
175
     0
142
0.0008202099737533
142
0.0
142
0.0
142
0.0
142
0.0
142
0.0008202099737533
142
0.0
142
0.0
142
0.0
142
0.0
142
1.0
142
0.0
142
0.0
142
0.0
142
0.0
142
1.0
179
     0
144
0.0008202099737533
144
0.0
144
0.0
144
0.0
144
0.0
144
0.0008202099737533
144
0.0
144
0.0
144
0.0
144
0.0
144
1.0
144
0.0
144
0.0
144
0.0
144
0.0
144
1.0
147
0.0008202099737533
147
0.0
147
0.0
147
0.0
147
0.0
147
0.0008202099737533
147
0.0
147
0.0
147
0.0
147
0.0
147
1.0
147
0.0
147
0.0
147
0.0
147
0.0
147
1.0
  0
MATERIAL
  5
1EF8
102
{ACAD_XDICTIONARY
360
1EF9
102
}
102
{ACAD_REACTORS
330
6A
102
}
330
6A
100
AcDbMaterial
  1
Global
 72
     0
 43
0.0008202099737533
 43
0.0
 43
0.0
 43
0.0
 43
0.0
 43
0.0008202099737533
 43
0.0
 43
0.0
 43
0.0
 43
0.0
 43
1.0
 43
0.0
 43
0.0
 43
0.0
 43
0.0
 43
1.0
 77
     0
 47
0.0008202099737533
 47
0.0
 47
0.0
 47
0.0
 47
0.0
 47
0.0008202099737533
 47
0.0
 47
0.0
 47
0.0
 47
0.0
 47
1.0
 47
0.0
 47
0.0
 47
0.0
 47
0.0
 47
1.0
171
     0
 49
0.0008202099737533
 49
0.0
 49
0.0
 49
0.0
 49
0.0
 49
0.0008202099737533
 49
0.0
 49
0.0
 49
0.0
 49
0.0
 49
1.0
 49
0.0
 49
0.0
 49
0.0
 49
0.0
 49
1.0
175
     0
142
0.0008202099737533
142
0.0
142
0.0
142
0.0
142
0.0
142
0.0008202099737533
142
0.0
142
0.0
142
0.0
142
0.0
142
1.0
142
0.0
142
0.0
142
0.0
142
0.0
142
1.0
179
     0
144
0.0008202099737533
144
0.0
144
0.0
144
0.0
144
0.0
144
0.0008202099737533
144
0.0
144
0.0
144
0.0
144
0.0
144
1.0
144
0.0
144
0.0
144
0.0
144
0.0
144
1.0
147
0.0008202099737533
147
0.0
147
0.0
147
0.0
147
0.0
147
0.0008202099737533
147
0.0
147
0.0
147
0.0
147
0.0
147
1.0
147
0.0
147
0.0
147
0.0
147
0.0
147
1.0
  0
MLEADERSTYLE
  5
1F2C
102
{ACAD_XDICTIONARY
360
1F5F
102
}
102
{ACAD_REACTORS
330
1F2B
102
}
330
1F2B
100
AcDbMLeaderStyle
170
     2
171
     1
172
     0
 90
        2
 40
0.0
 41
0.0
173
     1
 91
-1056964608
340
14
 92
       -2
290
     1
 42
2.0
291
     1
 43
0.36
  3
Standard
 44
4.0
300

342
11
174
     1
178
     6
175
     1
176
     0
 93
-1056964608
 45
4.0
292
     0
297
     0
 46
4.0
 94
-1056964608
 47
1.0
 49
1.0
140
1.0
293
     1
141
0.0
294
     1
177
     0
142
1.0
295
     0
296
     0
143
0.125
1001
ACAD_MLEADERVER
1070
     2
  0
MLINESTYLE
  5
18
102
{ACAD_REACTORS
330
17
102
}
330
17
100
AcDbMlineStyle
  2
STANDARD
 70
     0
  3

 62
   256
 51
90.0
 52
90.0
 71
     2
 49
0.5
 62
   256
  6
BYLAYER
 49
-0.5
 62
   256
  6
BYLAYER
  0
ACDBPLACEHOLDER
  5
F
102
{ACAD_REACTORS
330
E
102
}
330
E
  0
SCALE
  5
1F1A
102
{ACAD_REACTORS
330
1F19
102
}
330
1F19
100
AcDbScale
 70
     0
300
1:1
140
1.0
141
1.0
290
     1
  0
SCALE
  5
1F1B
102
{ACAD_REACTORS
330
1F19
102
}
330
1F19
100
AcDbScale
 70
     0
300
1:2
140
1.0
141
2.0
290
     0
  0
SCALE
  5
1F1C
102
{ACAD_REACTORS
330
1F19
102
}
330
1F19
100
AcDbScale
 70
     0
300
1:4
140
1.0
141
4.0
290
     0
  0
SCALE
  5
1F1D
102
{ACAD_REACTORS
330
1F19
102
}
330
1F19
100
AcDbScale
 70
     0
300
1:5
140
1.0
141
5.0
290
     0
  0
SCALE
  5
1F1E
102
{ACAD_REACTORS
330
1F19
102
}
330
1F19
100
AcDbScale
 70
     0
300
1:8
140
1.0
141
8.0
290
     0
  0
SCALE
  5
1F1F
102
{ACAD_REACTORS
330
1F19
102
}
330
1F19
100
AcDbScale
 70
     0
300
1:10
140
1.0
141
10.0
290
     0
  0
SCALE
  5
1F20
102
{ACAD_REACTORS
330
1F19
102
}
330
1F19
100
AcDbScale
 70
     0
300
1:16
140
1.0
141
16.0
290
     0
  0
SCALE
  5
1F21
102
{ACAD_REACTORS
330
1F19
102
}
330
1F19
100
AcDbScale
 70
     0
300
1:20
140
1.0
141
20.0
290
     0
  0
SCALE
  5
1F22
102
{ACAD_REACTORS
330
1F19
102
}
330
1F19
100
AcDbScale
 70
     0
300
1:30
140
1.0
141
30.0
290
     0
  0
SCALE
  5
1F23
102
{ACAD_REACTORS
330
1F19
102
}
330
1F19
100
AcDbScale
 70
     0
300
1:40
140
1.0
141
40.0
290
     0
  0
SCALE
  5
1F24
102
{ACAD_REACTORS
330
1F19
102
}
330
1F19
100
AcDbScale
 70
     0
300
1:50
140
1.0
141
50.0
290
     0
  0
SCALE
  5
1F25
102
{ACAD_REACTORS
330
1F19
102
}
330
1F19
100
AcDbScale
 70
     0
300
1:100
140
1.0
141
100.0
290
     0
  0
SCALE
  5
1F26
102
{ACAD_REACTORS
330
1F19
102
}
330
1F19
100
AcDbScale
 70
     0
300
2:1
140
2.0
141
1.0
290
     0
  0
SCALE
  5
1F27
102
{ACAD_REACTORS
330
1F19
102
}
330
1F19
100
AcDbScale
 70
     0
300
4:1
140
4.0
141
1.0
290
     0
  0
SCALE
  5
1F28
102
{ACAD_REACTORS
330
1F19
102
}
330
1F19
100
AcDbScale
 70
     0
300
8:1
140
8.0
141
1.0
290
     0
  0
SCALE
  5
1F29
102
{ACAD_REACTORS
330
1F19
102
}
330
1F19
100
AcDbScale
 70
     0
300
10:1
140
10.0
141
1.0
290
     0
  0
SCALE
  5
1F2A
102
{ACAD_REACTORS
330
1F19
102
}
330
1F19
100
AcDbScale
 70
     0
300
100:1
140
100.0
141
1.0
290
     0
  0
TABLESTYLE
  5
7F
102
{ACAD_XDICTIONARY
360
1F5D
102
}
102
{ACAD_REACTORS
330
7E
102
}
330
7E
100
AcDbTableStyle
  3
Standard
 70
     0
 71
     0
 40
1.5
 41
1.5
280
     0
281
     0
  7
Standard
140
4.5
170
     2
 62
     0
 63
     7
283
     0
274
    -2
284
     1
 64
     0
275
    -2
285
     1
 65
     0
276
    -2
286
     1
 66
     0
277
    -2
287
     1
 67
     0
278
    -2
288
     1
 68
     0
279
    -2
289
     1
 69
     0
  7
Standard
140
6.0
170
     5
 62
     0
 63
     7
283
     0
274
    -2
284
     1
 64
     0
275
    -2
285
     1
 65
     0
276
    -2
286
     1
 66
     0
277
    -2
287
     1
 67
     0
278
    -2
288
     1
 68
     0
279
    -2
289
     1
 69
     0
  7
Standard
140
4.5
170
     5
 62
     0
 63
     7
283
     0
274
    -2
284
     1
 64
     0
275
    -2
285
     1
 65
     0
276
    -2
286
     1
 66
     0
277
    -2
287
     1
 67
     0
278
    -2
288
     1
 68
     0
279
    -2
289
     1
 69
     0
  0
VISUALSTYLE
  5
1F06
102
{ACAD_XDICTIONARY
360
1F79
102
}
102
{ACAD_REACTORS
330
1F00
102
}
330
1F00
100
AcDbVisualStyle
  2
2dWireframe
 70
     4
 71
     0
 72
     2
 73
     0
 90
        0
 40
-0.6
 41
-30.0
 62
     5
 63
     7
 74
     1
 91
        4
 64
     7
 65
   257
 75
     1
175
     1
 42
1.0
 92
        0
 66
   257
 43
1.0
 76
     1
 77
     6
 78
     2
 67
     7
 79
     5
170
     0
171
     0
290
     0
174
     0
 93
        1
 44
0.0
173
     0
291
     0
 45
0.0
1001
ACAD
1000
AcDbSavedByObjectVersion
1070
     0
  0
VISUALSTYLE
  5
1F05
102
{ACAD_XDICTIONARY
360
1F77
102
}
102
{ACAD_REACTORS
330
1F00
102
}
330
1F00
100
AcDbVisualStyle
  2
Basic
 70
     7
 71
     1
 72
     0
 73
     1
 90
        0
 40
-0.6
 41
-30.0
 62
     5
 63
     7
 74
     0
 91
        4
 64
     7
 65
   257
 75
     1
175
     1
 42
1.0
 92
        8
 66
     7
 43
1.0
 76
     1
 77
     6
 78
     2
 67
     7
 79
     5
170
     0
171
     0
290
     0
174
     0
 93
        1
 44
0.0
173
     0
291
     1
 45
0.0
1001
ACAD
1000
AcDbSavedByObjectVersion
1070
     0
  0
VISUALSTYLE
  5
1F0C
102
{ACAD_XDICTIONARY
360
1F85
102
}
102
{ACAD_REACTORS
330
1F00
102
}
330
1F00
100
AcDbVisualStyle
  2
Brighten
 70
    12
 71
     2
 72
     2
 73
     0
 90
        0
 40
-0.6
 41
-30.0
 62
     5
 63
     7
 74
     1
 91
        4
 64
     7
 65
   257
 75
     1
175
     1
 42
1.0
 92
        8
 66
     7
 43
1.0
 76
     1
 77
     6
 78
     2
 67
     7
 79
     5
170
     0
171
     0
290
     0
174
     0
 93
        1
 44
50.0
173
     0
291
     1
 45
0.0
1001
ACAD
1000
AcDbSavedByObjectVersion
1070
     0
  0
VISUALSTYLE
  5
1F10
102
{ACAD_XDICTIONARY
360
1F8D
102
}
102
{ACAD_REACTORS
330
1F00
102
}
330
1F00
100
AcDbVisualStyle
  2
ColorChange
 70
    16
 71
     2
 72
     2
 73
     3
 90
        0
 40
-0.6
 41
-30.0
 62
     5
 63
     8
 74
     1
 91
        4
 64
     7
 65
   257
 75
     1
175
     1
 42
1.0
 92
        8
 66
     8
 43
1.0
 76
     1
 77
     6
 78
     2
 67
     7
 79
     5
170
     0
171
     0
290
     0
174
     0
 93
        1
 44
0.0
173
     0
291
     1
 45
0.0
1001
ACAD
1000
AcDbSavedByObjectVersion
1070
     0
  0
VISUALSTYLE
  5
1F09
102
{ACAD_XDICTIONARY
360
1F7F
102
}
102
{ACAD_REACTORS
330
1F00
102
}
330
1F00
100
AcDbVisualStyle
  2
Conceptual
 70
     9
 71
     3
 72
     2
 73
     0
 90
        0
 40
-0.6
 41
-30.0
 62
     5
 63
     7
 74
     2
 91
        2
 64
     7
 65
   257
 75
     1
175
     1
 42
179.0
 92
        8
 66
     7
 43
1.0
 76
     1
 77
     6
 78
     2
 67
     7
 79
     3
170
     0
171
     0
290
     0
174
     0
 93
        1
 44
0.0
173
     0
291
     0
 45
0.0
1001
ACAD
1000
AcDbSavedByObjectVersion
1070
     0
  0
VISUALSTYLE
  5
1F0B
102
{ACAD_XDICTIONARY
360
1F83
102
}
102
{ACAD_REACTORS
330
1F00
102
}
330
1F00
100
AcDbVisualStyle
  2
Dim
 70
    11
 71
     2
 72
     2
 73
     0
 90
        0
 40
-0.6
 41
-30.0
 62
     5
 63
     7
 74
     1
 91
        4
 64
     7
 65
   257
 75
     1
175
     1
 42
1.0
 92
        8
 66
     7
 43
1.0
 76
     1
 77
     6
 78
     2
 67
     7
 79
     5
170
     0
171
     0
290
     0
174
     0
 93
        1
 44
-50.0
173
     0
291
     1
 45
0.0
1001
ACAD
1000
AcDbSavedByObjectVersion
1070
     0
  0
VISUALSTYLE
  5
1F18
102
{ACAD_XDICTIONARY
360
1F9D
102
}
102
{ACAD_REACTORS
330
1F00
102
}
330
1F00
100
AcDbVisualStyle
  2
EdgeColorOff
 70
    22
 71
     2
 72
     2
 73
     0
 90
        0
 40
-0.6
 41
-30.0
 62
     5
 63
     7
 74
     1
 91
        4
 64
     7
 65
   257
 75
     1
175
     1
 42
1.0
 92
        8
 66
     7
 43
1.0
 76
     1
 77
     6
 78
     2
 67
     7
 79
     5
170
     0
171
     0
290
     0
174
     0
 93
        1
 44
0.0
173
     0
291
     1
 45
0.0
1001
ACAD
1000
AcDbSavedByObjectVersion
1070
     0
  0
VISUALSTYLE
  5
1F0F
102
{ACAD_XDICTIONARY
360
1F8B
102
}
102
{ACAD_REACTORS
330
1F00
102
}
330
1F00
100
AcDbVisualStyle
  2
Facepattern
 70
    15
 71
     2
 72
     2
 73
     0
 90
        0
 40
-0.6
 41
-30.0
 62
     5
 63
     7
 74
     1
 91
        4
 64
     7
 65
   257
 75
     1
175
     1
 42
1.0
 92
        8
 66
     7
 43
1.0
 76
     1
 77
     6
 78
     2
 67
     7
 79
     5
170
     0
171
     0
290
     0
174
     0
 93
        1
 44
0.0
173
     0
291
     1
 45
0.0
1001
ACAD
1000
AcDbSavedByObjectVersion
1070
     0
  0
VISUALSTYLE
  5
1F01
102
{ACAD_XDICTIONARY
360
1F6F
102
}
102
{ACAD_REACTORS
330
1F00
102
}
330
1F00
100
AcDbVisualStyle
  2
Flat
 70
     0
 71
     2
 72
     1
 73
     1
 90
        2
 40
-0.6
 41
30.0
 62
     5
 63
     7
 74
     0
 91
        0
 64
     7
 65
   257
 75
     1
175
     1
 42
1.0
 92
        8
 66
     7
 43
1.0
 76
     1
 77
     6
 78
     2
 67
     7
 79
     5
170
     0
171
     0
290
     0
174
     0
 93
       13
 44
0.0
173
     0
291
     1
 45
0.0
1001
ACAD
1000
AcDbSavedByObjectVersion
1070
     0
  0
VISUALSTYLE
  5
1F02
102
{ACAD_XDICTIONARY
360
1F71
102
}
102
{ACAD_REACTORS
330
1F00
102
}
330
1F00
100
AcDbVisualStyle
  2
FlatWithEdges
 70
     1
 71
     2
 72
     1
 73
     1
 90
        2
 40
-0.6
 41
30.0
 62
     5
 63
     7
 74
     1
 91
        0
 64
     7
 65
   257
 75
     1
175
     1
 42
1.0
 92
        0
 66
   257
 43
1.0
 76
     1
 77
     6
 78
     2
 67
     7
 79
     5
170
     0
171
     0
290
     0
174
     0
 93
       13
 44
0.0
173
     0
291
     1
 45
0.0
1001
ACAD
1000
AcDbSavedByObjectVersion
1070
     0
  0
VISUALSTYLE
  5
1F03
102
{ACAD_XDICTIONARY
360
1F73
102
}
102
{ACAD_REACTORS
330
1F00
102
}
330
1F00
100
AcDbVisualStyle
  2
Gouraud
 70
     2
 71
     2
 72
     2
 73
     1
 90
        2
 40
-0.6
 41
30.0
 62
     5
 63
     7
 74
     0
 91
        0
 64
     7
 65
   257
 75
     1
175
     1
 42
1.0
 92
        0
 66
     7
 43
1.0
 76
     1
 77
     6
 78
     2
 67
     7
 79
     5
170
     0
171
     0
290
     0
174
     0
 93
       13
 44
0.0
173
     0
291
     1
 45
0.0
1001
ACAD
1000
AcDbSavedByObjectVersion
1070
     0
  0
VISUALSTYLE
  5
1F04
102
{ACAD_XDICTIONARY
360
1F75
102
}
102
{ACAD_REACTORS
330
1F00
102
}
330
1F00
100
AcDbVisualStyle
  2
GouraudWithEdges
 70
     3
 71
     2
 72
     2
 73
     1
 90
        2
 40
-0.6
 41
30.0
 62
     5
 63
     7
 74
     1
 91
        0
 64
     7
 65
   257
 75
     1
175
     1
 42
1.0
 92
        0
 66
   257
 43
1.0
 76
     1
 77
     6
 78
     2
 67
     7
 79
     5
170
     0
171
     0
290
     0
174
     0
 93
       13
 44
0.0
173
     0
291
     1
 45
0.0
1001
ACAD
1000
AcDbSavedByObjectVersion
1070
     0
  0
VISUALSTYLE
  5
1F08
102
{ACAD_XDICTIONARY
360
1F7D
102
}
102
{ACAD_REACTORS
330
1F00
102
}
330
1F00
100
AcDbVisualStyle
  2
Hidden
 70
     6
 71
     1
 72
     2
 73
     2
 90
        0
 40
-0.6
 41
-30.0
 62
     5
 63
     7
 74
     2
 91
        2
 64
     7
 65
   257
 75
     2
175
     1
 42
40.0
 92
        0
 66
   257
 43
1.0
 76
     1
 77
     6
 78
     2
 67
     7
 79
     3
170
     0
171
     0
290
     0
174
     0
 93
        1
 44
0.0
173
     0
291
     0
 45
0.0
1001
ACAD
1000
AcDbSavedByObjectVersion
1070
     0
  0
VISUALSTYLE
  5
1F16
102
{ACAD_XDICTIONARY
360
1F99
102
}
102
{ACAD_REACTORS
330
1F00
102
}
330
1F00
100
AcDbVisualStyle
  2
JitterOff
 70
    20
 71
     2
 72
     2
 73
     0
 90
        0
 40
-0.6
 41
-30.0
 62
     5
 63
     7
 74
     1
 91
        4
 64
     7
 65
   257
 75
     1
175
     1
 42
1.0
 92
       10
 66
     7
 43
1.0
 76
     1
 77
     6
 78
     2
 67
     7
 79
     5
170
     0
171
     0
290
     0
174
     0
 93
        1
 44
0.0
173
     0
291
     1
 45
0.0
1001
ACAD
1000
AcDbSavedByObjectVersion
1070
     0
  0
VISUALSTYLE
  5
1F0E
102
{ACAD_XDICTIONARY
360
1F89
102
}
102
{ACAD_REACTORS
330
1F00
102
}
330
1F00
100
AcDbVisualStyle
  2
Linepattern
 70
    14
 71
     2
 72
     2
 73
     0
 90
        0
 40
-0.6
 41
-30.0
 62
     5
 63
     7
 74
     1
 91
        4
 64
     7
 65
   257
 75
     7
175
     7
 42
1.0
 92
        8
 66
     7
 43
1.0
 76
     1
 77
     6
 78
     2
 67
     7
 79
     5
170
     0
171
     0
290
     0
174
     0
 93
        1
 44
0.0
173
     0
291
     1
 45
0.0
1001
ACAD
1000
AcDbSavedByObjectVersion
1070
     0
  0
VISUALSTYLE
  5
1F17
102
{ACAD_XDICTIONARY
360
1F9B
102
}
102
{ACAD_REACTORS
330
1F00
102
}
330
1F00
100
AcDbVisualStyle
  2
OverhangOff
 70
    21
 71
     2
 72
     2
 73
     0
 90
        0
 40
-0.6
 41
-30.0
 62
     5
 63
     7
 74
     1
 91
        4
 64
     7
 65
   257
 75
     1
175
     1
 42
1.0
 92
        9
 66
     7
 43
1.0
 76
     1
 77
     6
 78
     2
 67
     7
 79
     5
170
     0
171
     0
290
     0
174
     0
 93
        1
 44
0.0
173
     0
291
     1
 45
0.0
1001
ACAD
1000
AcDbSavedByObjectVersion
1070
     0
  0
VISUALSTYLE
  5
1F0A
102
{ACAD_XDICTIONARY
360
1F81
102
}
102
{ACAD_REACTORS
330
1F00
102
}
330
1F00
100
AcDbVisualStyle
  2
Realistic
 70
     8
 71
     2
 72
     3
 73
     0
 90
        2
 40
-0.6
 41
30.0
 62
     5
 63
     7
 74
     0
 91
        0
 64
     7
 65
   257
 75
     1
175
     1
 42
1.0
 92
        8
 66
   257
 43
1.0
 76
     1
 77
     6
 78
     2
 67
     7
 79
     3
170
     0
171
     0
290
     0
174
     0
 93
       13
 44
0.0
173
     0
291
     0
 45
0.0
1001
ACAD
1000
AcDbSavedByObjectVersion
1070
     0
  0
VISUALSTYLE
  5
1F15
102
{ACAD_XDICTIONARY
360
1F97
102
}
102
{ACAD_REACTORS
330
1F00
102
}
330
1F00
100
AcDbVisualStyle
  2
Shaded
 70
    27
 71
     2
 72
     2
 73
     1
 90
        2
 40
-0.6
 41
30.0
 62
     5
 63
     7
 74
     0
 91
        4
 64
     7
 65
   257
 75
     1
175
     1
 42
1.0
 92
        8
 66
   257
 43
1.0
 76
     1
 77
     6
 78
     2
 67
     8
 79
     3
170
     0
171
     0
290
     0
174
     0
 93
        5
 44
0.0
173
     0
291
     0
 45
0.0
1001
ACAD
1000
AcDbSavedByObjectVersion
1070
     0
  0
VISUALSTYLE
  5
1F14
102
{ACAD_XDICTIONARY
360
1F95
102
}
102
{ACAD_REACTORS
330
1F00
102
}
330
1F00
100
AcDbVisualStyle
  2
Shaded with edges
 70
    26
 71
     2
 72
     2
 73
     1
 90
        2
 40
-0.6
 41
30.0
 62
     5
 63
     7
 74
     1
 91
       10
 64
     7
 65
   257
 75
     2
175
     1
 42
1.0
 92
        8
 66
   257
 43
1.0
 76
     1
 77
     6
 78
     2
 67
     7
 79
     3
170
     0
171
     0
290
     0
174
     0
 93
        5
 44
0.0
173
     0
291
     0
 45
0.0
1001
ACAD
1000
AcDbSavedByObjectVersion
1070
     0
  0
VISUALSTYLE
  5
1F11
102
{ACAD_XDICTIONARY
360
1F8F
102
}
102
{ACAD_REACTORS
330
1F00
102
}
330
1F00
100
AcDbVisualStyle
  2
Shades of Gray
 70
    23
 71
     2
 72
     2
 73
     3
 90
        0
 40
-0.6
 41
-30.0
 62
     5
 63
     7
 74
     2
 91
        2
 64
     7
 65
     7
 75
     1
175
     1
 42
40.0
 92
        8
 66
     7
 43
1.0
 76
     1
 77
     6
 78
     2
 67
     7
 79
     3
170
     0
171
     0
290
     0
174
     0
 93
        1
 44
0.0
173
     0
291
     0
 45
0.0
1001
ACAD
1000
AcDbSavedByObjectVersion
1070
     0
  0
VISUALSTYLE
  5
1F12
102
{ACAD_XDICTIONARY
360
1F91
102
}
102
{ACAD_REACTORS
330
1F00
102
}
330
1F00
100
AcDbVisualStyle
  2
Sketchy
 70
    24
 71
     1
 72
     2
 73
     2
 90
        0
 40
-0.6
 41
-30.0
 62
     5
 63
     7
 74
     2
 91
        2
 64
     7
 65
     7
 75
     1
175
     1
 42
40.0
 92
       11
 66
     7
 43
1.0
 76
     1
 77
     6
 78
     2
 67
     7
 79
     6
170
     0
171
     0
290
     0
174
     0
 93
        1
 44
0.0
173
     0
291
     0
 45
0.0
1001
ACAD
1000
AcDbSavedByObjectVersion
1070
     0
  0
VISUALSTYLE
  5
1F0D
102
{ACAD_XDICTIONARY
360
1F87
102
}
102
{ACAD_REACTORS
330
1F00
102
}
330
1F00
100
AcDbVisualStyle
  2
Thicken
 70
    13
 71
     2
 72
     2
 73
     0
 90
        0
 40
-0.6
 41
-30.0
 62
     5
 63
     7
 74
     1
 91
        4
 64
     7
 65
   257
 75
     1
175
     1
 42
1.0
 92
       12
 66
     7
 43
1.0
 76
     1
 77
     6
 78
     2
 67
     7
 79
     5
170
     0
171
     0
290
     0
174
     0
 93
        1
 44
0.0
173
     0
291
     1
 45
0.0
1001
ACAD
1000
AcDbSavedByObjectVersion
1070
     0
  0
VISUALSTYLE
  5
1F07
102
{ACAD_XDICTIONARY
360
1F7B
102
}
102
{ACAD_REACTORS
330
1F00
102
}
330
1F00
100
AcDbVisualStyle
  2
Wireframe
 70
     5
 71
     0
 72
     2
 73
     0
 90
        0
 40
-0.6
 41
-30.0
 62
     5
 63
     7
 74
     1
 91
        4
 64
     7
 65
   257
 75
     1
175
     1
 42
1.0
 92
        0
 66
   257
 43
1.0
 76
     1
 77
     6
 78
     2
 67
     7
 79
     3
170
     0
171
     0
290
     0
174
     0
 93
        1
 44
0.0
173
     0
291
     0
 45
0.0
1001
ACAD
1000
AcDbSavedByObjectVersion
1070
     0
  0
VISUALSTYLE
  5
1F13
102
{ACAD_XDICTIONARY
360
1F93
102
}
102
{ACAD_REACTORS
330
1F00
102
}
330
1F00
100
AcDbVisualStyle
  2
X-Ray
 70
    25
 71
     2
 72
     2
 73
     1
 90
        1
 40
0.5
 41
-30.0
 62
     5
 63
     7
 74
     1
 91
        0
 64
     7
 65
   257
 75
     1
175
     1
 42
1.0
 92
        8
 66
     7
 43
1.0
 76
     1
 77
     6
 78
     2
 67
     7
 79
     3
170
     0
171
     0
290
     0
174
     0
 93
       13
 44
0.0
173
     0
291
     0
 45
0.0
1001
ACAD
1000
AcDbSavedByObjectVersion
1070
     0
  0
DICTIONARYVAR
  5
1F59
102
{ACAD_REACTORS
330
5E
102
}
330
5E
100
DictionaryVariables
280
     0
  1
1:1
  0
DICTIONARYVAR
  5
1F58
102
{ACAD_REACTORS
330
5E
102
}
330
5E
100
DictionaryVariables
280
     0
  1
STANDARD
  0
DICTIONARYVAR
  5
84
102
{ACAD_REACTORS
330
5E
102
}
330
5E
100
DictionaryVariables
280
     0
  1
STANDARD
  0
DICTIONARYVAR
  5
5F
102
{ACAD_REACTORS
330
5E
102
}
330
5E
100
DictionaryVariables
280
     0
  1
2
  0
DICTIONARYVAR
  5
63
102
{ACAD_REACTORS
330
5E
102
}
330
5E
100
DictionaryVariables
280
     0
  1
1
  0
DICTIONARYVAR
  5
1F5B
102
{ACAD_REACTORS
330
5E
102
}
330
5E
100
DictionaryVariables
280
     0
  1
0
  0
DICTIONARYVAR
  5
1E74
102
{ACAD_REACTORS
330
5E
102
}
330
5E
100
DictionaryVariables
280
     0
  1

  0
DICTIONARYVAR
  5
1F5A
102
{ACAD_REACTORS
330
5E
102
}
330
5E
100
DictionaryVariables
280
     0
  1
127
  0
DICTIONARYVAR
  5
1F5C
102
{ACAD_REACTORS
330
5E
102
}
330
5E
100
DictionaryVariables
280
     0
  1
0
  0
DICTIONARY
  5
1F4E
330
22
100
AcDbDictionary
280
     1
281
     1
  3
ACAD_XREC_ROUNDTRIP
360
1F66
  3
ADSK_XREC_LAYOUTTHUMBNAIL
360
1F4F
  0
DICTIONARY
  5
1F68
330
D3
100
AcDbDictionary
280
     1
281
     1
  3
ACAD_XREC_ROUNDTRIP
360
1F69
  0
DICTIONARY
  5
1F6A
330
D7
100
AcDbDictionary
280
     1
281
     1
  3
ACAD_XREC_ROUNDTRIP
360
1F6B
  0
DICTIONARY
  5
1EF1
330
1EF0
100
AcDbDictionary
280
     1
281
     1
  3
ACAD_XREC_ROUNDTRIP
360
1F6D
  3
BUMPTILE
360
1EF3
  3
DIFFUSETILE
360
1EF2
  3
OPACITYTILE
360
1EF6
  3
REFLECTIONTILE
360
1EF5
  3
REFRACTIONTILE
360
1EF7
  3
SPECULARTILE
360
1EF4
  0
DICTIONARY
  5
1EE9
330
1EE8
100
AcDbDictionary
280
     1
281
     1
  3
ACAD_XREC_ROUNDTRIP
360
1F6C
  3
BUMPTILE
360
1EEB
  3
DIFFUSETILE
360
1EEA
  3
OPACITYTILE
360
1EEE
  3
REFLECTIONTILE
360
1EED
  3
REFRACTIONTILE
360
1EEF
  3
SPECULARTILE
360
1EEC
  0
DICTIONARY
  5
1EF9
330
1EF8
100
AcDbDictionary
280
     1
281
     1
  3
ACAD_XREC_ROUNDTRIP
360
1F6E
  3
BUMPTILE
360
1EFB
  3
DIFFUSETILE
360
1EFA
  3
OPACITYTILE
360
1EFE
  3
REFLECTIONTILE
360
1EFD
  3
REFRACTIONTILE
360
1EFF
  3
SPECULARTILE
360
1EFC
  0
DICTIONARY
  5
1F5F
330
1F2C
100
AcDbDictionary
280
     1
281
     1
  3
ACAD_XREC_ROUNDTRIP
360
1F60
  0
DICTIONARY
  5
1F5D
330
7F
100
AcDbDictionary
280
     1
281
     1
  3
ACAD_ROUNDTRIP_2008_TABLESTYLE_CELLSTYLEMAP
360
1F5E
  3
ACAD_XREC_ROUNDTRIP
360
1F67
  0
DICTIONARY
  5
1F79
330
1F06
100
AcDbDictionary
280
     1
281
     1
  3
ACAD_XREC_ROUNDTRIP
360
1F7A
  0
DICTIONARY
  5
1F77
330
1F05
100
AcDbDictionary
280
     1
281
     1
  3
ACAD_XREC_ROUNDTRIP
360
1F78
  0
DICTIONARY
  5
1F85
330
1F0C
100
AcDbDictionary
280
     1
281
     1
  3
ACAD_XREC_ROUNDTRIP
360
1F86
  0
DICTIONARY
  5
1F8D
330
1F10
100
AcDbDictionary
280
     1
281
     1
  3
ACAD_XREC_ROUNDTRIP
360
1F8E
  0
DICTIONARY
  5
1F7F
330
1F09
100
AcDbDictionary
280
     1
281
     1
  3
ACAD_XREC_ROUNDTRIP
360
1F80
  0
DICTIONARY
  5
1F83
330
1F0B
100
AcDbDictionary
280
     1
281
     1
  3
ACAD_XREC_ROUNDTRIP
360
1F84
  0
DICTIONARY
  5
1F9D
330
1F18
100
AcDbDictionary
280
     1
281
     1
  3
ACAD_XREC_ROUNDTRIP
360
1F9E
  0
DICTIONARY
  5
1F8B
330
1F0F
100
AcDbDictionary
280
     1
281
     1
  3
ACAD_XREC_ROUNDTRIP
360
1F8C
  0
DICTIONARY
  5
1F6F
330
1F01
100
AcDbDictionary
280
     1
281
     1
  3
ACAD_XREC_ROUNDTRIP
360
1F70
  0
DICTIONARY
  5
1F71
330
1F02
100
AcDbDictionary
280
     1
281
     1
  3
ACAD_XREC_ROUNDTRIP
360
1F72
  0
DICTIONARY
  5
1F73
330
1F03
100
AcDbDictionary
280
     1
281
     1
  3
ACAD_XREC_ROUNDTRIP
360
1F74
  0
DICTIONARY
  5
1F75
330
1F04
100
AcDbDictionary
280
     1
281
     1
  3
ACAD_XREC_ROUNDTRIP
360
1F76
  0
DICTIONARY
  5
1F7D
330
1F08
100
AcDbDictionary
280
     1
281
     1
  3
ACAD_XREC_ROUNDTRIP
360
1F7E
  0
DICTIONARY
  5
1F99
330
1F16
100
AcDbDictionary
280
     1
281
     1
  3
ACAD_XREC_ROUNDTRIP
360
1F9A
  0
DICTIONARY
  5
1F89
330
1F0E
100
AcDbDictionary
280
     1
281
     1
  3
ACAD_XREC_ROUNDTRIP
360
1F8A
  0
DICTIONARY
  5
1F9B
330
1F17
100
AcDbDictionary
280
     1
281
     1
  3
ACAD_XREC_ROUNDTRIP
360
1F9C
  0
DICTIONARY
  5
1F81
330
1F0A
100
AcDbDictionary
280
     1
281
     1
  3
ACAD_XREC_ROUNDTRIP
360
1F82
  0
DICTIONARY
  5
1F97
330
1F15
100
AcDbDictionary
280
     1
281
     1
  3
ACAD_XREC_ROUNDTRIP
360
1F98
  0
DICTIONARY
  5
1F95
330
1F14
100
AcDbDictionary
280
     1
281
     1
  3
ACAD_XREC_ROUNDTRIP
360
1F96
  0
DICTIONARY
  5
1F8F
330
1F11
100
AcDbDictionary
280
     1
281
     1
  3
ACAD_XREC_ROUNDTRIP
360
1F90
  0
DICTIONARY
  5
1F91
330
1F12
100
AcDbDictionary
280
     1
281
     1
  3
ACAD_XREC_ROUNDTRIP
360
1F92
  0
DICTIONARY
  5
1F87
330
1F0D
100
AcDbDictionary
280
     1
281
     1
  3
ACAD_XREC_ROUNDTRIP
360
1F88
  0
DICTIONARY
  5
1F7B
330
1F07
100
AcDbDictionary
280
     1
281
     1
  3
ACAD_XREC_ROUNDTRIP
360
1F7C
  0
DICTIONARY
  5
1F93
330
1F13
100
AcDbDictionary
280
     1
281
     1
  3
ACAD_XREC_ROUNDTRIP
360
1F94
  0
XRECORD
  5
1F66
102
{ACAD_REACTORS
330
1F4E
102
}
330
1F4E
100
AcDbXrecord
280
     1
102
SHADEPLOT
 70
     0
102
SHADEPLOTRESLEVEL
 70
     2
102
SHADEPLOTCUSTOMDPI
 70
   300
  0
XRECORD
  5
1F4F
102
{ACAD_REACTORS
330
1F4E
102
}
330
1F4E
100
AcDbXrecord
280
     1
310
28000000000100009D0000000100080000000000009D0000000000000000000000010000000000003028210000000000C8C8C8000000000000000000000000000000000000000000000000000000000000000000330000006600000099000000CC000000FF00000000330000333300006633000099330000CC330000FF3300
310
0000660000336600006666000099660000CC660000FF66000000990000339900006699000099990000CC990000FF99000000CC000033CC000066CC000099CC0000CCCC0000FFCC000000FF000033FF000066FF000099FF0000CCFF0000FFFF000000003300330033006600330099003300CC003300FF003300003333003333
310
33006633330099333300CC333300FF33330000663300336633006666330099663300CC663300FF66330000993300339933006699330099993300CC993300FF99330000CC330033CC330066CC330099CC3300CCCC3300FFCC330000FF330033FF330066FF330099FF3300CCFF3300FFFF330000006600330066006600660099
310
006600CC006600FF00660000336600333366006633660099336600CC336600FF33660000666600336666006666660099666600CC666600FF66660000996600339966006699660099996600CC996600FF99660000CC660033CC660066CC660099CC6600CCCC6600FFCC660000FF660033FF660066FF660099FF6600CCFF6600
310
FFFF660000009900330099006600990099009900CC009900FF00990000339900333399006633990099339900CC339900FF33990000669900336699006666990099669900CC669900FF66990000999900339999006699990099999900CC999900FF99990000CC990033CC990066CC990099CC9900CCCC9900FFCC990000FF99
310
0033FF990066FF990099FF9900CCFF9900FFFF99000000CC003300CC006600CC009900CC00CC00CC00FF00CC000033CC003333CC006633CC009933CC00CC33CC00FF33CC000066CC003366CC006666CC009966CC00CC66CC00FF66CC000099CC003399CC006699CC009999CC00CC99CC00FF99CC0000CCCC0033CCCC0066CC
310
CC0099CCCC00CCCCCC00FFCCCC0000FFCC0033FFCC0066FFCC0099FFCC00CCFFCC00FFFFCC000000FF003300FF006600FF009900FF00CC00FF00FF00FF000033FF003333FF006633FF009933FF00CC33FF00FF33FF000066FF003366FF006666FF009966FF00CC66FF00FF66FF000099FF003399FF006699FF009999FF00CC
310
99FF00FF99FF0000CCFF0033CCFF0066CCFF0099CCFF00CCCCFF00FFCCFF0000FFFF0033FFFF0066FFFF0099FFFF00CCFFFF00FFFFFF00000000000D0D0D001A1A1A00282828003535350043434300505050005D5D5D006B6B6B00787878008686860093939300A1A1A100AEAEAE00BBBBBB00C9C9C900D6D6D600E4E4E400
310
F1F1F100FFFFFF000000000000000000000000000000000000000000000000000000000000000000000000000000000000000000000000000000000000000000000000000000000000000000000000000000000000000000000000000000000000000000000000000000000000000000000000000000000000000000000000
310
00000000000000000000000000000000000000000000000000000000000000000000000000000000000000000000000000000000000000000000000000000000000000000000000000000000000000000000000000000000000000000000000000000000000000000000000000000000000000000000000000000000000000
310
0000000000000000000000000000000000000000000000000000000000000000000000000000000000000000000000000000000000000000000000000000000000000000BEBEBEBEBEBEBEBEBEBEBEBEBEBEBEBEBEBEBEBEBEBEBEBEBEBEBEBEBEBEBEBEBEBEBEBEBEBEBEBEBEBEBEBEBEBEBEBEBEBEBEBEBEBEBEBEBEBEBE
310
BEBEBEBEBEBEBEBEBEBEBEBEBEBEBEBEBEBEBEBEBEBEBEBEBEBEBEBEBEBEBEBEBEBEBEBEBEBEBEBEBEBEBEBEBEBEBEBEBEBEBEBEBEBEBEBEBEBEBEBEBEBEBEBEBEBEBEBEBEBEBEBEBEBEBEBEBEBEBEBEBEBEBEBEBEBEBEBEBEBEBEBEBEBEBEBEBEBEBEBEBEBEBEBEBEBEBEBEBEBEBEBEBEBEBEBEBEBEBEBEBEBEBEBEBEBEBE
310
BEBEBEBEBEBEBEBEBEBEBEBEBEBEBEBEBEBEBEBEBEBEBEBEBEBEBEBEBEBEBEBEBEBE000000000000000000000000000000000000000000000000000000000000000000000000BE0000000000000000000000000000000000000000000000000000000000000000000000000000000000000000000000000000000000000000
310
00000000000000000000000000000000000000000000000000000000000000000000000000000000000000000000000000000000000000000000000000000000000000000000000000000000000000000000000000000000000000000000000000000000000000000000000000000000000000000000000000000000000000
310
0000000000000000000000000000000000000000000000000000000000000000000000BE000000000000000000000000000000000000000000000000000000000000000000000000BE000000000000000000000000000000000000000000000000000000000000000000000000000000000000000000000000000000000000
310
00000000000000000000000000000000000000000000000000000000000000000000000000000000000000000000000000000000000000000000000000000000000000000000000000000000000000000000000000000000000000000000000000000000000000000000000000000000000000000000000000000000000000
310
00000000000000000000000000000000000000000000000000000000000000000000000000BE000000000000000000000000000000000000000000000000000000000000000000000000BE00000000000000000000000000000000000000000000000000000000000000000000000000000000000000000000000000000000
310
00000000000000000000000000000000000000000000000000000000000000000000000000000000000000000000000000000000000000000000000000000000000000000000000000000000000000000000000000000000000000000000000000000000000000000000000000000000000000000000000000000000000000
310
000000000000000000000000000000000000000000000000000000000000000000000000000000BE000000000000000000000000000000000000000000000000000000000000000000000000BE0000000000000000000000000000000000000000000000000000000000000000000000000000000000000000000000000000
310
00000000000000000000000000000000000000000000000000000000000000000000000000000000000000000000000000000000000000000000000000000000000000000000000000000000000000000000000000000000000000000000000000000000000000000000000000000000000000000000000000000000000000
310
0000000000000000000000000000000000000000000000000000000000000000000000000000000000BE000000000000000000000000000000000000000000000000000000000000000000000000BE000000000000000000F5F5F5F5F5F5F5F5F5F5F5F5F5F5F5F5F5F5F5F5F5F5F5F5F5F5F5F5F5F5F5F5F5F5F5F5F5F5F5
310
F5F5F5F5F5F5F5F5F5F5F5F5F5F5F5F5F5F5F5F5F5F5F5F5F5F5F5F5F5F5F5F5F5F5F5F5F5F5F5F5F5F5F5F5F5F5F5F5F5F5F5F5F5F5F5F5F5F5F5F5F5F5F5F5F5F5F5F5F5F5F5F5F5F5F5F5F5F5F5F5F5F5F5F5F5F5F5F5F5F5F5F5F5F5F5F5F5F5F5F5F5F5F5F5F5F5F5F5F5F5F5F5F5F5F5F5F5F5F5F5F5F5F5F5F5F5F5
310
F5F5F5F5F5F5F5F5F5F5F5F5F5F5F5F5F5F5F5F5F5F5F5F5F5F5F5F5F5F5F5F5F5F5F5F5F5F5F500000000BE000000000000000000000000000000000000000000000000000000000000000000000000BE000000000000000000F5000000000000000000000000000000000000000000000000000000000000000000000000
310
00000000000000000000000000000000000000000000000000000000000000000000000000000000000000000000000000000000000000000000000000000000000000000000000000000000000000000000000000000000000000000000000000000000000000000000000000000000000000F500F5F5F5F50000F5F5F5F5
310
F5F5F5F5F5F5F5F5F5F5F5F5F5F5F5F5F5F5F5F5F5F5F5F5F5F5F5F5F5F5F5F5F5F5F5F5F5F50000F500000000BE000000000000000000000000000000000000000000000000000000000000000000000000BE000000000000000000F500000000000000000000000000000000000000000000000000000000000000000000
310
000000000000000000000000000000000000000000000000000000000000000000000000000000000000000000000000000000000000000000000000000000000000000000000000000000000000000000000000000000000000000000000000000000000000000000000000000000000000000000F5F5F5F5F5F5F500F5F5
310
F5F5F5F5F5F5F5F5F5F5F5F5F5F5F5F5F5F5F5F5F5F5F5F5F5F5F5F5F5F5F5F5F5F5F5F5F5F5F5F50000F500000000BE000000000000000000000000000000000000000000000000000000000000000000000000BE000000000000000000F50000000000000000000000000000000000000000000000000000000000000000
310
0000000000000000000000000000000000000000000000000000000000000000000000000000000000000000000000000000000000000000000000000000000000000000000000000000000000000000000000000000000000000000000000000000000000000000000000000000000000000000000000F5F5F5F5F5F5F500
310
F5F5F5F5F5F5F5F5F5F5F5F5F5F5F5F5F5F5F5F5F5F5F5F5F5F5F5F5F5F5F5F5F5F500000000000000000000F500000000BE000000000000000000000000000000000000000000000000000000000000000000000000BE000000000000000000F5000000000000000000000000000000000000000000000000000000000000
310
00000000000000000000000000000000000000000000000000000000000000000000000000000000000000000000000000000000000000000000000000000000000000000000000000000000000000000000000000000000000000000000000000000000000000000000000000000000000000000000000000F5F5F5F5F5F5
310
F500F5F5F5F5F5F5F5F5F5F5F5F5F5F5F5F5F5F5F5F5F5F5F5F5F5F5F5F5F5F5F5F5F5F500000000000000000000F500000000BE000000000000000000000000000000000000000000000000000000000000000000000000BE000000000000000000F500000000000000000000000000000000000000000000000000000000
310
000000000000000000000000000000000000000000000000000000000000000000000000000000000000000000000000000000000000000000000000000000000000000000000000000000000000000000000000000000000000000000000000000000000000000000000000000000000000000000000000000000F5F5F5F5
310
F5F5F500F5F5F5F5F5F5F5F5F5F5F5F5F5F5F5F5F5F5F5F5F5F5F5F5F5F5F5F5F5F5F5F5F5F500000000000000000000F500000000BE000000000000000000000000000000000000000000000000000000000000000000000000BE000000000000000000F50000000000000000000000000000000000000000000000000000
310
0000000000000000000000000000000000000000000000000000000000000000000000000000000000000000000000000000000000000000000000000000000000000000000000000000000000000000000000000000000000000000000000000000000000000000000000000000000000000000000000000000000000F500
310
F5F5F5F5F500F5F5F5F5F5F5F5F5F5F5F5F5F5F5F5F5F5F5F5F5F5F5F5F5F5F5F5F5F5F5F5F5F5F500000000000000000000F500000000BE000000000000000000000000000000000000000000000000000000000000000000000000BE000000000000000000F5000000000000000000000000000000000000000000000000
310
00000000000000000000000000000000000000000000000000000000000000000000000000000000000000000000000000000000000000000000000000000000000000000000000000000000000000000000000000000000000000000000000000000000000000000000000000000000000000000000000000000000000000
310
F5000000000000000000000000000000000000000000000000000000000000000000000000000000000000000000000000000000F500000000BE000000000000000000000000000000000000000000000000000000000000000000000000BE000000000000000000F500000000000000000000000000000000000000000000
310
00000000000000000000000000000000000000000000000000000000000000000000000000000000000000000000000000000000000000000000000000000000000000000000000000000000000000000000000000000000000000000000000000000000000000000000000000000000000000000000000000000000000000
310
0000F5F5F5F5F5F5F5F5F5F5F5F5F5F5F5F5F5F5F5F5F5F5F5F5F5F5F5F5F5F5F5F5F5F5F5F5F5F5F5F5F5F5F5F5F5F5F5F5F5F5F5F5F500000000BE000000000000000000000000000000000000000000000000000000000000000000000000BE000000000000000000F50000000000000000000000000000000000000000
310
00000000000000000000000000000000000000000000000000000000000000000000000000000000000000000000000000000000000000000000000000000000000000000000000000000000000000000000000000000000000000000000000000000000000000000000000000000000000000000000000000000000000000
310
00000000F500F5F5F5F50000F50000000000000000000000000000F5F50000000000000000000000000000F5000000000000000000000000F500000000BE000000000000000000000000000000000000000000000000000000000000000000000000BE000000000000000000F5000000000000000000000000000000000000
310
00000000000000000000000000000000000000000000000000000000000000000000000000000000000000000000000000000000000000000000000000000000000000000000000000000000000000000000000000000000000000000000000000000000000000000000000000000000000000000000000000000000000000
310
000000000000F500F5F5F5F50000F500000000000000000000000000F5F5F5F500000000000000000000000000F5000000000000000000000000F500000000BE000000000000000000000000000000000000000000000000000000000000000000000000BE000000000000000000F500000000000000000000000000000000
310
00000000000000000000000000000000000000000000000000000000000000000000000000000000000000000000000000000000000000000000000000000000000000000000000000000000000000000000000000000000000000000000000000000000000000000000000000000000000000000000000000000000000000
310
0000000000000000F500000000000000F50000000000000000000000000000F5F5F500000000000000000000000000F5000000000000000000000000F500000000BE000000000000000000000000000000000000000000000000000000000000000000000000BE000000000000000000F50000000000000000000000000000
310
00000000000000000000000000000000000000000000000000000000000000000000000000000000000000000000000000000000000000000000000000000000000000000000000000000000000000000000000000000000000000000000000000000000000000000000000000000000000000000000000000000000000000
310
00000000000000000000F500000000000000F5000000000000000000000000000000000000000000000000000000000000F5000000000000000000000000F500000000BE000000000000000000000000000000000000000000000000000000000000000000000000BE000000000000000000F5000000000000000000000000
310
00000000000000000000000000000000000000000000000000000000000000000000000000000000000000000000000000000000000000000000000000000000000000000000000000000000000000000000000000000000000000000000000000000000000000000000000000000000000000000000000000000000000000
310
000000000000000000000000F5F5F5F5F5F5F5F5F5F5F5F5F5F5F5F5F5F5F5F5F5F5F5F5F5F5F5F5F5F5F5F5F5F5F5F5F5F5F5F5F5F5F5F5F5F5F5F5F5F5F5F5F500000000BE000000000000000000000000000000000000000000000000000000000000000000000000BE000000000000000000F500000000000000000000
310
00000000000000000000000000000000000000000000000000000000000000000000000000000000000000000000000000000000000000000000000000000000000000000000000000000000000000000000000000000000000000000000000000000000000000000000000000000000000000000000000000000000000000
310
0000000000000000000000000000F500000000000000F5000000000000000000000000000000000000000000000000000000000000F500000000F500000000000000F500000000BE000000000000000000000000000000000000000000000000000000000000000000000000BE000000000000000000F50000000000000000
310
00000000000000000000000000000000000000000000000000000000000000000000000000000000000000000000000000000000000000000000000000000000000000000000000000000000000000000000000000000000000000000000000000000000000000000000000000000000000000000000000000000000000000
310
00000000000000000000000000000000F5F5F5F5F5F5F500F500000000000000000000F5F5F5F5F500F5F5F5F500000000000000000000F5F5F5F500F500F5F5F5F5F500F500000000BE000000000000000000000000000000000000000000000000000000000000000000000000BE000000000000000000F5000000000000
310
00000000000000000000000000000000000000000000000000000000000000000000000000000000000000000000000000000000000000000000000000000000000000000000000000000000000000000000000000000000000000000000000000000000000000000000000000000000000000000000000000000000000000
310
000000000000000000000000000000000000F500000000000000F500000000000000000000F500F5F5F5F5F500F5F500000000000000000000F500000000F500F500F5F5F500F500000000BE000000000000000000000000000000000000000000000000000000000000000000000000BE000000000000000000F500000000
310
00000000000000000000000000000000000000000000000000000000000000000000000000000000000000000000000000000000000000000000000000000000000000000000000000000000000000000000000000000000000000000000000000000000000000000000000000000000000000000000000000000000000000
310
0000000000000000000000000000000000000000F500000000000000F5000000000000000000000000000000000000000000000000000000000000F500000000F500000000000000F500000000BE000000000000000000000000000000000000000000000000000000000000000000000000BE000000000000000000F50000
310
00000000000000000000000000000000000000000000000000000000000000000000000000000000000000000000000000000000000000000000000000000000000000000000000000000000000000000000000000000000000000000000000000000000000000000000000000000000000000000000000000000000000000
310
00000000000000000000000000000000000000000000F5F5F5F5F5F5F5F5F5F5F5F5F5F5F5F5F5F5F5F5F5F5F5F5F5F5F5F5F5F5F5F5F5F5F5F5F5F5F5F5F5F5F5F5F5F5F5F5F5F5F5F5F500000000BE000000000000000000000000000000000000000000000000000000000000000000000000BE000000000000000000F5
310
00000000000000000000000000000000000000000000000000000000000000000000000000000000000000000000000000000000000000000000000000000000000000000000000000000000000000000000000000000000000000000000000000000000000000000000000000000000000000000000000000000000000000
310
00000000000000000000000000000000000000000000000000000000000000000000000000000000000000000000000000000000000000000000000000000000000000000000000000000000F500000000BE000000000000000000000000000000000000000000000000000000000000000000000000BE0000000000000000
310
00F50000000000000000000000000000000000000000000000000000000000000000000000000000000000000000000000000000000000000000000000000000000000000000000000000000000000000000000000000000000000000000000000000000000000000000000000000000000000000000000000000000000000
310
000000000000000000000000000000000000000000000000000000000000000000000000000000000000000000000000000000000000000000000000000000000000000000000000000000000000F500000000BE000000000000000000000000000000000000000000000000000000000000000000000000BE000000000000
310
000000F5000000000000000000000000000000000000000000000000000000000000000000000000000000000000000000000000000000000000000000000000000000000000000000000000000000000000000000000000000000000000000000000000000000000000000000000000000000000000000000000000000000
310
0000000000000000000000000000000000000000000000000000000000000000000000000000000000000000000000000000000000000000000000000000000000000000000000000000000000000000F500000000BE000000000000000000000000000000000000000000000000000000000000000000000000BE00000000
310
0000000000F500000000000000000000000000000000000000000000000000000000000000000000000000000000000000000000000000000000000000000000000000000000000000000000000000000000000000000000000000000000000000000000000000000000000000000000000000000000000000000000000000
310
00000000000000000000000000000000000000000000000000000000000000000000000000000000000000000000000000000000000000000000000000000000000000000000000000000000000000000000F500000000BE000000000000000000000000000000000000000000000000000000000000000000000000BE0000
310
00000000000000F50000000000000000000000000000000000000000000000000000000000000000000000000000000000000000000000000000000000000000000000000000000000000000000000000000000000000000000000000000000000000000000000000000000000000000000000000000000000000000000000
310
000000000000000000000000000000000000000000000000000000000000000000000000000000000000000000000000000000000000000000000000000000000000000000000000000000000000000000000000F500000000BE000000000000000000000000000000000000000000000000000000000000000000000000BE
310
000000000000000000F5000000000000000000000000000000000000000000000000000000000000000000000000000000000000000000000000000000000000000000000000000000000000000000000000000000000000000000000000000000000000000000000000000000000000000000000000000000000000000000
310
0000000000000000000000000000000000000000000000000000000000000000000000000000000000000000000000000000000000000000000000000000000000000000000000000000000000000000000000000000F500000000BE0000000000000000000000000000000000000000000000000000000000000000000000
310
00BE000000000000000000F500000000000000000000000000000000000000000000000000000000000000000000000000000000000000000000000000000000000000000000000000000000000000000000000000000000000000000000000000000000000000000000000000000000000000000000000000000000000000
310
00000000000000000000000000000000000000000000000000000000000000000000000000000000000000000000000000F500F5F5F5F5F5F5F5F5F5F5F5F500000000000000000000000000000000000000000000000000F500000000BE000000000000000000000000000000000000000000000000000000000000000000
310
000000BE000000000000000000F50000000000000000000000000000000000000000000000000000000000000000000000000000000000000000000000000000000000000000000000000000000000000000000000000000000000000000000000000000000000000000000000000000000000000000000000000000000000
310
0000000000000000000000000000000000000000000000000000000000000000000000000000000000000000000000000000F5F5F5F5F5F5F5F5F5F5F5F5F5F5F500000000000000000000000000000000000000000000000000F500000000BE00000000000000000000000000000000000000000000000000000000000000
310
0000000000BE000000000000000000F5000000000000000000000000000000000000000000000000000000000000000000000000000000000000000000000000000000000000000000000000000000000000000000000000000000000000000000000000000000000000000000000000000000000000000000000000000000
310
0000000000000000000000000000000000000000000000000000000000000000000000000000000000000000000000000000000000F5F5F5F5F5F5F5F5F5F5F5F5000000000000000000000000000000000000000000000000000000F500000000BE0000000000000000000000000000000000000000000000000000000000
310
00000000000000BE000000000000000000F500000000000000000000000000000000000000000000000000000000000000000000000000000000000000000000000000000000000000000000000000000000000000000000000000000000000000000000000000000000000000000000000000000000000000000000000000
310
00000000000000000000000000000000000000000000000000000000000000000000000000000000000000000000000000000000000000000000000000000000000000000000000000000000000000000000000000000000000000000000F500000000BE000000000000000000000000000000000000000000000000000000
310
000000000000000000BE000000000000000000F50000000000000000000000000000000000000000000000000000000000000000000000000000000000000000000000000000000000000000000000000000000000000000000000000000000000000000000000000000000000000000000000000000000000000000000000
310
000000000000000000000000000000000000000000000000000000000000000000000000000000000000000000000000000000000000000000000000000000000000000000000000000000000000000000000000000000000000000000000000F500000000BE00000000000000000000000000000000000000000000000000
310
0000000000000000000000BE000000000000000000F5000000000000000000000000000000000000000000000000000000000000000000000000000000000000000000000000000000000000000000000000000000000000000000000000000000000000000000000000000000000000000000000000000000000000000000
310
0000000000000000000000000000000000000000000000000000000000000000000000000000000000000000000000000000000000000000000000000000000000000000000000000000000000000000000000000000000000000000000000000000F500000000BE0000000000000000000000000000000000000000000000
310
00000000000000000000000000BE000000000000000000F500000000000000000000000000000000000000000000000000000000000000000000000000000000000000000000000000000000000000000000000000000000000000000000000000000000000000000000000000000000000000000000000000000000000000
310
00000000000000000000000000000000000000000000000000000000000000000000000000000000000000000000000000000000000000000000000000000000000000000000000000000000000000000000000000000000000000000000000000000000F500000000BE000000000000000000000000000000000000000000
310
000000000000000000000000000000BE000000000000000000F50000000000000000000000000000000000000000000000000000000000000000000000000000000000000000000000000000000000000000000000000000000000000000000000000000000000000000000000000000000000000000000000000000000000
310
000000000000000000000000000000000000000000000000000000000000000000000000000000000000000000000000000000000000000000000000000000000000000000000000000000000000000000000000000000000000000000000000000000000000F500000000BE00000000000000000000000000000000000000
310
0000000000000000000000000000000000BE000000000000000000F5000000000000000000000000000000000000000000000000000000000000000000000000000000000000000000000000000000000000000000000000000000000000000000000000000000000000000000000000000000000000000000000000000000
310
0000000000000000000000000000000000000000000000000000000000000000000000000000000000000000000000000000000000000000000000000000000000000000000000000000000000000000000000000000000000000000000000000000000000000000F500000000BE0000000000000000000000000000000000
310
00000000000000000000000000000000000000BE000000000000000000F500000000000000000000000000000000000000000000000000000000000000000000000000000000000000000000000000000000000000000000000000000000000000000000000000000000000000000000000000000000000000000000000000
310
00000000000000000000000000000000000000000000000000000000000000000000000000000000000000000000000000000000000000000000000000000000000000000000000000000000000000000000000000000000000000000000000000000000000000000000F500000000BE000000000000000000000000000000
310
000000000000000000000000000000000000000000BE000000000000000000F50000000000000000000000000000000000000000000000000000000000000000000000000000000000000000000000000000000000000000000000000000000000000000000000000000000000000000000000000000000000000000000000
310
000000000000000000000000000000000000000000000000000000000000000000000000000000000000000000000000000000000000000000000000000000000000000000000000000000000000000000000000000000000000000000000000000000000000000000000000F500000000BE00000000000000000000000000
310
0000000000000000000000000000000000000000000000BE000000000000000000F5000000000000000000000000000000000000000000000000000000000000000000000000000000000000000000000000000000000000000000000000000000000000000000000000000000000000000000000000000000000000000000
310
0000000000000000000000000000000000000000000000000000000000000000000000000000000000000000000000000000000000000000000000000000000000000000000000000000000000000000000000000000000000000000000000000000000000000000000000000000F500000000BE0000000000000000000000
310
00000000000000000000000000000000000000000000000000BE000000000000000000F500000000000000000000000000000000000000000000000000000000000000000000000000000000000000000000000000000000000000000000000000000000000000000000000000000000000000000000000000000000000000
310
00000000000000000000000000000000000000000000000000000000000000000000000000000000000000000000000000000000000000000000000000000000000000000000000000000000000000000000000000000000000000000000000000000000000000000000000000000000F500000000BE000000000000000000
310
000000000000000000000000000000000000000000000000000000BE000000000000000000F50000000000000000000000000000000000000000000000000000000000000000000000000000000000000000000000000000000000000000000000000000000000000000000000000000000000000000000000000000000000
310
000000000000000000000000000000000000000000000000000000000000000000000000000000000000000000000000000000000000000000000000000000000000000000000000000000000000000000000000000000000000000000000000000000000000000000000000000000000000F500000000BE00000000000000
310
0000000000000000000000000000000000000000000000000000000000BE000000000000000000F5000000000000000000000000000000000000000000000000000000000000000000000000000000000000000000000000000000000000000000000000000000000000000000000000000000000000000000000000000000
310
0000000000000000000000000000000000000000000000000000000000000000000000000000000000000000000000000000000000000000000000000000000000000000000000000000000000000000000000000000000000000000000000000000000000000000000000000000000000000000F500000000BE0000000000
310
00000000000000000000000000000000000000000000000000000000000000BE000000000000000000F500000000000000000000000000000000000000000000000000000000000000000000000000000000000000000000000000000000000000000000000000000000000000000000000000000000000000000000000000
310
00000000000000000000000000000000000000000000000000000000000000000000000000000000000000000000000000000000000000000000000000000000000000000000000000000000000000000000000000000000000000000000000000000000000000000000000000000000000000000000F500000000BE000000
310
000000000000000000000000000000000000000000000000000000000000000000BE000000000000000000F50000000000000000000000000000000000000000000000000000000000000000000000000000000000000000000000000000000000000000000000000000000000000000000000000000000000000000000000
310
000000000000000000000000000000000000000000000000000000000000000000000000000000000000000000000000000000000000000000000000000000000000000000000000000000000000000000000000000000000000000000000000000000000000000000000000000000000000000000000000F500000000BE00
310
0000000000000000000000000000000000000000000000000000000000000000000000BE000000000000000000F5000000000000000000000000000000000000000000000000000000000000000000000000000000000000000000000000000000000000000000000000000000000000000000000000000000000000000000
310
0000000000000000000000000000000000000000000000000000000000000000000000000000000000000000000000000000000000000000000000000000000000000000000000000000000000000000000000000000000000000000000000000000000000000000000000000000000000000000000000000000F500000000
310
BE000000000000000000000000000000000000000000000000000000000000000000000000BE000000000000000000F500000000000000000000000000000000000000000000000000000000000000000000000000000000000000000000000000000000000000000000000000000000000000000000000000000000000000
310
00000000000000000000000000000000000000000000000000000000000000000000000000000000000000000000000000000000000000000000000000000000000000000000000000000000000000000000000000000000000000000000000000000000000000000000000000000000000000000000000000000000F50000
310
0000BE000000000000000000000000000000000000000000000000000000000000000000000000BE000000000000000000F50000000000000000000000000000000000000000000000000000000000000000000000000000000000000000000000000000000000000000000000000000000000000000000000000000000000
310
000000000000000000000000000000000000000000000000000000000000000000000000000000000000000000000000000000000000000000000000000000000000000000000000000000000000000000000000000000000000000000000000000000000000000000000000000000000000000000000000000000000000F5
310
00000000BE000000000000000000000000000000000000000000000000000000000000000000000000BE000000000000000000F50000000000000000000000000000000000F5F5F5F5F5F5F500F5F5F5F5F5F5F5F5F5F5F5F5F5F5F5F5F5F5F5F5F5F5F5F5F5F5F5F5F5F5F5F5F5F5F5F5F5F5F5F5F5F5F5F5F5F5F5F5F5F5
310
F5F5F5F5000000000000000000000000000000000000000000000000000000000000000000000000000000000000000000000000000000000000000000000000000000000000000000000000000000000000000000000000000000000000000000000000000000000000000000000000000000000000000000000000000000
310
00F500000000BE000000000000000000000000000000000000000000000000000000000000000000000000BE000000000000000000F50000000000000000000000000000000000F5000000000000000F0F00000000000000000000000000000000000000000000000000000000000000000000000000000000000000000000
310
0000000000F500000000000000000000000000000000000000000000000000000000000000000000000000000000000000000000000000000000000000000000000000000000000000000000000000000000000000000000000000000000000000000000000000000000000000000000000000000000000000000000000000
310
000000F500000000BE000000000000000000000000000000000000000000000000000000000000000000000000BE000000000000000000F50000000000000000000000000000000000F5000000000000000F0F0F00000000000000000000000000000000000000000000000000000000000000000000000000000000000000
310
00000000000000F5F500000000000000000000000000000000000000000000000000000000000000000000000000000000000000000000000000000000000000000000000000000000000000000000000000000000000000000000000000000000000000000000000000000000000000000000000000000000000000000000
310
0000000000F500000000BE000000000000000000000000000000000000000000000000000000000000000000000000BE000000000000000000F50000000000000000000000000000000000F500000000000000F5F50FF5F5F5F5F5F5F5F5F5F5F5F5F5F5F5F5F5F5F5F5F5F5F5F5F5F5F5F5F5F5F5F5F5F5F5F5F5F5F5F5F5
310
F5F5F5F5F5F5F5F5F5F5F50000000000000000000000000000000000000000000000000000000000000000000000000000000000000000000000000000000000000000000000000000000000000000000000000000000000000000000000000000000000000000000000000000000000000000000000000000000000000000
310
00000000000000F500000000BE000000000000000000000000000000000000000000000000000000000000000000000000BE000000000000000000F50000000000000000000000000000000000F5000000000000000F0F0F000000000000000000000000000000000000000000000000000000000000000000000000000000
310
0000000000000000000000F500000000000000000000000000000000000000000000000000000000000000000000000000000000000000000000000000000000000000000000000000000000000000000000000000000000000000000000000000000000000000000000000000000000000000000000000000000000000000
310
000000000000000000F500000000BE000000000000000000000000000000000000000000000000000000000000000000000000BE000000000000000000F50000000000000000000000000000000000F500000000000000F5F5F5F5F5F5F5F5F5F5F5F5F5F5F5F5F5F5F5F5F5F5F5F5F5F5F5F5F5F5F5F5F5F5F5F5F5F5F5F5
310
F5F5F5F5F5F5F5F5F5F5F5F5F5F50000000000000000000000000000000000000000000000000000000000000000000000000000000000000000000000000000000000000000000000000000000000000000000000000000000000000000000000000000000000000000000000000000000000000000000000000000000000
310
0000000000000000000000F500000000BE000000000000000000000000000000000000000000000000000000000000000000000000BE000000000000000000F50000000000000000000000000000000000F500000000000000F500000000000000000000000000000000000000000000000000000000000000000000000000
310
000000000000000000000000000000F5000000000000000000000000000000000000000000000000000000000000000000000000000000000000000000000000000000000000000000000000000000000000000000000000000000000000000000000000000000000000000000000000000000000000000000000000000000
310
00000000000000000000000000F500000000BE000000000000000000000000000000000000000000000000000000000000000000000000BE000000000000000000F5000000000000000000000000000000F5F5F50000000000F5F5F5F5F5F5F5F5F5F5F5F5F5F5F5F5F5F5F5F5F5F5F5F5F5F5F5F5F5F5F5F5F5F5F5F5F5F5
310
F5F5F5F5F5F5F5F5F5F5F5F5F5F5F5F5F5F500000000000000000000000000000000000000000000000000000000000000000000000000000000000000000000000000000000000000000000000000000000000000000000000000000000000000000000000000000000000000000000000000000000000000000000000000
310
000000000000000000000000000000F500000000BE000000000000000000000000000000000000000000000000000000000000000000000000BE000000000000000000F5000000000000000000000000000000F5F5F50000000000F5000000F5F500000000000000F5F5F5F5F5F5F5F5F5F5F500F5F500000000000000F5F5
310
F5F5F5F5F5F5F5F5F500000000000000F50000F5F500000000000000000000000000000000000000000000000000000000000000000000000000000000000000000000000000000000000000000000000000000000000000000000000000000000000000000000000000000000000000000000000000000000000000000000
310
0000000000000000000000000000000000F500000000BE000000000000000000000000000000000000000000000000000000000000000000000000BE000000000000000000F5000000000000000000000000000000F5F5F5000000F5F5F500000000F500000000000000F5F500000000000000F5F50000F5F5000000000000
310
F5F50000F5F5F50000F5F5000000000000F5F5000000F50000000000000000000000000000000000000000000000000000000000000000000000000000000000000000000000000000000000000000000000000000000000000000000000000000000000000000000000000000000000000000000000000000000000000000
310
00000000000000000000000000000000000000F500000000BE000000000000000000000000000000000000000000000000000000000000000000000000BE000000000000000000F5000000000000000000000000000000F5F5F5000000F5F5F500000000F500000000000000F5F500000000000000F5F50000F5F500000000
310
0000F5F50000F5F5F50000F5F5000000000000F5F5000000F5000000000000000000000000000000000000000000000000000000000000000000000000000000000000000000000000000000000000000000000000000000000000000000000000000000000000000000000000000000000000000000000000000000000000
310
000000000000000000000000000000000000000000F500000000BE000000000000000000000000000000000000000000000000000000000000000000000000BE000000000000000000F5000000000000000000000000000000F5F5F5000000F5F5F5000000F5F500000000000000F5F5F5F5F5F5F5F5F5F5F50000F5F50000
310
00000000F5F5F5F5F5F5F5F5F5F5F5000000000000F5F5000000F500000000000000000000000000000000000000000000000000000000000000000000000000000000000000000000000000000000000000000000000000000000000000000000000000000000000000000000000000000000000000000000000000000000
310
0000000000000000000000000000000000000000000000F500000000BE000000000000000000000000000000000000000000000000000000000000000000000000BE000000000000000000F50000000000000000000000000000000000F50000000000F5F5F5F5F5F500000000000000F5F5F5F5F5F5F5F5F5F5F5F5F5F500
310
000000000000F5F5F5F5F5F5F5F5F5F5F500000000000000F5F5F5F5F50000000000000000000000000000000000000000000000000000000000000000000000000000000000000000000000000000000000000000000000000000000000000000000000000000000000000000000000000000000000000000000000000000
310
00000000000000000000000000000000000000000000000000F500000000BE000000000000000000000000000000000000000000000000000000000000000000000000BE000000000000000000F50000000000000000000000000000000000F500000000000000F50000F500000000000000F5000000000000000000F50000
310
000000000000000000F500000000000000F50000000000000000000000F5F5000000000000000000000000000000000000000000000000000000000000000000000000000000000000000000000000000000000000000000000000000000000000000000000000000000000000000000000000000000000000000000000000
310
000000000000000000000000000000000000000000000000000000F500000000BE000000000000000000000000000000000000000000000000000000000000000000000000BE000000000000000000F50000000000000000000000000000000000F5000000000000F5F5F5F5F5F5000000000000F5F500000000000000F5F5
310
0000000000000000000000F5F50000000000F5F5000000000000000000F5F5F5F5F5F50000000000000000000000000000000000000000000000000000000000000000000000000000000000000000000000000000000000000000000000000000000000000000000000000000000000000000000000000000000000000000
310
0000000000000000000000000000000000000000000000000000000000F500000000BE000000000000000000000000000000000000000000000000000000000000000000000000BE000000000000000000F50000000000000000000000000000000000F500000000000000F5F5F50000000000000000F5F5F5F5F5F5F5F5F5
310
F5F50000000000000000000000F5F5F5F5F5F5F5F5F50000000000000000000000F5F50000000000000000000000000000000000000000000000000000000000000000000000000000000000000000000000000000000000000000000000000000000000000000000000000000000000000000000000000000000000000000
310
00000000000000000000000000000000000000000000000000000000000000F500000000BE000000000000000000000000000000000000000000000000000000000000000000000000BE000000000000000000F50000000000000000000000000000000000F500000000000000F5F5F5000000000000000000000000F5F5F5
310
000000000000000000000000000000000000F5F5F50000000000000000000000000000F500000000000000000000000000000000000000000000000000000000000000000000000000000000000000000000000000000000000000000000000000000000000000000000000000000000000000000000000000000000000000
310
000000000000000000000000000000000000000000000000000000000000000000F500000000BE000000000000000000000000000000000000000000000000000000000000000000000000BE000000000000000000F50000000000000000000000000000000000F500000000000000F5000000000000000000000000000000
310
00000000000000000000000000000000000000000000000000000000000000000000000000F50000000000000000000000000000000000000000000000000000000000000000000000000000000000000000000000000000000000000000000000000000000000000000000000000000000000000000000000000000000000
310
0000000000000000000000000000000000000000000000000000000000000000000000F500000000BE000000000000000000000000000000000000000000000000000000000000000000000000BE000000000000000000F50000000000000000000000000000000000F5F5F5F5F5F5F500F5F5F5F5F5F5F5F5F5F5F5F5F5F5
310
F5F5F5F5F5F5F5F5F5F5F5F5F5F5F5F5F5F5F5F5F5F5F5F5F5F5F5F5F5F5F5F5F5F5F5F5F5F5F5F5000000000000000000000000000000000000000000000000000000000000000000000000000000000000000000000000000000000000000000000000000000000000000000000000000000000000000000000000000000
310
00000000000000000000000000000000000000000000000000000000000000000000000000F500000000BE000000000000000000000000000000000000000000000000000000000000000000000000BE000000000000000000F500000000000000000000000000000000000000000000000000000000000000000000000000
310
00000000000000000000000000000000000000000000000000000000000000000000000000000000000000000000000000000000000000000000000000000000000000000000000000000000000000000000000000000000000000000000000000000000000000000000000000000000000000000000000000000000000000
310
000000000000000000000000000000000000000000000000000000000000000000000000000000F500000000BE000000000000000000000000000000000000000000000000000000000000000000000000BE000000000000000000F50000000000000000000000000000000000000000000000000000000000000000000000
310
00000000000000000000000000000000000000000000000000000000000000000000000000000000000000000000000000000000000000000000000000000000000000000000000000000000000000000000000000000000000000000000000000000000000000000000000000000000000000000000000000000000000000
310
0000000000000000000000000000000000000000000000000000000000000000000000000000000000F500000000BE000000000000000000000000000000000000000000000000000000000000000000000000BE000000000000000000F500000000000000000000000000000000000000000000000000F500000000000000
310
000000000000000000000000000000000000000000000000000000000000000000000000000000000000000000F5000000000000000000000000000000000000000000000000000000000000000000000000000000000000000000000000000000000000000000000000000000000000000000000000000000000000000000
310
00000000000000000000000000000000000000000000000000000000000000000000000000000000000000F500000000BE000000000000000000000000000000000000000000000000000000000000000000000000BE000000000000000000F500000000000000000000000000000000000000000000000000F50000000000
310
0000000000000000000000000000000000000000000000000000000000000000000000000000000000000000000000F500000000000000000000000000000000000000000000000000000000000000000000000000000000000000000000000000000000000000000000000000000000000000000000000000000000000000
310
000000000000000000000000000000000000000000000000000000000000000000000000000000000000000000F500000000BE000000000000000000000000000000000000000000000000000000000000000000000000BE000000000000000000F500000000000000000000000000000000000000000000000000F5000000
310
00000000000000000000000000000000000000000000000000000000000000000000000000000000000000000000000000F50000000000000000000000000000000000000000000000000000000000000000000000000000000000000000000000000000000000000000000000000000000000000000000000000000000000
310
0000000000000000000000000000000000000000000000000000000000000000000000000000000000000000000000F500000000BE000000000000000000000000000000000000000000000000000000000000000000000000BE000000000000000000F500000000000000000000000000000000000000000000000000F5F5
310
F5F5F5F5F5F5F5F5F5F5F5F5F5F5F5F5F5F5F5F5F5F5F5F5F5F5F5F5F5F5F5F5F5F5F5F5F5F5F5F5F5F5F5F5F5F5F5F5F5F5F5F5000000000000000000000000000000000000000000000000000000000000000000000000000000000000000000000000000000000000000000000000000000000000000000000000000000
310
00000000000000000000000000000000000000000000000000000000000000000000000000000000000000000000000000F500000000BE000000000000000000000000000000000000000000000000000000000000000000000000BE000000000000000000F500000000000000000000000000000000000000000000000000
310
000000000000000000000000000000000000000000000000F5F5F5F5F5F500000000000000000000000000000000000000000000000000000000000000000000000000000000000000000000000000000000000000000000000000000000000000000000000000000000000000000000000000000000000000000000000000
310
000000000000000000000000000000000000000000000000000000000000000000000000000000000000000000000000000000F500000000BE000000000000000000000000000000000000000000000000000000000000000000000000BE000000000000000000F50000000000000000000000000000000000000000000000
310
0000000000000000000000000000000000000000000000000000F5F5F5F5F5F50000000000000000000000000000000000000000000000000000000000000000000000000000000000000000000000000000000000000000000000000000000000000000000000000000000000000000000000000000000000000000000000
310
0000000000000000000000000000000000000000000000000000000000000000000000000000000000000000000000000000000000F500000000BE000000000000000000000000000000000000000000000000000000000000000000000000BE000000000000000000F5000000000000000000000000000000000000000000
310
00000000000000000000000000000000000000000000000000000000000000000000000000000000000000000000000000000000000000000000000000000000000000000000000000000000000000000000000000000000000000000000000000000000000000000000000000000000000000000000000000000000000000
310
00000000000000000000000000000000000000000000000000000000000000000000000000000000000000000000000000000000000000F500000000BE000000000000000000000000000000000000000000000000000000000000000000000000BE000000000000000000F500000000000000000000000000000000000000
310
00000000000000000000000000000000000000000000000000000000000000000000000000000000000000000000000000000000000000000000000000000000000000000000000000000000000000000000000000000000000000000000000000000000000000000000000000000000000000000000000000000000000000
310
000000000000000000000000000000000000000000000000000000000000000000000000000000000000000000000000000000000000000000F500000000BE000000000000000000000000000000000000000000000000000000000000000000000000BE000000000000000000F50000000000000000000000000000000000
310
00000000000000000000000000000000000000000000000000000000000000000000000000000000000000000000000000000000000000000000000000000000000000000000000000000000000000000000000000000000000000000000000000000000000000000000000000000000000000000000000000000000000000
310
0000000000000000000000000000000000000000000000000000000000000000000000000000000000000000000000000000000000000000000000F500000000BE000000000000000000000000000000000000000000000000000000000000000000000000BE000000000000000000F5000000000000000000000000000000
310
00000000000000000000000000000000000000000000000000000000000000000000000000000000000000000000000000000000000000000000000000000000000000000000000000000000000000000000000000000000000000000000000000000000000000000000000000000000000000000000000000000000000000
310
00000000000000000000000000000000000000000000000000000000000000000000000000000000000000000000000000000000000000000000000000F500000000BE000000000000000000000000000000000000000000000000000000000000000000000000BE000000000000000000F500000000000000000000000000
310
000000000000000000000000000000000000000000000000000000000000000000000000F5F5F5F5F5F500000000000000000000000000000000000000000000000000000000000000000000000000000000000000000000000000000000000000000000000000000000000000000000000000000000000000000000000000
310
000000000000000000000000000000000000000000000000000000000000000000000000000000000000000000000000000000000000000000000000000000F500000000BE000000000000000000000000000000000000000000000000000000000000000000000000BE000000000000000000F50000000000000000000000
310
0000000000000000000000000000000000000000000000000000000000000000000000000000F5F5F5F5F5F50000000000000000000000000000000000000000000000000000000000000000000000000000000000000000000000000000000000000000000000000000000000000000000000000000000000000000000000
310
0000000000000000000000000000000000000000000000000000000000000000000000000000000000000000000000000000000000000000000000000000000000F500000000BE000000000000000000000000000000000000000000000000000000000000000000000000BE000000000000000000F5000000000000000000
310
00000000000000000000000000000000000000000000000000000000000000000000000000000000000000000000000000000000000000000000000000000000000000000000000000000000000000000000000000000000000000000000000000000000000000000000000000000000000000000000000000000000000000
310
00000000000000000000000000000000000000000000000000000000000000000000000000000000000000000000000000000000000000000000000000000000000000F500000000BE000000000000000000000000000000000000000000000000000000000000000000000000BE000000000000000000F500000000000000
310
00000000000000000000000000000000000000000000000000000000000000000000000000000000000000000000000000000000000000000000000000000000000000000000000000000000000000000000000000000000000000000000000000000000000000000000000000000000000000000000000000000000000000
310
000000000000000000000000000000000000000000000000000000000000000000000000000000000000000000000000000000000000000000000000000000000000000000F500000000BE000000000000000000000000000000000000000000000000000000000000000000000000BE000000000000000000F50000000000
310
00000000000000000000000000000000000000000000000000000000000000000000000000000000000000000000000000000000000000000000000000000000000000000000000000000000000000000000000000000000000000000000000000000000000000000000000000000000000000000000000000000000000000
310
0000000000000000000000000000000000000000000000000000000000000000000000000000000000000000000000000000000000000000000000000000000000000000000000F500000000BE000000000000000000000000000000000000000000000000000000000000000000000000BE000000000000000000F5000000
310
0000000000000000000000000000000000000000000000000000000000000000000000000000000000000000000000000000000000000000000000000000000000000000000000000000000000000000000000000000000000000000000000000000000000000000000000000000000000000000F5F5F5F500000000000000
310
000000000000000000000000000000000000000000000000000000000000000000F5F5F5F5F50000000000000000000000000000000000000000000000000000000000000000000000F500000000BE000000000000000000000000000000000000000000000000000000000000000000000000BE000000000000000000F500
310
00000000000000000000000000000000000000000000000000000000000000000000000000000000000000000000000000000000000000000000000000000000000000000000000000000000000000000000000000000000000000000000000000000000000000000000000000000000000000000000F5F5F5F5F500000000
310
0000000000000000000000000000000000000000000000000000000000000000000000F5F5F5F5F50000000000000000000000000000000000000000000000000000000000000000000000F500000000BE000000000000000000000000000000000000000000000000000000000000000000000000BE000000000000000000
310
F50000000000000000000000000000000000000000000000000000000000000000000000000000000000000000000000000000000000000000000000000000000000000000000000000000000000000000000000000000000000000000000000000000000000000000000000000000000000F50000000000F5F5F5F5F50000
310
000000F5000000000000000000000000000000000000000000000000000000F50000000000F5F5F5F5F50000000000F50000000000000000000000000000000000000000000000000000000000F500000000BE000000000000000000000000000000000000000000000000000000000000000000000000BE00000000000000
310
0000F500000000000000000000000000000000000000000000000000000000000000000000000000000000000000000000000000000000000000000000000000000000000000000000000000000000000000000000000000000000000000000000000000000000000000000000000000000000F5F5F5F5F5F5F5F5F5F5F5F5
310
F5F5F5F5F5F5F500000000000000000000000000000000000000000000000000F5F5F5F5F5F5F5F5F5F5F5F5F5F5F5F5F5F5F500000000000000000000000000000000000000000000000000000000F500000000BE000000000000000000000000000000000000000000000000000000000000000000000000BE0000000000
310
00000000F500000000000000000000000000000000000000000000000000000000000000000000000000000000000000000000000000000000000000000000000000000000000000000000000000000000000000000000000000000000000000000000000000000000000000000000000000000000F5F5F5F5F50000F5F5F5
310
F5F5F5F5F5F5F5F5F500000000000000000000000000000000000000000000000000F5F5F5F5F5F5F5F5F5F5F5F50000F5F5F5F5F500000000000000000000000000000000000000000000000000000000F500000000BE000000000000000000000000000000000000000000000000000000000000000000000000BE000000
310
000000000000F500000000000000000000000000000000000000000000000000000000000000000000000000000000000000000000000000000000000000000000000000000000000000000000000000000000000000000000000000000000000000000000000000000000000000000000000000000000F5F5F5F5F5F500F5
310
F5F5F5F5F5F5F5F5F5F5F500000000000000000000000000000000000000000000000000F5F5F5F5F5F5F5F5F5F5F5F500F5F5F5F5F5F500000000000000000000000000000000000000000000000000000000F500000000BE000000000000000000000000000000000000000000000000000000000000000000000000BE00
310
0000000000000000F500000000000000000000000000000000000000000000000000000000000000000000000000000000000000000000000000000000000000000000000000000000000000000000000000000000000000000000000000000000000000000000000000000000000000000000000000000000F5F5F5F5F5F5
310
F5F5F5F5F5F5F5F5F5F5F5F5F500000000000000000000000000000000000000000000000000F5F5F5F5F5F5F5F5F5F5F5F5F5F5F5F5F5F5F500000000000000000000000000000000000000000000000000000000F500000000BE000000000000000000000000000000000000000000000000000000000000000000000000
310
BE000000000000000000F500000000000000000000000000000000000000000000000000F5F5F5F500000000000000000000F5F5F5F5F500000000000000000000000000000000F5F5F5F5F5000000000000000000000000F5F5F5F500000000000000000000000000000000000000000000000000000000000000F5000000
310
0000F500000000F500F500000000F500000000000000000000000000000000000000000000000000F5000000F50000F500000000F50000000000F500000000000000000000000000000000000000000000000000000000F500000000BE00000000000000000000000000000000000000000000000000000000000000000000
310
0000BE000000000000000000F500000000000000000000000000000000000000000000000000F5F5F5F500000000000000000000F5F5F5F5F500000000000000000000000000000000F5F5F5F5F5000000000000000000000000F5F5F5F500000000000000000000000000000000000000000000000000000000000000F500
310
00000000F500000000F500F500000000F500000000000000000000000000000000000000000000000000F5000000F50000F500000000F50000000000F500000000000000000000000000000000000000000000000000000000F500000000BE0000000000000000000000000000000000000000000000000000000000000000
310
00000000BE000000000000000000F50000000000000000000000000000000000000000000000F5F5F5F5F5F5F5F5000000000000F5F5F5F5F5F5F5F5F5000000000000000000000000F5F5F5F5F5F5F5F5F50000000000000000F5F5F5F5F5F5F5000000000000000000000000000000000000000000000000000000000000
310
F50000000000F500000000F500F500000000F500000000000000000000000000000000000000000000000000F5000000F50000F500000000F50000000000F500000000000000000000000000000000000000000000000000000000F500000000BE000000000000000000000000000000000000000000000000000000000000
310
000000000000BE000000000000000000F500000000000000000000000000000000000000000000000000F50000F50000000000000000F500000000000000F5000000000000000000000000F500000000000000F50000000000000000000000F5F5000000000000000000000000000000000000000000000000000000000000
310
0000F50000000000F500000000F500F500000000F500000000000000000000000000000000000000000000000000F5000000F50000F500000000F50000000000F500000000000000000000000000000000000000000000000000000000F500000000BE00000000000000000000000000000000000000000000000000000000
310
0000000000000000BE000000000000000000F500000000000000000000000000000000000000000000000000F50000F50000000000000000F500000000000000F5000000000000000000000000F500000000000000F50000000000000000000000F5F500000000000000000000000000000000000000000000000000000000
310
00000000F50000000000F500000000F500F500000000F500000000000000000000000000000000000000000000000000F5000000F50000F500000000F50000000000F500000000000000000000000000000000000000000000000000000000F500000000BE0000000000000000000000000000000000000000000000000000
310
00000000000000000000BE000000000000000000F50000000000000000000000000000000000000000F500000000000000000000000000000000000000000000000000000000000000000000000000000000000000000000000000000000000000000000000000000000000000000000000000000000000000000000000000
310
00F50000000000000000000000000000000000000000000000000000000000000000000000000000000000000000000000000000000000000000000000000000000000000000000000F50000000000000000000000000000000000000000000000F500000000BE000000000000000000000000000000000000000000000000
310
000000000000000000000000BE000000000000000000F50000000000000000000000000000000000000000F50000000000000000000000000000000000000000000000000000000000000000000000000000000000000000000000000000000000000000000000000000000000000000000000000000000000000000000000
310
000000F500000000000000000000000000000000000000F5F5F500000000000000000000000000000000000000000000000000000000000000000000000000000000000000000000000000F50000000000000000000000000000000000000000000000F500000000BE00000000000000000000000000000000000000000000
310
0000000000000000000000000000BE000000000000000000F50000000000000000000000000000000000F5F5F5F5F5F5F500F5F5F5F5F5F5F5F5F5F5F5F5F5F5F5F5F5F5F5F5F5F5F5F5F5F5F5F5F5F5F5F5F5F5F5F5F5F5F5F5F5F5F5F5F5F5F5F5F5F5F5F5F5F5F500000000000000000000000000000000000000000000
310
000000F5F5F5F5F50000F5F5F5F5F5F5F50FF5F50FF5F5F5F5F5F5F5F500000000000000000000000000000000000000000000000000F5F5F5F5F5F5F5F50FF5F50FF5F5F5F5F5F5F50000F5F5F5F5F5000000000000000000000000000000000000000000F500000000BE0000000000000000000000000000000000000000
310
00000000000000000000000000000000BE000000000000000000F50000000000000000000000000000000000F5F5F5F500000000F500000F000000000000000F0000000000000000000F000000000000000000000F00000000000000000F0F00000000000000000000F5F50000000000000000000000000000000000000000
310
0000000000F5F5F500000000F50000000000F50000000FF500000000F5F5F500000000000000000000000000000000000000000000000000F5F5F500000000F50F000000F50000000000F500000000F5F5F5000000000000000000000000000000000000000000F500000000BE000000000000000000000000000000000000
310
000000000000000000000000000000000000BE000000000000000000F50000000000000000000000000000000000F5F5F5F500000000F500000F000000000000000F0000000000000000000F000000000000000000000F0000000000000000000F00000000000000000000F5F5000000000000000000000000000000000000
310
00000000000000F5F5F500000000F50000000000F50000000FF5000000F500F5F500000000000000000000000000000000000000000000000000F5F5F5F5F50000F500000000F50000000000F500000000F5F5F5000000000000000000000000000000000000000000F500000000BE00000000000000000000000000000000
310
0000000000000000000000000000000000000000BE000000000000000000F50000000000000000000000000000000000F50000F5F5F5F5000F0F0F0F0F0F0F0F0F0F0FF50F0F0F0F0F0F0F0F0FF50F0F0F0F0F0F0F0F0F0FF50F0F0F0F0F0F0F0F0FF50F0F0F0F0F0F0F0F0F0FF5F500000000000000000000000000000000
310
0000000000000000000000F5F5F50000F5F5F5F5F5F5F5F5F5F5F5F5000000F52DF5F500000000000000000000000000000000000000000000000000F500F500000000F5F5F5F5F5F5F5F5F5F5F5F50000F5F5F50000000000000000000000000000000000000000000000F500000000BE0000000000000000000000000000
310
00000000000000000000000000000000000000000000BE000000000000000000F50000000000000000000000000000000000F50000F500000000F50F0F0000000000000000000000000000000000000000000000000000000000000000000000000000000000000000000000000000F5000000000000000000000000000000
310
00000000000000000000000000F500000000000000000000000000000000F50000F5F5F5F5F5F5F5F5F50000000000000000000000000000000000000000F500F50000F5F5F5000000000000000000000000000000F50000000000000000000000000000000000000000000000F500000000BE000000000000000000000000
310
000000000000000000000000000000000000000000000000BE000000000000000000F50000000000000000000000000000000000F50000F500000000F5000F0000000000000000F5000000000000000000F500000000000000000000F5000000000000000000F500000000000000000000F5F5000000000000000000000000
310
000000000000000000000000000000F50000000000000000000000000000000000F500F52DF5F5F5F500F5F500000000000000000000000000000000F5F5F5F5F5F5F5F5F50000F5000000000000000000000000000000F50000000000000000000000000000000000000000000000F500000000BE00000000000000000000
310
0000000000000000000000000000000000000000000000000000BE000000000000000000F50000000000000000000000000000000000F500000000000000F5000F0000000000000000F5000000000000000000F500000000000000000000F5000000000000000000F500000000000000000000F5F500000000000000000000
310
0000000000000000000000000000000000000000000000000000000000000000000000F500F52DF50000F500F50000000000000000000000000000000000F500F50000F52DF5F5F5F5F5000000000000000000000000000000000000000000000000000000000000000000000000000000F500000000BE0000000000000000
310
00000000000000000000000000000000000000000000000000000000BE000000000000000000F50000000000000000000000000000000000F500000000000000F5000F0000000000000000F5000000000000000000F500000000000000000000F5000000000000000000F500000000000000000000F5F50000000000000000
310
00000000000000000000000000000000000000000000000000000000000000000000000000F500F52DF50000F500F50000000000000000000000000000000000F500F50000F52DF5F5F5F5F5000000000000000000000000000000000000000000000000000000000000000000000000000000F500000000BE000000000000
310
000000000000000000000000000000000000000000000000000000000000BE000000000000000000F50000000000000000000000000000000000F500000000000000F5F50FF5F5F5F5F5F5F5F5F5F5F5F5F5F5F5F5F5F5F5F5F5F5F5F5F5F5F5F5F5F5F5F5F5F5F5F5F5F5F5F5F5F5F5F5F5F5F5F5F5F5F5F5000000000000
310
0000000000000000000000000000000000000000000000000000000000000000000000F5F5F500F52D2D2D2D0000F5F5F5F5F50000000000000000000000000000F5F5F5F500002D2D2DF5F5F5F5F5F5F5F50000000000000000000000000000000000000000000000000000000000000000000000F500000000BE00000000
310
0000000000000000000000000000000000000000000000000000000000000000BE000000000000000000F500000000000000000000000000000000F5F500000000000000F5000F00F5F5F5F5000000000000F5F5F5F5F5000000000000F5F5F5F5000000000000F5F5F5F5F5000000000000F5F5F5F5000000F5F500000000
310
00000000000000000000000000000000000000000000000000000000000000000000000000F5000000F5F52DF5F500F5F5F5F5F5F50000000000000000000000000000F5F5F5F5F500F52DF5F50000000000F5F50000000000000000000000000000000000000000000000000000000000000000000000F500000000BE0000
310
00000000000000000000000000000000000000000000000000000000000000000000BE000000000000000000F5000000000000000000000000000000F5F5F500000000000000F5000F00F5F5F5F5000000000000F5F5F5F5F5000000000000F5F5F5F5000000000000F5F5F5F5F5000000000000F5F5F5F5000000F5F50000
310
000000000000000000000000000000000000000000000000000000000000000000000000000000F5000000F5F52DF5F500F5F5F5F5F5000000000000000000000000000000F5F5F5F5F500F5F52DF5000000000000F50000000000000000000000000000000000000000000000000000000000000000000000F500000000BE
310
000000000000000000000000000000000000000000000000000000000000000000000000BE000000000000000000F5000000000000000000000000000000F5F5F500000000000000F5000F0000000000000000000000000000000000000000000000000000000000000000000000000000000000000000000000000000F5F5
310
0000000000000000000000000000000000000000000000000000000000000000000000000000000000F5000000F5F52DF5F500F50000F5000000000000000000000000000000000000F500F500F5F52DF5000000000000F50000000000000000000000000000000000000000000000000000000000000000000000F5000000
310
00BE000000000000000000000000000000000000000000000000000000000000000000000000BE000000000000000000F5000000000000000000000000000000F5F5F500000000000000F5000F0000000000000000000000000000000000000000000000000000000000000000000000000000000000000000000000000000
310
F5F50000000000000000000000000000000000000000000000000000000000000000000000000000000000F5000000F5F52DF5F500F5F500F50000000000000000000000000000000000F5F500F5F5F5F5F5F5000000000000F50000000000000000000000000000000000000000000000000000000000000000000000F500
310
000000BE000000000000000000000000000000000000000000000000000000000000000000000000BE000000000000000000F5000000000000000000000000000000F5F5F500000000000000F50FF5000000000000000000000000000000000000000000000000000000000000000000000000000000000000000000000000
310
0000F5000000000000000000000000000000000000000000000000000000000000000000000000000000000000F5000000F5F52DF5F5F5F500F5F5000000000000000000000000000000000000F5F5F500F5F500F5000000000000F50000000000000000000000000000000000000000000000000000000000000000000000
310
F500000000BE000000000000000000000000000000000000000000000000000000000000000000000000BE000000000000000000F50000000000000000000000000000000000F500000000000000F500F500000000000000000000000000000000000000000000000000000000000000000000000000000000000000000000
310
00000000F500000000000000000000000000000000000000000000000000000000000000000000000000000000F5F5F5000000F5F52DF5F50000F5F5F500000000000000000000000000000000000000000000F5F500F5000000000000F5F5F500000000000000000000000000000000000000000000000000000000000000
310
0000F500000000BE000000000000000000000000000000000000000000000000000000000000000000000000BE000000000000000000F50000000000000000000000000000000000F500000000000000F500F50000000000000000000000000000000000000000000000000000000000000000000000000000000000000000
310
000000000000F500000000000000000000000000000000000000000000000000000000000000000000000000000000F5F5F5000000F5F500F5F5000000000000000000000000000000000000000000000000000000F5F5F5F5F50000000000F5F5F50000000000000000000000000000000000000000000000000000000000
310
00000000F500000000BE000000000000000000000000000000000000000000000000000000000000000000000000BE000000000000000000F50000000000000000000000000000000000F500000000000000F500F5000000000000000000000000000000000000000000000000000000000000000000000000000000000000
310
0000000000000000F500000000000000000000000000000000000000000000000000000000000000000000000000000000F5F5F5000000F5F500F5F5000000000000000000000000000000000000000000000000000000F5F5F5F5000000000000F5F5F5000000000000000000000000000000000000000000000000000000
310
000000000000F500000000BE000000000000000000000000000000000000000000000000000000000000000000000000BE000000000000000000F50000000000000000000000000000000000F5000000000000F5F5F5F5F5000000000000000000000000000000000000000000000000000000000000000000000000000000
310
00000000000000000000F500000000000000000000000000000000000000000000000000000000000000000000000000000000F5F5F50000F5F5F5F5F5F5000000000000000000000000000000000000000000000000000000F50000F5000000000000F5F5F500000000000000000000000000000000000000000000000000
310
0000000000000000F500000000BE000000000000000000000000000000000000000000000000000000000000000000000000BE000000000000000000F50000000000000000000000000000000000F500000000000000F5F5F50000000000000000000000000000000000000000000000000000000000000000000000000000
310
000000000000000000000000F500000000000000000000000000000000000000000000000000000000000000000000000000000000F5F5F5000000F5F5F5F50000000000000000000000000000000000000000000000000000000000F500F5000000000000F5F5F50000000000000000000000000000000000000000000000
310
00000000000000000000F500000000BE000000000000000000000000000000000000000000000000000000000000000000000000BE000000000000000000F50000000000000000000000000000000000F500000000000000F50000000000000000000000000000000000000000000000000000000000000000000000000000
310
0000000000000000000000000000F5000000000000000000000000000000000000000000000000000000000000000000000000000000000000F5000000F50000F50000000000000000000000000000000000000000000000000000000000F500F5000000000000F50000000000000000000000000000000000000000000000
310
000000000000000000000000F500000000BE000000000000000000000000000000000000000000000000000000000000000000000000BE000000000000000000F50000000000000000000000000000000000F500000000000000F5000000000000000000000000000000000000000000000000000000000000000000000000
310
00000000000000000000000000000000F5000000000000000000000000000000000000000000000000000000000000000000000000000000000000F5000000F50000F50000000000000000000000000000000000000000000000000000000000F500F5000000000000F5000000000000000000000000000000000000000000
310
0000000000000000000000000000F500000000BE000000000000000000000000000000000000000000000000000000000000000000000000BE000000000000000000F50000000000000000000000000000000000F500000000000000F500000000000000000000000000000000000000000000000000000000000000000000
310
000000000000000000000000000000000000F5000000000000000000000000000000000000000000000000000000000000000000000000000000000000F5000000F50000F50000000000000000000000000000000000000000000000000000000000F500F5000000000000F500000000000000000000000000000000000000
310
00000000000000000000000000000000F500000000BE000000000000000000000000000000000000000000000000000000000000000000000000BE000000000000000000F50000000000000000000000000000000000F500000000000000F50000000000000000000000000000000000000000000000000000000000000000
310
0000000000000000000000000000000000000000F5000000000000000000000000000000000000000000000000000000000000000000000000000000000000F5000000F50000F50000000000000000000000000000000000000000000000000000000000F500F50000000000F5F50000000000000000000000000000000000
310
000000000000000000000000000000000000F500000000BE000000000000000000000000000000000000000000000000000000000000000000000000BE000000000000000000F50000000000000000000000000000000000F5F5F5F5F5F5F500F5F5F5F5F5F5F5F5F5F5F5F5F5F5F5F5F5F5F5F5F5F5F5F5F5F5F5F5F5F5F5
310
F5F5F5F5F5F5F5F5F5F5F5F5F5F5F5F5F5F5F5F5F5F5F5000000000000000000000000000000000000000000000000000000000000000000000000000000000000F5F5F500F5F5F5F50000000000000000000000000000000000000000000000000000000000F5F5F50000F5F5F5F5F5000000000000000000000000000000
310
0000000000000000000000000000000000000000F500000000BE000000000000000000000000000000000000000000000000000000000000000000000000BE000000000000000000F5000000000000000000000000000000000000000000000000000000000000000000000000000000000000000000000000000000000000
310
00000000000000000000000000000000000000000000000000000000000000000000000000000000000000000000000000000000000000000000000000000000000000000000000000000000000000000000000000000000000000000000000000000000000000000000000000000000000000000000000000000000000000
310
00000000000000000000000000000000000000000000F500000000BE000000000000000000000000000000000000000000000000000000000000000000000000BE000000000000000000F500000000000000000000000000000000000000000000000000000000000000000000000000000000000000000000000000000000
310
00000000000000000000000000000000000000000000000000000000000000000000000000000000000000000000000000000000000000000000000000000000000000000000000000000000000000000000000000000000000000000000000000000000000000000000000000000000000000000000000000000000000000
310
000000000000000000000000000000000000000000000000F500000000BE000000000000000000000000000000000000000000000000000000000000000000000000BE000000000000000000F500000000000000000000000000000000000000000000000000F5000000000000000000000000000000000000000000000000
310
00000000000000000000000000000000000000000000000000000000F500000000000000000000000000000000000000000000000000000000000000000000000000000000000000000000F50000F50000000000000000000000000000000000000000000000000000000000F500F500000000000000000000000000000000
310
0000000000000000000000000000000000000000000000000000F500000000BE000000000000000000000000000000000000000000000000000000000000000000000000BE000000000000000000F500000000000000000000000000000000000000000000000000F500000000000000000000000000000000000000000000
310
000000000000000000000000000000000000000000000000000000000000F50000000000000000000000000000000000000000000000000000000000000000000000000000000000000000F5F5F5F5F5F5F5F500000000000000000000000000000000000000000000000000F5F5F5F5F5F5F5F50000000000000000000000
310
00000000000000000000000000000000000000000000000000000000F500000000BE000000000000000000000000000000000000000000000000000000000000000000000000BE000000000000000000F500000000000000000000000000000000000000000000000000F50000000000000000000000000000000000000000
310
0000000000000000000000000000000000000000000000000000000000000000F5000000000000000000000000000000000000000000000000000000000000000000000000000000000000000000F500F5F5F5F5000000000000000000000000000000000000000000000000000000F500F5F5F50000000000000000000000
310
000000000000000000000000000000000000000000000000000000000000F500000000BE000000000000000000000000000000000000000000000000000000000000000000000000BE000000000000000000F500000000000000000000000000000000000000000000000000F5F5F5F5F5F5F5F5F5F5F5F5F5F5F5F5F5F5F5
310
F5F5F5F5F5F5F5F5F5F5F5F5F5F5F5F5F5F5F5F5F5F5F5F5F5F5F5F5F5F5F5F5F5F5F500000000000000000000000000000000000000000000000000000000000000000000000000000000000000000000F5F5F5F50000000000000000000000000000000000000000000000000000000000F5F5F5F5000000000000000000
310
0000000000000000000000000000000000000000000000000000000000000000F500000000BE000000000000000000000000000000000000000000000000000000000000000000000000BE000000000000000000F5000000000000000000000000000000000000000000000000000000000000000000000000000000000000
310
00000000000000F5F5F5F5F5F50000000000000000000000000000000000000000000000000000000000000000000000000000000000000000000000000000000000000000000000000000000000000000000000F5F500000000000000000000000000000000000000000000000000000000000000F5F50000000000000000
310
00000000000000000000000000000000000000000000000000000000000000000000F500000000BE000000000000000000000000000000000000000000000000000000000000000000000000BE000000000000000000F500000000000000000000000000000000000000000000000000000000000000000000000000000000
310
000000000000000000F5F5F5F5F5F500000000000000000000000000000000000000000000000000000000000000000000000000000000000000000000000000000000000000000000000000000000000000000000000000000000000000000000000000000000000000000000000000000000000000000000000000000000
310
000000000000000000000000000000000000000000000000000000000000000000000000F500000000BE000000000000000000000000000000000000000000000000000000000000000000000000BE000000000000000000F50000000000000000000000000000000000000000000000000000000000000000000000000000
310
00000000000000000000000000000000000000000000000000000000000000000000000000000000000000000000000000000000000000000000000000000000000000000000000000000000000000000000000000000000000000000000000000000000000000000000000000000000000000000000000000000000000000
310
0000000000000000000000000000000000000000000000000000000000000000000000000000F500000000BE000000000000000000000000000000000000000000000000000000000000000000000000BE000000000000000000F5000000000000000000000000000000000000000000000000000000000000000000000000
310
00000000000000000000000000000000000000000000000000000000000000000000000000000000000000000000000000000000000000000000000000000000000000000000000000000000000000000000000000000000000000000000000000000000000000000000000000000000000000000000000000000000000000
310
00000000000000000000000000000000000000000000000000000000000000000000000000000000F500000000BE000000000000000000000000000000000000000000000000000000000000000000000000BE000000000000000000F500000000000000000000000000000000000000000000000000000000000000000000
310
00000000000000000000000000000000000000000000000000000000000000000000000000000000000000000000000000000000000000000000000000000000000000000000000000000000000000000000000000000000000000000000000000000000000000000000000000000000000000000000000000000000000000
310
000000000000000000000000000000000000000000000000000000000000000000000000000000000000F500000000BE000000000000000000000000000000000000000000000000000000000000000000000000BE000000000000000000F50000000000000000000000000000000000000000000000000000000000000000
310
0000000000000000000000000000000000F5F5F5F5F5F50000000000000000000000000000000000000000000000000000000000000000000000000000000000000000000000000000000000000000000000000000000000000000000000000000000000000000000000000000F5F5F5F5F500000000000000000000000000
310
0000000000000000000000000000000000000000000000000000000000000000000000000000000000000000F500000000BE000000000000000000000000000000000000000000000000000000000000000000000000BE000000000000000000F5000000000000000000000000000000000000000000000000000000000000
310
00000000000000000000000000000000000000F5F5F5F5F5F500000000000000000000000000000000000000000000000000000000000000000000000000000000000000000000000000000000000000000000000000000000000000000000000000000000000000000000000000F5F5F5F5F5F50000000000000000000000
310
00000000000000000000000000000000000000000000000000000000000000000000000000000000000000000000F500000000BE000000000000000000000000000000000000000000000000000000000000000000000000BE000000000000000000F500000000000000000000000000000000000000000000000000000000
310
000000000000000000000000000000000000000000F5F5F5F5F5F50000000000000000000000000000000000000000000000000000000000000000000000000000000000000000000000000000000000000000000000000000000000000000000000000000000000000000000000000000F5F5F5F5F5000000000000000000
310
000000000000000000000000000000000000000000000000000000000000000000000000000000000000000000000000F500000000BE000000000000000000000000000000000000000000000000000000000000000000000000BE000000000000000000F50000000000000000000000000000000000000000000000000000
310
00000000000000000000000000000000000000000000000000000000000000000000000000000000000000000000000000000000000000000000000000000000000000000000000000000000000000000000000000000000000000000000000000000000000000000000000000000000000000000000000000000000000000
310
0000000000000000000000000000000000000000000000000000000000000000000000000000000000000000000000000000F500000000BE000000000000000000000000000000000000000000000000000000000000000000000000BE000000000000000000F5000000000000000000000000000000000000000000000000
310
00000000000000000000000000000000000000000000000000000000000000000000000000000000000000000000000000000000000000000000000000000000000000000000000000000000000000000000000000000000000000000000000000000000000000000000000000000000000000000000000000000000000000
310
00000000000000000000000000000000000000000000000000000000000000000000000000000000000000000000000000000000F500000000BE000000000000000000000000000000000000000000000000000000000000000000000000BE000000000000000000F500000000000000000000000000000000000000000000
310
00000000000000000000000000000000000000000000000000000000000000000000000000000000000000000000000000000000000000000000000000000000000000000000000000000000000000000000000000000000000000000000000000000000000000000000000000000000000000000000000000000000000000
310
000000000000000000000000000000000000000000000000000000000000000000000000000000000000000000000000000000000000F500000000BE000000000000000000000000000000000000000000000000000000000000000000000000BE000000000000000000F50000000000000000000000000000000000000000
310
00000000000000000000000000000000000000000000000000000000000000000000000000000000000000000000000000000000000000000000000000000000000000000000000000000000000000000000000000000000000000000000000000000000000000000000000000000000000000000000000000000000000000
310
0000000000000000000000000000000000000000000000000000000000000000000000000000000000000000000000000000000000000000F500000000BE000000000000000000000000000000000000000000000000000000000000000000000000BE000000000000000000F5000000000000000000000000000000000000
310
00000000000000000000000000000000000000000000000000000000000000000000000000000000000000000000000000000000000000000000000000000000000000000000000000000000000000000000000000000000000000000000000000000000000000000000000000000000000000000000000000000000000000
310
00000000000000000000000000000000000000000000000000000000000000000000000000000000000000000000000000000000000000000000F500000000BE000000000000000000000000000000000000000000000000000000000000000000000000BE000000000000000000F500000000000000000000000000000000
310
00000000000000000000000000000000000000000000000000000000000000000000000000000000000000000000000000000000000000000000000000000000000000000000000000000000000000000000000000000000000000000000000000000000000000000000000000000000000000000000000000000000000000
310
000000000000000000000000000000000000000000000000000000000000000000000000000000000000000000000000000000000000000000000000F500000000BE000000000000000000000000000000000000000000000000000000000000000000000000BE000000000000000000F50000000000000000000000000000
310
00000000000000000000000000000000000000000000000000000000000000000000000000000000000000000000000000000000000000000000000000000000000000000000000000000000000000000000000000000000000000000000000000000000000000000000000000000000000000000000000000000000000000
310
0000000000000000000000000000000000000000000000000000000000000000000000000000000000000000000000000000000000000000000000000000F500000000BE000000000000000000000000000000000000000000000000000000000000000000000000BE000000000000000000F5000000000000000000000000
310
00000000000000000000000000000000000000000000000000000000000000000000000000000000000000000000000000000000000000000000000000000000000000000000000000000000000000000000000000000000000000000000000000000000000000000000000000000000000000000000000000000000000000
310
00000000000000000000000000000000000000000000000000000000000000000000000000000000000000000000000000000000000000000000000000000000F500000000BE000000000000000000000000000000000000000000000000000000000000000000000000BE000000000000000000F500000000000000000000
310
00000000000000000000000000000000000000000000000000000000000000000000000000000000000000000000000000000000000000000000000000000000000000000000000000000000000000000000000000000000000000000000000000000000000000000000000000000000000000000000000000000000000000
310
000000000000000000000000000000000000000000000000000000000000000000000000000000000000000000000000000000000000000000000000000000000000F500000000BE000000000000000000000000000000000000000000000000000000000000000000000000BE000000000000000000F50000000000000000
310
00000000000000000000000000000000000000000000000000000000000000000000000000000000000000000000000000000000000000000000000000000000000000000000000000000000000000000000000000000000000000000000000000000000000000000000000000000000000000000000000000000000000000
310
0000000000000000000000000000000000000000000000000000000000000000000000000000000000000000000000000000000000000000000000000000000000000000F500000000BE000000000000000000000000000000000000000000000000000000000000000000000000BE000000000000000000F5000000000000
310
00000000000000000000000000000000000000000000000000000000000000000000000000000000000000000000000000000000000000000000000000000000000000000000000000000000000000000000000000000000000000000000000000000000000000000000000000000000000000000000000000000000000000
310
00000000000000000000000000000000000000000000000000000000000000000000000000000000000000000000000000000000000000000000000000000000000000000000F500000000BE000000000000000000000000000000000000000000000000000000000000000000000000BE000000000000000000F5F5F5F5F5
310
F5F5F5F5F5F5F5F5F5F5F5F5F5F5F5F5F5F5F5F5F5F5F5F5F5F5F5F5F5F5F5F5F5F5F5F5F5F5F5F5F5F5F5F5F5F5F5F5F5F5F5F5F5F5F5F5F5F5F5F5F5F5F5F5F5F5F5F5F5F5F5F5F5F5F5F5F5F5F5F5F5F5F5F5F5F5F5F5F5F5F5F5F5F5F5F5F5F5F5F5F5F5F5F5F5F5F5F5F5F5F5F5F5F5F5F5F5F5F5F5F5F5F5F5F5F5F5
310
F5F5F5F5F5F5F5F5F5F5F5F5F5F5F5F5F5F5F5F5F5F5F5F5F5F5F5F5F5F5F5F5F5F5F5F5F5F5F5F5F5F5F5F5F5F5F5F5F5F5F5F5F5F5F5F5F5F5F5F5F5F5F5F5F5F5F5F5F5F5F5F5F500000000BE000000000000000000000000000000000000000000000000000000000000000000000000BE000000000000000000000000
310
00000000000000000000000000000000000000000000000000000000000000000000000000000000000000000000000000000000000000000000000000000000000000000000000000000000000000000000000000000000000000000000000000000000000000000000000000000000000000000000000000000000000000
310
00000000000000000000000000000000000000000000000000000000000000000000000000000000000000000000000000000000000000000000000000000000000000000000000000000000000000BE000000000000000000000000000000000000000000000000000000000000000000000000BE00000000000000000000
310
00000000000000000000000000000000000000000000000000000000000000000000000000000000000000000000000000000000000000000000000000000000000000000000000000000000000000000000000000000000000000000000000000000000000000000000000000000000000000000000000000000000000000
310
000000000000000000000000000000000000000000000000000000000000000000000000000000000000000000000000000000000000000000000000000000000000000000000000000000000000000000BE000000000000000000000000000000000000000000000000000000000000000000000000BE0000000000000000
310
00000000000000000000000000000000000000000000000000000000000000000000000000000000000000000000000000000000000000000000000000000000000000000000000000000000000000000000000000000000000000000000000000000000000000000000000000000000000000000000000000000000000000
310
0000000000000000000000000000000000000000000000000000000000000000000000000000000000000000000000000000000000000000000000000000000000000000000000000000000000000000000000BE000000000000000000000000000000000000000000000000000000000000000000000000BE000000000000
310
00000000000000000000000000000000000000000000000000000000000000000000000000000000000000000000000000000000000000000000000000000000000000000000000000000000000000000000000000000000000000000000000000000000000000000000000000000000000000000000000000000000000000
310
00000000000000000000000000000000000000000000000000000000000000000000000000000000000000000000000000000000000000000000000000000000000000000000000000000000000000000000000000BE000000000000000000000000000000000000000000000000000000000000000000000000BEBEBEBEBE
310
BEBEBEBEBEBEBEBEBEBEBEBEBEBEBEBEBEBEBEBEBEBEBEBEBEBEBEBEBEBEBEBEBEBEBEBEBEBEBEBEBEBEBEBEBEBEBEBEBEBEBEBEBEBEBEBEBEBEBEBEBEBEBEBEBEBEBEBEBEBEBEBEBEBEBEBEBEBEBEBEBEBEBEBEBEBEBEBEBEBEBEBEBEBEBEBEBEBEBEBEBEBEBEBEBEBEBEBEBEBEBEBEBEBEBEBEBEBEBEBEBEBEBEBEBEBEBE
310
BEBEBEBEBEBEBEBEBEBEBEBEBEBEBEBEBEBEBEBEBEBEBEBEBEBEBEBEBEBEBEBEBEBEBEBEBEBEBEBEBEBEBEBEBEBEBEBEBEBEBEBEBEBEBEBEBEBEBEBEBEBEBEBEBEBEBEBEBEBEBEBEBEBEBEBEBEBEBEBEBEBEBEBEBEBEBEBE000000000000000000000000000000000000000000000000000000000000000000000000000000
310
00000000000000000000000000000000000000000000000000000000000000000000000000000000000000000000000000000000000000000000000000000000000000000000000000000000000000000000000000000000000000000000000000000000000000000000000000000000000000000000000000000000000000
310
000000000000000000000000000000000000000000000000000000000000000000000000000000000000000000000000000000000000000000000000000000000000000000000000000000000000000000000000000000000000000000000000000000000000000000000000
  0
XRECORD
  5
1F69
102
{ACAD_REACTORS
330
1F68
102
}
330
1F68
100
AcDbXrecord
280
     1
102
SHADEPLOT
 70
     0
102
SHADEPLOTRESLEVEL
 70
     2
102
SHADEPLOTCUSTOMDPI
 70
   300
  0
XRECORD
  5
1F6B
102
{ACAD_REACTORS
330
1F6A
102
}
330
1F6A
100
AcDbXrecord
280
     1
102
SHADEPLOT
 70
     0
102
SHADEPLOTRESLEVEL
 70
     2
102
SHADEPLOTCUSTOMDPI
 70
   300
  0
XRECORD
  5
1F6D
102
{ACAD_REACTORS
330
1EF1
102
}
330
1EF1
100
AcDbXrecord
280
     1
102
MATERIAL
148
0.0
149
0.0
149
0.0
 93
        0
 94
      127
282
     0
 72
     0
 77
     0
171
     0
175
     0
179
     0
273
     0
  0
XRECORD
  5
1EF3
102
{ACAD_REACTORS
330
1EF1
102
}
330
1EF1
100
AcDbXrecord
280
     1
270
     1
271
     1
  0
XRECORD
  5
1EF2
102
{ACAD_REACTORS
330
1EF1
102
}
330
1EF1
100
AcDbXrecord
280
     1
270
     1
271
     1
  0
XRECORD
  5
1EF6
102
{ACAD_REACTORS
330
1EF1
102
}
330
1EF1
100
AcDbXrecord
280
     1
270
     1
271
     1
  0
XRECORD
  5
1EF5
102
{ACAD_REACTORS
330
1EF1
102
}
330
1EF1
100
AcDbXrecord
280
     1
270
     1
271
     1
  0
XRECORD
  5
1EF7
102
{ACAD_REACTORS
330
1EF1
102
}
330
1EF1
100
AcDbXrecord
280
     1
270
     1
271
     1
  0
XRECORD
  5
1EF4
102
{ACAD_REACTORS
330
1EF1
102
}
330
1EF1
100
AcDbXrecord
280
     1
270
     1
271
     1
  0
XRECORD
  5
1F6C
102
{ACAD_REACTORS
330
1EE9
102
}
330
1EE9
100
AcDbXrecord
280
     1
102
MATERIAL
148
0.0
149
0.0
149
0.0
 93
        0
 94
      127
282
     0
 72
     0
 77
     0
171
     0
175
     0
179
     0
273
     0
  0
XRECORD
  5
1EEB
102
{ACAD_REACTORS
330
1EE9
102
}
330
1EE9
100
AcDbXrecord
280
     1
270
     1
271
     1
  0
XRECORD
  5
1EEA
102
{ACAD_REACTORS
330
1EE9
102
}
330
1EE9
100
AcDbXrecord
280
     1
270
     1
271
     1
  0
XRECORD
  5
1EEE
102
{ACAD_REACTORS
330
1EE9
102
}
330
1EE9
100
AcDbXrecord
280
     1
270
     1
271
     1
  0
XRECORD
  5
1EED
102
{ACAD_REACTORS
330
1EE9
102
}
330
1EE9
100
AcDbXrecord
280
     1
270
     1
271
     1
  0
XRECORD
  5
1EEF
102
{ACAD_REACTORS
330
1EE9
102
}
330
1EE9
100
AcDbXrecord
280
     1
270
     1
271
     1
  0
XRECORD
  5
1EEC
102
{ACAD_REACTORS
330
1EE9
102
}
330
1EE9
100
AcDbXrecord
280
     1
270
     1
271
     1
  0
XRECORD
  5
1F6E
102
{ACAD_REACTORS
330
1EF9
102
}
330
1EF9
100
AcDbXrecord
280
     1
102
MATERIAL
148
0.0
149
0.0
149
0.0
 93
        0
 94
      127
282
     0
 72
     0
 77
     0
171
     0
175
     0
179
     0
273
     0
  0
XRECORD
  5
1EFB
102
{ACAD_REACTORS
330
1EF9
102
}
330
1EF9
100
AcDbXrecord
280
     1
270
     1
271
     1
  0
XRECORD
  5
1EFA
102
{ACAD_REACTORS
330
1EF9
102
}
330
1EF9
100
AcDbXrecord
280
     1
270
     1
271
     1
  0
XRECORD
  5
1EFE
102
{ACAD_REACTORS
330
1EF9
102
}
330
1EF9
100
AcDbXrecord
280
     1
270
     1
271
     1
  0
XRECORD
  5
1EFD
102
{ACAD_REACTORS
330
1EF9
102
}
330
1EF9
100
AcDbXrecord
280
     1
270
     1
271
     1
  0
XRECORD
  5
1EFF
102
{ACAD_REACTORS
330
1EF9
102
}
330
1EF9
100
AcDbXrecord
280
     1
270
     1
271
     1
  0
XRECORD
  5
1EFC
102
{ACAD_REACTORS
330
1EF9
102
}
330
1EF9
100
AcDbXrecord
280
     1
270
     1
271
     1
  0
XRECORD
  5
1F60
102
{ACAD_REACTORS
330
1F5F
102
}
330
1F5F
100
AcDbXrecord
280
     1
102
ACAD_ROUNDTRIP_2012_MLEADER_STYLE
298
     1
  0
CELLSTYLEMAP
  5
1F5E
102
{ACAD_REACTORS
330
1F5D
102
}
330
1F5D
100
AcDbCellStyleMap
 90
        3
300
CELLSTYLE
  1
TABLEFORMAT_BEGIN
 90
        5
170
     1
 91
        0
 92
    32768
 62
   257
 93
        1
300
CONTENTFORMAT
  1
CONTENTFORMAT_BEGIN
 90
        0
 91
        0
 92
        4
 93
        0
300

 40
0.0
140
1.0
 94
        5
 62
     0
340
11
144
6.0
309
CONTENTFORMAT_END
171
     1
301
MARGIN
  1
CELLMARGIN_BEGIN
 40
1.5
 40
1.5
 40
1.5
 40
1.5
 40
0.18
 40
0.18
309
CELLMARGIN_END
 94
        6
 95
        1
302
GRIDFORMAT
  1
GRIDFORMAT_BEGIN
 90
        0
 91
        1
 62
     0
 92
       -2
340
0
 93
        0
 40
0.045
309
GRIDFORMAT_END
 95
        2
302
GRIDFORMAT
  1
GRIDFORMAT_BEGIN
 90
        0
 91
        1
 62
     0
 92
       -2
340
0
 93
        0
 40
0.045
309
GRIDFORMAT_END
 95
        4
302
GRIDFORMAT
  1
GRIDFORMAT_BEGIN
 90
        0
 91
        1
 62
     0
 92
       -2
340
0
 93
        0
 40
0.045
309
GRIDFORMAT_END
 95
        8
302
GRIDFORMAT
  1
GRIDFORMAT_BEGIN
 90
        0
 91
        1
 62
     0
 92
       -2
340
0
 93
        0
 40
0.045
309
GRIDFORMAT_END
 95
       16
302
GRIDFORMAT
  1
GRIDFORMAT_BEGIN
 90
        0
 91
        1
 62
     0
 92
       -2
340
0
 93
        0
 40
0.045
309
GRIDFORMAT_END
 95
       32
302
GRIDFORMAT
  1
GRIDFORMAT_BEGIN
 90
        0
 91
        1
 62
     0
 92
       -2
340
0
 93
        0
 40
0.045
309
GRIDFORMAT_END
309
TABLEFORMAT_END
  1
CELLSTYLE_BEGIN
 90
        1
 91
        1
300
_TITLE
309
CELLSTYLE_END
300
CELLSTYLE
  1
TABLEFORMAT_BEGIN
 90
        5
170
     1
 91
        0
 92
        0
 62
   257
 93
        1
300
CONTENTFORMAT
  1
CONTENTFORMAT_BEGIN
 90
        0
 91
        0
 92
        4
 93
        0
300

 40
0.0
140
1.0
 94
        5
 62
     0
340
11
144
4.5
309
CONTENTFORMAT_END
171
     1
301
MARGIN
  1
CELLMARGIN_BEGIN
 40
1.5
 40
1.5
 40
1.5
 40
1.5
 40
0.18
 40
0.18
309
CELLMARGIN_END
 94
        6
 95
        1
302
GRIDFORMAT
  1
GRIDFORMAT_BEGIN
 90
        0
 91
        1
 62
     0
 92
       -2
340
0
 93
        0
 40
0.045
309
GRIDFORMAT_END
 95
        2
302
GRIDFORMAT
  1
GRIDFORMAT_BEGIN
 90
        0
 91
        1
 62
     0
 92
       -2
340
0
 93
        0
 40
0.045
309
GRIDFORMAT_END
 95
        4
302
GRIDFORMAT
  1
GRIDFORMAT_BEGIN
 90
        0
 91
        1
 62
     0
 92
       -2
340
0
 93
        0
 40
0.045
309
GRIDFORMAT_END
 95
        8
302
GRIDFORMAT
  1
GRIDFORMAT_BEGIN
 90
        0
 91
        1
 62
     0
 92
       -2
340
0
 93
        0
 40
0.045
309
GRIDFORMAT_END
 95
       16
302
GRIDFORMAT
  1
GRIDFORMAT_BEGIN
 90
        0
 91
        1
 62
     0
 92
       -2
340
0
 93
        0
 40
0.045
309
GRIDFORMAT_END
 95
       32
302
GRIDFORMAT
  1
GRIDFORMAT_BEGIN
 90
        0
 91
        1
 62
     0
 92
       -2
340
0
 93
        0
 40
0.045
309
GRIDFORMAT_END
309
TABLEFORMAT_END
  1
CELLSTYLE_BEGIN
 90
        2
 91
        1
300
_HEADER
309
CELLSTYLE_END
300
CELLSTYLE
  1
TABLEFORMAT_BEGIN
 90
        5
170
     1
 91
        0
 92
        0
 62
   257
 93
        1
300
CONTENTFORMAT
  1
CONTENTFORMAT_BEGIN
 90
        0
 91
        0
 92
        4
 93
        0
300

 40
0.0
140
1.0
 94
        2
 62
     0
340
11
144
4.5
309
CONTENTFORMAT_END
171
     1
301
MARGIN
  1
CELLMARGIN_BEGIN
 40
1.5
 40
1.5
 40
1.5
 40
1.5
 40
0.18
 40
0.18
309
CELLMARGIN_END
 94
        6
 95
        1
302
GRIDFORMAT
  1
GRIDFORMAT_BEGIN
 90
        0
 91
        1
 62
     0
 92
       -2
340
0
 93
        0
 40
0.045
309
GRIDFORMAT_END
 95
        2
302
GRIDFORMAT
  1
GRIDFORMAT_BEGIN
 90
        0
 91
        1
 62
     0
 92
       -2
340
0
 93
        0
 40
0.045
309
GRIDFORMAT_END
 95
        4
302
GRIDFORMAT
  1
GRIDFORMAT_BEGIN
 90
        0
 91
        1
 62
     0
 92
       -2
340
0
 93
        0
 40
0.045
309
GRIDFORMAT_END
 95
        8
302
GRIDFORMAT
  1
GRIDFORMAT_BEGIN
 90
        0
 91
        1
 62
     0
 92
       -2
340
0
 93
        0
 40
0.045
309
GRIDFORMAT_END
 95
       16
302
GRIDFORMAT
  1
GRIDFORMAT_BEGIN
 90
        0
 91
        1
 62
     0
 92
       -2
340
0
 93
        0
 40
0.045
309
GRIDFORMAT_END
 95
       32
302
GRIDFORMAT
  1
GRIDFORMAT_BEGIN
 90
        0
 91
        1
 62
     0
 92
       -2
340
0
 93
        0
 40
0.045
309
GRIDFORMAT_END
309
TABLEFORMAT_END
  1
CELLSTYLE_BEGIN
 90
        3
 91
        2
300
_DATA
309
CELLSTYLE_END
  0
XRECORD
  5
1F67
102
{ACAD_REACTORS
330
1F5D
102
}
330
1F5D
100
AcDbXrecord
280
     1
102
ACAD_ROUNDTRIP_PRE2007_TABLESTYLE
 90
        4
 91
        0
  1

 92
        4
 93
        0
  2

 94
        4
 95
        0
  3

  0
XRECORD
  5
1F7A
102
{ACAD_REACTORS
330
1F79
102
}
330
1F79
100
AcDbXrecord
280
     1
102
RTVSPropertyOp0
 70
     1
102
RTVSPropertyOp1
 70
     1
102
RTVSPropertyOp2
 70
     1
102
RTVSPropertyOp3
 70
     1
102
RTVSPropertyOp4
 70
     1
102
RTVSPropertyOp5
 70
     1
102
RTVSPropertyOp6
 70
     1
102
RTVSPropertyOp7
 70
     1
102
RTVSPropertyOp8
 70
     1
102
RTVSPropertyOp9
 70
     1
102
RTVSPropertyOp10
 70
     1
102
RTVSPropertyOp11
 70
     1
102
RTVSPropertyOp12
 70
     1
102
RTVSPropertyOp13
 70
     1
102
RTVSPropertyOp14
 70
     1
102
RTVSPropertyOp15
 70
     1
102
RTVSPropertyOp16
 70
     1
102
RTVSPropertyOp17
 70
     1
102
RTVSPropertyOp18
 70
     1
102
RTVSPropertyOp19
 70
     1
102
RTVSPropertyOp20
 70
     1
102
RTVSPropertyOp21
 70
     1
102
RTVSPropertyOp22
 70
     1
102
RTVSPropertyOp23
 70
     1
102
RTVSPropertyOp24
 70
     1
102
RTVSPropertyOp25
 70
     1
102
RTVSPropertyOp26
 70
     1
102
RTVSPropertyOp27
 70
     1
102
RTVSPropertyOp28
 70
     1
102
RTVSPropertyOp29
 70
     1
102
RTVSPropertyOp30
 70
     1
102
RTVSPropertyOp31
 70
     1
102
RTVSPropertyOp32
 70
     1
  0
XRECORD
  5
1F78
102
{ACAD_REACTORS
330
1F77
102
}
330
1F77
100
AcDbXrecord
280
     1
102
RTVSPropertyOp0
 70
     1
102
RTVSPropertyOp1
 70
     1
102
RTVSPropertyOp2
 70
     1
102
RTVSPropertyOp3
 70
     1
102
RTVSPropertyOp4
 70
     1
102
RTVSPropertyOp5
 70
     1
102
RTVSPropertyOp6
 70
     1
102
RTVSPropertyOp7
 70
     1
102
RTVSPropertyOp8
 70
     1
102
RTVSPropertyOp9
 70
     1
102
RTVSPropertyOp10
 70
     1
102
RTVSPropertyOp11
 70
     1
102
RTVSPropertyOp12
 70
     1
102
RTVSPropertyOp13
 70
     1
102
RTVSPropertyOp14
 70
     1
102
RTVSPropertyOp15
 70
     1
102
RTVSPropertyOp16
 70
     1
102
RTVSPropertyOp17
 70
     1
102
RTVSPropertyOp18
 70
     1
102
RTVSPropertyOp19
 70
     1
102
RTVSPropertyOp20
 70
     1
102
RTVSPropertyOp21
 70
     1
102
RTVSPropertyOp22
 70
     1
102
RTVSPropertyOp23
 70
     1
102
RTVSPropertyOp24
 70
     1
102
RTVSPropertyOp25
 70
     1
102
RTVSPropertyOp26
 70
     1
102
RTVSPropertyOp27
 70
     1
102
RTVSPropertyOp28
 70
     1
102
RTVSPropertyOp29
 70
     1
102
RTVSPropertyOp30
 70
     1
102
RTVSPropertyOp31
 70
     1
102
RTVSPropertyOp32
 70
     1
  0
XRECORD
  5
1F86
102
{ACAD_REACTORS
330
1F85
102
}
330
1F85
100
AcDbXrecord
280
     1
102
RTVSPropertyOp0
 70
     1
102
RTVSPropertyOp1
 70
     1
102
RTVSPropertyOp2
 70
     1
102
RTVSPropertyOp3
 70
     1
102
RTVSPropertyOp4
 70
     1
102
RTVSPropertyOp5
 70
     1
102
RTVSPropertyOp6
 70
     1
102
RTVSPropertyOp7
 70
     1
102
RTVSPropertyOp8
 70
     1
102
RTVSPropertyOp9
 70
     1
102
RTVSPropertyOp10
 70
     1
102
RTVSPropertyOp11
 70
     1
102
RTVSPropertyOp12
 70
     1
102
RTVSPropertyOp13
 70
     1
102
RTVSPropertyOp14
 70
     1
102
RTVSPropertyOp15
 70
     1
102
RTVSPropertyOp16
 70
     1
102
RTVSPropertyOp17
 70
     1
102
RTVSPropertyOp18
 70
     1
102
RTVSPropertyOp19
 70
     1
102
RTVSPropertyOp20
 70
     1
102
RTVSPropertyOp21
 70
     1
102
RTVSPropertyOp22
 70
     1
102
RTVSPropertyOp23
 70
     1
102
RTVSPropertyOp24
 70
     1
102
RTVSPropertyOp25
 70
     1
102
RTVSPropertyOp26
 70
     1
102
RTVSPropertyOp27
 70
     1
102
RTVSPropertyOp28
 70
     1
102
RTVSPropertyOp29
 70
     1
102
RTVSPropertyOp30
 70
     1
102
RTVSPropertyOp31
 70
     1
102
RTVSPropertyOp32
 70
     1
  0
XRECORD
  5
1F8E
102
{ACAD_REACTORS
330
1F8D
102
}
330
1F8D
100
AcDbXrecord
280
     1
102
RTVSPropertyOp0
 70
     1
102
RTVSPropertyOp1
 70
     1
102
RTVSPropertyOp2
 70
     1
102
RTVSPropertyOp3
 70
     1
102
RTVSPropertyOp4
 70
     1
102
RTVSPropertyOp5
 70
     1
102
RTVSPropertyOp6
 70
     1
102
RTVSPropertyOp7
 70
     1
102
RTVSPropertyOp8
 70
     1
102
RTVSPropertyOp9
 70
     1
102
RTVSPropertyOp10
 70
     1
102
RTVSPropertyOp11
 70
     1
102
RTVSPropertyOp12
 70
     1
102
RTVSPropertyOp13
 70
     1
102
RTVSPropertyOp14
 70
     1
102
RTVSPropertyOp15
 70
     1
102
RTVSPropertyOp16
 70
     1
102
RTVSPropertyOp17
 70
     1
102
RTVSPropertyOp18
 70
     1
102
RTVSPropertyOp19
 70
     1
102
RTVSPropertyOp20
 70
     1
102
RTVSPropertyOp21
 70
     1
102
RTVSPropertyOp22
 70
     1
102
RTVSPropertyOp23
 70
     1
102
RTVSPropertyOp24
 70
     1
102
RTVSPropertyOp25
 70
     1
102
RTVSPropertyOp26
 70
     1
102
RTVSPropertyOp27
 70
     1
102
RTVSPropertyOp28
 70
     1
102
RTVSPropertyOp29
 70
     1
102
RTVSPropertyOp30
 70
     1
102
RTVSPropertyOp31
 70
     1
102
RTVSPropertyOp32
 70
     1
  0
XRECORD
  5
1F80
102
{ACAD_REACTORS
330
1F7F
102
}
330
1F7F
100
AcDbXrecord
280
     1
102
RTVSPropertyOp0
 70
     1
102
RTVSPropertyOp1
 70
     1
102
RTVSPropertyOp2
 70
     1
102
RTVSPropertyOp3
 70
     1
102
RTVSPropertyOp4
 70
     1
102
RTVSPropertyOp5
 70
     1
102
RTVSPropertyOp6
 70
     1
102
RTVSPropertyOp7
 70
     1
102
RTVSPropertyOp8
 70
     1
102
RTVSPropertyOp9
 70
     1
102
RTVSPropertyOp10
 70
     1
102
RTVSPropertyOp11
 70
     1
102
RTVSPropertyOp12
 70
     1
102
RTVSPropertyOp13
 70
     1
102
RTVSPropertyOp14
 70
     1
102
RTVSPropertyOp15
 70
     1
102
RTVSPropertyOp16
 70
     1
102
RTVSPropertyOp17
 70
     1
102
RTVSPropertyOp18
 70
     1
102
RTVSPropertyOp19
 70
     1
102
RTVSPropertyOp20
 70
     1
102
RTVSPropertyOp21
 70
     1
102
RTVSPropertyOp22
 70
     1
102
RTVSPropertyOp23
 70
     1
102
RTVSPropertyOp24
 70
     1
102
RTVSPropertyOp25
 70
     1
102
RTVSPropertyOp26
 70
     1
102
RTVSPropertyOp27
 70
     1
102
RTVSPropertyOp28
 70
     1
102
RTVSPropertyOp29
 70
     1
102
RTVSPropertyOp30
 70
     1
102
RTVSPropertyOp31
 70
     1
102
RTVSPropertyOp32
 70
     1
  0
XRECORD
  5
1F84
102
{ACAD_REACTORS
330
1F83
102
}
330
1F83
100
AcDbXrecord
280
     1
102
RTVSPropertyOp0
 70
     1
102
RTVSPropertyOp1
 70
     1
102
RTVSPropertyOp2
 70
     1
102
RTVSPropertyOp3
 70
     1
102
RTVSPropertyOp4
 70
     1
102
RTVSPropertyOp5
 70
     1
102
RTVSPropertyOp6
 70
     1
102
RTVSPropertyOp7
 70
     1
102
RTVSPropertyOp8
 70
     1
102
RTVSPropertyOp9
 70
     1
102
RTVSPropertyOp10
 70
     1
102
RTVSPropertyOp11
 70
     1
102
RTVSPropertyOp12
 70
     1
102
RTVSPropertyOp13
 70
     1
102
RTVSPropertyOp14
 70
     1
102
RTVSPropertyOp15
 70
     1
102
RTVSPropertyOp16
 70
     1
102
RTVSPropertyOp17
 70
     1
102
RTVSPropertyOp18
 70
     1
102
RTVSPropertyOp19
 70
     1
102
RTVSPropertyOp20
 70
     1
102
RTVSPropertyOp21
 70
     1
102
RTVSPropertyOp22
 70
     1
102
RTVSPropertyOp23
 70
     1
102
RTVSPropertyOp24
 70
     1
102
RTVSPropertyOp25
 70
     1
102
RTVSPropertyOp26
 70
     1
102
RTVSPropertyOp27
 70
     1
102
RTVSPropertyOp28
 70
     1
102
RTVSPropertyOp29
 70
     1
102
RTVSPropertyOp30
 70
     1
102
RTVSPropertyOp31
 70
     1
102
RTVSPropertyOp32
 70
     1
  0
XRECORD
  5
1F9E
102
{ACAD_REACTORS
330
1F9D
102
}
330
1F9D
100
AcDbXrecord
280
     1
102
RTVSPropertyOp0
 70
     0
102
RTVSPropertyOp1
 70
     0
102
RTVSPropertyOp2
 70
     0
102
RTVSPropertyOp3
 70
     0
102
RTVSPropertyOp4
 70
     0
102
RTVSPropertyOp5
 70
     0
102
RTVSPropertyOp6
 70
     0
102
RTVSPropertyOp7
 70
     0
102
RTVSPropertyOp8
 70
     0
102
RTVSPropertyOp9
 70
     0
102
RTVSPropertyOp10
 70
     0
102
RTVSPropertyOp11
 70
     0
102
RTVSPropertyOp12
 70
     0
102
RTVSPropertyOp13
 70
     0
102
RTVSPropertyOp14
 70
     2
102
RTVSPropertyOp15
 70
     0
102
RTVSPropertyOp16
 70
     0
102
RTVSPropertyOp17
 70
     0
102
RTVSPropertyOp18
 70
     0
102
RTVSPropertyOp19
 70
     0
102
RTVSPropertyOp20
 70
     0
102
RTVSPropertyOp21
 70
     0
102
RTVSPropertyOp22
 70
     0
102
RTVSPropertyOp23
 70
     0
102
RTVSPropertyOp24
 70
     0
102
RTVSPropertyOp25
 70
     0
102
RTVSPropertyOp26
 70
     0
102
RTVSPropertyOp27
 70
     0
102
RTVSPropertyOp28
 70
     0
102
RTVSPropertyOp29
 70
     0
102
RTVSPropertyOp30
 70
     0
102
RTVSPropertyOp31
 70
     0
102
RTVSPropertyOp32
 70
     0
  0
XRECORD
  5
1F8C
102
{ACAD_REACTORS
330
1F8B
102
}
330
1F8B
100
AcDbXrecord
280
     1
102
RTVSPropertyOp0
 70
     1
102
RTVSPropertyOp1
 70
     1
102
RTVSPropertyOp2
 70
     1
102
RTVSPropertyOp3
 70
     1
102
RTVSPropertyOp4
 70
     1
102
RTVSPropertyOp5
 70
     1
102
RTVSPropertyOp6
 70
     1
102
RTVSPropertyOp7
 70
     1
102
RTVSPropertyOp8
 70
     1
102
RTVSPropertyOp9
 70
     1
102
RTVSPropertyOp10
 70
     1
102
RTVSPropertyOp11
 70
     1
102
RTVSPropertyOp12
 70
     1
102
RTVSPropertyOp13
 70
     1
102
RTVSPropertyOp14
 70
     1
102
RTVSPropertyOp15
 70
     1
102
RTVSPropertyOp16
 70
     1
102
RTVSPropertyOp17
 70
     1
102
RTVSPropertyOp18
 70
     1
102
RTVSPropertyOp19
 70
     1
102
RTVSPropertyOp20
 70
     1
102
RTVSPropertyOp21
 70
     1
102
RTVSPropertyOp22
 70
     1
102
RTVSPropertyOp23
 70
     1
102
RTVSPropertyOp24
 70
     1
102
RTVSPropertyOp25
 70
     1
102
RTVSPropertyOp26
 70
     1
102
RTVSPropertyOp27
 70
     1
102
RTVSPropertyOp28
 70
     1
102
RTVSPropertyOp29
 70
     1
102
RTVSPropertyOp30
 70
     1
102
RTVSPropertyOp31
 70
     1
102
RTVSPropertyOp32
 70
     1
  0
XRECORD
  5
1F70
102
{ACAD_REACTORS
330
1F6F
102
}
330
1F6F
100
AcDbXrecord
280
     1
102
RTVSPropertyOp0
 70
     1
102
RTVSPropertyOp1
 70
     1
102
RTVSPropertyOp2
 70
     1
102
RTVSPropertyOp3
 70
     1
102
RTVSPropertyOp4
 70
     1
102
RTVSPropertyOp5
 70
     1
102
RTVSPropertyOp6
 70
     1
102
RTVSPropertyOp7
 70
     1
102
RTVSPropertyOp8
 70
     1
102
RTVSPropertyOp9
 70
     1
102
RTVSPropertyOp10
 70
     1
102
RTVSPropertyOp11
 70
     1
102
RTVSPropertyOp12
 70
     1
102
RTVSPropertyOp13
 70
     1
102
RTVSPropertyOp14
 70
     1
102
RTVSPropertyOp15
 70
     1
102
RTVSPropertyOp16
 70
     1
102
RTVSPropertyOp17
 70
     1
102
RTVSPropertyOp18
 70
     1
102
RTVSPropertyOp19
 70
     1
102
RTVSPropertyOp20
 70
     1
102
RTVSPropertyOp21
 70
     1
102
RTVSPropertyOp22
 70
     1
102
RTVSPropertyOp23
 70
     1
102
RTVSPropertyOp24
 70
     1
102
RTVSPropertyOp25
 70
     1
102
RTVSPropertyOp26
 70
     1
102
RTVSPropertyOp27
 70
     1
102
RTVSPropertyOp28
 70
     1
102
RTVSPropertyOp29
 70
     1
102
RTVSPropertyOp30
 70
     1
102
RTVSPropertyOp31
 70
     1
102
RTVSPropertyOp32
 70
     1
  0
XRECORD
  5
1F72
102
{ACAD_REACTORS
330
1F71
102
}
330
1F71
100
AcDbXrecord
280
     1
102
RTVSPropertyOp0
 70
     1
102
RTVSPropertyOp1
 70
     1
102
RTVSPropertyOp2
 70
     1
102
RTVSPropertyOp3
 70
     1
102
RTVSPropertyOp4
 70
     1
102
RTVSPropertyOp5
 70
     1
102
RTVSPropertyOp6
 70
     1
102
RTVSPropertyOp7
 70
     1
102
RTVSPropertyOp8
 70
     1
102
RTVSPropertyOp9
 70
     1
102
RTVSPropertyOp10
 70
     1
102
RTVSPropertyOp11
 70
     1
102
RTVSPropertyOp12
 70
     1
102
RTVSPropertyOp13
 70
     1
102
RTVSPropertyOp14
 70
     1
102
RTVSPropertyOp15
 70
     1
102
RTVSPropertyOp16
 70
     1
102
RTVSPropertyOp17
 70
     1
102
RTVSPropertyOp18
 70
     1
102
RTVSPropertyOp19
 70
     1
102
RTVSPropertyOp20
 70
     1
102
RTVSPropertyOp21
 70
     1
102
RTVSPropertyOp22
 70
     1
102
RTVSPropertyOp23
 70
     1
102
RTVSPropertyOp24
 70
     1
102
RTVSPropertyOp25
 70
     1
102
RTVSPropertyOp26
 70
     1
102
RTVSPropertyOp27
 70
     1
102
RTVSPropertyOp28
 70
     1
102
RTVSPropertyOp29
 70
     1
102
RTVSPropertyOp30
 70
     1
102
RTVSPropertyOp31
 70
     1
102
RTVSPropertyOp32
 70
     1
  0
XRECORD
  5
1F74
102
{ACAD_REACTORS
330
1F73
102
}
330
1F73
100
AcDbXrecord
280
     1
102
RTVSPropertyOp0
 70
     1
102
RTVSPropertyOp1
 70
     1
102
RTVSPropertyOp2
 70
     1
102
RTVSPropertyOp3
 70
     1
102
RTVSPropertyOp4
 70
     1
102
RTVSPropertyOp5
 70
     1
102
RTVSPropertyOp6
 70
     1
102
RTVSPropertyOp7
 70
     1
102
RTVSPropertyOp8
 70
     1
102
RTVSPropertyOp9
 70
     1
102
RTVSPropertyOp10
 70
     1
102
RTVSPropertyOp11
 70
     1
102
RTVSPropertyOp12
 70
     1
102
RTVSPropertyOp13
 70
     1
102
RTVSPropertyOp14
 70
     1
102
RTVSPropertyOp15
 70
     1
102
RTVSPropertyOp16
 70
     1
102
RTVSPropertyOp17
 70
     1
102
RTVSPropertyOp18
 70
     1
102
RTVSPropertyOp19
 70
     1
102
RTVSPropertyOp20
 70
     1
102
RTVSPropertyOp21
 70
     1
102
RTVSPropertyOp22
 70
     1
102
RTVSPropertyOp23
 70
     1
102
RTVSPropertyOp24
 70
     1
102
RTVSPropertyOp25
 70
     1
102
RTVSPropertyOp26
 70
     1
102
RTVSPropertyOp27
 70
     1
102
RTVSPropertyOp28
 70
     1
102
RTVSPropertyOp29
 70
     1
102
RTVSPropertyOp30
 70
     1
102
RTVSPropertyOp31
 70
     1
102
RTVSPropertyOp32
 70
     1
  0
XRECORD
  5
1F76
102
{ACAD_REACTORS
330
1F75
102
}
330
1F75
100
AcDbXrecord
280
     1
102
RTVSPropertyOp0
 70
     1
102
RTVSPropertyOp1
 70
     1
102
RTVSPropertyOp2
 70
     1
102
RTVSPropertyOp3
 70
     1
102
RTVSPropertyOp4
 70
     1
102
RTVSPropertyOp5
 70
     1
102
RTVSPropertyOp6
 70
     1
102
RTVSPropertyOp7
 70
     1
102
RTVSPropertyOp8
 70
     1
102
RTVSPropertyOp9
 70
     1
102
RTVSPropertyOp10
 70
     1
102
RTVSPropertyOp11
 70
     1
102
RTVSPropertyOp12
 70
     1
102
RTVSPropertyOp13
 70
     1
102
RTVSPropertyOp14
 70
     1
102
RTVSPropertyOp15
 70
     1
102
RTVSPropertyOp16
 70
     1
102
RTVSPropertyOp17
 70
     1
102
RTVSPropertyOp18
 70
     1
102
RTVSPropertyOp19
 70
     1
102
RTVSPropertyOp20
 70
     1
102
RTVSPropertyOp21
 70
     1
102
RTVSPropertyOp22
 70
     1
102
RTVSPropertyOp23
 70
     1
102
RTVSPropertyOp24
 70
     1
102
RTVSPropertyOp25
 70
     1
102
RTVSPropertyOp26
 70
     1
102
RTVSPropertyOp27
 70
     1
102
RTVSPropertyOp28
 70
     1
102
RTVSPropertyOp29
 70
     1
102
RTVSPropertyOp30
 70
     1
102
RTVSPropertyOp31
 70
     1
102
RTVSPropertyOp32
 70
     1
  0
XRECORD
  5
1F7E
102
{ACAD_REACTORS
330
1F7D
102
}
330
1F7D
100
AcDbXrecord
280
     1
102
RTVSPropertyOp0
 70
     1
102
RTVSPropertyOp1
 70
     1
102
RTVSPropertyOp2
 70
     1
102
RTVSPropertyOp3
 70
     1
102
RTVSPropertyOp4
 70
     1
102
RTVSPropertyOp5
 70
     1
102
RTVSPropertyOp6
 70
     1
102
RTVSPropertyOp7
 70
     1
102
RTVSPropertyOp8
 70
     1
102
RTVSPropertyOp9
 70
     1
102
RTVSPropertyOp10
 70
     1
102
RTVSPropertyOp11
 70
     1
102
RTVSPropertyOp12
 70
     1
102
RTVSPropertyOp13
 70
     1
102
RTVSPropertyOp14
 70
     1
102
RTVSPropertyOp15
 70
     1
102
RTVSPropertyOp16
 70
     1
102
RTVSPropertyOp17
 70
     1
102
RTVSPropertyOp18
 70
     1
102
RTVSPropertyOp19
 70
     1
102
RTVSPropertyOp20
 70
     1
102
RTVSPropertyOp21
 70
     1
102
RTVSPropertyOp22
 70
     1
102
RTVSPropertyOp23
 70
     1
102
RTVSPropertyOp24
 70
     1
102
RTVSPropertyOp25
 70
     1
102
RTVSPropertyOp26
 70
     1
102
RTVSPropertyOp27
 70
     1
102
RTVSPropertyOp28
 70
     1
102
RTVSPropertyOp29
 70
     1
102
RTVSPropertyOp30
 70
     1
102
RTVSPropertyOp31
 70
     1
102
RTVSPropertyOp32
 70
     1
  0
XRECORD
  5
1F9A
102
{ACAD_REACTORS
330
1F99
102
}
330
1F99
100
AcDbXrecord
280
     1
102
RTVSPropertyOp0
 70
     0
102
RTVSPropertyOp1
 70
     0
102
RTVSPropertyOp2
 70
     0
102
RTVSPropertyOp3
 70
     0
102
RTVSPropertyOp4
 70
     0
102
RTVSPropertyOp5
 70
     0
102
RTVSPropertyOp6
 70
     0
102
RTVSPropertyOp7
 70
     0
102
RTVSPropertyOp8
 70
     0
102
RTVSPropertyOp9
 70
     0
102
RTVSPropertyOp10
 70
     0
102
RTVSPropertyOp11
 70
     0
102
RTVSPropertyOp12
 70
     0
102
RTVSPropertyOp13
 70
     0
102
RTVSPropertyOp14
 70
     2
102
RTVSPropertyOp15
 70
     0
102
RTVSPropertyOp16
 70
     0
102
RTVSPropertyOp17
 70
     0
102
RTVSPropertyOp18
 70
     0
102
RTVSPropertyOp19
 70
     0
102
RTVSPropertyOp20
 70
     0
102
RTVSPropertyOp21
 70
     0
102
RTVSPropertyOp22
 70
     0
102
RTVSPropertyOp23
 70
     0
102
RTVSPropertyOp24
 70
     0
102
RTVSPropertyOp25
 70
     0
102
RTVSPropertyOp26
 70
     0
102
RTVSPropertyOp27
 70
     0
102
RTVSPropertyOp28
 70
     0
102
RTVSPropertyOp29
 70
     0
102
RTVSPropertyOp30
 70
     0
102
RTVSPropertyOp31
 70
     0
102
RTVSPropertyOp32
 70
     0
  0
XRECORD
  5
1F8A
102
{ACAD_REACTORS
330
1F89
102
}
330
1F89
100
AcDbXrecord
280
     1
102
RTVSPropertyOp0
 70
     1
102
RTVSPropertyOp1
 70
     1
102
RTVSPropertyOp2
 70
     1
102
RTVSPropertyOp3
 70
     1
102
RTVSPropertyOp4
 70
     1
102
RTVSPropertyOp5
 70
     1
102
RTVSPropertyOp6
 70
     1
102
RTVSPropertyOp7
 70
     1
102
RTVSPropertyOp8
 70
     1
102
RTVSPropertyOp9
 70
     1
102
RTVSPropertyOp10
 70
     1
102
RTVSPropertyOp11
 70
     1
102
RTVSPropertyOp12
 70
     1
102
RTVSPropertyOp13
 70
     1
102
RTVSPropertyOp14
 70
     1
102
RTVSPropertyOp15
 70
     1
102
RTVSPropertyOp16
 70
     1
102
RTVSPropertyOp17
 70
     1
102
RTVSPropertyOp18
 70
     1
102
RTVSPropertyOp19
 70
     1
102
RTVSPropertyOp20
 70
     1
102
RTVSPropertyOp21
 70
     1
102
RTVSPropertyOp22
 70
     1
102
RTVSPropertyOp23
 70
     1
102
RTVSPropertyOp24
 70
     1
102
RTVSPropertyOp25
 70
     1
102
RTVSPropertyOp26
 70
     1
102
RTVSPropertyOp27
 70
     1
102
RTVSPropertyOp28
 70
     1
102
RTVSPropertyOp29
 70
     1
102
RTVSPropertyOp30
 70
     1
102
RTVSPropertyOp31
 70
     1
102
RTVSPropertyOp32
 70
     1
  0
XRECORD
  5
1F9C
102
{ACAD_REACTORS
330
1F9B
102
}
330
1F9B
100
AcDbXrecord
280
     1
102
RTVSPropertyOp0
 70
     0
102
RTVSPropertyOp1
 70
     0
102
RTVSPropertyOp2
 70
     0
102
RTVSPropertyOp3
 70
     0
102
RTVSPropertyOp4
 70
     0
102
RTVSPropertyOp5
 70
     0
102
RTVSPropertyOp6
 70
     0
102
RTVSPropertyOp7
 70
     0
102
RTVSPropertyOp8
 70
     0
102
RTVSPropertyOp9
 70
     0
102
RTVSPropertyOp10
 70
     0
102
RTVSPropertyOp11
 70
     0
102
RTVSPropertyOp12
 70
     0
102
RTVSPropertyOp13
 70
     0
102
RTVSPropertyOp14
 70
     2
102
RTVSPropertyOp15
 70
     0
102
RTVSPropertyOp16
 70
     0
102
RTVSPropertyOp17
 70
     0
102
RTVSPropertyOp18
 70
     0
102
RTVSPropertyOp19
 70
     0
102
RTVSPropertyOp20
 70
     0
102
RTVSPropertyOp21
 70
     0
102
RTVSPropertyOp22
 70
     0
102
RTVSPropertyOp23
 70
     0
102
RTVSPropertyOp24
 70
     0
102
RTVSPropertyOp25
 70
     0
102
RTVSPropertyOp26
 70
     0
102
RTVSPropertyOp27
 70
     0
102
RTVSPropertyOp28
 70
     0
102
RTVSPropertyOp29
 70
     0
102
RTVSPropertyOp30
 70
     0
102
RTVSPropertyOp31
 70
     0
102
RTVSPropertyOp32
 70
     0
  0
XRECORD
  5
1F82
102
{ACAD_REACTORS
330
1F81
102
}
330
1F81
100
AcDbXrecord
280
     1
102
RTVSPropertyOp0
 70
     1
102
RTVSPropertyOp1
 70
     1
102
RTVSPropertyOp2
 70
     1
102
RTVSPropertyOp3
 70
     1
102
RTVSPropertyOp4
 70
     1
102
RTVSPropertyOp5
 70
     1
102
RTVSPropertyOp6
 70
     1
102
RTVSPropertyOp7
 70
     1
102
RTVSPropertyOp8
 70
     1
102
RTVSPropertyOp9
 70
     1
102
RTVSPropertyOp10
 70
     1
102
RTVSPropertyOp11
 70
     1
102
RTVSPropertyOp12
 70
     1
102
RTVSPropertyOp13
 70
     1
102
RTVSPropertyOp14
 70
     1
102
RTVSPropertyOp15
 70
     1
102
RTVSPropertyOp16
 70
     1
102
RTVSPropertyOp17
 70
     1
102
RTVSPropertyOp18
 70
     1
102
RTVSPropertyOp19
 70
     1
102
RTVSPropertyOp20
 70
     1
102
RTVSPropertyOp21
 70
     1
102
RTVSPropertyOp22
 70
     1
102
RTVSPropertyOp23
 70
     1
102
RTVSPropertyOp24
 70
     1
102
RTVSPropertyOp25
 70
     1
102
RTVSPropertyOp26
 70
     1
102
RTVSPropertyOp27
 70
     1
102
RTVSPropertyOp28
 70
     1
102
RTVSPropertyOp29
 70
     1
102
RTVSPropertyOp30
 70
     1
102
RTVSPropertyOp31
 70
     1
102
RTVSPropertyOp32
 70
     1
  0
XRECORD
  5
1F98
102
{ACAD_REACTORS
330
1F97
102
}
330
1F97
100
AcDbXrecord
280
     1
102
RTVSPropertyOp0
 70
     1
102
RTVSPropertyOp1
 70
     1
102
RTVSPropertyOp2
 70
     1
102
RTVSPropertyOp3
 70
     1
102
RTVSPropertyOp4
 70
     1
102
RTVSPropertyOp5
 70
     1
102
RTVSPropertyOp6
 70
     1
102
RTVSPropertyOp7
 70
     1
102
RTVSPropertyOp8
 70
     1
102
RTVSPropertyOp9
 70
     1
102
RTVSPropertyOp10
 70
     1
102
RTVSPropertyOp11
 70
     1
102
RTVSPropertyOp12
 70
     1
102
RTVSPropertyOp13
 70
     1
102
RTVSPropertyOp14
 70
     1
102
RTVSPropertyOp15
 70
     1
102
RTVSPropertyOp16
 70
     1
102
RTVSPropertyOp17
 70
     1
102
RTVSPropertyOp18
 70
     1
102
RTVSPropertyOp19
 70
     1
102
RTVSPropertyOp20
 70
     1
102
RTVSPropertyOp21
 70
     1
102
RTVSPropertyOp22
 70
     1
102
RTVSPropertyOp23
 70
     1
102
RTVSPropertyOp24
 70
     1
102
RTVSPropertyOp25
 70
     1
102
RTVSPropertyOp26
 70
     1
102
RTVSPropertyOp27
 70
     1
102
RTVSPropertyOp28
 70
     1
102
RTVSPropertyOp29
 70
     1
102
RTVSPropertyOp30
 70
     1
102
RTVSPropertyOp31
 70
     1
102
RTVSPropertyOp32
 70
     1
  0
XRECORD
  5
1F96
102
{ACAD_REACTORS
330
1F95
102
}
330
1F95
100
AcDbXrecord
280
     1
102
RTVSPropertyOp0
 70
     1
102
RTVSPropertyOp1
 70
     1
102
RTVSPropertyOp2
 70
     1
102
RTVSPropertyOp3
 70
     1
102
RTVSPropertyOp4
 70
     1
102
RTVSPropertyOp5
 70
     1
102
RTVSPropertyOp6
 70
     1
102
RTVSPropertyOp7
 70
     1
102
RTVSPropertyOp8
 70
     1
102
RTVSPropertyOp9
 70
     1
102
RTVSPropertyOp10
 70
     1
102
RTVSPropertyOp11
 70
     1
102
RTVSPropertyOp12
 70
     1
102
RTVSPropertyOp13
 70
     1
102
RTVSPropertyOp14
 70
     1
102
RTVSPropertyOp15
 70
     1
102
RTVSPropertyOp16
 70
     1
102
RTVSPropertyOp17
 70
     1
102
RTVSPropertyOp18
 70
     1
102
RTVSPropertyOp19
 70
     1
102
RTVSPropertyOp20
 70
     1
102
RTVSPropertyOp21
 70
     1
102
RTVSPropertyOp22
 70
     1
102
RTVSPropertyOp23
 70
     1
102
RTVSPropertyOp24
 70
     1
102
RTVSPropertyOp25
 70
     1
102
RTVSPropertyOp26
 70
     1
102
RTVSPropertyOp27
 70
     1
102
RTVSPropertyOp28
 70
     1
102
RTVSPropertyOp29
 70
     1
102
RTVSPropertyOp30
 70
     1
102
RTVSPropertyOp31
 70
     1
102
RTVSPropertyOp32
 70
     1
  0
XRECORD
  5
1F90
102
{ACAD_REACTORS
330
1F8F
102
}
330
1F8F
100
AcDbXrecord
280
     1
102
RTVSPropertyOp0
 70
     1
102
RTVSPropertyOp1
 70
     1
102
RTVSPropertyOp2
 70
     1
102
RTVSPropertyOp3
 70
     1
102
RTVSPropertyOp4
 70
     1
102
RTVSPropertyOp5
 70
     1
102
RTVSPropertyOp6
 70
     1
102
RTVSPropertyOp7
 70
     1
102
RTVSPropertyOp8
 70
     1
102
RTVSPropertyOp9
 70
     1
102
RTVSPropertyOp10
 70
     1
102
RTVSPropertyOp11
 70
     1
102
RTVSPropertyOp12
 70
     1
102
RTVSPropertyOp13
 70
     1
102
RTVSPropertyOp14
 70
     1
102
RTVSPropertyOp15
 70
     1
102
RTVSPropertyOp16
 70
     1
102
RTVSPropertyOp17
 70
     1
102
RTVSPropertyOp18
 70
     1
102
RTVSPropertyOp19
 70
     1
102
RTVSPropertyOp20
 70
     1
102
RTVSPropertyOp21
 70
     1
102
RTVSPropertyOp22
 70
     1
102
RTVSPropertyOp23
 70
     1
102
RTVSPropertyOp24
 70
     1
102
RTVSPropertyOp25
 70
     1
102
RTVSPropertyOp26
 70
     1
102
RTVSPropertyOp27
 70
     1
102
RTVSPropertyOp28
 70
     1
102
RTVSPropertyOp29
 70
     1
102
RTVSPropertyOp30
 70
     1
102
RTVSPropertyOp31
 70
     1
102
RTVSPropertyOp32
 70
     1
  0
XRECORD
  5
1F92
102
{ACAD_REACTORS
330
1F91
102
}
330
1F91
100
AcDbXrecord
280
     1
102
RTVSPropertyOp0
 70
     1
102
RTVSPropertyOp1
 70
     1
102
RTVSPropertyOp2
 70
     1
102
RTVSPropertyOp3
 70
     1
102
RTVSPropertyOp4
 70
     1
102
RTVSPropertyOp5
 70
     1
102
RTVSPropertyOp6
 70
     1
102
RTVSPropertyOp7
 70
     1
102
RTVSPropertyOp8
 70
     1
102
RTVSPropertyOp9
 70
     1
102
RTVSPropertyOp10
 70
     1
102
RTVSPropertyOp11
 70
     1
102
RTVSPropertyOp12
 70
     1
102
RTVSPropertyOp13
 70
     1
102
RTVSPropertyOp14
 70
     1
102
RTVSPropertyOp15
 70
     1
102
RTVSPropertyOp16
 70
     1
102
RTVSPropertyOp17
 70
     1
102
RTVSPropertyOp18
 70
     1
102
RTVSPropertyOp19
 70
     1
102
RTVSPropertyOp20
 70
     1
102
RTVSPropertyOp21
 70
     1
102
RTVSPropertyOp22
 70
     1
102
RTVSPropertyOp23
 70
     1
102
RTVSPropertyOp24
 70
     1
102
RTVSPropertyOp25
 70
     1
102
RTVSPropertyOp26
 70
     1
102
RTVSPropertyOp27
 70
     1
102
RTVSPropertyOp28
 70
     1
102
RTVSPropertyOp29
 70
     1
102
RTVSPropertyOp30
 70
     1
102
RTVSPropertyOp31
 70
     1
102
RTVSPropertyOp32
 70
     1
  0
XRECORD
  5
1F88
102
{ACAD_REACTORS
330
1F87
102
}
330
1F87
100
AcDbXrecord
280
     1
102
RTVSPropertyOp0
 70
     1
102
RTVSPropertyOp1
 70
     1
102
RTVSPropertyOp2
 70
     1
102
RTVSPropertyOp3
 70
     1
102
RTVSPropertyOp4
 70
     1
102
RTVSPropertyOp5
 70
     1
102
RTVSPropertyOp6
 70
     1
102
RTVSPropertyOp7
 70
     1
102
RTVSPropertyOp8
 70
     1
102
RTVSPropertyOp9
 70
     1
102
RTVSPropertyOp10
 70
     1
102
RTVSPropertyOp11
 70
     1
102
RTVSPropertyOp12
 70
     1
102
RTVSPropertyOp13
 70
     1
102
RTVSPropertyOp14
 70
     1
102
RTVSPropertyOp15
 70
     1
102
RTVSPropertyOp16
 70
     1
102
RTVSPropertyOp17
 70
     1
102
RTVSPropertyOp18
 70
     1
102
RTVSPropertyOp19
 70
     1
102
RTVSPropertyOp20
 70
     1
102
RTVSPropertyOp21
 70
     1
102
RTVSPropertyOp22
 70
     1
102
RTVSPropertyOp23
 70
     1
102
RTVSPropertyOp24
 70
     1
102
RTVSPropertyOp25
 70
     1
102
RTVSPropertyOp26
 70
     1
102
RTVSPropertyOp27
 70
     1
102
RTVSPropertyOp28
 70
     1
102
RTVSPropertyOp29
 70
     1
102
RTVSPropertyOp30
 70
     1
102
RTVSPropertyOp31
 70
     1
102
RTVSPropertyOp32
 70
     1
  0
XRECORD
  5
1F7C
102
{ACAD_REACTORS
330
1F7B
102
}
330
1F7B
100
AcDbXrecord
280
     1
102
RTVSPropertyOp0
 70
     1
102
RTVSPropertyOp1
 70
     1
102
RTVSPropertyOp2
 70
     1
102
RTVSPropertyOp3
 70
     1
102
RTVSPropertyOp4
 70
     1
102
RTVSPropertyOp5
 70
     1
102
RTVSPropertyOp6
 70
     1
102
RTVSPropertyOp7
 70
     1
102
RTVSPropertyOp8
 70
     1
102
RTVSPropertyOp9
 70
     1
102
RTVSPropertyOp10
 70
     1
102
RTVSPropertyOp11
 70
     1
102
RTVSPropertyOp12
 70
     1
102
RTVSPropertyOp13
 70
     1
102
RTVSPropertyOp14
 70
     1
102
RTVSPropertyOp15
 70
     1
102
RTVSPropertyOp16
 70
     1
102
RTVSPropertyOp17
 70
     1
102
RTVSPropertyOp18
 70
     1
102
RTVSPropertyOp19
 70
     1
102
RTVSPropertyOp20
 70
     1
102
RTVSPropertyOp21
 70
     1
102
RTVSPropertyOp22
 70
     1
102
RTVSPropertyOp23
 70
     1
102
RTVSPropertyOp24
 70
     1
102
RTVSPropertyOp25
 70
     1
102
RTVSPropertyOp26
 70
     1
102
RTVSPropertyOp27
 70
     1
102
RTVSPropertyOp28
 70
     1
102
RTVSPropertyOp29
 70
     1
102
RTVSPropertyOp30
 70
     1
102
RTVSPropertyOp31
 70
     1
102
RTVSPropertyOp32
 70
     1
  0
XRECORD
  5
1F94
102
{ACAD_REACTORS
330
1F93
102
}
330
1F93
100
AcDbXrecord
280
     1
102
RTVSPropertyOp0
 70
     1
102
RTVSPropertyOp1
 70
     1
102
RTVSPropertyOp2
 70
     1
102
RTVSPropertyOp3
 70
     1
102
RTVSPropertyOp4
 70
     1
102
RTVSPropertyOp5
 70
     1
102
RTVSPropertyOp6
 70
     1
102
RTVSPropertyOp7
 70
     1
102
RTVSPropertyOp8
 70
     1
102
RTVSPropertyOp9
 70
     1
102
RTVSPropertyOp10
 70
     1
102
RTVSPropertyOp11
 70
     1
102
RTVSPropertyOp12
 70
     1
102
RTVSPropertyOp13
 70
     1
102
RTVSPropertyOp14
 70
     1
102
RTVSPropertyOp15
 70
     1
102
RTVSPropertyOp16
 70
     1
102
RTVSPropertyOp17
 70
     1
102
RTVSPropertyOp18
 70
     1
102
RTVSPropertyOp19
 70
     1
102
RTVSPropertyOp20
 70
     1
102
RTVSPropertyOp21
 70
     1
102
RTVSPropertyOp22
 70
     1
102
RTVSPropertyOp23
 70
     1
102
RTVSPropertyOp24
 70
     1
102
RTVSPropertyOp25
 70
     1
102
RTVSPropertyOp26
 70
     1
102
RTVSPropertyOp27
 70
     1
102
RTVSPropertyOp28
 70
     1
102
RTVSPropertyOp29
 70
     1
102
RTVSPropertyOp30
 70
     1
102
RTVSPropertyOp31
 70
     1
102
RTVSPropertyOp32
 70
     1
  0
ENDSEC
  0
EOF
