  0
SECTION
  2
HEADER
  9
$ACADVER
  1
AC1015
  9
$ACADMAINTVER
 70
    20
  9
$DWGCODEPAGE
  3
ANSI_932
  9
$INSBASE
 10
0.0
 20
0.0
 30
0.0
  9
$EXTMIN
 10
82.31960529687421
 20
88.56939315713862
 30
-0.0000000000000053
  9
$EXTMAX
 10
6382.800161799691
 20
4543.909215255556
 30
0.0000000000000099
  9
$LIMMIN
 10
82.80008844952817
 20
88.90916338651733
  9
$LIMMAX
 10
502.8000884495281
 20
385.9091633865173
  9
$ORTHOMODE
 70
     0
  9
$REGENMODE
 70
     1
  9
$FILLMODE
 70
     1
  9
$QTEXTMODE
 70
     0
  9
$MIRRTEXT
 70
     0
  9
$LTSCALE
 40
1.0
  9
$ATTMODE
 70
     1
  9
$TEXTSIZE
 40
2.5
  9
$TRACEWID
 40
1.0
  9
$TEXTSTYLE
  7
Standard
  9
$CLAYER
  8
0
  9
$CELTYPE
  6
ByLayer
  9
$CECOLOR
 62
   256
  9
$CELTSCALE
 40
1.0
  9
$DISPSILH
 70
     0
  9
$DIMSCALE
 40
1.0
  9
$DIMASZ
 40
2.5
  9
$DIMEXO
 40
0.625
  9
$DIMDLI
 40
3.75
  9
$DIMRND
 40
0.0
  9
$DIMDLE
 40
0.0
  9
$DIMEXE
 40
1.25
  9
$DIMTP
 40
0.0
  9
$DIMTM
 40
0.0
  9
$DIMTXT
 40
2.5
  9
$DIMCEN
 40
2.5
  9
$DIMTSZ
 40
0.0
  9
$DIMTOL
 70
     0
  9
$DIMLIM
 70
     0
  9
$DIMTIH
 70
     0
  9
$DIMTOH
 70
     0
  9
$DIMSE1
 70
     0
  9
$DIMSE2
 70
     0
  9
$DIMTAD
 70
     2
  9
$DIMZIN
 70
     8
  9
$DIMBLK
  1

  9
$DIMASO
 70
     1
  9
$DIMSHO
 70
     1
  9
$DIMPOST
  1

  9
$DIMAPOST
  1

  9
$DIMALT
 70
     0
  9
$DIMALTD
 70
     3
  9
$DIMALTF
 40
0.03937007874016
  9
$DIMLFAC
 40
1.0
  9
$DIMTOFL
 70
     1
  9
$DIMTVP
 40
0.0
  9
$DIMTIX
 70
     0
  9
$DIMSOXD
 70
     0
  9
$DIMSAH
 70
     0
  9
$DIMBLK1
  1

  9
$DIMBLK2
  1

  9
$DIMSTYLE
  2
ISO-25
  9
$DIMCLRD
 70
     0
  9
$DIMCLRE
 70
     0
  9
$DIMCLRT
 70
     0
  9
$DIMTFAC
 40
1.0
  9
$DIMGAP
 40
0.625
  9
$DIMJUST
 70
     0
  9
$DIMSD1
 70
     0
  9
$DIMSD2
 70
     0
  9
$DIMTOLJ
 70
     0
  9
$DIMTZIN
 70
     8
  9
$DIMALTZ
 70
     0
  9
$DIMALTTZ
 70
     0
  9
$DIMUPT
 70
     0
  9
$DIMDEC
 70
     2
  9
$DIMTDEC
 70
     2
  9
$DIMALTU
 70
     2
  9
$DIMALTTD
 70
     3
  9
$DIMTXSTY
  7
Standard
  9
$DIMAUNIT
 70
     0
  9
$DIMADEC
 70
     0
  9
$DIMALTRND
 40
0.0
  9
$DIMAZIN
 70
     0
  9
$DIMDSEP
 70
    44
  9
$DIMATFIT
 70
     3
  9
$DIMFRAC
 70
     0
  9
$DIMLDRBLK
  1

  9
$DIMLUNIT
 70
     2
  9
$DIMLWD
 70
    -2
  9
$DIMLWE
 70
    -2
  9
$DIMTMOVE
 70
     0
  9
$LUNITS
 70
     2
  9
$LUPREC
 70
     4
  9
$SKETCHINC
 40
1.0
  9
$FILLETRAD
 40
0.0
  9
$AUNITS
 70
     0
  9
$AUPREC
 70
     0
  9
$MENU
  1
.
  9
$ELEVATION
 40
0.0
  9
$PELEVATION
 40
0.0
  9
$THICKNESS
 40
0.0
  9
$LIMCHECK
 70
     0
  9
$CHAMFERA
 40
0.0
  9
$CHAMFERB
 40
0.0
  9
$CHAMFERC
 40
0.0
  9
$CHAMFERD
 40
0.0
  9
$SKPOLY
 70
     0
  9
$TDCREATE
 40
2454427.395492431
  9
$TDUCREATE
 40
2454427.020492431
  9
$TDUPDATE
 40
2457803.577505011
  9
$TDUUPDATE
 40
2457803.202505012
  9
$TDINDWG
 40
0.1425005093
  9
$TDUSRTIMER
 40
0.1425005093
  9
$USRTIMER
 70
     1
  9
$ANGBASE
 50
0.0
  9
$ANGDIR
 70
     0
  9
$PDMODE
 70
     0
  9
$PDSIZE
 40
0.0
  9
$PLINEWID
 40
0.0
  9
$SPLFRAME
 70
     0
  9
$SPLINETYPE
 70
     6
  9
$SPLINESEGS
 70
     8
  9
$HANDSEED
  5
1501
  9
$SURFTAB1
 70
     6
  9
$SURFTAB2
 70
     6
  9
$SURFTYPE
 70
     6
  9
$SURFU
 70
     6
  9
$SURFV
 70
     6
  9
$UCSBASE
  2

  9
$UCSNAME
  2

  9
$UCSORG
 10
0.0
 20
0.0
 30
0.0
  9
$UCSXDIR
 10
1.0
 20
0.0
 30
0.0
  9
$UCSYDIR
 10
0.0
 20
1.0
 30
0.0
  9
$UCSORTHOREF
  2

  9
$UCSORTHOVIEW
 70
     0
  9
$UCSORGTOP
 10
0.0
 20
0.0
 30
0.0
  9
$UCSORGBOTTOM
 10
0.0
 20
0.0
 30
0.0
  9
$UCSORGLEFT
 10
0.0
 20
0.0
 30
0.0
  9
$UCSORGRIGHT
 10
0.0
 20
0.0
 30
0.0
  9
$UCSORGFRONT
 10
0.0
 20
0.0
 30
0.0
  9
$UCSORGBACK
 10
0.0
 20
0.0
 30
0.0
  9
$PUCSBASE
  2

  9
$PUCSNAME
  2

  9
$PUCSORG
 10
0.0
 20
0.0
 30
0.0
  9
$PUCSXDIR
 10
1.0
 20
0.0
 30
0.0
  9
$PUCSYDIR
 10
0.0
 20
1.0
 30
0.0
  9
$PUCSORTHOREF
  2

  9
$PUCSORTHOVIEW
 70
     0
  9
$PUCSORGTOP
 10
0.0
 20
0.0
 30
0.0
  9
$PUCSORGBOTTOM
 10
0.0
 20
0.0
 30
0.0
  9
$PUCSORGLEFT
 10
0.0
 20
0.0
 30
0.0
  9
$PUCSORGRIGHT
 10
0.0
 20
0.0
 30
0.0
  9
$PUCSORGFRONT
 10
0.0
 20
0.0
 30
0.0
  9
$PUCSORGBACK
 10
0.0
 20
0.0
 30
0.0
  9
$USERI1
 70
     0
  9
$USERI2
 70
     0
  9
$USERI3
 70
     0
  9
$USERI4
 70
     0
  9
$USERI5
 70
     0
  9
$USERR1
 40
0.0
  9
$USERR2
 40
0.0
  9
$USERR3
 40
0.0
  9
$USERR4
 40
0.0
  9
$USERR5
 40
0.0
  9
$WORLDVIEW
 70
     1
  9
$SHADEDGE
 70
     3
  9
$SHADEDIF
 70
    70
  9
$TILEMODE
 70
     1
  9
$MAXACTVP
 70
    64
  9
$PINSBASE
 10
0.0
 20
0.0
 30
0.0
  9
$PLIMCHECK
 70
     0
  9
$PEXTMIN
 10
0.0
 20
0.0
 30
0.0
  9
$PEXTMAX
 10
0.0
 20
0.0
 30
0.0
  9
$PLIMMIN
 10
0.0
 20
0.0
  9
$PLIMMAX
 10
12.0
 20
9.0
  9
$UNITMODE
 70
     0
  9
$VISRETAIN
 70
     1
  9
$PLINEGEN
 70
     0
  9
$PSLTSCALE
 70
     1
  9
$TREEDEPTH
 70
  3020
  9
$CMLSTYLE
  2
Standard
  9
$CMLJUST
 70
     0
  9
$CMLSCALE
 40
20.0
  9
$PROXYGRAPHICS
 70
     1
  9
$MEASUREMENT
 70
     1
  9
$CELWEIGHT
370
    -1
  9
$ENDCAPS
280
     0
  9
$JOINSTYLE
280
     0
  9
$LWDISPLAY
290
     0
  9
$INSUNITS
 70
     4
  9
$HYPERLINKBASE
  1

  9
$STYLESHEET
  1
monochrome.ctb
  9
$XEDIT
290
     1
  9
$CEPSNTYPE
380
     0
  9
$PSTYLEMODE
290
     1
  9
$FINGERPRINTGUID
  2
{4ECE4D8E-F13A-40A1-9A46-5F0BA8809353}
  9
$VERSIONGUID
  2
{79EEF461-9C60-4E7B-ADD1-D9AE859C832B}
  9
$EXTNAMES
290
     1
  9
$PSVPSCALE
 40
0.0
  9
$OLESTARTUP
290
     0
  0
ENDSEC
  0
SECTION
  2
CLASSES
  0
CLASS
  1
ACDBDICTIONARYWDFLT
  2
AcDbDictionaryWithDefault
  3
ObjectDBX Classes
 90
        0
280
     0
281
     0
  0
CLASS
  1
DICTIONARYVAR
  2
AcDbDictionaryVar
  3
ObjectDBX Classes
 90
        0
280
     0
281
     0
  0
CLASS
  1
TABLESTYLE
  2
AcDbTableStyle
  3
ObjectDBX Classes
 90
     4095
280
     0
281
     0
  0
CLASS
  1
SORTENTSTABLE
  2
AcDbSortentsTable
  3
ObjectDBX Classes
 90
        0
280
     0
281
     0
  0
CLASS
  1
MATERIAL
  2
AcDbMaterial
  3
ObjectDBX Classes
 90
     1153
280
     0
281
     0
  0
CLASS
  1
VISUALSTYLE
  2
AcDbVisualStyle
  3
ObjectDBX Classes
 90
     4095
280
     0
281
     0
  0
CLASS
  1
SCALE
  2
AcDbScale
  3
ObjectDBX Classes
 90
     1153
280
     0
281
     0
  0
CLASS
  1
MLEADERSTYLE
  2
AcDbMLeaderStyle
  3
ACDB_MLEADERSTYLE_CLASS
 90
     4095
280
     0
281
     0
  0
CLASS
  1
DIMASSOC
  2
AcDbDimAssoc
  3
"AcDbDimAssoc|Product Desc:     AcDim ARX App For Dimension|Company:          Autodesk, Inc.|WEB Address:      www.autodesk.com"
 90
        0
280
     0
281
     0
  0
CLASS
  1
CELLSTYLEMAP
  2
AcDbCellStyleMap
  3
ObjectDBX Classes
 90
     1152
280
     0
281
     0
  0
CLASS
  1
ACDBPLACEHOLDER
  2
AcDbPlaceHolder
  3
ObjectDBX Classes
 90
        0
280
     0
281
     0
  0
CLASS
  1
LAYOUT
  2
AcDbLayout
  3
ObjectDBX Classes
 90
        0
280
     0
281
     0
  0
ENDSEC
  0
SECTION
  2
TABLES
  0
TABLE
  2
VPORT
  5
8
330
0
100
AcDbSymbolTable
 70
     1
  0
VPORT
  5
5F2
330
8
100
AcDbSymbolTableRecord
100
AcDbViewportTableRecord
  2
*Active
 70
     0
 10
0.0
 20
0.0
 11
1.0
 21
1.0
 12
3232.559883548282
 22
2316.239304206348
 13
0.0
 23
0.0
 14
10.0
 24
10.0
 15
10.0
 25
10.0
 16
0.0
 26
0.0
 36
1.0
 17
0.0
 27
0.0
 37
0.0
 40
4490.101901334556
 41
1.670572916666666
 42
50.0
 43
0.0
 44
0.0
 50
0.0
 51
0.0
 71
     0
 72
 10000
 73
     1
 74
     3
 75
     0
 76
     0
 77
     0
 78
     0
281
     0
 65
     1
110
0.0
120
0.0
130
0.0
111
1.0
121
0.0
131
0.0
112
0.0
122
1.0
132
0.0
 79
     0
146
0.0
1001
ACAD_NAV_VCDISPLAY
1070
     3
  0
ENDTAB
  0
TABLE
  2
LTYPE
  5
5
330
0
100
AcDbSymbolTable
 70
     5
  0
LTYPE
  5
14
330
5
100
AcDbSymbolTableRecord
100
AcDbLinetypeTableRecord
  2
ByBlock
 70
     0
  3

 72
    65
 73
     0
 40
0.0
  0
LTYPE
  5
15
330
5
100
AcDbSymbolTableRecord
100
AcDbLinetypeTableRecord
  2
ByLayer
 70
     0
  3

 72
    65
 73
     0
 40
0.0
  0
LTYPE
  5
16
330
5
100
AcDbSymbolTableRecord
100
AcDbLinetypeTableRecord
  2
Continuous
 70
     0
  3
Solid line
 72
    65
 73
     0
 40
0.0
  0
LTYPE
  5
14E
330
5
100
AcDbSymbolTableRecord
100
AcDbLinetypeTableRecord
  2
CENTER
 70
     0
  3
Center ____ _ ____ _ ____ _ ____ _ ____ _ ____
 72
    65
 73
     4
 40
50.8
 49
31.75
 74
     0
 49
-6.349999999999999
 74
     0
 49
6.349999999999999
 74
     0
 49
-6.349999999999999
 74
     0
  0
LTYPE
  5
185
330
5
100
AcDbSymbolTableRecord
100
AcDbLinetypeTableRecord
  2
DASHEDX2
 70
     0
  3
Dashed (2x) ____  ____  ____  ____  ____  ___
 72
    65
 73
     2
 40
38.1
 49
25.4
 74
     0
 49
-12.7
 74
     0
  0
LTYPE
  5
186
330
5
100
AcDbSymbolTableRecord
100
AcDbLinetypeTableRecord
  2
DASHED
 70
     0
  3
Dashed __ __ __ __ __ __ __ __ __ __ __ __ __ _
 72
    65
 73
     2
 40
19.05
 49
12.7
 74
     0
 49
-6.349999999999999
 74
     0
  0
LTYPE
  5
5E2
330
5
100
AcDbSymbolTableRecord
100
AcDbLinetypeTableRecord
  2
FENCELINE1
 70
     0
  3
Fenceline circle ----0-----0----0-----0----0---
 72
    65
 73
     4
 40
36.83
 49
6.349999999999999
 74
     0
 49
-2.54
 74
     4
 75
   133
340
14D
 46
2.54
 50
0.0
 44
-2.54
 45
0.0
 49
-2.54
 74
     0
 49
25.4
 74
     0
  0
ENDTAB
  0
TABLE
  2
LAYER
  5
2
102
{ACAD_XDICTIONARY
360
101
102
}
330
0
100
AcDbSymbolTable
 70
    11
  0
LAYER
  5
10
102
{ACAD_XDICTIONARY
360
642
102
}
330
2
100
AcDbSymbolTableRecord
100
AcDbLayerTableRecord
  2
0
 70
     0
 62
     6
  6
Continuous
370
    -3
390
F
  0
LAYER
  5
FC
102
{ACAD_XDICTIONARY
360
644
102
}
330
2
100
AcDbSymbolTableRecord
100
AcDbLayerTableRecord
  2
S-title
 70
     0
 62
     7
  6
Continuous
370
    -3
390
F
1001
AcAecLayerStandard
1000

1000

  0
LAYER
  5
FD
330
2
100
AcDbSymbolTableRecord
100
AcDbLayerTableRecord
  2
DEFPOINTS
 70
     0
 62
     1
  6
Continuous
290
     0
370
    -3
390
F
1001
AcAecLayerStandard
1000

1000

  0
LAYER
  5
FE
102
{ACAD_XDICTIONARY
360
646
102
}
330
2
100
AcDbSymbolTableRecord
100
AcDbLayerTableRecord
  2
S-mark
 70
     0
 62
     5
  6
Continuous
370
    -3
390
F
  0
LAYER
  5
FF
102
{ACAD_XDICTIONARY
360
648
102
}
330
2
100
AcDbSymbolTableRecord
100
AcDbLayerTableRecord
  2
S-main
 70
     0
 62
     7
  6
Continuous
370
    -3
390
F
1001
AcAecLayerStandard
1000

1000

  0
LAYER
  5
14B
102
{ACAD_XDICTIONARY
360
64A
102
}
330
2
100
AcDbSymbolTableRecord
100
AcDbLayerTableRecord
  2
S-center
 70
     0
 62
     4
  6
CENTER
370
     9
390
F
1001
AcAecLayerStandard
1000

1000

  0
LAYER
  5
183
102
{ACAD_XDICTIONARY
360
64E
102
}
330
2
100
AcDbSymbolTableRecord
100
AcDbLayerTableRecord
  2
S-size
 70
     0
 62
     7
  6
Continuous
370
     9
390
F
1001
AcAecLayerStandard
1000

1000

  0
LAYER
  5
184
102
{ACAD_XDICTIONARY
360
650
102
}
330
2
100
AcDbSymbolTableRecord
100
AcDbLayerTableRecord
  2
S-shadow
 70
     0
 62
     4
  6
DASHED
370
     9
390
F
1001
AcAecLayerStandard
1000

1000

  0
LAYER
  5
5E0
102
{ACAD_XDICTIONARY
360
652
102
}
330
2
100
AcDbSymbolTableRecord
100
AcDbLayerTableRecord
  2
S-D
 70
     0
 62
     3
  6
FENCELINE1
370
     9
390
F
1001
AcAecLayerStandard
1000

1000

  0
LAYER
  5
5E1
102
{ACAD_XDICTIONARY
360
654
102
}
330
2
100
AcDbSymbolTableRecord
100
AcDbLayerTableRecord
  2
S-\U+03C6
 70
     0
 62
     3
  6
Continuous
370
     9
390
F
1001
AcAecLayerStandard
1000

1000

  0
ENDTAB
  0
TABLE
  2
STYLE
  5
3
330
0
100
AcDbSymbolTable
 70
     3
  0
STYLE
  5
11
330
3
100
AcDbSymbolTableRecord
100
AcDbTextStyleTableRecord
  2
Standard
 70
     0
 40
0.0
 41
1.0
 50
0.0
 71
     0
 42
2.5
  3
txt.shx
  4
extfont2.shx
  0
STYLE
  5
14D
330
3
100
AcDbSymbolTableRecord
100
AcDbTextStyleTableRecord
  2

 70
     1
 40
0.0
 41
1.0
 50
0.0
 71
     0
 42
2.5
  3
ltypeshp.shx
  4

  0
ENDTAB
  0
TABLE
  2
VIEW
  5
6
330
0
100
AcDbSymbolTable
 70
     0
  0
ENDTAB
  0
TABLE
  2
UCS
  5
7
330
0
100
AcDbSymbolTable
 70
     0
  0
ENDTAB
  0
TABLE
  2
APPID
  5
9
330
0
100
AcDbSymbolTable
 70
    15
  0
APPID
  5
12
330
9
100
AcDbSymbolTableRecord
100
AcDbRegAppTableRecord
  2
ACAD
 70
     0
  0
APPID
  5
9E
330
9
100
AcDbSymbolTableRecord
100
AcDbRegAppTableRecord
  2
ACAD_PSEXT
 70
     0
  0
APPID
  5
100
330
9
100
AcDbSymbolTableRecord
100
AcDbRegAppTableRecord
  2
AcAecLayerStandard
 70
     0
  0
APPID
  5
1E4
330
9
100
AcDbSymbolTableRecord
100
AcDbRegAppTableRecord
  2
ACAD_DSTYLE_DIMTEXT_FILL
 70
     0
  0
APPID
  5
1E5
330
9
100
AcDbSymbolTableRecord
100
AcDbRegAppTableRecord
  2
ACAD_DSTYLE_DIMEXT_LENGTH
 70
     0
  0
APPID
  5
1E6
330
9
100
AcDbSymbolTableRecord
100
AcDbRegAppTableRecord
  2
ACAD_DSTYLE_DIMEXT_ENABLED
 70
     0
  0
APPID
  5
1E7
330
9
100
AcDbSymbolTableRecord
100
AcDbRegAppTableRecord
  2
ACAD_DSTYLE_DIM_LINETYPE
 70
     0
  0
APPID
  5
1E8
330
9
100
AcDbSymbolTableRecord
100
AcDbRegAppTableRecord
  2
ACAD_DSTYLE_DIM_EXT1_LINETYPE
 70
     0
  0
APPID
  5
1E9
330
9
100
AcDbSymbolTableRecord
100
AcDbRegAppTableRecord
  2
ACAD_DSTYLE_DIM_EXT2_LINETYPE
 70
     0
  0
APPID
  5
2A5
330
9
100
AcDbSymbolTableRecord
100
AcDbRegAppTableRecord
  2
ACAD_DSTYLE_DIMJOGGED_JOGANGLE_SYMBOL
 70
     0
  0
APPID
  5
309
330
9
100
AcDbSymbolTableRecord
100
AcDbRegAppTableRecord
  2
ACAD_DSTYLE_DIMARC_LENGTH_SYMBOL
 70
     0
  0
APPID
  5
65F
330
9
100
AcDbSymbolTableRecord
100
AcDbRegAppTableRecord
  2
ACAD_NAV_VCDISPLAY
 70
     0
  0
APPID
  5
688
330
9
100
AcDbSymbolTableRecord
100
AcDbRegAppTableRecord
  2
ACAD_EXEMPT_FROM_CAD_STANDARDS
 70
     0
  0
APPID
  5
775
330
9
100
AcDbSymbolTableRecord
100
AcDbRegAppTableRecord
  2
ACAD_DSTYLE_DIMRADIAL_EXTENSION
 70
     0
  0
APPID
  5
1500
330
9
100
AcDbSymbolTableRecord
100
AcDbRegAppTableRecord
  2
ACAD_MLEADERVER
 70
     0
  0
ENDTAB
  0
TABLE
  2
DIMSTYLE
  5
A
330
0
100
AcDbSymbolTable
 70
     2
100
AcDbDimStyleTable
 71
     1
340
27
  0
DIMSTYLE
105
27
102
{ACAD_REACTORS
330
A15
330
AB4
330
ADA
330
AFB
330
B34
330
B55
330
B77
330
B98
330
BC5
330
ECC
330
F08
330
F99
330
F9C
330
F9D
330
FA1
330
FA4
330
1102
330
1123
102
}
330
A
100
AcDbSymbolTableRecord
100
AcDbDimStyleTableRecord
  2
ISO-25
 70
     0
 41
2.5
 42
0.625
 43
3.75
 44
1.25
 73
     0
 74
     0
 77
     2
 78
     8
140
2.5
141
2.5
143
0.03937007874016
147
0.625
171
     3
172
     1
271
     2
272
     2
274
     3
278
    44
283
     0
284
     8
340
11
1001
ACAD_DSTYLE_DIMEXT_LENGTH
1070
   378
1040
1.25
1001
ACAD_DSTYLE_DIMJOGGED_JOGANGLE_SYMBOL
1070
   384
1040
1.570796326794896
  0
ENDTAB
  0
TABLE
  2
BLOCK_RECORD
  5
1
330
0
100
AcDbSymbolTable
 70
    23
  0
BLOCK_RECORD
  5
1F
102
{ACAD_XDICTIONARY
360
6F8
102
}
330
1
100
AcDbSymbolTableRecord
100
AcDbBlockTableRecord
  2
*Model_Space
340
22
  0
BLOCK_RECORD
  5
D2
330
1
100
AcDbSymbolTableRecord
100
AcDbBlockTableRecord
  2
*Paper_Space
340
D3
  0
BLOCK_RECORD
  5
D6
330
1
100
AcDbSymbolTableRecord
100
AcDbBlockTableRecord
  2
*Paper_Space0
340
D7
  0
BLOCK_RECORD
  5
F3
330
1
100
AcDbSymbolTableRecord
100
AcDbBlockTableRecord
  2
AI9-BLK1
340
0
102
{BLKREFS
331
C56
102
}
  0
BLOCK_RECORD
  5
F7
330
1
100
AcDbSymbolTableRecord
100
AcDbBlockTableRecord
  2
AI9-BLK2
340
0
102
{BLKREFS
331
F5
102
}
  0
BLOCK_RECORD
  5
6E1
330
1
100
AcDbSymbolTableRecord
100
AcDbBlockTableRecord
  2
_Open30
340
0
  0
BLOCK_RECORD
  5
A16
330
1
100
AcDbSymbolTableRecord
100
AcDbBlockTableRecord
  2
*D4
340
0
  0
BLOCK_RECORD
  5
AB5
330
1
100
AcDbSymbolTableRecord
100
AcDbBlockTableRecord
  2
*D5
340
0
  0
BLOCK_RECORD
  5
ADB
330
1
100
AcDbSymbolTableRecord
100
AcDbBlockTableRecord
  2
*D6
340
0
  0
BLOCK_RECORD
  5
AFC
330
1
100
AcDbSymbolTableRecord
100
AcDbBlockTableRecord
  2
*D7
340
0
  0
BLOCK_RECORD
  5
B37
330
1
100
AcDbSymbolTableRecord
100
AcDbBlockTableRecord
  2
*D8
340
0
  0
BLOCK_RECORD
  5
B56
330
1
100
AcDbSymbolTableRecord
100
AcDbBlockTableRecord
  2
*D9
340
0
  0
BLOCK_RECORD
  5
B78
330
1
100
AcDbSymbolTableRecord
100
AcDbBlockTableRecord
  2
*D10
340
0
  0
BLOCK_RECORD
  5
B9B
330
1
100
AcDbSymbolTableRecord
100
AcDbBlockTableRecord
  2
*D11
340
0
  0
BLOCK_RECORD
  5
BC8
330
1
100
AcDbSymbolTableRecord
100
AcDbBlockTableRecord
  2
*D12
340
0
  0
BLOCK_RECORD
  5
ECD
330
1
100
AcDbSymbolTableRecord
100
AcDbBlockTableRecord
  2
*D13
340
0
  0
BLOCK_RECORD
  5
F09
330
1
100
AcDbSymbolTableRecord
100
AcDbBlockTableRecord
  2
*D14
340
0
  0
BLOCK_RECORD
  5
FB6
330
1
100
AcDbSymbolTableRecord
100
AcDbBlockTableRecord
  2
*D15
340
0
  0
BLOCK_RECORD
  5
FC2
330
1
100
AcDbSymbolTableRecord
100
AcDbBlockTableRecord
  2
*D16
340
0
  0
BLOCK_RECORD
  5
FDA
330
1
100
AcDbSymbolTableRecord
100
AcDbBlockTableRecord
  2
*D17
340
0
  0
BLOCK_RECORD
  5
FEF
330
1
100
AcDbSymbolTableRecord
100
AcDbBlockTableRecord
  2
*D18
340
0
  0
BLOCK_RECORD
  5
FFB
330
1
100
AcDbSymbolTableRecord
100
AcDbBlockTableRecord
  2
*D19
340
0
  0
BLOCK_RECORD
  5
1103
330
1
100
AcDbSymbolTableRecord
100
AcDbBlockTableRecord
  2
*D20
340
0
  0
BLOCK_RECORD
  5
1124
330
1
100
AcDbSymbolTableRecord
100
AcDbBlockTableRecord
  2
*D21
340
0
  0
ENDTAB
  0
ENDSEC
  0
SECTION
  2
BLOCKS
  0
BLOCK
  5
20
330
1F
100
AcDbEntity
  8
0
100
AcDbBlockBegin
  2
*Model_Space
 70
     0
 10
0.0
 20
0.0
 30
0.0
  3
*Model_Space
  1

  0
ENDBLK
  5
21
330
1F
100
AcDbEntity
  8
0
100
AcDbBlockEnd
  0
BLOCK
  5
D4
330
D2
100
AcDbEntity
 67
     1
  8
0
100
AcDbBlockBegin
  2
*Paper_Space
 70
     0
 10
0.0
 20
0.0
 30
0.0
  3
*Paper_Space
  1

  0
ENDBLK
  5
D5
330
D2
100
AcDbEntity
 67
     1
  8
0
100
AcDbBlockEnd
  0
BLOCK
  5
D8
330
D6
100
AcDbEntity
 67
     1
  8
0
100
AcDbBlockBegin
  2
*Paper_Space0
 70
     0
 10
0.0
 20
0.0
 30
0.0
  3
*Paper_Space0
  1

  0
ENDBLK
  5
D9
330
D6
100
AcDbEntity
 67
     1
  8
0
100
AcDbBlockEnd
  0
BLOCK
  5
F4
330
F3
100
AcDbEntity
  8
S-mark
 62
     7
100
AcDbBlockBegin
  2
AI9-BLK1
 70
     0
 10
0.0
 20
0.0
 30
0.0
  3
AI9-BLK1
  1

  0
INSERT
  5
F5
330
F3
100
AcDbEntity
  8
S-mark
 62
     7
100
AcDbBlockReference
  2
AI9-BLK2
 10
0.0
 20
0.0
 30
0.0
  0
ENDBLK
  5
F6
330
F3
100
AcDbEntity
  8
S-mark
100
AcDbBlockEnd
  0
BLOCK
  5
F8
330
F7
100
AcDbEntity
  8
S-mark
 62
     7
100
AcDbBlockBegin
  2
AI9-BLK2
 70
     0
 10
0.0
 20
0.0
 30
0.0
  3
AI9-BLK2
  1

  0
HATCH
  5
F9
330
F7
100
AcDbEntity
  8
S-mark
 62
     7
100
AcDbHatch
 10
0.0
 20
0.0
 30
0.0
210
0.0
220
0.0
230
1.0
  2
SOLID
 70
     1
 71
     0
 91
        1
 92
        1
 93
        1
 72
     4
 94
        3
 73
     0
 74
     0
 95
       59
 96
       55
 40
0.0
 40
0.0
 40
0.0
 40
0.0
 40
1.0
 40
1.0
 40
1.0
 40
2.0
 40
2.0
 40
2.0
 40
3.0
 40
3.0
 40
3.0
 40
4.0
 40
4.0
 40
4.0
 40
5.0
 40
5.0
 40
5.0
 40
6.0
 40
6.0
 40
6.0
 40
7.0
 40
7.0
 40
7.0
 40
8.0
 40
8.0
 40
8.0
 40
9.0
 40
9.0
 40
9.0
 40
10.0
 40
10.0
 40
10.0
 40
11.0
 40
11.0
 40
11.0
 40
12.0
 40
12.0
 40
12.0
 40
13.0
 40
13.0
 40
13.0
 40
14.0
 40
14.0
 40
14.0
 40
15.0
 40
15.0
 40
15.0
 40
16.0
 40
16.0
 40
16.0
 40
17.0
 40
17.0
 40
17.0
 40
18.0
 40
18.0
 40
18.0
 40
18.0
 10
19.11183946397569
 20
10.62743055555555
 10
19.11183946397569
 20
10.62743055555555
 10
19.13285454644097
 20
10.66274278428819
 10
19.13285454644097
 20
10.66274278428819
 10
19.61275634765625
 20
10.33804253472222
 10
20.1877427842882
 20
10.15114610460069
 10
20.80854899088542
 20
10.15114610460069
 10
22.46667344835069
 20
10.15114610460069
 10
23.81060519748264
 20
11.49525010850694
 10
23.81060519748264
 20
13.1497572157118
 10
23.81060519748264
 20
14.20102810329861
 10
23.26731363932291
 20
15.12879231770833
 10
22.44910346137153
 20
15.66502143012153
 10
22.44910346137153
 20
15.66502143012153
 10
22.45599365234375
 20
15.67914632161458
 10
22.45599365234375
 20
15.67914632161458
 10
22.45599365234375
 20
15.67914632161458
 10
-18.13102077907986
 20
42.28561876085069
 10
-18.13102077907986
 20
42.28561876085069
 10
-12.56770833333333
 20
44.67754855685764
 10
-6.436471896701387
 20
46.0004652235243
 10
0.0017225477430556
 20
46.0004652235243
 10
25.40533989800347
 20
46.0004652235243
 10
46.0004652235243
 20
25.40533989800347
 10
46.0004652235243
 20
0.0017225477430556
 10
46.0004652235243
 20
-14.73036702473958
 10
39.07547878689236
 20
-27.84308946397569
 10
28.30507676866319
 20
-36.26393636067708
 10
28.30507676866319
 20
-36.26393636067708
 10
1.067118326822916
 20
-19.00607503255208
 10
1.067118326822916
 20
-19.00607503255208
 10
1.416451009114583
 20
-18.86482611762152
 10
1.761994086371527
 20
-18.72357720269097
 10
2.107881673177083
 20
-18.57922770182291
 10
5.145077853732638
 20
-17.27732611762152
 10
7.381978352864583
 20
-15.23817409939236
 10
8.923314073350693
 20
-12.3032972547743
 10
10.4367445203993
 20
-9.410450575086803
 10
11.01896565755208
 20
-6.288160536024305
 10
10.21832546657986
 20
-3.092145453559027
 10
9.308131239149304
 20
0.53795166015625
 10
7.399548339843748
 20
3.974089898003471
 10
5.371076117621527
 20
6.95495876736111
 10
4.340992567274304
 20
8.468389214409722
 10
3.278869628906249
 20
10.03470187717014
 10
2.926091851128472
 20
11.85147298177083
 10
2.552298990885416
 20
13.76005588107639
 10
3.416673448350694
 20
16.33888210720486
 10
5.554355197482638
 20
16.90336100260416
 10
7.286549207899304
 20
17.35845811631944
 10
9.106937662760415
 20
16.76228434244791
 10
10.6909925672743
 20
16.05311143663194
 10
10.6909925672743
 20
16.05311143663194
 10
19.11183946397569
 20
10.62743055555555
 10
19.11183946397569
 20
10.62743055555555
 97
        0
 75
     2
 76
     1
 98
        1
 10
0.0
 20
0.0
  0
HATCH
  5
FA
330
F7
100
AcDbEntity
  8
S-mark
 62
     7
100
AcDbHatch
 10
0.0
 20
0.0
 30
0.0
210
0.0
220
0.0
230
1.0
  2
SOLID
 70
     1
 71
     0
 91
        1
 92
        1
 93
        1
 72
     4
 94
        3
 73
     0
 74
     0
 95
       68
 96
       64
 40
0.0
 40
0.0
 40
0.0
 40
0.0
 40
1.0
 40
1.0
 40
1.0
 40
2.0
 40
2.0
 40
2.0
 40
3.0
 40
3.0
 40
3.0
 40
4.0
 40
4.0
 40
4.0
 40
5.0
 40
5.0
 40
5.0
 40
6.0
 40
6.0
 40
6.0
 40
7.0
 40
7.0
 40
7.0
 40
8.0
 40
8.0
 40
8.0
 40
9.0
 40
9.0
 40
9.0
 40
10.0
 40
10.0
 40
10.0
 40
11.0
 40
11.0
 40
11.0
 40
12.0
 40
12.0
 40
12.0
 40
13.0
 40
13.0
 40
13.0
 40
14.0
 40
14.0
 40
14.0
 40
15.0
 40
15.0
 40
15.0
 40
16.0
 40
16.0
 40
16.0
 40
17.0
 40
17.0
 40
17.0
 40
18.0
 40
18.0
 40
18.0
 40
19.0
 40
19.0
 40
19.0
 40
20.0
 40
20.0
 40
20.0
 40
21.0
 40
21.0
 40
21.0
 40
21.0
 10
-23.28161078559027
 20
-10.57454833984375
 10
-23.28161078559027
 20
-10.57454833984375
 10
22.7522718641493
 20
-39.98911810980903
 10
22.7522718641493
 20
-39.98911810980903
 10
16.0426038953993
 20
-43.81696370442708
 10
8.278047688802082
 20
-46.0004652235243
 10
0.0017225477430556
 20
-46.0004652235243
 10
-25.40533989800347
 20
-46.0004652235243
 10
-46.0004652235243
 20
-25.40533989800347
 10
-46.0004652235243
 20
0.0017225477430556
 10
-46.0004652235243
 20
16.32820231119791
 10
-37.49504123263888
 20
30.66875678168403
 10
-24.6715345594618
 20
38.8319105360243
 10
-24.6715345594618
 20
38.8319105360243
 10
-0.4709445529513889
 20
23.24268120659722
 10
-0.4709445529513889
 20
23.24268120659722
 10
-0.4709445529513889
 20
23.24268120659722
 10
-0.5345065646701388
 20
23.14397922092014
 10
-0.5345065646701388
 20
23.14397922092014
 10
-2.495971679687499
 20
22.2654798719618
 10
-4.446756998697916
 20
21.18251410590278
 10
-5.77673611111111
 20
19.44325764973958
 10
-7.515992567274304
 20
17.1679443359375
 10
-7.216097005208332
 20
14.03514675564236
 10
-6.394097222222221
 20
11.46700032552083
 10
-5.882672797309027
 20
9.868992784288193
 10
-5.145250108506943
 20
8.344882541232637
 10
-4.309297688802082
 20
6.89139675564236
 10
-3.501422797309027
 20
5.487348090277777
 10
-2.591228569878472
 20
4.15047878689236
 10
-1.677589246961805
 20
2.816882324218749
 10
-0.7250203450520833
 20
1.434020996093749
 10
0.2451185438368055
 20
0.0475423177083333
 10
1.028188747829861
 20
-1.441255696614583
 10
1.811603461371527
 20
-2.926436360677083
 10
2.421729871961805
 20
-4.549076334635416
 10
2.488909233940971
 20
-6.242340766059027
 10
2.555744086371527
 20
-7.847410753038193
 10
2.097201877170138
 20
-9.456270345052082
 10
1.084688313802083
 20
-10.71924235026041
 10
0.0687296549479167
 20
-11.98221435546875
 10
-1.413005913628472
 20
-12.77940945095486
 10
-3.003951009114583
 20
-13.04054768880208
 10
-4.732527669270832
 20
-13.31925591362847
 10
-6.475229220920137
 20
-12.97336832682291
 10
-8.143861219618054
 20
-12.51482611762152
 10
-8.588450792100694
 20
-12.39493679470486
 10
-9.025805664062499
 20
-12.25713297526041
 10
-9.470395236545137
 20
-12.13379855685764
 10
-9.470395236545137
 20
-12.13379855685764
 10
-9.558589680989582
 20
-12.27504747178819
 10
-9.558589680989582
 20
-12.27504747178819
 10
-9.558589680989582
 20
-12.27504747178819
 10
-19.96553412543402
 20
-5.684924316406249
 10
-19.96553412543402
 20
-5.684924316406249
 10
-20.50520833333333
 20
-5.159547254774304
 10
-21.24263102213542
 20
-4.838464355468749
 10
-22.05395100911458
 20
-4.838464355468749
 10
-23.70845811631944
 20
-4.838464355468749
 10
-25.05256212022569
 20
-6.182396104600694
 10
-25.05256212022569
 20
-7.840520562065971
 10
-25.05256212022569
 20
-9.057672797309026
 10
-24.32581922743056
 20
-10.10532633463541
 10
-23.28161078559027
 20
-10.57454833984375
 97
        0
 75
     2
 76
     1
 98
        1
 10
0.0
 20
0.0
  0
ENDBLK
  5
FB
330
F7
100
AcDbEntity
  8
S-mark
100
AcDbBlockEnd
  0
BLOCK
  5
6E2
330
6E1
100
AcDbEntity
  8
0
100
AcDbBlockBegin
  2
_Open30
 70
     0
 10
0.0
 20
0.0
 30
0.0
  3
_Open30
  1

  0
LINE
  5
6E3
330
6E1
100
AcDbEntity
  8
0
  6
ByBlock
 62
     0
370
    -2
100
AcDbLine
 10
-1.0
 20
0.26794919
 30
0.0
 11
0.0
 21
0.0
 31
0.0
  0
LINE
  5
6E4
330
6E1
100
AcDbEntity
  8
0
  6
ByBlock
 62
     0
370
    -2
100
AcDbLine
 10
0.0
 20
0.0
 30
0.0
 11
-1.0
 21
-0.26794919
 31
0.0
  0
LINE
  5
6E5
330
6E1
100
AcDbEntity
  8
0
  6
ByBlock
 62
     0
370
    -2
100
AcDbLine
 10
0.0
 20
0.0
 30
0.0
 11
-1.0
 21
0.0
 31
0.0
  0
ENDBLK
  5
6E6
330
6E1
100
AcDbEntity
  8
0
100
AcDbBlockEnd
  0
BLOCK
  5
A17
330
A16
100
AcDbEntity
  8
0
100
AcDbBlockBegin
  2
*D4
 70
     1
 10
0.0
 20
0.0
 30
0.0
  3
*D4
  1

  0
LINE
  5
E70
330
A16
100
AcDbEntity
  8
S-size
 62
     0
370
    -2
100
AcDbLine
 10
1182.800088449528
 20
3913.909163386517
 30
0.0
 11
1182.800088449528
 21
4058.504546037455
 31
0.0
  0
LINE
  5
E71
330
A16
100
AcDbEntity
  8
S-size
 62
     0
370
    -2
100
AcDbLine
 10
3182.800088449529
 20
3913.909163386517
 30
0.0
 11
3182.800088449529
 21
4058.504546037455
 31
0.0
  0
LINE
  5
E72
330
A16
100
AcDbEntity
  8
S-size
 62
     0
370
    -2
100
AcDbLine
 10
1202.800088449528
 20
4058.504546037455
 30
0.0
 11
3162.800088449529
 21
4058.504546037455
 31
0.0
  0
SOLID
  5
E73
330
A16
100
AcDbEntity
  8
S-size
 62
     0
100
AcDbTrace
 10
1202.800088449528
 20
4061.837879370788
 30
0.0
 11
1202.800088449528
 21
4055.171212704121
 31
0.0
 12
1182.800088449528
 22
4058.504546037455
 32
0.0
 13
1182.800088449528
 23
4058.504546037455
 33
0.0
  0
SOLID
  5
E74
330
A16
100
AcDbEntity
  8
S-size
 62
     0
100
AcDbTrace
 10
3162.800088449529
 20
4061.837879370788
 30
0.0
 11
3162.800088449529
 21
4055.171212704121
 31
0.0
 12
3182.800088449529
 22
4058.504546037455
 32
0.0
 13
3182.800088449529
 23
4058.504546037455
 33
0.0
  0
MTEXT
  5
E75
330
A16
100
AcDbEntity
  8
S-size
 62
     0
100
AcDbMText
 10
2182.800088449528
 20
4086.004546037455
 30
0.0
 40
25.0
 41
0.0
 71
     5
 72
     1
  1
2000
 73
     1
 44
1.0
1001
ACAD
1000
MTEXTBEGIN
1070
    73
1070
     1
1070
    44
1040
1.0
1070
    74
1070
     0
1000
MTEXTEND
  0
POINT
  5
E76
330
A16
100
AcDbEntity
  8
DEFPOINTS
 62
     0
100
AcDbPoint
 10
1182.800088449528
 20
3893.909163386517
 30
0.0
  0
POINT
  5
E77
330
A16
100
AcDbEntity
  8
DEFPOINTS
 62
     0
100
AcDbPoint
 10
3182.800088449529
 20
3893.909163386517
 30
0.0
  0
POINT
  5
E78
330
A16
100
AcDbEntity
  8
DEFPOINTS
 62
     0
100
AcDbPoint
 10
3182.800088449529
 20
4058.504546037455
 30
0.0
  0
ENDBLK
  5
A18
330
A16
100
AcDbEntity
  8
0
100
AcDbBlockEnd
  0
BLOCK
  5
AB6
330
AB5
100
AcDbEntity
  8
0
100
AcDbBlockBegin
  2
*D5
 70
     1
 10
0.0
 20
0.0
 30
0.0
  3
*D5
  1

  0
LINE
  5
132F
330
AB5
100
AcDbEntity
  8
S-size
 62
     0
370
    -2
100
AcDbLine
 10
1162.800088449528
 20
3333.909163386517
 30
0.0
 11
1067.626938832102
 21
3333.909163386517
 31
0.0
  0
LINE
  5
1330
330
AB5
100
AcDbEntity
  8
S-size
 62
     0
370
    -2
100
AcDbLine
 10
1162.800088449528
 20
3893.909163386517
 30
0.0
 11
1067.626938832102
 21
3893.909163386517
 31
0.0
  0
LINE
  5
1331
330
AB5
100
AcDbEntity
  8
S-size
 62
     0
370
    -2
100
AcDbLine
 10
1067.626938832102
 20
3353.909163386518
 30
0.0
 11
1067.626938832102
 21
3873.909163386517
 31
0.0
  0
SOLID
  5
1332
330
AB5
100
AcDbEntity
  8
S-size
 62
     0
100
AcDbTrace
 10
1064.293605498768
 20
3353.909163386518
 30
0.0
 11
1070.960272165435
 21
3353.909163386518
 31
0.0
 12
1067.626938832102
 22
3333.909163386517
 32
0.0
 13
1067.626938832102
 23
3333.909163386517
 33
0.0
  0
SOLID
  5
1333
330
AB5
100
AcDbEntity
  8
S-size
 62
     0
100
AcDbTrace
 10
1064.293605498769
 20
3873.909163386517
 30
0.0
 11
1070.960272165435
 21
3873.909163386517
 31
0.0
 12
1067.626938832102
 22
3893.909163386517
 32
0.0
 13
1067.626938832102
 23
3893.909163386517
 33
0.0
  0
MTEXT
  5
1334
330
AB5
100
AcDbEntity
  8
S-size
 62
     0
100
AcDbMText
 10
1040.126938832101
 20
3613.909163386518
 30
0.0
 40
25.0
 41
0.0
 71
     5
 72
     1
  1
560
 11
0.0000000000000001
 21
1.0
 31
0.0
 73
     1
 44
1.0
1001
ACAD
1000
MTEXTBEGIN
1070
    73
1070
     1
1070
    44
1040
1.0
1070
    74
1070
     0
1000
MTEXTEND
  0
POINT
  5
1335
330
AB5
100
AcDbEntity
  8
DEFPOINTS
 62
     0
100
AcDbPoint
 10
1182.800088449528
 20
3333.909163386517
 30
0.0
  0
POINT
  5
1336
330
AB5
100
AcDbEntity
  8
DEFPOINTS
 62
     0
100
AcDbPoint
 10
1182.800088449528
 20
3893.909163386517
 30
0.0
  0
POINT
  5
1337
330
AB5
100
AcDbEntity
  8
DEFPOINTS
 62
     0
100
AcDbPoint
 10
1067.626938832102
 20
3893.909163386517
 30
0.0
  0
ENDBLK
  5
AB7
330
AB5
100
AcDbEntity
  8
0
100
AcDbBlockEnd
  0
BLOCK
  5
ADC
330
ADB
100
AcDbEntity
  8
0
100
AcDbBlockBegin
  2
*D6
 70
     1
 10
0.0
 20
0.0
 30
0.0
  3
*D6
  1

  0
LINE
  5
F3F
330
ADB
100
AcDbEntity
  8
S-size
 62
     0
370
    -2
100
AcDbLine
 10
3982.800088449529
 20
3913.909163386517
 30
0.0
 11
3982.800088449529
 21
4058.504546037455
 31
0.0
  0
LINE
  5
F40
330
ADB
100
AcDbEntity
  8
S-size
 62
     0
370
    -2
100
AcDbLine
 10
4612.800088449528
 20
3913.909163386517
 30
0.0
 11
4612.800088449528
 21
4058.504546037455
 31
0.0
  0
LINE
  5
F41
330
ADB
100
AcDbEntity
  8
S-size
 62
     0
370
    -2
100
AcDbLine
 10
4002.800088449528
 20
4058.504546037455
 30
0.0
 11
4592.800088449529
 21
4058.504546037455
 31
0.0
  0
SOLID
  5
F42
330
ADB
100
AcDbEntity
  8
S-size
 62
     0
100
AcDbTrace
 10
4002.800088449528
 20
4061.837879370788
 30
0.0
 11
4002.800088449528
 21
4055.171212704121
 31
0.0
 12
3982.800088449529
 22
4058.504546037455
 32
0.0
 13
3982.800088449529
 23
4058.504546037455
 33
0.0
  0
SOLID
  5
F43
330
ADB
100
AcDbEntity
  8
S-size
 62
     0
100
AcDbTrace
 10
4592.800088449529
 20
4061.837879370788
 30
0.0
 11
4592.800088449529
 21
4055.171212704121
 31
0.0
 12
4612.800088449528
 22
4058.504546037455
 32
0.0
 13
4612.800088449528
 23
4058.504546037455
 33
0.0
  0
MTEXT
  5
F44
330
ADB
100
AcDbEntity
  8
S-size
 62
     0
100
AcDbMText
 10
4297.800088449529
 20
4086.004546037455
 30
0.0
 40
25.0
 41
0.0
 71
     5
 72
     1
  1
630
 73
     1
 44
1.0
1001
ACAD
1000
MTEXTBEGIN
1070
    73
1070
     1
1070
    44
1040
1.0
1070
    74
1070
     0
1000
MTEXTEND
  0
POINT
  5
F45
330
ADB
100
AcDbEntity
  8
DEFPOINTS
 62
     0
100
AcDbPoint
 10
3982.800088449529
 20
3893.909163386517
 30
0.0
  0
POINT
  5
F46
330
ADB
100
AcDbEntity
  8
DEFPOINTS
 62
     0
100
AcDbPoint
 10
4612.800088449528
 20
3893.909163386517
 30
0.0
  0
POINT
  5
F47
330
ADB
100
AcDbEntity
  8
DEFPOINTS
 62
     0
100
AcDbPoint
 10
4612.800088449528
 20
4058.504546037455
 30
0.0
  0
ENDBLK
  5
ADD
330
ADB
100
AcDbEntity
  8
0
100
AcDbBlockEnd
  0
BLOCK
  5
AFD
330
AFC
100
AcDbEntity
  8
0
100
AcDbBlockBegin
  2
*D7
 70
     1
 10
0.0
 20
0.0
 30
0.0
  3
*D7
  1

  0
LINE
  5
E8B
330
AFC
100
AcDbEntity
  8
S-size
 62
     0
370
    -2
100
AcDbLine
 10
1162.800088449528
 20
1493.909163386517
 30
0.0
 11
1067.626938832101
 21
1493.909163386517
 31
0.0
  0
LINE
  5
E8C
330
AFC
100
AcDbEntity
  8
S-size
 62
     0
370
    -2
100
AcDbLine
 10
1162.800088449528
 20
863.9091633865174
 30
0.0
 11
1067.626938832101
 21
863.9091633865174
 31
0.0
  0
LINE
  5
E8D
330
AFC
100
AcDbEntity
  8
S-size
 62
     0
370
    -2
100
AcDbLine
 10
1067.626938832101
 20
1473.909163386517
 30
0.0
 11
1067.626938832101
 21
883.9091633865173
 31
0.0
  0
SOLID
  5
E8E
330
AFC
100
AcDbEntity
  8
S-size
 62
     0
100
AcDbTrace
 10
1064.293605498768
 20
1473.909163386517
 30
0.0
 11
1070.960272165434
 21
1473.909163386517
 31
0.0
 12
1067.626938832101
 22
1493.909163386517
 32
0.0
 13
1067.626938832101
 23
1493.909163386517
 33
0.0
  0
SOLID
  5
E8F
330
AFC
100
AcDbEntity
  8
S-size
 62
     0
100
AcDbTrace
 10
1064.293605498768
 20
883.9091633865173
 30
0.0
 11
1070.960272165434
 21
883.9091633865173
 31
0.0
 12
1067.626938832101
 22
863.9091633865174
 32
0.0
 13
1067.626938832101
 23
863.9091633865174
 33
0.0
  0
MTEXT
  5
E90
330
AFC
100
AcDbEntity
  8
S-size
 62
     0
100
AcDbMText
 10
1040.126938832101
 20
1178.909163386517
 30
0.0
 40
25.0
 41
0.0
 71
     5
 72
     1
  1
630
 11
0.0000000000000001
 21
1.0
 31
0.0
 73
     1
 44
1.0
1001
ACAD
1000
MTEXTBEGIN
1070
    73
1070
     1
1070
    44
1040
1.0
1070
    74
1070
     0
1000
MTEXTEND
  0
POINT
  5
E91
330
AFC
100
AcDbEntity
  8
DEFPOINTS
 62
     0
100
AcDbPoint
 10
1182.800088449528
 20
1493.909163386517
 30
0.0
  0
POINT
  5
E92
330
AFC
100
AcDbEntity
  8
DEFPOINTS
 62
     0
100
AcDbPoint
 10
1182.800088449528
 20
863.9091633865174
 30
0.0
  0
POINT
  5
E93
330
AFC
100
AcDbEntity
  8
DEFPOINTS
 62
     0
100
AcDbPoint
 10
1067.626938832101
 20
863.9091633865174
 30
0.0
  0
ENDBLK
  5
AFE
330
AFC
100
AcDbEntity
  8
0
100
AcDbBlockEnd
  0
BLOCK
  5
B38
330
B37
100
AcDbEntity
  8
0
100
AcDbBlockBegin
  2
*D8
 70
     1
 10
0.0
 20
0.0
 30
0.0
  3
*D8
  1

  0
LINE
  5
138A
330
B37
100
AcDbEntity
  8
S-size
 62
     0
370
    -2
100
AcDbLine
 10
3962.800088449527
 20
3333.909163386517
 30
0.0
 11
3867.001938832102
 21
3333.909163386517
 31
0.0
  0
LINE
  5
138B
330
B37
100
AcDbEntity
  8
S-size
 62
     0
370
    -2
100
AcDbLine
 10
3962.175088449529
 20
3893.909163386517
 30
0.0
 11
3867.001938832102
 21
3893.909163386517
 31
0.0
  0
LINE
  5
138C
330
B37
100
AcDbEntity
  8
S-size
 62
     0
370
    -2
100
AcDbLine
 10
3867.001938832102
 20
3353.909163386518
 30
0.0
 11
3867.001938832102
 21
3873.909163386517
 31
0.0
  0
SOLID
  5
138D
330
B37
100
AcDbEntity
  8
S-size
 62
     0
100
AcDbTrace
 10
3863.668605498769
 20
3353.909163386518
 30
0.0
 11
3870.335272165436
 21
3353.909163386518
 31
0.0
 12
3867.001938832102
 22
3333.909163386517
 32
0.0
 13
3867.001938832102
 23
3333.909163386517
 33
0.0
  0
SOLID
  5
138E
330
B37
100
AcDbEntity
  8
S-size
 62
     0
100
AcDbTrace
 10
3863.668605498769
 20
3873.909163386517
 30
0.0
 11
3870.335272165436
 21
3873.909163386517
 31
0.0
 12
3867.001938832102
 22
3893.909163386517
 32
0.0
 13
3867.001938832102
 23
3893.909163386517
 33
0.0
  0
MTEXT
  5
138F
330
B37
100
AcDbEntity
  8
S-size
 62
     0
100
AcDbMText
 10
3839.501938832101
 20
3613.909163386518
 30
0.0
 40
25.0
 41
0.0
 71
     5
 72
     1
  1
560
 11
0.0000000000000001
 21
1.0
 31
0.0
 73
     1
 44
1.0
1001
ACAD
1000
MTEXTBEGIN
1070
    73
1070
     1
1070
    44
1040
1.0
1070
    74
1070
     0
1000
MTEXTEND
  0
POINT
  5
1390
330
B37
100
AcDbEntity
  8
DEFPOINTS
 62
     0
100
AcDbPoint
 10
3982.800088449527
 20
3333.909163386517
 30
0.0
  0
POINT
  5
1391
330
B37
100
AcDbEntity
  8
DEFPOINTS
 62
     0
100
AcDbPoint
 10
3982.175088449529
 20
3893.909163386517
 30
0.0
  0
POINT
  5
1392
330
B37
100
AcDbEntity
  8
DEFPOINTS
 62
     0
100
AcDbPoint
 10
3867.001938832102
 20
3893.909163386517
 30
0.0
  0
ENDBLK
  5
B39
330
B37
100
AcDbEntity
  8
0
100
AcDbBlockEnd
  0
BLOCK
  5
B57
330
B56
100
AcDbEntity
  8
0
100
AcDbBlockBegin
  2
*D9
 70
     1
 10
0.0
 20
0.0
 30
0.0
  3
*D9
  1

  0
LINE
  5
1483
330
B56
100
AcDbEntity
  8
S-size
 62
     0
370
    -2
100
AcDbLine
 10
3982.800088449531
 20
3313.909163386517
 30
0.0
 11
3982.800088449531
 21
3243.909163386517
 31
0.0
  0
LINE
  5
1484
330
B56
100
AcDbEntity
  8
S-size
 62
     0
370
    -2
100
AcDbLine
 10
4097.80008844953
 20
3313.909163386517
 30
0.0
 11
4097.80008844953
 21
3243.909163386517
 31
0.0
  0
LINE
  5
1485
330
B56
100
AcDbEntity
  8
S-size
 62
     0
370
    -2
100
AcDbLine
 10
4002.80008844953
 20
3243.909163386517
 30
0.0
 11
4077.800088449531
 21
3243.909163386517
 31
0.0
  0
SOLID
  5
1486
330
B56
100
AcDbEntity
  8
S-size
 62
     0
100
AcDbTrace
 10
4002.80008844953
 20
3247.24249671985
 30
0.0
 11
4002.80008844953
 21
3240.575830053183
 31
0.0
 12
3982.800088449531
 22
3243.909163386517
 32
0.0
 13
3982.800088449531
 23
3243.909163386517
 33
0.0
  0
SOLID
  5
1487
330
B56
100
AcDbEntity
  8
S-size
 62
     0
100
AcDbTrace
 10
4077.800088449531
 20
3247.24249671985
 30
0.0
 11
4077.800088449531
 21
3240.575830053183
 31
0.0
 12
4097.80008844953
 22
3243.909163386517
 32
0.0
 13
4097.80008844953
 23
3243.909163386517
 33
0.0
  0
MTEXT
  5
1488
330
B56
100
AcDbEntity
  8
S-size
 62
     0
100
AcDbMText
 10
4040.30008844953
 20
3216.409163386516
 30
0.0
 40
25.0
 41
0.0
 71
     5
 72
     1
  1
115
 73
     1
 44
1.0
1001
ACAD
1000
MTEXTBEGIN
1070
    73
1070
     1
1070
    44
1040
1.0
1070
    74
1070
     0
1000
MTEXTEND
  0
POINT
  5
1489
330
B56
100
AcDbEntity
  8
DEFPOINTS
 62
     0
100
AcDbPoint
 10
3982.800088449531
 20
3333.909163386517
 30
0.0
  0
POINT
  5
148A
330
B56
100
AcDbEntity
  8
DEFPOINTS
 62
     0
100
AcDbPoint
 10
4097.80008844953
 20
3333.909163386517
 30
0.0
  0
POINT
  5
148B
330
B56
100
AcDbEntity
  8
DEFPOINTS
 62
     0
100
AcDbPoint
 10
4097.80008844953
 20
3243.909163386517
 30
0.0
  0
ENDBLK
  5
B58
330
B56
100
AcDbEntity
  8
0
100
AcDbBlockEnd
  0
BLOCK
  5
B79
330
B78
100
AcDbEntity
  8
0
100
AcDbBlockBegin
  2
*D10
 70
     1
 10
0.0
 20
0.0
 30
0.0
  3
*D10
  1

  0
LINE
  5
1343
330
B78
100
AcDbEntity
  8
S-size
 62
     0
370
    -2
100
AcDbLine
 10
4097.80008844953
 20
3313.909163386517
 30
0.0
 11
4097.80008844953
 21
3243.909163386518
 31
0.0
  0
LINE
  5
1344
330
B78
100
AcDbEntity
  8
S-size
 62
     0
370
    -2
100
AcDbLine
 10
4497.800088449531
 20
3313.909163386517
 30
0.0
 11
4497.800088449531
 21
3243.909163386518
 31
0.0
  0
LINE
  5
1345
330
B78
100
AcDbEntity
  8
S-size
 62
     0
370
    -2
100
AcDbLine
 10
4117.80008844953
 20
3243.909163386518
 30
0.0
 11
4477.80008844953
 21
3243.909163386518
 31
0.0
  0
SOLID
  5
1346
330
B78
100
AcDbEntity
  8
S-size
 62
     0
100
AcDbTrace
 10
4117.80008844953
 20
3247.242496719851
 30
0.0
 11
4117.80008844953
 21
3240.575830053184
 31
0.0
 12
4097.80008844953
 22
3243.909163386518
 32
0.0
 13
4097.80008844953
 23
3243.909163386518
 33
0.0
  0
SOLID
  5
1347
330
B78
100
AcDbEntity
  8
S-size
 62
     0
100
AcDbTrace
 10
4477.80008844953
 20
3247.242496719851
 30
0.0
 11
4477.80008844953
 21
3240.575830053184
 31
0.0
 12
4497.800088449531
 22
3243.909163386518
 32
0.0
 13
4497.800088449531
 23
3243.909163386518
 33
0.0
  0
MTEXT
  5
1348
330
B78
100
AcDbEntity
  8
S-size
 62
     0
100
AcDbMText
 10
4297.80008844953
 20
3216.409163386518
 30
0.0
 40
25.0
 41
0.0
 71
     5
 72
     1
  1
400
 73
     1
 44
1.0
1001
ACAD
1000
MTEXTBEGIN
1070
    73
1070
     1
1070
    44
1040
1.0
1070
    74
1070
     0
1000
MTEXTEND
  0
POINT
  5
1349
330
B78
100
AcDbEntity
  8
DEFPOINTS
 62
     0
100
AcDbPoint
 10
4097.80008844953
 20
3333.909163386517
 30
0.0
  0
POINT
  5
134A
330
B78
100
AcDbEntity
  8
DEFPOINTS
 62
     0
100
AcDbPoint
 10
4497.800088449531
 20
3333.909163386517
 30
0.0
  0
POINT
  5
134B
330
B78
100
AcDbEntity
  8
DEFPOINTS
 62
     0
100
AcDbPoint
 10
4497.800088449531
 20
3243.909163386518
 30
0.0
  0
ENDBLK
  5
B7A
330
B78
100
AcDbEntity
  8
0
100
AcDbBlockEnd
  0
BLOCK
  5
B9C
330
B9B
100
AcDbEntity
  8
0
100
AcDbBlockBegin
  2
*D11
 70
     1
 10
0.0
 20
0.0
 30
0.0
  3
*D11
  1

  0
LINE
  5
148C
330
B9B
100
AcDbEntity
  8
S-size
 62
     0
370
    -2
100
AcDbLine
 10
4497.800088449531
 20
3313.909163386517
 30
0.0
 11
4497.800088449531
 21
3243.909163386518
 31
0.0
  0
LINE
  5
148D
330
B9B
100
AcDbEntity
  8
S-size
 62
     0
370
    -2
100
AcDbLine
 10
4612.800088449531
 20
3313.909163386517
 30
0.0
 11
4612.800088449531
 21
3243.909163386518
 31
0.0
  0
LINE
  5
148E
330
B9B
100
AcDbEntity
  8
S-size
 62
     0
370
    -2
100
AcDbLine
 10
4517.80008844953
 20
3243.909163386518
 30
0.0
 11
4592.80008844953
 21
3243.909163386518
 31
0.0
  0
SOLID
  5
148F
330
B9B
100
AcDbEntity
  8
S-size
 62
     0
100
AcDbTrace
 10
4517.80008844953
 20
3247.242496719851
 30
0.0
 11
4517.80008844953
 21
3240.575830053184
 31
0.0
 12
4497.800088449531
 22
3243.909163386518
 32
0.0
 13
4497.800088449531
 23
3243.909163386518
 33
0.0
  0
SOLID
  5
1490
330
B9B
100
AcDbEntity
  8
S-size
 62
     0
100
AcDbTrace
 10
4592.80008844953
 20
3247.242496719851
 30
0.0
 11
4592.80008844953
 21
3240.575830053184
 31
0.0
 12
4612.800088449531
 22
3243.909163386518
 32
0.0
 13
4612.800088449531
 23
3243.909163386518
 33
0.0
  0
MTEXT
  5
1491
330
B9B
100
AcDbEntity
  8
S-size
 62
     0
100
AcDbMText
 10
4555.30008844953
 20
3216.409163386518
 30
0.0
 40
25.0
 41
0.0
 71
     5
 72
     1
  1
115
 73
     1
 44
1.0
1001
ACAD
1000
MTEXTBEGIN
1070
    73
1070
     1
1070
    44
1040
1.0
1070
    74
1070
     0
1000
MTEXTEND
  0
POINT
  5
1492
330
B9B
100
AcDbEntity
  8
DEFPOINTS
 62
     0
100
AcDbPoint
 10
4497.800088449531
 20
3333.909163386517
 30
0.0
  0
POINT
  5
1493
330
B9B
100
AcDbEntity
  8
DEFPOINTS
 62
     0
100
AcDbPoint
 10
4612.800088449531
 20
3333.909163386517
 30
0.0
  0
POINT
  5
1494
330
B9B
100
AcDbEntity
  8
DEFPOINTS
 62
     0
100
AcDbPoint
 10
4612.800088449531
 20
3243.909163386518
 30
0.0
  0
ENDBLK
  5
B9D
330
B9B
100
AcDbEntity
  8
0
100
AcDbBlockEnd
  0
BLOCK
  5
BC9
330
BC8
100
AcDbEntity
  8
0
100
AcDbBlockBegin
  2
*D12
 70
     1
 10
0.0
 20
0.0
 30
0.0
  3
*D12
  1

  0
LINE
  5
EB8
330
BC8
100
AcDbEntity
  8
S-size
 62
     0
370
    -2
100
AcDbLine
 10
1182.800088449528
 20
1513.909163386517
 30
0.0
 11
1182.800088449528
 21
1613.474692757722
 31
0.0
  0
LINE
  5
EB9
330
BC8
100
AcDbEntity
  8
S-size
 62
     0
370
    -2
100
AcDbLine
 10
3182.800088449529
 20
1513.909163386517
 30
0.0
 11
3182.800088449529
 21
1613.474692757722
 31
0.0
  0
LINE
  5
EBA
330
BC8
100
AcDbEntity
  8
S-size
 62
     0
370
    -2
100
AcDbLine
 10
1202.800088449528
 20
1613.474692757722
 30
0.0
 11
3162.800088449529
 21
1613.474692757722
 31
0.0
  0
SOLID
  5
EBB
330
BC8
100
AcDbEntity
  8
S-size
 62
     0
100
AcDbTrace
 10
1202.800088449528
 20
1616.808026091055
 30
0.0
 11
1202.800088449528
 21
1610.141359424388
 31
0.0
 12
1182.800088449528
 22
1613.474692757722
 32
0.0
 13
1182.800088449528
 23
1613.474692757722
 33
0.0
  0
SOLID
  5
EBC
330
BC8
100
AcDbEntity
  8
S-size
 62
     0
100
AcDbTrace
 10
3162.800088449529
 20
1616.808026091055
 30
0.0
 11
3162.800088449529
 21
1610.141359424388
 31
0.0
 12
3182.800088449529
 22
1613.474692757722
 32
0.0
 13
3182.800088449529
 23
1613.474692757722
 33
0.0
  0
MTEXT
  5
EBD
330
BC8
100
AcDbEntity
  8
S-size
 62
     0
100
AcDbMText
 10
2182.800088449528
 20
1640.974692757722
 30
0.0
 40
25.0
 41
0.0
 71
     5
 72
     1
  1
2000
 73
     1
 44
1.0
1001
ACAD
1000
MTEXTBEGIN
1070
    73
1070
     1
1070
    44
1040
1.0
1070
    74
1070
     0
1000
MTEXTEND
  0
POINT
  5
EBE
330
BC8
100
AcDbEntity
  8
DEFPOINTS
 62
     0
100
AcDbPoint
 10
1182.800088449528
 20
1493.909163386517
 30
0.0
  0
POINT
  5
EBF
330
BC8
100
AcDbEntity
  8
DEFPOINTS
 62
     0
100
AcDbPoint
 10
3182.800088449529
 20
1493.909163386517
 30
0.0
  0
POINT
  5
EC0
330
BC8
100
AcDbEntity
  8
DEFPOINTS
 62
     0
100
AcDbPoint
 10
3182.800088449529
 20
1613.474692757722
 30
0.0
  0
ENDBLK
  5
BCA
330
BC8
100
AcDbEntity
  8
0
100
AcDbBlockEnd
  0
BLOCK
  5
ECE
330
ECD
100
AcDbEntity
  8
0
100
AcDbBlockBegin
  2
*D13
 70
     1
 10
0.0
 20
0.0
 30
0.0
  3
*D13
  1

  0
LINE
  5
1419
330
ECD
100
AcDbEntity
  8
S-size
 62
     0
370
    -2
100
AcDbLine
 10
4317.80008844953
 20
3768.909163386517
 30
0.0
 11
4707.463392712809
 21
3768.909163386517
 31
0.0
  0
LINE
  5
141A
330
ECD
100
AcDbEntity
  8
S-size
 62
     0
370
    -2
100
AcDbLine
 10
4632.80008844953
 20
3383.909163386518
 30
0.0
 11
4707.463392712809
 21
3383.909163386518
 31
0.0
  0
LINE
  5
141B
330
ECD
100
AcDbEntity
  8
S-size
 62
     0
370
    -2
100
AcDbLine
 10
4707.463392712809
 20
3748.909163386517
 30
0.0
 11
4707.463392712809
 21
3403.909163386518
 31
0.0
  0
SOLID
  5
141C
330
ECD
100
AcDbEntity
  8
S-size
 62
     0
100
AcDbTrace
 10
4704.130059379475
 20
3748.909163386517
 30
0.0
 11
4710.796726046142
 21
3748.909163386517
 31
0.0
 12
4707.463392712809
 22
3768.909163386517
 32
0.0
 13
4707.463392712809
 23
3768.909163386517
 33
0.0
  0
SOLID
  5
141D
330
ECD
100
AcDbEntity
  8
S-size
 62
     0
100
AcDbTrace
 10
4704.130059379475
 20
3403.909163386518
 30
0.0
 11
4710.796726046142
 21
3403.909163386518
 31
0.0
 12
4707.463392712809
 22
3383.909163386518
 32
0.0
 13
4707.463392712809
 23
3383.909163386518
 33
0.0
  0
MTEXT
  5
141E
330
ECD
100
AcDbEntity
  8
S-size
 62
     0
100
AcDbMText
 10
4734.963392712808
 20
3576.409163386518
 30
0.0
 40
25.0
 41
0.0
 71
     5
 72
     1
  1
385
 11
0.0000000000000001
 21
1.0
 31
0.0
 73
     1
 44
1.0
1001
ACAD
1000
MTEXTBEGIN
1070
    73
1070
     1
1070
    44
1040
1.0
1070
    74
1070
     0
1000
MTEXTEND
  0
POINT
  5
141F
330
ECD
100
AcDbEntity
  8
DEFPOINTS
 62
     0
100
AcDbPoint
 10
4297.80008844953
 20
3768.909163386517
 30
0.0
  0
POINT
  5
1420
330
ECD
100
AcDbEntity
  8
DEFPOINTS
 62
     0
100
AcDbPoint
 10
4612.800088449531
 20
3383.909163386518
 30
0.0
  0
POINT
  5
1421
330
ECD
100
AcDbEntity
  8
DEFPOINTS
 62
     0
100
AcDbPoint
 10
4707.463392712809
 20
3383.909163386518
 30
0.0
  0
ENDBLK
  5
ECF
330
ECD
100
AcDbEntity
  8
0
100
AcDbBlockEnd
  0
BLOCK
  5
F0A
330
F09
100
AcDbEntity
  8
0
100
AcDbBlockBegin
  2
*D14
 70
     1
 10
0.0
 20
0.0
 30
0.0
  3
*D14
  1

  0
LINE
  5
1405
330
F09
100
AcDbEntity
  8
S-size
 62
     0
370
    -2
100
AcDbLine
 10
4632.80008844953
 20
3333.909163386517
 30
0.0
 11
4707.463392712812
 21
3333.909163386517
 31
0.0
  0
LINE
  5
1406
330
F09
100
AcDbEntity
  8
S-size
 62
     0
370
    -2
100
AcDbLine
 10
4632.80008844953
 20
3383.909163386518
 30
0.0
 11
4707.463392712812
 21
3383.909163386518
 31
0.0
  0
LINE
  5
1407
330
F09
100
AcDbEntity
  8
S-size
 62
     0
370
    -2
100
AcDbLine
 10
4707.463392712812
 20
3313.909163386517
 30
0.0
 11
4707.463392712812
 21
3293.909163386518
 31
0.0
  0
LINE
  5
1408
330
F09
100
AcDbEntity
  8
S-size
 62
     0
370
    -2
100
AcDbLine
 10
4707.463392712812
 20
3403.909163386518
 30
0.0
 11
4707.463392712812
 21
3423.909163386517
 31
0.0
  0
LINE
  5
1409
330
F09
100
AcDbEntity
  8
S-size
 62
     0
370
    -2
100
AcDbLine
 10
4707.463392712812
 20
3333.909163386517
 30
0.0
 11
4707.463392712812
 21
3383.909163386518
 31
0.0
  0
SOLID
  5
140A
330
F09
100
AcDbEntity
  8
S-size
 62
     0
100
AcDbTrace
 10
4704.130059379479
 20
3313.909163386517
 30
0.0
 11
4710.796726046145
 21
3313.909163386517
 31
0.0
 12
4707.463392712812
 22
3333.909163386517
 32
0.0
 13
4707.463392712812
 23
3333.909163386517
 33
0.0
  0
SOLID
  5
140B
330
F09
100
AcDbEntity
  8
S-size
 62
     0
100
AcDbTrace
 10
4704.130059379479
 20
3403.909163386518
 30
0.0
 11
4710.796726046145
 21
3403.909163386518
 31
0.0
 12
4707.463392712812
 22
3383.909163386518
 32
0.0
 13
4707.463392712812
 23
3383.909163386518
 33
0.0
  0
MTEXT
  5
140C
330
F09
100
AcDbEntity
  8
S-size
 62
     0
100
AcDbMText
 10
4734.963392712811
 20
3358.909163386518
 30
0.0
 40
25.0
 41
0.0
 71
     5
 72
     1
  1
50
 11
0.0000000000000001
 21
1.0
 31
0.0
 73
     1
 44
1.0
1001
ACAD
1000
MTEXTBEGIN
1070
    73
1070
     1
1070
    44
1040
1.0
1070
    74
1070
     0
1000
MTEXTEND
  0
POINT
  5
140D
330
F09
100
AcDbEntity
  8
DEFPOINTS
 62
     0
100
AcDbPoint
 10
4612.800088449531
 20
3333.909163386517
 30
0.0
  0
POINT
  5
140E
330
F09
100
AcDbEntity
  8
DEFPOINTS
 62
     0
100
AcDbPoint
 10
4612.800088449531
 20
3383.909163386518
 30
0.0
  0
POINT
  5
140F
330
F09
100
AcDbEntity
  8
DEFPOINTS
 62
     0
100
AcDbPoint
 10
4707.463392712812
 20
3383.909163386518
 30
0.0
  0
ENDBLK
  5
F0B
330
F09
100
AcDbEntity
  8
0
100
AcDbBlockEnd
  0
BLOCK
  5
FB7
330
FB6
100
AcDbEntity
  8
0
100
AcDbBlockBegin
  2
*D15
 70
     1
 10
0.0
 20
0.0
 30
0.0
  3
*D15
  1

  0
LINE
  5
13D5
330
FB6
100
AcDbEntity
  8
S-size
 62
     0
370
    -2
100
AcDbLine
 10
5287.800088449531
 20
3333.909163386517
 30
0.0
 11
5167.001938832101
 21
3333.909163386517
 31
0.0
  0
LINE
  5
13D6
330
FB6
100
AcDbEntity
  8
S-size
 62
     0
370
    -2
100
AcDbLine
 10
5262.175088449528
 20
3893.909163386517
 30
0.0
 11
5167.001938832101
 21
3893.909163386517
 31
0.0
  0
LINE
  5
13D7
330
FB6
100
AcDbEntity
  8
S-size
 62
     0
370
    -2
100
AcDbLine
 10
5167.001938832101
 20
3353.909163386518
 30
0.0
 11
5167.001938832101
 21
3873.909163386517
 31
0.0
  0
SOLID
  5
13D8
330
FB6
100
AcDbEntity
  8
S-size
 62
     0
100
AcDbTrace
 10
5163.668605498768
 20
3353.909163386518
 30
0.0
 11
5170.335272165434
 21
3353.909163386518
 31
0.0
 12
5167.001938832101
 22
3333.909163386517
 32
0.0
 13
5167.001938832101
 23
3333.909163386517
 33
0.0
  0
SOLID
  5
13D9
330
FB6
100
AcDbEntity
  8
S-size
 62
     0
100
AcDbTrace
 10
5163.668605498768
 20
3873.909163386517
 30
0.0
 11
5170.335272165434
 21
3873.909163386517
 31
0.0
 12
5167.001938832101
 22
3893.909163386517
 32
0.0
 13
5167.001938832101
 23
3893.909163386517
 33
0.0
  0
MTEXT
  5
13DA
330
FB6
100
AcDbEntity
  8
S-size
 62
     0
100
AcDbMText
 10
5139.501938832101
 20
3613.909163386519
 30
0.0
 40
25.0
 41
0.0
 71
     5
 72
     1
  1
560
 11
0.0000000000000001
 21
1.0
 31
0.0
 73
     1
 44
1.0
1001
ACAD
1000
MTEXTBEGIN
1070
    73
1070
     1
1070
    44
1040
1.0
1070
    74
1070
     0
1000
MTEXTEND
  0
POINT
  5
13DB
330
FB6
100
AcDbEntity
  8
DEFPOINTS
 62
     0
100
AcDbPoint
 10
5307.80008844953
 20
3333.909163386517
 30
0.0
  0
POINT
  5
13DC
330
FB6
100
AcDbEntity
  8
DEFPOINTS
 62
     0
100
AcDbPoint
 10
5282.175088449529
 20
3893.909163386517
 30
0.0
  0
POINT
  5
13DD
330
FB6
100
AcDbEntity
  8
DEFPOINTS
 62
     0
100
AcDbPoint
 10
5167.001938832101
 20
3893.909163386517
 30
0.0
  0
ENDBLK
  5
FB8
330
FB6
100
AcDbEntity
  8
0
100
AcDbBlockEnd
  0
BLOCK
  5
FC3
330
FC2
100
AcDbEntity
  8
0
100
AcDbBlockBegin
  2
*D16
 70
     1
 10
0.0
 20
0.0
 30
0.0
  3
*D16
  1

  0
LINE
  5
13C3
330
FC2
100
AcDbEntity
  8
S-size
 62
     0
370
    -2
100
AcDbLine
 10
5797.80008844953
 20
3313.909163386517
 30
0.0
 11
5797.80008844953
 21
3243.909163386518
 31
0.0
  0
LINE
  5
13C4
330
FC2
100
AcDbEntity
  8
S-size
 62
     0
370
    -2
100
AcDbLine
 10
5887.80008844953
 20
3313.909163386517
 30
0.0
 11
5887.80008844953
 21
3243.909163386518
 31
0.0
  0
LINE
  5
13C5
330
FC2
100
AcDbEntity
  8
S-size
 62
     0
370
    -2
100
AcDbLine
 10
5817.80008844953
 20
3243.909163386518
 30
0.0
 11
5867.800088449531
 21
3243.909163386518
 31
0.0
  0
SOLID
  5
13C6
330
FC2
100
AcDbEntity
  8
S-size
 62
     0
100
AcDbTrace
 10
5817.80008844953
 20
3247.242496719851
 30
0.0
 11
5817.80008844953
 21
3240.575830053184
 31
0.0
 12
5797.80008844953
 22
3243.909163386518
 32
0.0
 13
5797.80008844953
 23
3243.909163386518
 33
0.0
  0
SOLID
  5
13C7
330
FC2
100
AcDbEntity
  8
S-size
 62
     0
100
AcDbTrace
 10
5867.800088449531
 20
3247.242496719851
 30
0.0
 11
5867.800088449531
 21
3240.575830053184
 31
0.0
 12
5887.80008844953
 22
3243.909163386518
 32
0.0
 13
5887.80008844953
 23
3243.909163386518
 33
0.0
  0
MTEXT
  5
13C8
330
FC2
100
AcDbEntity
  8
S-size
 62
     0
100
AcDbMText
 10
5842.80008844953
 20
3216.409163386518
 30
0.0
 40
25.0
 41
0.0
 71
     5
 72
     1
  1
90
 73
     1
 44
1.0
1001
ACAD
1000
MTEXTBEGIN
1070
    73
1070
     1
1070
    44
1040
1.0
1070
    74
1070
     0
1000
MTEXTEND
  0
POINT
  5
13C9
330
FC2
100
AcDbEntity
  8
DEFPOINTS
 62
     0
100
AcDbPoint
 10
5797.80008844953
 20
3333.909163386517
 30
0.0
  0
POINT
  5
13CA
330
FC2
100
AcDbEntity
  8
DEFPOINTS
 62
     0
100
AcDbPoint
 10
5887.80008844953
 20
3333.909163386517
 30
0.0
  0
POINT
  5
13CB
330
FC2
100
AcDbEntity
  8
DEFPOINTS
 62
     0
100
AcDbPoint
 10
5887.80008844953
 20
3243.909163386518
 30
0.0
  0
ENDBLK
  5
FC4
330
FC2
100
AcDbEntity
  8
0
100
AcDbBlockEnd
  0
BLOCK
  5
FDB
330
FDA
100
AcDbEntity
  8
0
100
AcDbBlockBegin
  2
*D17
 70
     1
 10
0.0
 20
0.0
 30
0.0
  3
*D17
  1

  0
LINE
  5
1027
330
FDA
100
AcDbEntity
  8
S-size
 62
     0
370
    -2
100
AcDbLine
 10
5282.800088449529
 20
3913.909163386517
 30
0.0
 11
5282.800088449529
 21
4058.504546037455
 31
0.0
  0
LINE
  5
1028
330
FDA
100
AcDbEntity
  8
S-size
 62
     0
370
    -2
100
AcDbLine
 10
5912.800088449529
 20
3913.909163386517
 30
0.0
 11
5912.800088449529
 21
4058.504546037455
 31
0.0
  0
LINE
  5
1029
330
FDA
100
AcDbEntity
  8
S-size
 62
     0
370
    -2
100
AcDbLine
 10
5302.800088449528
 20
4058.504546037455
 30
0.0
 11
5892.800088449529
 21
4058.504546037455
 31
0.0
  0
SOLID
  5
102A
330
FDA
100
AcDbEntity
  8
S-size
 62
     0
100
AcDbTrace
 10
5302.800088449528
 20
4061.837879370788
 30
0.0
 11
5302.800088449528
 21
4055.171212704121
 31
0.0
 12
5282.800088449529
 22
4058.504546037455
 32
0.0
 13
5282.800088449529
 23
4058.504546037455
 33
0.0
  0
SOLID
  5
102B
330
FDA
100
AcDbEntity
  8
S-size
 62
     0
100
AcDbTrace
 10
5892.800088449529
 20
4061.837879370788
 30
0.0
 11
5892.800088449529
 21
4055.171212704121
 31
0.0
 12
5912.800088449529
 22
4058.504546037455
 32
0.0
 13
5912.800088449529
 23
4058.504546037455
 33
0.0
  0
MTEXT
  5
102C
330
FDA
100
AcDbEntity
  8
S-size
 62
     0
100
AcDbMText
 10
5597.800088449528
 20
4086.004546037455
 30
0.0
 40
25.0
 41
0.0
 71
     5
 72
     1
  1
630
 73
     1
 44
1.0
1001
ACAD
1000
MTEXTBEGIN
1070
    73
1070
     1
1070
    44
1040
1.0
1070
    74
1070
     0
1000
MTEXTEND
  0
POINT
  5
102D
330
FDA
100
AcDbEntity
  8
DEFPOINTS
 62
     0
100
AcDbPoint
 10
5282.800088449529
 20
3893.909163386517
 30
0.0
  0
POINT
  5
102E
330
FDA
100
AcDbEntity
  8
DEFPOINTS
 62
     0
100
AcDbPoint
 10
5912.800088449529
 20
3893.909163386517
 30
0.0
  0
POINT
  5
102F
330
FDA
100
AcDbEntity
  8
DEFPOINTS
 62
     0
100
AcDbPoint
 10
5912.800088449529
 20
4058.504546037455
 30
0.0
  0
ENDBLK
  5
FDC
330
FDA
100
AcDbEntity
  8
0
100
AcDbBlockEnd
  0
BLOCK
  5
FF0
330
FEF
100
AcDbEntity
  8
0
100
AcDbBlockBegin
  2
*D18
 70
     1
 10
0.0
 20
0.0
 30
0.0
  3
*D18
  1

  0
LINE
  5
13DE
330
FEF
100
AcDbEntity
  8
S-size
 62
     0
370
    -2
100
AcDbLine
 10
5307.800088449528
 20
3313.909163386517
 30
0.0
 11
5307.800088449528
 21
3243.909163386517
 31
0.0
  0
LINE
  5
13DF
330
FEF
100
AcDbEntity
  8
S-size
 62
     0
370
    -2
100
AcDbLine
 10
5397.800088449531
 20
3313.909163386517
 30
0.0
 11
5397.800088449531
 21
3243.909163386517
 31
0.0
  0
LINE
  5
13E0
330
FEF
100
AcDbEntity
  8
S-size
 62
     0
370
    -2
100
AcDbLine
 10
5327.800088449528
 20
3243.909163386517
 30
0.0
 11
5377.80008844953
 21
3243.909163386517
 31
0.0
  0
SOLID
  5
13E1
330
FEF
100
AcDbEntity
  8
S-size
 62
     0
100
AcDbTrace
 10
5327.800088449528
 20
3247.24249671985
 30
0.0
 11
5327.800088449528
 21
3240.575830053183
 31
0.0
 12
5307.800088449528
 22
3243.909163386517
 32
0.0
 13
5307.800088449528
 23
3243.909163386517
 33
0.0
  0
SOLID
  5
13E2
330
FEF
100
AcDbEntity
  8
S-size
 62
     0
100
AcDbTrace
 10
5377.80008844953
 20
3247.24249671985
 30
0.0
 11
5377.80008844953
 21
3240.575830053183
 31
0.0
 12
5397.800088449531
 22
3243.909163386517
 32
0.0
 13
5397.800088449531
 23
3243.909163386517
 33
0.0
  0
MTEXT
  5
13E3
330
FEF
100
AcDbEntity
  8
S-size
 62
     0
100
AcDbMText
 10
5352.80008844953
 20
3216.409163386516
 30
0.0
 40
25.0
 41
0.0
 71
     5
 72
     1
  1
90
 73
     1
 44
1.0
1001
ACAD
1000
MTEXTBEGIN
1070
    73
1070
     1
1070
    44
1040
1.0
1070
    74
1070
     0
1000
MTEXTEND
  0
POINT
  5
13E4
330
FEF
100
AcDbEntity
  8
DEFPOINTS
 62
     0
100
AcDbPoint
 10
5307.800088449528
 20
3333.909163386517
 30
0.0
  0
POINT
  5
13E5
330
FEF
100
AcDbEntity
  8
DEFPOINTS
 62
     0
100
AcDbPoint
 10
5397.800088449531
 20
3333.909163386517
 30
0.0
  0
POINT
  5
13E6
330
FEF
100
AcDbEntity
  8
DEFPOINTS
 62
     0
100
AcDbPoint
 10
5397.800088449531
 20
3243.909163386517
 30
0.0
  0
ENDBLK
  5
FF1
330
FEF
100
AcDbEntity
  8
0
100
AcDbBlockEnd
  0
BLOCK
  5
FFC
330
FFB
100
AcDbEntity
  8
0
100
AcDbBlockBegin
  2
*D19
 70
     1
 10
0.0
 20
0.0
 30
0.0
  3
*D19
  1

  0
LINE
  5
13BA
330
FFB
100
AcDbEntity
  8
S-size
 62
     0
370
    -2
100
AcDbLine
 10
5397.800088449531
 20
3313.909163386517
 30
0.0
 11
5397.800088449531
 21
3243.909163386518
 31
0.0
  0
LINE
  5
13BB
330
FFB
100
AcDbEntity
  8
S-size
 62
     0
370
    -2
100
AcDbLine
 10
5797.80008844953
 20
3313.909163386517
 30
0.0
 11
5797.80008844953
 21
3243.909163386518
 31
0.0
  0
LINE
  5
13BC
330
FFB
100
AcDbEntity
  8
S-size
 62
     0
370
    -2
100
AcDbLine
 10
5417.80008844953
 20
3243.909163386518
 30
0.0
 11
5777.800088449531
 21
3243.909163386518
 31
0.0
  0
SOLID
  5
13BD
330
FFB
100
AcDbEntity
  8
S-size
 62
     0
100
AcDbTrace
 10
5417.80008844953
 20
3247.242496719851
 30
0.0
 11
5417.80008844953
 21
3240.575830053184
 31
0.0
 12
5397.800088449531
 22
3243.909163386518
 32
0.0
 13
5397.800088449531
 23
3243.909163386518
 33
0.0
  0
SOLID
  5
13BE
330
FFB
100
AcDbEntity
  8
S-size
 62
     0
100
AcDbTrace
 10
5777.800088449531
 20
3247.242496719851
 30
0.0
 11
5777.800088449531
 21
3240.575830053184
 31
0.0
 12
5797.80008844953
 22
3243.909163386518
 32
0.0
 13
5797.80008844953
 23
3243.909163386518
 33
0.0
  0
MTEXT
  5
13BF
330
FFB
100
AcDbEntity
  8
S-size
 62
     0
100
AcDbMText
 10
5597.800088449531
 20
3216.409163386518
 30
0.0
 40
25.0
 41
0.0
 71
     5
 72
     1
  1
400
 73
     1
 44
1.0
1001
ACAD
1000
MTEXTBEGIN
1070
    73
1070
     1
1070
    44
1040
1.0
1070
    74
1070
     0
1000
MTEXTEND
  0
POINT
  5
13C0
330
FFB
100
AcDbEntity
  8
DEFPOINTS
 62
     0
100
AcDbPoint
 10
5397.800088449531
 20
3333.909163386517
 30
0.0
  0
POINT
  5
13C1
330
FFB
100
AcDbEntity
  8
DEFPOINTS
 62
     0
100
AcDbPoint
 10
5797.80008844953
 20
3333.909163386517
 30
0.0
  0
POINT
  5
13C2
330
FFB
100
AcDbEntity
  8
DEFPOINTS
 62
     0
100
AcDbPoint
 10
5797.80008844953
 20
3243.909163386518
 30
0.0
  0
ENDBLK
  5
FFD
330
FFB
100
AcDbEntity
  8
0
100
AcDbBlockEnd
  0
BLOCK
  5
1104
330
1103
100
AcDbEntity
  8
0
100
AcDbBlockBegin
  2
*D20
 70
     1
 10
0.0
 20
0.0
 30
0.0
  3
*D20
  1

  0
LINE
  5
111A
330
1103
100
AcDbEntity
  8
S-size
 62
     0
370
    -2
100
AcDbLine
 10
1700.300088449528
 20
1433.909163386517
 30
0.0
 11
1839.14302220185
 21
1433.909163386517
 31
0.0
  0
LINE
  5
111B
330
1103
100
AcDbEntity
  8
S-size
 62
     0
370
    -2
100
AcDbLine
 10
1700.300088449528
 20
923.9091633865173
 30
0.0
 11
1839.14302220185
 21
923.9091633865172
 31
0.0
  0
LINE
  5
111C
330
1103
100
AcDbEntity
  8
S-size
 62
     0
370
    -2
100
AcDbLine
 10
1839.14302220185
 20
1413.909163386517
 30
0.0
 11
1839.14302220185
 21
943.9091633865173
 31
0.0
  0
SOLID
  5
111D
330
1103
100
AcDbEntity
  8
S-size
 62
     0
100
AcDbTrace
 10
1835.809688868516
 20
1413.909163386517
 30
0.0
 11
1842.476355535183
 21
1413.909163386517
 31
0.0
 12
1839.14302220185
 22
1433.909163386517
 32
0.0
 13
1839.14302220185
 23
1433.909163386517
 33
0.0
  0
SOLID
  5
111E
330
1103
100
AcDbEntity
  8
S-size
 62
     0
100
AcDbTrace
 10
1835.809688868516
 20
943.9091633865173
 30
0.0
 11
1842.476355535183
 21
943.9091633865173
 31
0.0
 12
1839.14302220185
 22
923.9091633865172
 32
0.0
 13
1839.14302220185
 23
923.9091633865172
 33
0.0
  0
MTEXT
  5
111F
330
1103
100
AcDbEntity
  8
S-size
 62
     0
100
AcDbMText
 10
1866.64302220185
 20
1178.909163386517
 30
0.0
 40
25.0
 41
0.0
 71
     5
 72
     1
  1
510
 11
0.0000000000000001
 21
1.0
 31
0.0
 73
     1
 44
1.0
1001
ACAD
1000
MTEXTBEGIN
1070
    73
1070
     1
1070
    44
1040
1.0
1070
    74
1070
     0
1000
MTEXTEND
  0
POINT
  5
1120
330
1103
100
AcDbEntity
  8
DEFPOINTS
 62
     0
100
AcDbPoint
 10
1680.300088449528
 20
1433.909163386517
 30
0.0
  0
POINT
  5
1121
330
1103
100
AcDbEntity
  8
DEFPOINTS
 62
     0
100
AcDbPoint
 10
1680.300088449528
 20
923.9091633865173
 30
0.0
  0
POINT
  5
1122
330
1103
100
AcDbEntity
  8
DEFPOINTS
 62
     0
100
AcDbPoint
 10
1839.14302220185
 20
923.9091633865172
 30
0.0
  0
ENDBLK
  5
1105
330
1103
100
AcDbEntity
  8
0
100
AcDbBlockEnd
  0
BLOCK
  5
1125
330
1124
100
AcDbEntity
  8
0
100
AcDbBlockBegin
  2
*D21
 70
     1
 10
0.0
 20
0.0
 30
0.0
  3
*D21
  1

  0
LINE
  5
113B
330
1124
100
AcDbEntity
  8
S-size
 62
     0
370
    -2
100
AcDbLine
 10
1680.300088449528
 20
1413.909163386517
 30
0.0
 11
1680.300088449528
 21
1271.084382135539
 31
0.0
  0
LINE
  5
113C
330
1124
100
AcDbEntity
  8
S-size
 62
     0
370
    -2
100
AcDbLine
 10
2685.300088449529
 20
1413.909163386517
 30
0.0
 11
2685.300088449529
 21
1271.084382135539
 31
0.0
  0
LINE
  5
113D
330
1124
100
AcDbEntity
  8
S-size
 62
     0
370
    -2
100
AcDbLine
 10
1700.300088449528
 20
1271.084382135539
 30
0.0
 11
2665.300088449529
 21
1271.084382135539
 31
0.0
  0
SOLID
  5
113E
330
1124
100
AcDbEntity
  8
S-size
 62
     0
100
AcDbTrace
 10
1700.300088449528
 20
1274.417715468872
 30
0.0
 11
1700.300088449528
 21
1267.751048802206
 31
0.0
 12
1680.300088449528
 22
1271.084382135539
 32
0.0
 13
1680.300088449528
 23
1271.084382135539
 33
0.0
  0
SOLID
  5
113F
330
1124
100
AcDbEntity
  8
S-size
 62
     0
100
AcDbTrace
 10
2665.300088449529
 20
1274.417715468872
 30
0.0
 11
2665.300088449529
 21
1267.751048802206
 31
0.0
 12
2685.300088449529
 22
1271.084382135539
 32
0.0
 13
2685.300088449529
 23
1271.084382135539
 33
0.0
  0
MTEXT
  5
1140
330
1124
100
AcDbEntity
  8
S-size
 62
     0
100
AcDbMText
 10
2182.800088449528
 20
1243.584382135539
 30
0.0
 40
25.0
 41
0.0
 71
     5
 72
     1
  1
1005
 73
     1
 44
1.0
1001
ACAD
1000
MTEXTBEGIN
1070
    73
1070
     1
1070
    44
1040
1.0
1070
    74
1070
     0
1000
MTEXTEND
  0
POINT
  5
1141
330
1124
100
AcDbEntity
  8
DEFPOINTS
 62
     0
100
AcDbPoint
 10
1680.300088449528
 20
1433.909163386517
 30
0.0
  0
POINT
  5
1142
330
1124
100
AcDbEntity
  8
DEFPOINTS
 62
     0
100
AcDbPoint
 10
2685.300088449529
 20
1433.909163386517
 30
0.0
  0
POINT
  5
1143
330
1124
100
AcDbEntity
  8
DEFPOINTS
 62
     0
100
AcDbPoint
 10
2685.300088449529
 20
1271.084382135539
 30
0.0
  0
ENDBLK
  5
1126
330
1124
100
AcDbEntity
  8
0
100
AcDbBlockEnd
  0
ENDSEC
  0
SECTION
  2
ENTITIES
  0
LWPOLYLINE
  5
126
330
1F
100
AcDbEntity
  8
DEFPOINTS
100
AcDbPolyline
 90
        4
 70
     1
 43
0.0
 10
82.80008844952817
 20
88.90916338651733
 10
6382.800088449529
 20
88.90916338651733
 10
6382.800088449529
 20
4543.909163386517
 10
82.80008844952817
 20
4543.909163386517
  0
LWPOLYLINE
  5
163
330
1F
100
AcDbEntity
  8
S-title
100
AcDbPolyline
 90
        4
 70
     1
 43
0.0
 10
382.8000884495282
 20
238.9091633865175
 10
6232.800088449529
 20
238.9091633865175
 10
6232.800088449529
 20
4393.909163386517
 10
382.8000884495282
 20
4393.909163386517
  0
MTEXT
  5
9BE
330
1F
100
AcDbEntity
  8
S-size
100
AcDbMText
 10
5407.800088449529
 20
688.90916338652
 30
0.0
 40
45.0
 41
899.9999999999992
 71
     5
 72
     5
  1
CH-II可変側溝\P横断用グレーチング仕様
 73
     1
 44
1.0
1001
ACAD
1000
MTEXTBEGIN
1070
    73
1070
     1
1070
    44
1040
1.0
1070
    74
1070
     0
1000
MTEXTEND
1000
ACAD_MTEXT_DEFINED_HEIGHT_BEGIN
1070
    46
1040
149.9999999999951
1000
ACAD_MTEXT_DEFINED_HEIGHT_END
  0
MTEXT
  5
9BF
330
1F
100
AcDbEntity
  8
S-size
100
AcDbMText
 10
5407.800088449529
 20
538.90916338652
 30
0.0
 40
45.0
 41
899.9999999999992
 71
     5
 72
     5
  1
400\U+00D7400\U+00D72000
 73
     1
 44
1.0
1001
ACAD
1000
MTEXTBEGIN
1070
    73
1070
     1
1070
    44
1040
1.0
1070
    74
1070
     0
1000
MTEXTEND
1000
ACAD_MTEXT_DEFINED_HEIGHT_BEGIN
1070
    46
1040
149.9999999999951
1000
ACAD_MTEXT_DEFINED_HEIGHT_END
  0
MTEXT
  5
9C2
330
1F
100
AcDbEntity
  8
S-size
100
AcDbMText
 10
5932.800088449528
 20
688.9091633865173
 30
0.0
 40
45.0
 41
150.0000000000002
 71
     5
 72
     5
  1
縮尺
 73
     1
 44
1.0
1001
ACAD
1000
MTEXTBEGIN
1070
    73
1070
     1
1070
    44
1040
1.0
1070
    74
1070
     0
1000
MTEXTEND
1000
ACAD_MTEXT_DEFINED_HEIGHT_BEGIN
1070
    46
1040
149.9999999999998
1000
ACAD_MTEXT_DEFINED_HEIGHT_END
  0
MTEXT
  5
9C3
330
1F
100
AcDbEntity
  8
S-size
100
AcDbMText
 10
6120.300088449528
 20
688.9091633865173
 30
0.0
 40
45.0
 41
225.0000000000002
 71
     5
 72
     5
  1
1：15
 73
     1
 44
1.0
1001
ACAD
1000
MTEXTBEGIN
1070
    73
1070
     1
1070
    44
1040
1.0
1070
    74
1070
     0
1000
MTEXTEND
1000
ACAD_MTEXT_DEFINED_HEIGHT_BEGIN
1070
    46
1040
149.9999999999998
1000
ACAD_MTEXT_DEFINED_HEIGHT_END
  0
LWPOLYLINE
  5
9DF
102
{ACAD_REACTORS
330
ACB
102
}
330
1F
100
AcDbEntity
  8
S-main
100
AcDbPolyline
 90
        4
 70
     1
 43
0.0
 10
1182.800088449528
 20
3893.909163386517
 10
3182.800088449529
 20
3893.909163386517
 10
3182.800088449529
 20
3333.909163386517
 10
1182.800088449528
 20
3333.909163386517
  0
LWPOLYLINE
  5
9E4
330
1F
100
AcDbEntity
  8
S-main
100
AcDbPolyline
 90
        4
 70
     1
 43
0.0
 10
1272.800088449528
 20
3768.909163386517
 10
3092.800088449529
 20
3768.909163386517
 10
3092.800088449529
 20
3333.909163386517
 10
1272.800088449528
 20
3333.909163386517
  0
LWPOLYLINE
  5
9E8
330
1F
100
AcDbEntity
  8
S-main
100
AcDbPolyline
 90
        4
 70
     1
 43
0.0
 10
1285.300088449529
 20
3518.909163386517
 10
3080.300088449529
 20
3518.909163386517
 10
3080.300088449529
 20
3333.909163386517
 10
1285.300088449529
 20
3333.909163386517
  0
LINE
  5
9F2
330
1F
100
AcDbEntity
  8
S-main
100
AcDbLine
 10
1272.800088449528
 20
3768.909163386517
 30
0.0
 11
1285.300088449529
 21
3518.909163386517
 31
0.0
  0
LINE
  5
9F3
330
1F
100
AcDbEntity
  8
S-main
100
AcDbLine
 10
3092.800088449529
 20
3768.909163386517
 30
0.0
 11
3080.300088449529
 21
3518.909163386517
 31
0.0
  0
LINE
  5
9FC
330
1F
100
AcDbEntity
  8
S-main
100
AcDbLine
 10
4097.800088449528
 20
3628.909163386518
 30
0.0
 11
4097.80008844953
 21
3333.909163386517
 31
0.0
  0
LINE
  5
9FD
102
{ACAD_REACTORS
330
B6C
330
B8E
102
}
330
1F
100
AcDbEntity
  8
S-main
100
AcDbLine
 10
4097.80008844953
 20
3333.909163386517
 30
0.0
 11
3982.800088449531
 21
3333.909163386517
 31
0.0
  0
LINE
  5
9FE
330
1F
100
AcDbEntity
  8
S-shadow
100
AcDbLine
 10
4007.80008844953
 20
3333.909163386517
 30
0.0
 11
4007.800088449529
 21
3628.909163386518
 31
0.0
  0
LINE
  5
9FF
330
1F
100
AcDbEntity
  8
S-shadow
100
AcDbLine
 10
4007.800088449529
 20
3628.909163386518
 30
0.0
 11
3982.800088449529
 21
3768.909163386517
 31
0.0
  0
LINE
  5
A01
102
{ACAD_REACTORS
330
AF1
102
}
330
1F
100
AcDbEntity
  8
S-main
100
AcDbLine
 10
3982.800088449529
 20
3893.909163386517
 30
0.0
 11
4612.800088449528
 21
3893.909163386517
 31
0.0
  0
LINE
  5
A0C
330
1F
100
AcDbEntity
  8
S-main
100
AcDbLine
 10
4097.800088449528
 20
3628.909163386518
 30
0.0
 11
4111.800088449529
 21
3730.538634113437
 31
0.0
  0
ARC
  5
A0D
330
1F
100
AcDbEntity
  8
S-main
100
AcDbCircle
 10
4297.80008844953
 20
3298.909163386514
 30
0.0
 40
470.0000000000038
100
AcDbArc
 50
90.0
 51
113.3124259930437
  0
LINE
  5
A0E
330
1F
100
AcDbEntity
  8
S-main
100
AcDbLine
 10
4497.800088449529
 20
3628.909163386518
 30
0.0
 11
4497.800088449529
 21
3333.909163386517
 31
0.0
  0
LINE
  5
A0F
102
{ACAD_REACTORS
330
B8E
102
}
330
1F
100
AcDbEntity
  8
S-main
100
AcDbLine
 10
4497.800088449531
 20
3333.909163386517
 30
0.0
 11
4612.800088449531
 21
3333.909163386517
 31
0.0
  0
LINE
  5
A10
330
1F
100
AcDbEntity
  8
S-shadow
100
AcDbLine
 10
4587.800088449529
 20
3333.909163386517
 30
0.0
 11
4587.800088449529
 21
3628.909163386518
 31
0.0
  0
LINE
  5
A11
330
1F
100
AcDbEntity
  8
S-shadow
100
AcDbLine
 10
4587.800088449529
 20
3628.909163386518
 30
0.0
 11
4612.800088449528
 21
3768.909163386517
 31
0.0
  0
LINE
  5
A13
330
1F
100
AcDbEntity
  8
S-main
100
AcDbLine
 10
4497.800088449529
 20
3628.909163386518
 30
0.0
 11
4483.800088449529
 21
3730.538634113437
 31
0.0
  0
ARC
  5
A14
330
1F
100
AcDbEntity
  8
S-main
100
AcDbCircle
 10
4297.800088449526
 20
3298.909163386514
 30
0.0
 40
470.0000000000038
100
AcDbArc
 50
66.68757400697046
 51
90.0
  0
DIMENSION
  5
A15
330
1F
100
AcDbEntity
  8
S-size
100
AcDbDimension
  2
*D4
 10
3182.800088449529
 20
4058.504546037455
 30
0.0
 11
2182.800088449528
 21
4086.004546037455
 31
0.0
 70
    32
 71
     5
 42
2000.0
  3
ISO-25
100
AcDbAlignedDimension
 13
1182.800088449528
 23
3893.909163386517
 33
0.0
 14
3182.800088449529
 24
3893.909163386517
 34
0.0
100
AcDbRotatedDimension
1001
ACAD
1000
DSTYLE
1002
{
1070
   147
1040
15.0
1070
   140
1040
25.0
1070
    42
1040
20.0
1070
    44
1040
0.0
1070
    41
1040
20.0
1002
}
  0
DIMENSION
  5
AB4
102
{ACAD_XDICTIONARY
360
AC1
102
}
102
{ACAD_REACTORS
330
ACB
102
}
330
1F
100
AcDbEntity
  8
S-size
100
AcDbDimension
  2
*D5
 10
1067.626938832102
 20
3893.909163386517
 30
0.0
 11
1040.126938832101
 21
3613.909163386518
 31
0.0
 70
    32
 71
     5
 42
560.0
  3
ISO-25
100
AcDbAlignedDimension
 13
1182.800088449528
 23
3333.909163386517
 33
0.0
 14
1182.800088449528
 24
3893.909163386517
 34
0.0
 50
90.0
100
AcDbRotatedDimension
1001
ACAD
1000
DSTYLE
1002
{
1070
    41
1040
20.0
1070
    42
1040
20.0
1070
    44
1040
0.0
1070
   140
1040
25.0
1070
   147
1040
15.0
1002
}
  0
LWPOLYLINE
  5
AD9
102
{ACAD_REACTORS
330
B12
102
}
330
1F
100
AcDbEntity
  8
S-main
100
AcDbPolyline
 90
        4
 70
     1
 43
0.0
 10
1182.800088449528
 20
1493.909163386517
 10
3182.800088449529
 20
1493.909163386517
 10
3182.800088449529
 20
863.9091633865174
 10
1182.800088449528
 20
863.9091633865174
  0
DIMENSION
  5
ADA
102
{ACAD_XDICTIONARY
360
AE7
102
}
102
{ACAD_REACTORS
330
AF1
102
}
330
1F
100
AcDbEntity
  8
S-size
100
AcDbDimension
  2
*D6
 10
4612.800088449528
 20
4058.504546037455
 30
0.0
 11
4297.800088449529
 21
4086.004546037455
 31
0.0
 70
    32
 71
     5
 42
630.0
  3
ISO-25
100
AcDbAlignedDimension
 13
3982.800088449529
 23
3893.909163386517
 33
0.0
 14
4612.800088449528
 24
3893.909163386517
 34
0.0
100
AcDbRotatedDimension
1001
ACAD
1000
DSTYLE
1002
{
1070
    41
1040
20.0
1070
    42
1040
20.0
1070
    44
1040
0.0
1070
   140
1040
25.0
1070
   147
1040
15.0
1002
}
  0
DIMENSION
  5
AFB
102
{ACAD_XDICTIONARY
360
B08
102
}
102
{ACAD_REACTORS
330
B12
102
}
330
1F
100
AcDbEntity
  8
S-size
100
AcDbDimension
  2
*D7
 10
1067.626938832101
 20
863.9091633865174
 30
0.0
 11
1040.126938832101
 21
1178.909163386517
 31
0.0
 70
    32
 71
     5
 42
630.0
  3
ISO-25
100
AcDbAlignedDimension
 13
1182.800088449528
 23
1493.909163386517
 33
0.0
 14
1182.800088449528
 24
863.9091633865174
 34
0.0
 50
90.0
100
AcDbRotatedDimension
1001
ACAD
1000
DSTYLE
1002
{
1070
    41
1040
20.0
1070
    42
1040
20.0
1070
    44
1040
0.0
1070
   140
1040
25.0
1070
   147
1040
15.0
1002
}
  0
DIMENSION
  5
B34
330
1F
100
AcDbEntity
  8
S-size
100
AcDbDimension
  2
*D8
 10
3867.001938832102
 20
3893.909163386517
 30
0.0
 11
3839.501938832101
 21
3613.909163386518
 31
0.0
 70
    32
 71
     5
 42
560.0
  3
ISO-25
100
AcDbAlignedDimension
 13
3982.800088449527
 23
3333.909163386517
 33
0.0
 14
3982.175088449529
 24
3893.909163386517
 34
0.0
 50
90.0
100
AcDbRotatedDimension
1001
ACAD
1000
DSTYLE
1002
{
1070
    41
1040
20.0
1070
    42
1040
20.0
1070
    44
1040
0.0
1070
   140
1040
25.0
1070
   147
1040
15.0
1002
}
  0
DIMENSION
  5
B55
102
{ACAD_XDICTIONARY
360
B62
102
}
102
{ACAD_REACTORS
330
B6C
102
}
330
1F
100
AcDbEntity
  8
S-size
100
AcDbDimension
  2
*D9
 10
4097.80008844953
 20
3243.909163386517
 30
0.0
 11
4040.30008844953
 21
3216.409163386516
 31
0.0
 70
    32
 71
     5
 42
115.0
  3
ISO-25
100
AcDbAlignedDimension
 13
3982.800088449531
 23
3333.909163386517
 33
0.0
 14
4097.80008844953
 24
3333.909163386517
 34
0.0
100
AcDbRotatedDimension
1001
ACAD
1000
DSTYLE
1002
{
1070
    41
1040
20.0
1070
    42
1040
20.0
1070
    44
1040
0.0
1070
   140
1040
25.0
1070
   147
1040
15.0
1002
}
  0
LINE
  5
B76
330
1F
100
AcDbEntity
  8
S-center
100
AcDbLine
 10
4297.800088449529
 20
3923.909163386517
 30
0.0
 11
4297.800088449529
 21
3303.909163386518
 31
0.0
  0
DIMENSION
  5
B77
102
{ACAD_XDICTIONARY
360
B84
102
}
102
{ACAD_REACTORS
330
B8E
102
}
330
1F
100
AcDbEntity
  8
S-size
100
AcDbDimension
  2
*D10
 10
4497.800088449531
 20
3243.909163386518
 30
0.0
 11
4297.80008844953
 21
3216.409163386518
 31
0.0
 70
    32
 71
     5
 42
400.0
  3
ISO-25
100
AcDbAlignedDimension
 13
4097.80008844953
 23
3333.909163386517
 33
0.0
 14
4497.800088449531
 24
3333.909163386517
 34
0.0
100
AcDbRotatedDimension
1001
ACAD
1000
DSTYLE
1002
{
1070
    41
1040
20.0
1070
    42
1040
20.0
1070
    44
1040
0.0
1070
   140
1040
25.0
1070
   147
1040
15.0
1002
}
  0
DIMENSION
  5
B98
330
1F
100
AcDbEntity
  8
S-size
100
AcDbDimension
  2
*D11
 10
4612.800088449531
 20
3243.909163386518
 30
0.0
 11
4555.30008844953
 21
3216.409163386518
 31
0.0
 70
    32
 71
     5
 42
115.0
  3
ISO-25
100
AcDbAlignedDimension
 13
4497.800088449531
 23
3333.909163386517
 33
0.0
 14
4612.800088449531
 24
3333.909163386517
 34
0.0
100
AcDbRotatedDimension
1001
ACAD
1000
DSTYLE
1002
{
1070
    41
1040
20.0
1070
    42
1040
20.0
1070
    44
1040
0.0
1070
   140
1040
25.0
1070
   147
1040
15.0
1002
}
  0
MTEXT
  5
BB2
330
1F
100
AcDbEntity
  8
S-size
100
AcDbMText
 10
2182.800088449528
 20
4243.909163386518
 30
0.0
 40
30.0
 41
2000.0
 71
     5
 72
     5
  1
側面図
 73
     1
 44
1.0
1001
ACAD
1000
MTEXTBEGIN
1070
    73
1070
     1
1070
    44
1040
1.0
1070
    74
1070
     0
1000
MTEXTEND
1000
ACAD_MTEXT_DEFINED_HEIGHT_BEGIN
1070
    46
1040
99.99999999999994
1000
ACAD_MTEXT_DEFINED_HEIGHT_END
  0
MTEXT
  5
BB3
330
1F
100
AcDbEntity
  8
S-size
100
AcDbMText
 10
4297.800088449529
 20
4258.909163386517
 30
0.0
 40
30.0
 41
630.0000000000002
 71
     5
 72
     5
  1
正面図
 73
     1
 44
1.0
1001
ACAD
1000
MTEXTBEGIN
1070
    73
1070
     1
1070
    44
1040
1.0
1070
    74
1070
     0
1000
MTEXTEND
1000
ACAD_MTEXT_DEFINED_HEIGHT_BEGIN
1070
    46
1040
99.99999999999994
1000
ACAD_MTEXT_DEFINED_HEIGHT_END
  0
MTEXT
  5
BBA
330
1F
100
AcDbEntity
  8
S-size
100
AcDbMText
 10
2182.800088449528
 20
1743.909163386517
 30
0.0
 40
30.0
 41
2000.0
 71
     5
 72
     5
  1
平面図
 73
     1
 44
1.0
1001
ACAD
1000
MTEXTBEGIN
1070
    73
1070
     1
1070
    44
1040
1.0
1070
    74
1070
     0
1000
MTEXTEND
1000
ACAD_MTEXT_DEFINED_HEIGHT_BEGIN
1070
    46
1040
99.99999999999994
1000
ACAD_MTEXT_DEFINED_HEIGHT_END
  0
DIMENSION
  5
BC5
330
1F
100
AcDbEntity
  8
S-size
100
AcDbDimension
  2
*D12
 10
3182.800088449529
 20
1613.474692757722
 30
0.0
 11
2182.800088449528
 21
1640.974692757722
 31
0.0
 70
    32
 71
     5
 42
2000.0
  3
ISO-25
100
AcDbAlignedDimension
 13
1182.800088449528
 23
1493.909163386517
 33
0.0
 14
3182.800088449529
 24
1493.909163386517
 34
0.0
100
AcDbRotatedDimension
1001
ACAD
1000
DSTYLE
1002
{
1070
    41
1040
20.0
1070
    42
1040
20.0
1070
    44
1040
0.0
1070
   140
1040
25.0
1070
   147
1040
15.0
1002
}
  0
LINE
  5
BE7
330
1F
100
AcDbEntity
  8
S-center
100
AcDbLine
 10
2182.800088449528
 20
833.9091633865173
 30
0.0
 11
2182.800088449528
 21
1523.909163386517
 31
0.0
  0
LINE
  5
BE8
330
1F
100
AcDbEntity
  8
S-center
100
AcDbLine
 10
2182.800088449528
 20
3303.909163386518
 30
0.0
 11
2182.800088449528
 21
3923.909163386517
 31
0.0
  0
LINE
  5
BEA
330
1F
100
AcDbEntity
  8
S-shadow
100
AcDbLine
 10
1680.300088449528
 20
3893.909163386517
 30
0.0
 11
1680.300088449528
 21
3768.909163386517
 31
0.0
  0
LINE
  5
BEB
330
1F
100
AcDbEntity
  8
S-shadow
100
AcDbLine
 10
2685.300088449529
 20
3893.909163386517
 30
0.0
 11
2685.300088449529
 21
3768.909163386517
 31
0.0
  0
LINE
  5
BEE
330
1F
100
AcDbEntity
  8
S-shadow
100
AcDbLine
 10
4552.800088449528
 20
3893.909163386517
 30
0.0
 11
4552.800088449528
 21
3819.909163386518
 31
0.0
  0
LINE
  5
BEF
330
1F
100
AcDbEntity
  8
S-shadow
100
AcDbLine
 10
4552.800088449528
 20
3819.909163386518
 30
0.0
 11
4497.800088449529
 21
3819.909163386518
 31
0.0
  0
LINE
  5
BF0
330
1F
100
AcDbEntity
  8
S-shadow
100
AcDbLine
 10
4497.800088449529
 20
3819.909163386518
 30
0.0
 11
4483.80008844944
 21
3730.538634113474
 31
0.0
  0
LINE
  5
BF1
330
1F
100
AcDbEntity
  8
S-shadow
100
AcDbLine
 10
4042.800088449529
 20
3893.909163386517
 30
0.0
 11
4042.800088449529
 21
3819.909163386518
 31
0.0
  0
LINE
  5
BF2
330
1F
100
AcDbEntity
  8
S-shadow
100
AcDbLine
 10
4042.800088449529
 20
3819.909163386518
 30
0.0
 11
4097.800088449528
 21
3819.909163386518
 31
0.0
  0
LINE
  5
BF3
330
1F
100
AcDbEntity
  8
S-shadow
100
AcDbLine
 10
4097.800088449528
 20
3819.909163386518
 30
0.0
 11
4111.800088449617
 21
3730.538634113474
 31
0.0
  0
LWPOLYLINE
  5
C33
102
{ACAD_REACTORS
330
1119
330
113A
102
}
330
1F
100
AcDbEntity
  8
S-main
100
AcDbPolyline
 90
        4
 70
     1
 43
0.0
 10
1680.300088449528
 20
1433.909163386517
 10
2685.300088449529
 20
1433.909163386517
 10
2685.300088449529
 20
923.9091633865173
 10
1680.300088449528
 20
923.9091633865173
  0
LWPOLYLINE
  5
C34
330
1F
100
AcDbEntity
  8
S-main
100
AcDbPolyline
 90
        4
 70
     1
 43
0.0
 10
1680.300088449528
 20
1378.909163386517
 10
2685.300088449529
 20
1378.909163386517
 10
2685.300088449529
 20
978.9091633865172
 10
1680.300088449528
 20
978.9091633865172
  0
INSERT
  5
C56
330
1F
100
AcDbEntity
  8
S-title
 62
     7
100
AcDbBlockReference
  2
AI9-BLK1
 10
4845.300088449529
 20
351.4091633865178
 30
0.0
 41
1.728000000002793
 42
1.728000000002793
 43
1.728000000002793
  0
LWPOLYLINE
  5
C57
330
1F
100
AcDbEntity
  8
S-title
100
AcDbPolyline
 90
        4
 70
     1
 43
0.0
 10
6232.800088449529
 20
238.9091633865175
 10
4732.800088449528
 20
238.9091633865175
 10
4732.800088449528
 20
463.9091633865178
 10
6232.800088449529
 20
463.9091633865178
  0
LWPOLYLINE
  5
C58
330
1F
100
AcDbEntity
  8
S-title
100
AcDbPolyline
 90
        4
 70
     1
 43
0.0
 10
4732.800088449528
 20
463.9091633865178
 10
4957.800088449529
 20
463.9091633865178
 10
4957.800088449529
 20
613.9091633865177
 10
4732.800088449528
 20
613.9091633865177
  0
LWPOLYLINE
  5
C59
330
1F
100
AcDbEntity
  8
S-title
100
AcDbPolyline
 90
        4
 70
     1
 43
0.0
 10
4732.800088449528
 20
613.9091633865177
 10
4957.800088449529
 20
613.9091633865177
 10
4957.800088449529
 20
763.9091633865177
 10
4732.800088449528
 20
763.9091633865177
  0
LWPOLYLINE
  5
C5A
330
1F
100
AcDbEntity
  8
S-title
100
AcDbPolyline
 90
        4
 70
     1
 43
0.0
 10
5857.800088449529
 20
613.9091633865177
 10
6007.800088449529
 20
613.9091633865177
 10
6007.800088449529
 20
763.9091633865177
 10
5857.800088449529
 20
763.9091633865177
  0
LWPOLYLINE
  5
C5B
330
1F
100
AcDbEntity
  8
S-title
100
AcDbPolyline
 90
        4
 70
     1
 43
0.0
 10
5857.800088449529
 20
463.9091633865178
 10
4957.800088449529
 20
463.9091633865178
 10
4957.800088449529
 20
613.9091633865177
 10
5857.800088449529
 20
613.9091633865177
  0
LWPOLYLINE
  5
C5C
330
1F
100
AcDbEntity
  8
S-title
100
AcDbPolyline
 90
        4
 70
     1
 43
0.0
 10
5857.800088449529
 20
613.9091633865177
 10
4957.800088449529
 20
613.9091633865177
 10
4957.800088449529
 20
763.9091633865177
 10
5857.800088449529
 20
763.9091633865177
  0
LWPOLYLINE
  5
C5D
330
1F
100
AcDbEntity
  8
S-title
100
AcDbPolyline
 90
        4
 70
     1
 43
0.0
 10
6007.800088449529
 20
613.9091633865177
 10
6232.800088449529
 20
613.9091633865177
 10
6232.800088449529
 20
763.9091633865177
 10
6007.800088449529
 20
763.9091633865177
  0
MTEXT
  5
C60
330
1F
100
AcDbEntity
  8
S-size
100
AcDbMText
 10
4845.300088449529
 20
688.9091633865177
 30
0.0
 40
45.0
 41
225.0000000000002
 71
     5
 72
     5
  1
製品名
 73
     1
 44
1.0
1001
ACAD
1000
MTEXTBEGIN
1070
    73
1070
     1
1070
    44
1040
1.0
1070
    74
1070
     0
1000
MTEXTEND
1000
ACAD_MTEXT_DEFINED_HEIGHT_BEGIN
1070
    46
1040
149.9999999999998
1000
ACAD_MTEXT_DEFINED_HEIGHT_END
  0
MTEXT
  5
C64
330
1F
100
AcDbEntity
  8
S-size
100
AcDbMText
 10
5407.489146255315
 20
391.0425484889064
 30
0.0
 40
90.0
 41
899.9999999999992
 71
     5
 72
     5
  1
新生興産株式会社
 73
     1
 44
1.0
1001
ACAD
1000
MTEXTBEGIN
1070
    73
1070
     1
1070
    44
1040
1.0
1070
    74
1070
     0
1000
MTEXTEND
1000
ACAD_MTEXT_DEFINED_HEIGHT_BEGIN
1070
    46
1040
149.9999999999951
1000
ACAD_MTEXT_DEFINED_HEIGHT_END
  0
MTEXT
  5
C65
330
1F
100
AcDbEntity
  8
S-size
100
AcDbMText
 10
5684.312125452287
 20
277.8354135933042
 30
0.0
 40
45.0
 41
1096.975925994474
 71
     5
 72
     5
  1
SHINSEI KOUSAN CO.,LTD
 73
     1
 44
1.0
1001
ACAD
1000
MTEXTBEGIN
1070
    73
1070
     1
1070
    44
1040
1.0
1070
    74
1070
     0
1000
MTEXTEND
1000
ACAD_MTEXT_DEFINED_HEIGHT_BEGIN
1070
    46
1040
77.85250041357286
1000
ACAD_MTEXT_DEFINED_HEIGHT_END
  0
MTEXT
  5
C66
330
1F
100
AcDbEntity
  8
S-size
100
AcDbMText
 10
4845.300088449529
 20
538.9091633865177
 30
0.0
 40
45.0
 41
225.0000000000002
 71
     5
 72
     5
  1
サイズ
 73
     1
 44
1.0
1001
ACAD
1000
MTEXTBEGIN
1070
    73
1070
     1
1070
    44
1040
1.0
1070
    74
1070
     0
1000
MTEXTEND
1000
ACAD_MTEXT_DEFINED_HEIGHT_BEGIN
1070
    46
1040
149.9999999999998
1000
ACAD_MTEXT_DEFINED_HEIGHT_END
  0
MTEXT
  5
E3C
330
1F
100
AcDbEntity
  8
S-size
100
AcDbMText
 10
5407.800088449529
 20
988.90916338652
 30
0.0
 40
45.0
 41
899.9999999999992
 71
     5
 72
     5
  1
参考質量645kg
 73
     1
 44
1.0
1001
ACAD
1000
MTEXTBEGIN
1070
    73
1070
     1
1070
    44
1040
1.0
1070
    74
1070
     0
1000
MTEXTEND
1000
ACAD_MTEXT_DEFINED_HEIGHT_BEGIN
1070
    46
1040
149.9999999999951
1000
ACAD_MTEXT_DEFINED_HEIGHT_END
  0
DIMENSION
  5
ECC
330
1F
100
AcDbEntity
  8
S-size
100
AcDbDimension
  2
*D13
 10
4707.463392712809
 20
3383.909163386518
 30
0.0
 11
4734.963392712808
 21
3576.409163386518
 31
0.0
 70
    32
 71
     5
 42
385.0
  3
ISO-25
100
AcDbAlignedDimension
 13
4297.80008844953
 23
3768.909163386517
 33
0.0
 14
4612.800088449531
 24
3383.909163386518
 34
0.0
 50
90.0
100
AcDbRotatedDimension
1001
ACAD
1000
DSTYLE
1002
{
1070
    41
1040
20.0
1070
    42
1040
20.0
1070
    44
1040
0.0
1070
   140
1040
25.0
1070
   147
1040
15.0
1002
}
  0
DIMENSION
  5
F08
330
1F
100
AcDbEntity
  8
S-size
100
AcDbDimension
  2
*D14
 10
4707.463392712812
 20
3383.909163386518
 30
0.0
 11
4707.46339271281
 21
3358.909163386518
 31
0.0
 70
   160
 71
     5
 42
50.0
  3
ISO-25
100
AcDbAlignedDimension
 13
4612.800088449531
 23
3333.909163386517
 33
0.0
 14
4612.800088449531
 24
3383.909163386518
 34
0.0
 50
90.0
100
AcDbRotatedDimension
1001
ACAD
1000
DSTYLE
1002
{
1070
    41
1040
20.0
1070
    42
1040
20.0
1070
    44
1040
0.0
1070
   140
1040
25.0
1070
   147
1040
15.0
1002
}
  0
LINE
  5
F89
330
1F
100
AcDbEntity
  8
S-main
100
AcDbLine
 10
5397.800088449528
 20
3628.909163386518
 30
0.0
 11
5397.800088449531
 21
3333.909163386517
 31
0.0
  0
LINE
  5
F8A
102
{ACAD_REACTORS
330
F9F
330
FA3
102
}
330
1F
100
AcDbEntity
  8
S-main
100
AcDbLine
 10
5397.800088449531
 20
3333.909163386517
 30
0.0
 11
5307.80008844953
 21
3333.909163386517
 31
0.0
  0
LINE
  5
F8B
102
{ACAD_REACTORS
330
F9F
102
}
330
1F
100
AcDbEntity
  8
S-main
100
AcDbLine
 10
5307.800088449528
 20
3333.909163386517
 30
0.0
 11
5307.800088449528
 21
3628.909163386518
 31
0.0
  0
LINE
  5
F8C
330
1F
100
AcDbEntity
  8
S-main
100
AcDbLine
 10
5307.800088449528
 20
3628.909163386518
 30
0.0
 11
5282.800088449529
 21
3768.909163386517
 31
0.0
  0
LINE
  5
F8D
330
1F
100
AcDbEntity
  8
S-main
100
AcDbLine
 10
5282.800088449529
 20
3768.909163386517
 30
0.0
 11
5282.800088449529
 21
3893.909163386517
 31
0.0
  0
LINE
  5
F8E
102
{ACAD_REACTORS
330
F9B
102
}
330
1F
100
AcDbEntity
  8
S-main
100
AcDbLine
 10
5282.800088449529
 20
3893.909163386517
 30
0.0
 11
5342.800088449529
 21
3893.909163386517
 31
0.0
  0
LINE
  5
F90
330
1F
100
AcDbEntity
  8
S-main
100
AcDbLine
 10
5397.800088449528
 20
3628.909163386518
 30
0.0
 11
5411.800088449528
 21
3730.538634113437
 31
0.0
  0
LINE
  5
F92
330
1F
100
AcDbEntity
  8
S-main
100
AcDbLine
 10
5797.800088449529
 20
3628.909163386518
 30
0.0
 11
5797.800088449529
 21
3333.909163386517
 31
0.0
  0
LINE
  5
F93
102
{ACAD_REACTORS
330
FA3
102
}
330
1F
100
AcDbEntity
  8
S-main
100
AcDbLine
 10
5797.80008844953
 20
3333.909163386517
 30
0.0
 11
5887.80008844953
 21
3333.909163386517
 31
0.0
  0
LINE
  5
F94
330
1F
100
AcDbEntity
  8
S-main
100
AcDbLine
 10
5887.80008844953
 20
3333.909163386517
 30
0.0
 11
5887.800088449528
 21
3628.909163386518
 31
0.0
  0
LINE
  5
F95
330
1F
100
AcDbEntity
  8
S-main
100
AcDbLine
 10
5887.800088449528
 20
3628.909163386518
 30
0.0
 11
5912.800088449529
 21
3768.909163386517
 31
0.0
  0
LINE
  5
F96
102
{ACAD_REACTORS
330
F9B
102
}
330
1F
100
AcDbEntity
  8
S-main
100
AcDbLine
 10
5912.800088449529
 20
3768.909163386517
 30
0.0
 11
5912.800088449529
 21
3893.909163386517
 31
0.0
  0
LINE
  5
F97
330
1F
100
AcDbEntity
  8
S-main
100
AcDbLine
 10
5797.800088449529
 20
3628.909163386518
 30
0.0
 11
5783.800088449528
 21
3730.538634113437
 31
0.0
  0
DIMENSION
  5
F99
102
{ACAD_XDICTIONARY
360
F9A
102
}
102
{ACAD_REACTORS
330
F9B
102
}
330
1F
100
AcDbEntity
  8
S-size
100
AcDbDimension
  2
*D17
 10
5912.800088449529
 20
4058.504546037455
 30
0.0
 11
5597.800088449528
 21
4086.004546037455
 31
0.0
 70
    32
 71
     5
 42
630.0
  3
ISO-25
100
AcDbAlignedDimension
 13
5282.800088449529
 23
3893.909163386517
 33
0.0
 14
5912.800088449529
 24
3893.909163386517
 34
0.0
100
AcDbRotatedDimension
1001
ACAD
1000
DSTYLE
1002
{
1070
    41
1040
20.0
1070
    42
1040
20.0
1070
    44
1040
0.0
1070
   140
1040
25.0
1070
   147
1040
15.0
1002
}
  0
DIMENSION
  5
F9C
330
1F
100
AcDbEntity
  8
S-size
100
AcDbDimension
  2
*D15
 10
5167.001938832101
 20
3893.909163386517
 30
0.0
 11
5139.501938832101
 21
3613.909163386519
 31
0.0
 70
    32
 71
     5
 42
560.0
  3
ISO-25
100
AcDbAlignedDimension
 13
5307.80008844953
 23
3333.909163386517
 33
0.0
 14
5282.175088449529
 24
3893.909163386517
 34
0.0
 50
90.0
100
AcDbRotatedDimension
1001
ACAD
1000
DSTYLE
1002
{
1070
    41
1040
20.0
1070
    42
1040
20.0
1070
    44
1040
0.0
1070
   140
1040
25.0
1070
   147
1040
15.0
1002
}
  0
DIMENSION
  5
F9D
102
{ACAD_XDICTIONARY
360
F9E
102
}
102
{ACAD_REACTORS
330
F9F
102
}
330
1F
100
AcDbEntity
  8
S-size
100
AcDbDimension
  2
*D18
 10
5397.800088449531
 20
3243.909163386517
 30
0.0
 11
5352.80008844953
 21
3216.409163386516
 31
0.0
 70
    32
 71
     5
 42
90.00000000000182
  3
ISO-25
100
AcDbAlignedDimension
 13
5307.800088449528
 23
3333.909163386517
 33
0.0
 14
5397.800088449531
 24
3333.909163386517
 34
0.0
100
AcDbRotatedDimension
1001
ACAD
1000
DSTYLE
1002
{
1070
    41
1040
20.0
1070
    42
1040
20.0
1070
    44
1040
0.0
1070
   140
1040
25.0
1070
   147
1040
15.0
1002
}
  0
LINE
  5
FA0
330
1F
100
AcDbEntity
  8
S-center
100
AcDbLine
 10
5597.800088449528
 20
3923.909163386517
 30
0.0
 11
5597.800088449528
 21
3303.909163386518
 31
0.0
  0
DIMENSION
  5
FA1
102
{ACAD_XDICTIONARY
360
FA2
102
}
102
{ACAD_REACTORS
330
FA3
102
}
330
1F
100
AcDbEntity
  8
S-size
100
AcDbDimension
  2
*D19
 10
5797.80008844953
 20
3243.909163386518
 30
0.0
 11
5597.800088449531
 21
3216.409163386518
 31
0.0
 70
    32
 71
     5
 42
400.0
  3
ISO-25
100
AcDbAlignedDimension
 13
5397.800088449531
 23
3333.909163386517
 33
0.0
 14
5797.80008844953
 24
3333.909163386517
 34
0.0
100
AcDbRotatedDimension
1001
ACAD
1000
DSTYLE
1002
{
1070
    41
1040
20.0
1070
    42
1040
20.0
1070
    44
1040
0.0
1070
   140
1040
25.0
1070
   147
1040
15.0
1002
}
  0
DIMENSION
  5
FA4
330
1F
100
AcDbEntity
  8
S-size
100
AcDbDimension
  2
*D16
 10
5887.80008844953
 20
3243.909163386518
 30
0.0
 11
5842.80008844953
 21
3216.409163386518
 31
0.0
 70
    32
 71
     5
 42
90.0
  3
ISO-25
100
AcDbAlignedDimension
 13
5797.80008844953
 23
3333.909163386517
 33
0.0
 14
5887.80008844953
 24
3333.909163386517
 34
0.0
100
AcDbRotatedDimension
1001
ACAD
1000
DSTYLE
1002
{
1070
    41
1040
20.0
1070
    42
1040
20.0
1070
    44
1040
0.0
1070
   140
1040
25.0
1070
   147
1040
15.0
1002
}
  0
MTEXT
  5
FA5
330
1F
100
AcDbEntity
  8
S-size
100
AcDbMText
 10
5597.800088449528
 20
4258.909163386517
 30
0.0
 40
30.0
 41
630.0000000000002
 71
     5
 72
     5
  1
断面図
 73
     1
 44
1.0
1001
ACAD
1000
MTEXTBEGIN
1070
    73
1070
     1
1070
    44
1040
1.0
1070
    74
1070
     0
1000
MTEXTEND
1000
ACAD_MTEXT_DEFINED_HEIGHT_BEGIN
1070
    46
1040
99.99999999999994
1000
ACAD_MTEXT_DEFINED_HEIGHT_END
  0
LINE
  5
FA9
330
1F
100
AcDbEntity
  8
S-main
100
AcDbLine
 10
5852.800088449528
 20
3893.909163386517
 30
0.0
 11
5852.800088449528
 21
3819.909163386518
 31
0.0
  0
LINE
  5
FAA
330
1F
100
AcDbEntity
  8
S-main
100
AcDbLine
 10
5852.800088449528
 20
3819.909163386518
 30
0.0
 11
5797.800088449529
 21
3819.909163386518
 31
0.0
  0
LINE
  5
FAB
330
1F
100
AcDbEntity
  8
S-main
100
AcDbLine
 10
5797.800088449529
 20
3819.909163386518
 30
0.0
 11
5783.80008844944
 21
3730.538634113474
 31
0.0
  0
LINE
  5
FAC
330
1F
100
AcDbEntity
  8
S-main
100
AcDbLine
 10
5342.800088449529
 20
3893.909163386517
 30
0.0
 11
5342.800088449529
 21
3819.909163386518
 31
0.0
  0
LINE
  5
FAD
330
1F
100
AcDbEntity
  8
S-main
100
AcDbLine
 10
5342.800088449529
 20
3819.909163386518
 30
0.0
 11
5397.800088449528
 21
3819.909163386518
 31
0.0
  0
LINE
  5
FAE
330
1F
100
AcDbEntity
  8
S-main
100
AcDbLine
 10
5397.800088449528
 20
3819.909163386518
 30
0.0
 11
5411.800088449617
 21
3730.538634113474
 31
0.0
  0
LINE
  5
10AF
330
1F
100
AcDbEntity
  8
S-main
100
AcDbLine
 10
3982.800088449529
 20
3893.909163386517
 30
0.0
 11
3982.800088449531
 21
3333.909163386517
 31
0.0
  0
LINE
  5
10B0
330
1F
100
AcDbEntity
  8
S-main
100
AcDbLine
 10
4612.800088449528
 20
3893.909163386517
 30
0.0
 11
4612.800088449531
 21
3333.909163386517
 31
0.0
  0
LWPOLYLINE
  5
10F5
330
1F
100
AcDbEntity
  8
S-main
100
AcDbPolyline
 90
        4
 70
     1
 43
0.0
 10
4532.80008844953
 20
3333.909163386517
 10
4562.80008844953
 20
3333.909163386517
 10
4562.800088449528
 20
3783.909163386518
 10
4532.800088449529
 20
3783.909163386518
  0
LWPOLYLINE
  5
10F6
330
1F
100
AcDbEntity
  8
S-main
100
AcDbPolyline
 90
        4
 70
     1
 43
0.0
 10
4537.800088449531
 20
3333.909163386517
 10
4557.80008844953
 20
3333.909163386517
 10
4557.800088449528
 20
3783.909163386518
 10
4537.800088449528
 20
3783.909163386518
  0
LWPOLYLINE
  5
10F7
330
1F
100
AcDbEntity
  8
S-main
100
AcDbPolyline
 90
        4
 70
     1
 43
0.0
 10
4062.800088449527
 20
3333.909163386518
 10
4032.800088449526
 20
3333.909163386517
 10
4032.800088449532
 20
3783.90916338651
 10
4062.800088449531
 20
3783.90916338651
  0
LWPOLYLINE
  5
10F8
330
1F
100
AcDbEntity
  8
S-main
100
AcDbPolyline
 90
        4
 70
     1
 43
0.0
 10
4057.800088449527
 20
3333.909163386518
 10
4037.800088449527
 20
3333.909163386517
 10
4037.800088449531
 20
3783.90916338651
 10
4057.800088449531
 20
3783.90916338651
  0
DIMENSION
  5
1102
102
{ACAD_XDICTIONARY
360
110F
102
}
102
{ACAD_REACTORS
330
1119
102
}
330
1F
100
AcDbEntity
  8
S-size
100
AcDbDimension
  2
*D20
 10
1839.14302220185
 20
923.9091633865172
 30
0.0
 11
1866.64302220185
 21
1178.909163386517
 31
0.0
 70
    32
 71
     5
 42
510.0000000000001
  3
ISO-25
100
AcDbAlignedDimension
 13
1680.300088449528
 23
1433.909163386517
 33
0.0
 14
1680.300088449528
 24
923.9091633865173
 34
0.0
 50
90.0
100
AcDbRotatedDimension
1001
ACAD
1000
DSTYLE
1002
{
1070
    41
1040
20.0
1070
    42
1040
20.0
1070
    44
1040
0.0
1070
   140
1040
25.0
1070
   147
1040
15.0
1002
}
  0
DIMENSION
  5
1123
102
{ACAD_XDICTIONARY
360
1130
102
}
102
{ACAD_REACTORS
330
113A
102
}
330
1F
100
AcDbEntity
  8
S-size
100
AcDbDimension
  2
*D21
 10
2685.300088449529
 20
1271.084382135539
 30
0.0
 11
2182.800088449528
 21
1243.584382135539
 31
0.0
 70
    32
 71
     5
 42
1005.0
  3
ISO-25
100
AcDbAlignedDimension
 13
1680.300088449528
 23
1433.909163386517
 33
0.0
 14
2685.300088449529
 24
1433.909163386517
 34
0.0
100
AcDbRotatedDimension
1001
ACAD
1000
DSTYLE
1002
{
1070
    41
1040
20.0
1070
    42
1040
20.0
1070
    44
1040
0.0
1070
   140
1040
25.0
1070
   147
1040
15.0
1002
}
  0
CIRCLE
  5
1145
330
1F
100
AcDbEntity
  8
S-main
100
AcDbCircle
 10
2606.300088449529
 20
958.4091633865172
 30
0.0
 40
10.0
  0
CIRCLE
  5
1146
330
1F
100
AcDbEntity
  8
S-main
100
AcDbCircle
 10
1759.300088449528
 20
958.4091633865172
 30
0.0
 40
10.0
  0
CIRCLE
  5
1148
330
1F
100
AcDbEntity
  8
S-main
100
AcDbCircle
 10
2606.300088449529
 20
1399.409163386517
 30
0.0
 40
10.0
  0
CIRCLE
  5
1149
330
1F
100
AcDbEntity
  8
S-main
100
AcDbCircle
 10
1759.300088449528
 20
1399.409163386517
 30
0.0
 40
10.0
  0
LINE
  5
1317
330
1F
100
AcDbEntity
  8
S-main
100
AcDbLine
 10
5852.800088449528
 20
3893.909163386517
 30
0.0
 11
5912.800088449529
 21
3893.909163386517
 31
0.0
  0
LINE
  5
1438
330
1F
100
AcDbEntity
  8
S-center
100
AcDbLine
 10
1152.800088449528
 20
1178.909163386517
 30
0.0
 11
3212.800088449529
 21
1178.909163386517
 31
0.0
  0
LINE
  5
146A
330
1F
100
AcDbEntity
  8
S-shadow
100
AcDbLine
 10
1182.800088449528
 20
3768.909163386517
 30
0.0
 11
3182.800088449529
 21
3768.909163386517
 31
0.0
  0
ENDSEC
  0
SECTION
  2
OBJECTS
  0
DICTIONARY
  5
C
330
0
100
AcDbDictionary
281
     1
  3
ACAD_2007HEADERVARS_RT
350
14C4
  3
ACAD_CIP_PREVIOUS_PRODUCT_INFO
350
63E
  3
ACAD_COLOR
350
6B
  3
ACAD_GROUP
350
D
  3
ACAD_LAYOUT
350
1A
  3
ACAD_MATERIAL
350
6A
  3
ACAD_MLEADERSTYLE
350
637
  3
ACAD_MLINESTYLE
350
17
  3
ACAD_PLOTSETTINGS
350
19
  3
ACAD_PLOTSTYLENAME
350
E
  3
ACAD_SCALELIST
350
625
  3
ACAD_TABLESTYLE
350
7E
  3
ACAD_VISUALSTYLE
350
60C
  3
ACDB_RECOMPOSE_DATA
350
14C2
  3
AcDbVariableDictionary
350
5E
  3
DWGPROPS
350
14C3
  0
DICTIONARY
  5
101
330
2
100
AcDbDictionary
280
     1
281
     1
  3
ACAD_LAYERFILTERS
360
5F1
  3
ACAD_LAYERSTATES
360
102
  3
ACLYDICTIONARY
360
5F0
  0
DICTIONARY
  5
642
330
10
100
AcDbDictionary
280
     1
281
     1
  3
ADSK_XREC_LAYER_RECONCILED
360
643
  0
DICTIONARY
  5
644
330
FC
100
AcDbDictionary
280
     1
281
     1
  3
ADSK_XREC_LAYER_RECONCILED
360
645
  0
DICTIONARY
  5
646
330
FE
100
AcDbDictionary
280
     1
281
     1
  3
ADSK_XREC_LAYER_RECONCILED
360
647
  0
DICTIONARY
  5
648
330
FF
100
AcDbDictionary
280
     1
281
     1
  3
ADSK_XREC_LAYER_RECONCILED
360
649
  0
DICTIONARY
  5
64A
330
14B
100
AcDbDictionary
280
     1
281
     1
  3
ADSK_XREC_LAYER_RECONCILED
360
64B
  0
DICTIONARY
  5
64E
330
183
100
AcDbDictionary
280
     1
281
     1
  3
ADSK_XREC_LAYER_RECONCILED
360
64F
  0
DICTIONARY
  5
650
330
184
100
AcDbDictionary
280
     1
281
     1
  3
ADSK_XREC_LAYER_RECONCILED
360
651
  0
DICTIONARY
  5
652
330
5E0
100
AcDbDictionary
280
     1
281
     1
  3
ADSK_XREC_LAYER_RECONCILED
360
653
  0
DICTIONARY
  5
654
330
5E1
100
AcDbDictionary
280
     1
281
     1
  3
ADSK_XREC_LAYER_RECONCILED
360
655
  0
DICTIONARY
  5
6F8
330
1F
100
AcDbDictionary
280
     1
281
     1
  3
ACAD_SORTENTS
360
6F9
  0
DICTIONARY
  5
AC1
330
AB4
100
AcDbDictionary
280
     1
281
     1
  3
ACAD_DIMASSOC
360
ACB
  0
DICTIONARY
  5
AE7
330
ADA
100
AcDbDictionary
280
     1
281
     1
  3
ACAD_DIMASSOC
360
AF1
  0
DICTIONARY
  5
B08
330
AFB
100
AcDbDictionary
280
     1
281
     1
  3
ACAD_DIMASSOC
360
B12
  0
DICTIONARY
  5
B62
330
B55
100
AcDbDictionary
280
     1
281
     1
  3
ACAD_DIMASSOC
360
B6C
  0
DICTIONARY
  5
B84
330
B77
100
AcDbDictionary
280
     1
281
     1
  3
ACAD_DIMASSOC
360
B8E
  0
DICTIONARY
  5
F9A
330
F99
100
AcDbDictionary
280
     1
281
     1
  3
ACAD_DIMASSOC
360
F9B
  0
DICTIONARY
  5
F9E
330
F9D
100
AcDbDictionary
280
     1
281
     1
  3
ACAD_DIMASSOC
360
F9F
  0
DICTIONARY
  5
FA2
330
FA1
100
AcDbDictionary
280
     1
281
     1
  3
ACAD_DIMASSOC
360
FA3
  0
DICTIONARY
  5
110F
330
1102
100
AcDbDictionary
280
     1
281
     1
  3
ACAD_DIMASSOC
360
1119
  0
DICTIONARY
  5
1130
330
1123
100
AcDbDictionary
280
     1
281
     1
  3
ACAD_DIMASSOC
360
113A
  0
DICTIONARY
  5
14C4
102
{ACAD_REACTORS
330
C
102
}
330
C
100
AcDbDictionary
281
     1
  3
DIMFXL
350
14C5
  3
DIMJOGANG
350
14C6
  0
XRECORD
  5
63E
102
{ACAD_REACTORS
330
C
102
}
330
C
100
AcDbXrecord
280
     1
300
ACD
300
2012
300
ACD_F_S
  0
DICTIONARY
  5
6B
102
{ACAD_REACTORS
330
C
102
}
330
C
100
AcDbDictionary
281
     1
  0
DICTIONARY
  5
D
102
{ACAD_REACTORS
330
C
102
}
330
C
100
AcDbDictionary
281
     1
  0
DICTIONARY
  5
1A
102
{ACAD_REACTORS
330
C
102
}
330
C
100
AcDbDictionary
281
     1
  3
Model
350
22
  3
レイアウト1
350
D3
  3
レイアウト2
350
D7
  0
DICTIONARY
  5
6A
102
{ACAD_REACTORS
330
C
102
}
330
C
100
AcDbDictionary
281
     1
  3
ByBlock
350
5FC
  3
ByLayer
350
5F4
  3
Global
350
604
  0
DICTIONARY
  5
637
102
{ACAD_REACTORS
330
C
102
}
330
C
100
AcDbDictionary
281
     1
  3
Standard
350
638
  0
DICTIONARY
  5
17
102
{ACAD_REACTORS
330
C
102
}
330
C
100
AcDbDictionary
281
     1
  3
Standard
350
18
  0
DICTIONARY
  5
19
102
{ACAD_REACTORS
330
C
102
}
330
C
100
AcDbDictionary
281
     1
  0
ACDBDICTIONARYWDFLT
  5
E
102
{ACAD_REACTORS
330
C
102
}
330
C
100
AcDbDictionary
281
     1
  3
Normal
350
F
100
AcDbDictionaryWithDefault
340
F
  0
DICTIONARY
  5
625
102
{ACAD_REACTORS
330
C
102
}
330
C
100
AcDbDictionary
281
     1
  3
A0
350
626
  3
A1
350
627
  3
A2
350
628
  3
A3
350
629
  3
A4
350
62A
  3
A5
350
62B
  3
A6
350
62C
  3
A7
350
62D
  3
A8
350
62E
  3
A9
350
62F
  3
B0
350
630
  3
B1
350
631
  3
B2
350
632
  3
B3
350
633
  3
B4
350
634
  3
B5
350
635
  3
B6
350
636
  0
DICTIONARY
  5
7E
102
{ACAD_REACTORS
330
C
102
}
330
C
100
AcDbDictionary
281
     1
  3
Standard
350
7F
  0
DICTIONARY
  5
60C
102
{ACAD_REACTORS
330
C
102
}
330
C
100
AcDbDictionary
281
     1
  3
2dWireframe
350
612
  3
Basic
350
611
  3
Brighten
350
618
  3
ColorChange
350
61C
  3
Conceptual
350
615
  3
Dim
350
617
  3
EdgeColorOff
350
624
  3
Facepattern
350
61B
  3
Flat
350
60D
  3
FlatWithEdges
350
60E
  3
Gouraud
350
60F
  3
GouraudWithEdges
350
610
  3
Hidden
350
614
  3
JitterOff
350
622
  3
Linepattern
350
61A
  3
OverhangOff
350
623
  3
Realistic
350
616
  3
Shaded
350
621
  3
Shaded with edges
350
620
  3
Shades of Gray
350
61D
  3
Sketchy
350
61E
  3
Thicken
350
619
  3
Wireframe
350
613
  3
X-Ray
350
61F
  0
XRECORD
  5
14C2
102
{ACAD_REACTORS
330
C
102
}
330
C
100
AcDbXrecord
280
     1
 90
        1
330
7F
  0
DICTIONARY
  5
5E
102
{ACAD_REACTORS
330
C
102
}
330
C
100
AcDbDictionary
281
     1
  3
CANNOSCALE
350
67B
  3
CMLEADERSTYLE
350
679
  3
CTABLESTYLE
350
84
  3
DIMASSOC
350
5F
  3
HIDETEXT
350
63
  3
INDEXCTL
350
14BC
  3
LAYEREVAL
350
67D
  3
LAYERNOTIFY
350
67E
  3
LIGHTINGUNITS
350
67C
  3
MSLTSCALE
350
67A
  3
SORTENTS
350
14BB
  3
XCLIPFRAME
350
14BD
  0
XRECORD
  5
14C3
102
{ACAD_REACTORS
330
C
102
}
330
C
100
AcDbXrecord
280
     1
  1
DWGPROPS COOKIE
  2

  3

  4

  6

  7

  8
tom
  9

300
=
301
=
302
=
303
=
304
=
305
=
306
=
307
=
308
=
309
=
 40
0.1425003240740741
 41
2454427.395492431
 42
2457803.577505011
  1

 90
        0
  0
DICTIONARY
  5
5F1
102
{ACAD_REACTORS
330
101
102
}
330
101
100
AcDbDictionary
281
     1
  0
DICTIONARY
  5
102
102
{ACAD_REACTORS
330
101
102
}
330
101
100
AcDbDictionary
281
     1
  0
DICTIONARY
  5
5F0
102
{ACAD_REACTORS
330
101
102
}
330
101
100
AcDbDictionary
281
     1
1001
ACAD
1000
<All
  0
XRECORD
  5
643
102
{ACAD_REACTORS
330
642
102
}
330
642
100
AcDbXrecord
280
     1
290
     1
  0
XRECORD
  5
645
102
{ACAD_REACTORS
330
644
102
}
330
644
100
AcDbXrecord
280
     1
290
     1
  0
XRECORD
  5
647
102
{ACAD_REACTORS
330
646
102
}
330
646
100
AcDbXrecord
280
     1
290
     1
  0
XRECORD
  5
649
102
{ACAD_REACTORS
330
648
102
}
330
648
100
AcDbXrecord
280
     1
290
     1
  0
XRECORD
  5
64B
102
{ACAD_REACTORS
330
64A
102
}
330
64A
100
AcDbXrecord
280
     1
290
     1
  0
XRECORD
  5
64F
102
{ACAD_REACTORS
330
64E
102
}
330
64E
100
AcDbXrecord
280
     1
290
     1
  0
XRECORD
  5
651
102
{ACAD_REACTORS
330
650
102
}
330
650
100
AcDbXrecord
280
     1
290
     1
  0
XRECORD
  5
653
102
{ACAD_REACTORS
330
652
102
}
330
652
100
AcDbXrecord
280
     1
290
     1
  0
XRECORD
  5
655
102
{ACAD_REACTORS
330
654
102
}
330
654
100
AcDbXrecord
280
     1
290
     1
  0
SORTENTSTABLE
  5
6F9
102
{ACAD_REACTORS
330
6F8
102
}
330
6F8
100
AcDbSortentsTable
330
1F
331
F89
  5
F94
331
146A
  5
127
331
F99
  5
FAA
331
10F7
  5
1191
331
1146
  5
1262
331
A10
  5
BE9
331
FA1
  5
FAE
331
C34
  5
E3C
331
FA9
  5
10D4
331
C5C
  5
F80
331
B76
  5
C29
331
BC5
  5
C34
331
C64
  5
F83
331
10B0
  5
1123
331
F8A
  5
F95
331
F92
  5
FA1
331
A01
  5
BBA
331
E3C
  5
F87
331
9C2
  5
A13
331
A11
  5
BEB
331
126
  5
A0F
331
10F8
  5
11A1
331
FAA
  5
10F0
331
B77
  5
C2A
331
C5D
  5
F81
331
C65
  5
F84
331
9F2
  5
AD9
331
F8B
  5
F96
331
AD9
  5
BF1
331
F93
  5
FA4
331
BEE
  5
C5C
331
1317
  5
1438
331
ECC
  5
F8B
331
9C3
  5
A14
331
1148
  5
12E0
331
FAB
  5
10F4
331
C56
  5
E3D
331
C66
  5
F85
331
9F3
  5
ADA
331
F8C
  5
F97
331
BE7
  5
C56
331
ADA
  5
BF2
331
F94
  5
FA5
331
BEF
  5
C5D
331
B98
  5
C2B
331
F9C
  5
FAB
331
A13
  5
BEC
331
1149
  5
1317
331
FA4
  5
FAF
331
1102
  5
120F
331
FAC
  5
10F5
331
C57
  5
E3E
331
9E4
  5
A0D
331
F8D
  5
F98
331
BE8
  5
C57
331
9FC
  5
BB0
331
F95
  5
FA6
331
BF0
  5
C60
331
F9D
  5
FAC
331
A0C
  5
BC5
331
A14
  5
BED
331
FA5
  5
FB0
331
AFB
  5
BF3
331
FAD
  5
10F6
331
C58
  5
E6E
331
AB4
  5
BEF
331
C60
  5
F82
331
1123
  5
1210
331
F8E
  5
F99
331
9FD
  5
BB1
331
F96
  5
FA7
331
BF1
  5
C64
331
9BE
  5
A11
331
A0D
  5
BE6
331
BB2
  5
C2E
331
A15
  5
BEE
331
BBA
  5
C33
331
FAE
  5
10F7
331
C59
  5
E6F
331
B34
  5
BF4
331
1438
  5
143F
331
9FE
  5
BB5
331
BEA
  5
C58
331
F97
  5
FA8
331
9BF
  5
A12
331
BF2
  5
C65
331
10F5
  5
1148
331
A0E
  5
BE7
331
F08
  5
F8C
331
BB3
  5
C2F
331
9DF
  5
A15
331
163
  5
A10
331
C5A
  5
ECC
331
F90
  5
F9D
331
9FF
  5
BB9
331
BEB
  5
C59
331
B55
  5
BF5
331
BF3
  5
C66
331
10F6
  5
1149
331
A0F
  5
BE8
331
1145
  5
121B
331
FA0
  5
FAD
331
C33
  5
E27
331
9E8
  5
AD6
331
C5B
  5
F08
331
10AF
  5
1102
  0
DIMASSOC
  5
ACB
102
{ACAD_REACTORS
330
AC1
102
}
330
AC1
100
AcDbDimAssoc
330
AB4
 90
        1
 70
     0
 71
     0
  1
AcDbOsnapPointRef
 72
     1
331
9DF
 73
     2
 91
        3
 40
1.0
 10
0.0
 20
0.0
 30
2.000000000000000E+50
 75
     0
  0
DIMASSOC
  5
AF1
102
{ACAD_REACTORS
330
AE7
102
}
330
AE7
100
AcDbDimAssoc
330
ADA
 90
        1
 70
     0
 71
     0
  1
AcDbOsnapPointRef
 72
    13
331
A01
 73
     2
 91
        0
 40
0.0
 10
0.0
 20
0.0
 30
2.000000000000000E+50
 75
     0
  0
DIMASSOC
  5
B12
102
{ACAD_REACTORS
330
B08
102
}
330
B08
100
AcDbDimAssoc
330
AFB
 90
        3
 70
     0
 71
     0
  1
AcDbOsnapPointRef
 72
    13
331
AD9
 73
     2
 91
        1
 40
0.0
 10
0.0
 20
0.0
 30
2.000000000000000E+50
 75
     0
  1
AcDbOsnapPointRef
 72
     1
331
AD9
 73
     2
 91
        3
 40
1.0
 10
0.0
 20
0.0
 30
2.000000000000000E+50
 75
     0
  0
DIMASSOC
  5
B6C
102
{ACAD_REACTORS
330
B62
102
}
330
B62
100
AcDbDimAssoc
330
B55
 90
        2
 70
     0
 71
     0
  1
AcDbOsnapPointRef
 72
    13
331
9FD
 73
     2
 91
        0
 40
0.0
 10
0.0
 20
0.0
 30
2.000000000000000E+50
 75
     0
  0
DIMASSOC
  5
B8E
102
{ACAD_REACTORS
330
B84
102
}
330
B84
100
AcDbDimAssoc
330
B77
 90
        3
 70
     0
 71
     0
  1
AcDbOsnapPointRef
 72
    13
331
9FD
 73
     2
 91
        0
 40
0.0
 10
0.0
 20
0.0
 30
2.000000000000000E+50
 75
     0
  1
AcDbOsnapPointRef
 72
    13
331
A0F
 73
     2
 91
        0
 40
0.0
 10
0.0
 20
0.0
 30
2.000000000000000E+50
 75
     0
  0
DIMASSOC
  5
F9B
102
{ACAD_REACTORS
330
F9A
102
}
330
F9A
100
AcDbDimAssoc
330
F99
 90
        3
 70
     0
 71
     0
  1
AcDbOsnapPointRef
 72
    13
331
F8E
 73
     2
 91
        0
 40
0.0
 10
0.0
 20
0.0
 30
2.000000000000000E+50
 75
     0
  1
AcDbOsnapPointRef
 72
     1
331
F96
 73
     2
 91
        0
 40
1.0
 10
0.0
 20
0.0
 30
2.000000000000000E+50
 75
     0
  0
DIMASSOC
  5
F9F
102
{ACAD_REACTORS
330
F9E
102
}
330
F9E
100
AcDbDimAssoc
330
F9D
 90
        3
 70
     0
 71
     0
  1
AcDbOsnapPointRef
 72
    13
331
F8B
 73
     2
 91
        0
 40
0.0
 10
0.0
 20
0.0
 30
2.000000000000000E+50
 75
     0
  1
AcDbOsnapPointRef
 72
    13
331
F8A
 73
     2
 91
        0
 40
0.0
 10
0.0
 20
0.0
 30
2.000000000000000E+50
 75
     0
  0
DIMASSOC
  5
FA3
102
{ACAD_REACTORS
330
FA2
102
}
330
FA2
100
AcDbDimAssoc
330
FA1
 90
        3
 70
     0
 71
     0
  1
AcDbOsnapPointRef
 72
    13
331
F8A
 73
     2
 91
        0
 40
0.0
 10
0.0
 20
0.0
 30
2.000000000000000E+50
 75
     0
  1
AcDbOsnapPointRef
 72
    13
331
F93
 73
     2
 91
        0
 40
0.0
 10
0.0
 20
0.0
 30
2.000000000000000E+50
 75
     0
  0
DIMASSOC
  5
1119
102
{ACAD_REACTORS
330
110F
102
}
330
110F
100
AcDbDimAssoc
330
1102
 90
        3
 70
     0
 71
     0
  1
AcDbOsnapPointRef
 72
    13
331
C33
 73
     2
 91
        1
 40
0.0
 10
0.0
 20
0.0
 30
2.000000000000000E+50
 75
     0
  1
AcDbOsnapPointRef
 72
     1
331
C33
 73
     2
 91
        3
 40
1.0
 10
0.0
 20
0.0
 30
2.000000000000000E+50
 75
     0
  0
DIMASSOC
  5
113A
102
{ACAD_REACTORS
330
1130
102
}
330
1130
100
AcDbDimAssoc
330
1123
 90
        3
 70
     0
 71
     0
  1
AcDbOsnapPointRef
 72
    13
331
C33
 73
     2
 91
        1
 40
0.0
 10
0.0
 20
0.0
 30
2.000000000000000E+50
 75
     0
  1
AcDbOsnapPointRef
 72
     1
331
C33
 73
     2
 91
        1
 40
1.0
 10
0.0
 20
0.0
 30
2.000000000000000E+50
 75
     0
  0
XRECORD
  5
14C5
102
{ACAD_REACTORS
330
14C4
102
}
330
14C4
100
AcDbXrecord
280
     1
 40
1.25
  0
XRECORD
  5
14C6
102
{ACAD_REACTORS
330
14C4
102
}
330
14C4
100
AcDbXrecord
280
     1
 40
1.570796326794896
  0
LAYOUT
  5
22
102
{ACAD_XDICTIONARY
360
65D
102
}
102
{ACAD_REACTORS
330
1A
102
}
330
1A
100
AcDbPlotSettings
  1

  2
Bullzip PDF Printer
  4
A3
  6

 40
3.174999952316284
 41
3.174999952316284
 42
3.17498779296875
 43
3.17498779296875
 44
297.0530090332031
 45
420.1583251953125
 46
-3.148489356040954
 47
-3.095831274986267
 48
82.80008844952817
 49
88.90916338651733
140
6382.800088449529
141
4543.909163386517
142
1.0
143
15.0
 70
 11940
 72
     1
 73
     1
 74
     4
  7
monochrome.ctb
 75
     0
147
0.0652532034316315
148
-82.80008844952817
149
-88.90916338651733
100
AcDbLayout
  1
Model
 70
     1
 71
     0
 10
0.0
 20
0.0
 11
12.0
 21
9.0
 12
0.0
 22
0.0
 32
0.0
 14
0.0
 24
0.0
 34
0.0
 15
0.0
 25
0.0
 35
0.0
146
0.0
 13
0.0
 23
0.0
 33
0.0
 16
1.0
 26
0.0
 36
0.0
 17
0.0
 27
1.0
 37
0.0
 76
     0
330
1F
331
5F2
1001
ACAD_PSEXT
1000
Bullzip PDF Printer
1000
Bullzip PDF Printer
1000
BULLZIP
1000
Bullzip PDF Printer 9.6.0.1582
1070
     0
  0
LAYOUT
  5
D3
102
{ACAD_XDICTIONARY
360
14C9
102
}
102
{ACAD_REACTORS
330
1A
102
}
330
1A
100
AcDbPlotSettings
  1

  2
C:\Documents and Settings\basas\Application Data\Autodesk\AutoCAD 2005\R16.1\enu\plotters\Default Windows System Printer.pc3
  4

  6

 40
0.0
 41
0.0
 42
0.0
 43
0.0
 44
0.0
 45
0.0
 46
0.0
 47
0.0
 48
0.0
 49
0.0
140
0.0
141
0.0
142
1.0
143
1.0
 70
   688
 72
     0
 73
     0
 74
     5
  7
monochrome.ctb
 75
    16
147
1.0
148
0.0
149
0.0
100
AcDbLayout
  1
レイアウト1
 70
     1
 71
     1
 10
0.0
 20
0.0
 11
12.0
 21
9.0
 12
0.0
 22
0.0
 32
0.0
 14
0.0
 24
0.0
 34
0.0
 15
0.0
 25
0.0
 35
0.0
146
0.0
 13
0.0
 23
0.0
 33
0.0
 16
1.0
 26
0.0
 36
0.0
 17
0.0
 27
1.0
 37
0.0
 76
     0
330
D2
  0
LAYOUT
  5
D7
102
{ACAD_XDICTIONARY
360
14CB
102
}
102
{ACAD_REACTORS
330
1A
102
}
330
1A
100
AcDbPlotSettings
  1

  2
C:\Documents and Settings\basas\Application Data\Autodesk\AutoCAD 2005\R16.1\enu\plotters\Default Windows System Printer.pc3
  4

  6

 40
0.0
 41
0.0
 42
0.0
 43
0.0
 44
0.0
 45
0.0
 46
0.0
 47
0.0
 48
0.0
 49
0.0
140
0.0
141
0.0
142
1.0
143
1.0
 70
   688
 72
     0
 73
     0
 74
     5
  7
monochrome.ctb
 75
    16
147
1.0
148
0.0
149
0.0
100
AcDbLayout
  1
レイアウト2
 70
     1
 71
     2
 10
0.0
 20
0.0
 11
12.0
 21
9.0
 12
0.0
 22
0.0
 32
0.0
 14
0.0
 24
0.0
 34
0.0
 15
0.0
 25
0.0
 35
0.0
146
0.0
 13
0.0
 23
0.0
 33
0.0
 16
1.0
 26
0.0
 36
0.0
 17
0.0
 27
1.0
 37
0.0
 76
     0
330
D6
  0
MATERIAL
  5
5FC
102
{ACAD_XDICTIONARY
360
5FD
102
}
102
{ACAD_REACTORS
330
6A
102
}
330
6A
100
AcDbMaterial
  1
ByBlock
 72
     0
 43
0.0008202099737533
 43
0.0
 43
0.0
 43
0.0
 43
0.0
 43
0.0008202099737533
 43
0.0
 43
0.0
 43
0.0
 43
0.0
 43
1.0
 43
0.0
 43
0.0
 43
0.0
 43
0.0
 43
1.0
 77
     0
 47
0.0008202099737533
 47
0.0
 47
0.0
 47
0.0
 47
0.0
 47
0.0008202099737533
 47
0.0
 47
0.0
 47
0.0
 47
0.0
 47
1.0
 47
0.0
 47
0.0
 47
0.0
 47
0.0
 47
1.0
171
     0
 49
0.0008202099737533
 49
0.0
 49
0.0
 49
0.0
 49
0.0
 49
0.0008202099737533
 49
0.0
 49
0.0
 49
0.0
 49
0.0
 49
1.0
 49
0.0
 49
0.0
 49
0.0
 49
0.0
 49
1.0
175
     0
142
0.0008202099737533
142
0.0
142
0.0
142
0.0
142
0.0
142
0.0008202099737533
142
0.0
142
0.0
142
0.0
142
0.0
142
1.0
142
0.0
142
0.0
142
0.0
142
0.0
142
1.0
179
     0
144
0.0008202099737533
144
0.0
144
0.0
144
0.0
144
0.0
144
0.0008202099737533
144
0.0
144
0.0
144
0.0
144
0.0
144
1.0
144
0.0
144
0.0
144
0.0
144
0.0
144
1.0
147
0.0008202099737533
147
0.0
147
0.0
147
0.0
147
0.0
147
0.0008202099737533
147
0.0
147
0.0
147
0.0
147
0.0
147
1.0
147
0.0
147
0.0
147
0.0
147
0.0
147
1.0
  0
MATERIAL
  5
5F4
102
{ACAD_XDICTIONARY
360
5F5
102
}
102
{ACAD_REACTORS
330
6A
102
}
330
6A
100
AcDbMaterial
  1
ByLayer
 72
     0
 43
0.0008202099737533
 43
0.0
 43
0.0
 43
0.0
 43
0.0
 43
0.0008202099737533
 43
0.0
 43
0.0
 43
0.0
 43
0.0
 43
1.0
 43
0.0
 43
0.0
 43
0.0
 43
0.0
 43
1.0
 77
     0
 47
0.0008202099737533
 47
0.0
 47
0.0
 47
0.0
 47
0.0
 47
0.0008202099737533
 47
0.0
 47
0.0
 47
0.0
 47
0.0
 47
1.0
 47
0.0
 47
0.0
 47
0.0
 47
0.0
 47
1.0
171
     0
 49
0.0008202099737533
 49
0.0
 49
0.0
 49
0.0
 49
0.0
 49
0.0008202099737533
 49
0.0
 49
0.0
 49
0.0
 49
0.0
 49
1.0
 49
0.0
 49
0.0
 49
0.0
 49
0.0
 49
1.0
175
     0
142
0.0008202099737533
142
0.0
142
0.0
142
0.0
142
0.0
142
0.0008202099737533
142
0.0
142
0.0
142
0.0
142
0.0
142
1.0
142
0.0
142
0.0
142
0.0
142
0.0
142
1.0
179
     0
144
0.0008202099737533
144
0.0
144
0.0
144
0.0
144
0.0
144
0.0008202099737533
144
0.0
144
0.0
144
0.0
144
0.0
144
1.0
144
0.0
144
0.0
144
0.0
144
0.0
144
1.0
147
0.0008202099737533
147
0.0
147
0.0
147
0.0
147
0.0
147
0.0008202099737533
147
0.0
147
0.0
147
0.0
147
0.0
147
1.0
147
0.0
147
0.0
147
0.0
147
0.0
147
1.0
  0
MATERIAL
  5
604
102
{ACAD_XDICTIONARY
360
605
102
}
102
{ACAD_REACTORS
330
6A
102
}
330
6A
100
AcDbMaterial
  1
Global
 72
     0
 43
0.0008202099737533
 43
0.0
 43
0.0
 43
0.0
 43
0.0
 43
0.0008202099737533
 43
0.0
 43
0.0
 43
0.0
 43
0.0
 43
1.0
 43
0.0
 43
0.0
 43
0.0
 43
0.0
 43
1.0
 77
     0
 47
0.0008202099737533
 47
0.0
 47
0.0
 47
0.0
 47
0.0
 47
0.0008202099737533
 47
0.0
 47
0.0
 47
0.0
 47
0.0
 47
1.0
 47
0.0
 47
0.0
 47
0.0
 47
0.0
 47
1.0
171
     0
 49
0.0008202099737533
 49
0.0
 49
0.0
 49
0.0
 49
0.0
 49
0.0008202099737533
 49
0.0
 49
0.0
 49
0.0
 49
0.0
 49
1.0
 49
0.0
 49
0.0
 49
0.0
 49
0.0
 49
1.0
175
     0
142
0.0008202099737533
142
0.0
142
0.0
142
0.0
142
0.0
142
0.0008202099737533
142
0.0
142
0.0
142
0.0
142
0.0
142
1.0
142
0.0
142
0.0
142
0.0
142
0.0
142
1.0
179
     0
144
0.0008202099737533
144
0.0
144
0.0
144
0.0
144
0.0
144
0.0008202099737533
144
0.0
144
0.0
144
0.0
144
0.0
144
1.0
144
0.0
144
0.0
144
0.0
144
0.0
144
1.0
147
0.0008202099737533
147
0.0
147
0.0
147
0.0
147
0.0
147
0.0008202099737533
147
0.0
147
0.0
147
0.0
147
0.0
147
1.0
147
0.0
147
0.0
147
0.0
147
0.0
147
1.0
  0
MLEADERSTYLE
  5
638
102
{ACAD_XDICTIONARY
360
14C0
102
}
102
{ACAD_REACTORS
330
637
102
}
330
637
100
AcDbMLeaderStyle
170
     2
171
     1
172
     0
 90
        2
 40
0.0
 41
0.0
173
     1
 91
-1056964608
340
14
 92
       -2
290
     1
 42
2.0
291
     1
 43
0.36
  3
Standard
 44
4.0
300

342
11
174
     1
178
     6
175
     1
176
     0
 93
-1056964608
 45
4.0
292
     0
297
     0
 46
4.0
 94
-1056964608
 47
1.0
 49
1.0
140
1.0
293
     1
141
0.0
294
     1
177
     0
142
1.0
295
     0
296
     0
143
0.125
1001
ACAD_MLEADERVER
1070
     2
  0
MLINESTYLE
  5
18
102
{ACAD_REACTORS
330
17
102
}
330
17
100
AcDbMlineStyle
  2
STANDARD
 70
     0
  3

 62
   256
 51
90.0
 52
90.0
 71
     2
 49
0.5
 62
   256
  6
BYLAYER
 49
-0.5
 62
   256
  6
BYLAYER
  0
ACDBPLACEHOLDER
  5
F
102
{ACAD_REACTORS
330
E
102
}
330
E
  0
SCALE
  5
626
102
{ACAD_REACTORS
330
625
102
}
330
625
100
AcDbScale
 70
     0
300
1:1
140
1.0
141
1.0
290
     1
  0
SCALE
  5
627
102
{ACAD_REACTORS
330
625
102
}
330
625
100
AcDbScale
 70
     0
300
1:2
140
1.0
141
2.0
290
     0
  0
SCALE
  5
628
102
{ACAD_REACTORS
330
625
102
}
330
625
100
AcDbScale
 70
     0
300
1:4
140
1.0
141
4.0
290
     0
  0
SCALE
  5
629
102
{ACAD_REACTORS
330
625
102
}
330
625
100
AcDbScale
 70
     0
300
1:5
140
1.0
141
5.0
290
     0
  0
SCALE
  5
62A
102
{ACAD_REACTORS
330
625
102
}
330
625
100
AcDbScale
 70
     0
300
1:8
140
1.0
141
8.0
290
     0
  0
SCALE
  5
62B
102
{ACAD_REACTORS
330
625
102
}
330
625
100
AcDbScale
 70
     0
300
1:10
140
1.0
141
10.0
290
     0
  0
SCALE
  5
62C
102
{ACAD_REACTORS
330
625
102
}
330
625
100
AcDbScale
 70
     0
300
1:16
140
1.0
141
16.0
290
     0
  0
SCALE
  5
62D
102
{ACAD_REACTORS
330
625
102
}
330
625
100
AcDbScale
 70
     0
300
1:20
140
1.0
141
20.0
290
     0
  0
SCALE
  5
62E
102
{ACAD_REACTORS
330
625
102
}
330
625
100
AcDbScale
 70
     0
300
1:30
140
1.0
141
30.0
290
     0
  0
SCALE
  5
62F
102
{ACAD_REACTORS
330
625
102
}
330
625
100
AcDbScale
 70
     0
300
1:40
140
1.0
141
40.0
290
     0
  0
SCALE
  5
630
102
{ACAD_REACTORS
330
625
102
}
330
625
100
AcDbScale
 70
     0
300
1:50
140
1.0
141
50.0
290
     0
  0
SCALE
  5
631
102
{ACAD_REACTORS
330
625
102
}
330
625
100
AcDbScale
 70
     0
300
1:100
140
1.0
141
100.0
290
     0
  0
SCALE
  5
632
102
{ACAD_REACTORS
330
625
102
}
330
625
100
AcDbScale
 70
     0
300
2:1
140
2.0
141
1.0
290
     0
  0
SCALE
  5
633
102
{ACAD_REACTORS
330
625
102
}
330
625
100
AcDbScale
 70
     0
300
4:1
140
4.0
141
1.0
290
     0
  0
SCALE
  5
634
102
{ACAD_REACTORS
330
625
102
}
330
625
100
AcDbScale
 70
     0
300
8:1
140
8.0
141
1.0
290
     0
  0
SCALE
  5
635
102
{ACAD_REACTORS
330
625
102
}
330
625
100
AcDbScale
 70
     0
300
10:1
140
10.0
141
1.0
290
     0
  0
SCALE
  5
636
102
{ACAD_REACTORS
330
625
102
}
330
625
100
AcDbScale
 70
     0
300
100:1
140
100.0
141
1.0
290
     0
  0
TABLESTYLE
  5
7F
102
{ACAD_XDICTIONARY
360
14BE
102
}
102
{ACAD_REACTORS
330
7E
102
}
330
7E
100
AcDbTableStyle
  3
Standard
 70
     0
 71
     0
 40
1.5
 41
1.5
280
     0
281
     0
  7
Standard
140
4.5
170
     2
 62
     0
 63
     7
283
     0
274
    -2
284
     1
 64
     0
275
    -2
285
     1
 65
     0
276
    -2
286
     1
 66
     0
277
    -2
287
     1
 67
     0
278
    -2
288
     1
 68
     0
279
    -2
289
     1
 69
     0
  7
Standard
140
6.0
170
     5
 62
     0
 63
     7
283
     0
274
    -2
284
     1
 64
     0
275
    -2
285
     1
 65
     0
276
    -2
286
     1
 66
     0
277
    -2
287
     1
 67
     0
278
    -2
288
     1
 68
     0
279
    -2
289
     1
 69
     0
  7
Standard
140
4.5
170
     5
 62
     0
 63
     7
283
     0
274
    -2
284
     1
 64
     0
275
    -2
285
     1
 65
     0
276
    -2
286
     1
 66
     0
277
    -2
287
     1
 67
     0
278
    -2
288
     1
 68
     0
279
    -2
289
     1
 69
     0
  0
VISUALSTYLE
  5
612
102
{ACAD_XDICTIONARY
360
14DA
102
}
102
{ACAD_REACTORS
330
60C
102
}
330
60C
100
AcDbVisualStyle
  2
2dWireframe
 70
     4
 71
     0
 72
     2
 73
     0
 90
        0
 40
-0.6
 41
-30.0
 62
     5
 63
     7
 74
     1
 91
        4
 64
     7
 65
   257
 75
     1
175
     1
 42
1.0
 92
        0
 66
   257
 43
1.0
 76
     1
 77
     6
 78
     2
 67
     7
 79
     5
170
     0
171
     0
290
     0
174
     0
 93
        1
 44
0.0
173
     0
291
     0
 45
0.0
1001
ACAD
1000
AcDbSavedByObjectVersion
1070
     0
  0
VISUALSTYLE
  5
611
102
{ACAD_XDICTIONARY
360
14D8
102
}
102
{ACAD_REACTORS
330
60C
102
}
330
60C
100
AcDbVisualStyle
  2
Basic
 70
     7
 71
     1
 72
     0
 73
     1
 90
        0
 40
-0.6
 41
-30.0
 62
     5
 63
     7
 74
     0
 91
        4
 64
     7
 65
   257
 75
     1
175
     1
 42
1.0
 92
        8
 66
     7
 43
1.0
 76
     1
 77
     6
 78
     2
 67
     7
 79
     5
170
     0
171
     0
290
     0
174
     0
 93
        1
 44
0.0
173
     0
291
     1
 45
0.0
1001
ACAD
1000
AcDbSavedByObjectVersion
1070
     0
  0
VISUALSTYLE
  5
618
102
{ACAD_XDICTIONARY
360
14E6
102
}
102
{ACAD_REACTORS
330
60C
102
}
330
60C
100
AcDbVisualStyle
  2
Brighten
 70
    12
 71
     2
 72
     2
 73
     0
 90
        0
 40
-0.6
 41
-30.0
 62
     5
 63
     7
 74
     1
 91
        4
 64
     7
 65
   257
 75
     1
175
     1
 42
1.0
 92
        8
 66
     7
 43
1.0
 76
     1
 77
     6
 78
     2
 67
     7
 79
     5
170
     0
171
     0
290
     0
174
     0
 93
        1
 44
50.0
173
     0
291
     1
 45
0.0
1001
ACAD
1000
AcDbSavedByObjectVersion
1070
     0
  0
VISUALSTYLE
  5
61C
102
{ACAD_XDICTIONARY
360
14EE
102
}
102
{ACAD_REACTORS
330
60C
102
}
330
60C
100
AcDbVisualStyle
  2
ColorChange
 70
    16
 71
     2
 72
     2
 73
     3
 90
        0
 40
-0.6
 41
-30.0
 62
     5
 63
     8
 74
     1
 91
        4
 64
     7
 65
   257
 75
     1
175
     1
 42
1.0
 92
        8
 66
     8
 43
1.0
 76
     1
 77
     6
 78
     2
 67
     7
 79
     5
170
     0
171
     0
290
     0
174
     0
 93
        1
 44
0.0
173
     0
291
     1
 45
0.0
1001
ACAD
1000
AcDbSavedByObjectVersion
1070
     0
  0
VISUALSTYLE
  5
615
102
{ACAD_XDICTIONARY
360
14E0
102
}
102
{ACAD_REACTORS
330
60C
102
}
330
60C
100
AcDbVisualStyle
  2
Conceptual
 70
     9
 71
     3
 72
     2
 73
     0
 90
        0
 40
-0.6
 41
-30.0
 62
     5
 63
     7
 74
     2
 91
        2
 64
     7
 65
   257
 75
     1
175
     1
 42
179.0
 92
        8
 66
     7
 43
1.0
 76
     1
 77
     6
 78
     2
 67
     7
 79
     3
170
     0
171
     0
290
     0
174
     0
 93
        1
 44
0.0
173
     0
291
     0
 45
0.0
1001
ACAD
1000
AcDbSavedByObjectVersion
1070
     0
  0
VISUALSTYLE
  5
617
102
{ACAD_XDICTIONARY
360
14E4
102
}
102
{ACAD_REACTORS
330
60C
102
}
330
60C
100
AcDbVisualStyle
  2
Dim
 70
    11
 71
     2
 72
     2
 73
     0
 90
        0
 40
-0.6
 41
-30.0
 62
     5
 63
     7
 74
     1
 91
        4
 64
     7
 65
   257
 75
     1
175
     1
 42
1.0
 92
        8
 66
     7
 43
1.0
 76
     1
 77
     6
 78
     2
 67
     7
 79
     5
170
     0
171
     0
290
     0
174
     0
 93
        1
 44
-50.0
173
     0
291
     1
 45
0.0
1001
ACAD
1000
AcDbSavedByObjectVersion
1070
     0
  0
VISUALSTYLE
  5
624
102
{ACAD_XDICTIONARY
360
14FE
102
}
102
{ACAD_REACTORS
330
60C
102
}
330
60C
100
AcDbVisualStyle
  2
EdgeColorOff
 70
    22
 71
     2
 72
     2
 73
     0
 90
        0
 40
-0.6
 41
-30.0
 62
     5
 63
     7
 74
     1
 91
        4
 64
     7
 65
   257
 75
     1
175
     1
 42
1.0
 92
        8
 66
     7
 43
1.0
 76
     1
 77
     6
 78
     2
 67
     7
 79
     5
170
     0
171
     0
290
     0
174
     0
 93
        1
 44
0.0
173
     0
291
     1
 45
0.0
1001
ACAD
1000
AcDbSavedByObjectVersion
1070
     0
  0
VISUALSTYLE
  5
61B
102
{ACAD_XDICTIONARY
360
14EC
102
}
102
{ACAD_REACTORS
330
60C
102
}
330
60C
100
AcDbVisualStyle
  2
Facepattern
 70
    15
 71
     2
 72
     2
 73
     0
 90
        0
 40
-0.6
 41
-30.0
 62
     5
 63
     7
 74
     1
 91
        4
 64
     7
 65
   257
 75
     1
175
     1
 42
1.0
 92
        8
 66
     7
 43
1.0
 76
     1
 77
     6
 78
     2
 67
     7
 79
     5
170
     0
171
     0
290
     0
174
     0
 93
        1
 44
0.0
173
     0
291
     1
 45
0.0
1001
ACAD
1000
AcDbSavedByObjectVersion
1070
     0
  0
VISUALSTYLE
  5
60D
102
{ACAD_XDICTIONARY
360
14D0
102
}
102
{ACAD_REACTORS
330
60C
102
}
330
60C
100
AcDbVisualStyle
  2
Flat
 70
     0
 71
     2
 72
     1
 73
     1
 90
        2
 40
-0.6
 41
30.0
 62
     5
 63
     7
 74
     0
 91
        0
 64
     7
 65
   257
 75
     1
175
     1
 42
1.0
 92
        8
 66
     7
 43
1.0
 76
     1
 77
     6
 78
     2
 67
     7
 79
     5
170
     0
171
     0
290
     0
174
     0
 93
       13
 44
0.0
173
     0
291
     1
 45
0.0
1001
ACAD
1000
AcDbSavedByObjectVersion
1070
     0
  0
VISUALSTYLE
  5
60E
102
{ACAD_XDICTIONARY
360
14D2
102
}
102
{ACAD_REACTORS
330
60C
102
}
330
60C
100
AcDbVisualStyle
  2
FlatWithEdges
 70
     1
 71
     2
 72
     1
 73
     1
 90
        2
 40
-0.6
 41
30.0
 62
     5
 63
     7
 74
     1
 91
        0
 64
     7
 65
   257
 75
     1
175
     1
 42
1.0
 92
        0
 66
   257
 43
1.0
 76
     1
 77
     6
 78
     2
 67
     7
 79
     5
170
     0
171
     0
290
     0
174
     0
 93
       13
 44
0.0
173
     0
291
     1
 45
0.0
1001
ACAD
1000
AcDbSavedByObjectVersion
1070
     0
  0
VISUALSTYLE
  5
60F
102
{ACAD_XDICTIONARY
360
14D4
102
}
102
{ACAD_REACTORS
330
60C
102
}
330
60C
100
AcDbVisualStyle
  2
Gouraud
 70
     2
 71
     2
 72
     2
 73
     1
 90
        2
 40
-0.6
 41
30.0
 62
     5
 63
     7
 74
     0
 91
        0
 64
     7
 65
   257
 75
     1
175
     1
 42
1.0
 92
        0
 66
     7
 43
1.0
 76
     1
 77
     6
 78
     2
 67
     7
 79
     5
170
     0
171
     0
290
     0
174
     0
 93
       13
 44
0.0
173
     0
291
     1
 45
0.0
1001
ACAD
1000
AcDbSavedByObjectVersion
1070
     0
  0
VISUALSTYLE
  5
610
102
{ACAD_XDICTIONARY
360
14D6
102
}
102
{ACAD_REACTORS
330
60C
102
}
330
60C
100
AcDbVisualStyle
  2
GouraudWithEdges
 70
     3
 71
     2
 72
     2
 73
     1
 90
        2
 40
-0.6
 41
30.0
 62
     5
 63
     7
 74
     1
 91
        0
 64
     7
 65
   257
 75
     1
175
     1
 42
1.0
 92
        0
 66
   257
 43
1.0
 76
     1
 77
     6
 78
     2
 67
     7
 79
     5
170
     0
171
     0
290
     0
174
     0
 93
       13
 44
0.0
173
     0
291
     1
 45
0.0
1001
ACAD
1000
AcDbSavedByObjectVersion
1070
     0
  0
VISUALSTYLE
  5
614
102
{ACAD_XDICTIONARY
360
14DE
102
}
102
{ACAD_REACTORS
330
60C
102
}
330
60C
100
AcDbVisualStyle
  2
Hidden
 70
     6
 71
     1
 72
     2
 73
     2
 90
        0
 40
-0.6
 41
-30.0
 62
     5
 63
     7
 74
     2
 91
        2
 64
     7
 65
   257
 75
     2
175
     1
 42
40.0
 92
        0
 66
   257
 43
1.0
 76
     1
 77
     6
 78
     2
 67
     7
 79
     3
170
     0
171
     0
290
     0
174
     0
 93
        1
 44
0.0
173
     0
291
     0
 45
0.0
1001
ACAD
1000
AcDbSavedByObjectVersion
1070
     0
  0
VISUALSTYLE
  5
622
102
{ACAD_XDICTIONARY
360
14FA
102
}
102
{ACAD_REACTORS
330
60C
102
}
330
60C
100
AcDbVisualStyle
  2
JitterOff
 70
    20
 71
     2
 72
     2
 73
     0
 90
        0
 40
-0.6
 41
-30.0
 62
     5
 63
     7
 74
     1
 91
        4
 64
     7
 65
   257
 75
     1
175
     1
 42
1.0
 92
       10
 66
     7
 43
1.0
 76
     1
 77
     6
 78
     2
 67
     7
 79
     5
170
     0
171
     0
290
     0
174
     0
 93
        1
 44
0.0
173
     0
291
     1
 45
0.0
1001
ACAD
1000
AcDbSavedByObjectVersion
1070
     0
  0
VISUALSTYLE
  5
61A
102
{ACAD_XDICTIONARY
360
14EA
102
}
102
{ACAD_REACTORS
330
60C
102
}
330
60C
100
AcDbVisualStyle
  2
Linepattern
 70
    14
 71
     2
 72
     2
 73
     0
 90
        0
 40
-0.6
 41
-30.0
 62
     5
 63
     7
 74
     1
 91
        4
 64
     7
 65
   257
 75
     7
175
     7
 42
1.0
 92
        8
 66
     7
 43
1.0
 76
     1
 77
     6
 78
     2
 67
     7
 79
     5
170
     0
171
     0
290
     0
174
     0
 93
        1
 44
0.0
173
     0
291
     1
 45
0.0
1001
ACAD
1000
AcDbSavedByObjectVersion
1070
     0
  0
VISUALSTYLE
  5
623
102
{ACAD_XDICTIONARY
360
14FC
102
}
102
{ACAD_REACTORS
330
60C
102
}
330
60C
100
AcDbVisualStyle
  2
OverhangOff
 70
    21
 71
     2
 72
     2
 73
     0
 90
        0
 40
-0.6
 41
-30.0
 62
     5
 63
     7
 74
     1
 91
        4
 64
     7
 65
   257
 75
     1
175
     1
 42
1.0
 92
        9
 66
     7
 43
1.0
 76
     1
 77
     6
 78
     2
 67
     7
 79
     5
170
     0
171
     0
290
     0
174
     0
 93
        1
 44
0.0
173
     0
291
     1
 45
0.0
1001
ACAD
1000
AcDbSavedByObjectVersion
1070
     0
  0
VISUALSTYLE
  5
616
102
{ACAD_XDICTIONARY
360
14E2
102
}
102
{ACAD_REACTORS
330
60C
102
}
330
60C
100
AcDbVisualStyle
  2
Realistic
 70
     8
 71
     2
 72
     3
 73
     0
 90
        2
 40
-0.6
 41
30.0
 62
     5
 63
     7
 74
     0
 91
        0
 64
     7
 65
   257
 75
     1
175
     1
 42
1.0
 92
        8
 66
   257
 43
1.0
 76
     1
 77
     6
 78
     2
 67
     7
 79
     3
170
     0
171
     0
290
     0
174
     0
 93
       13
 44
0.0
173
     0
291
     0
 45
0.0
1001
ACAD
1000
AcDbSavedByObjectVersion
1070
     0
  0
VISUALSTYLE
  5
621
102
{ACAD_XDICTIONARY
360
14F8
102
}
102
{ACAD_REACTORS
330
60C
102
}
330
60C
100
AcDbVisualStyle
  2
Shaded
 70
    27
 71
     2
 72
     2
 73
     1
 90
        2
 40
-0.6
 41
30.0
 62
     5
 63
     7
 74
     0
 91
        4
 64
     7
 65
   257
 75
     1
175
     1
 42
1.0
 92
        8
 66
   257
 43
1.0
 76
     1
 77
     6
 78
     2
 67
     8
 79
     3
170
     0
171
     0
290
     0
174
     0
 93
        5
 44
0.0
173
     0
291
     0
 45
0.0
1001
ACAD
1000
AcDbSavedByObjectVersion
1070
     0
  0
VISUALSTYLE
  5
620
102
{ACAD_XDICTIONARY
360
14F6
102
}
102
{ACAD_REACTORS
330
60C
102
}
330
60C
100
AcDbVisualStyle
  2
Shaded with edges
 70
    26
 71
     2
 72
     2
 73
     1
 90
        2
 40
-0.6
 41
30.0
 62
     5
 63
     7
 74
     1
 91
       10
 64
     7
 65
   257
 75
     2
175
     1
 42
1.0
 92
        8
 66
   257
 43
1.0
 76
     1
 77
     6
 78
     2
 67
     7
 79
     3
170
     0
171
     0
290
     0
174
     0
 93
        5
 44
0.0
173
     0
291
     0
 45
0.0
1001
ACAD
1000
AcDbSavedByObjectVersion
1070
     0
  0
VISUALSTYLE
  5
61D
102
{ACAD_XDICTIONARY
360
14F0
102
}
102
{ACAD_REACTORS
330
60C
102
}
330
60C
100
AcDbVisualStyle
  2
Shades of Gray
 70
    23
 71
     2
 72
     2
 73
     3
 90
        0
 40
-0.6
 41
-30.0
 62
     5
 63
     7
 74
     2
 91
        2
 64
     7
 65
     7
 75
     1
175
     1
 42
40.0
 92
        8
 66
     7
 43
1.0
 76
     1
 77
     6
 78
     2
 67
     7
 79
     3
170
     0
171
     0
290
     0
174
     0
 93
        1
 44
0.0
173
     0
291
     0
 45
0.0
1001
ACAD
1000
AcDbSavedByObjectVersion
1070
     0
  0
VISUALSTYLE
  5
61E
102
{ACAD_XDICTIONARY
360
14F2
102
}
102
{ACAD_REACTORS
330
60C
102
}
330
60C
100
AcDbVisualStyle
  2
Sketchy
 70
    24
 71
     1
 72
     2
 73
     2
 90
        0
 40
-0.6
 41
-30.0
 62
     5
 63
     7
 74
     2
 91
        2
 64
     7
 65
     7
 75
     1
175
     1
 42
40.0
 92
       11
 66
     7
 43
1.0
 76
     1
 77
     6
 78
     2
 67
     7
 79
     6
170
     0
171
     0
290
     0
174
     0
 93
        1
 44
0.0
173
     0
291
     0
 45
0.0
1001
ACAD
1000
AcDbSavedByObjectVersion
1070
     0
  0
VISUALSTYLE
  5
619
102
{ACAD_XDICTIONARY
360
14E8
102
}
102
{ACAD_REACTORS
330
60C
102
}
330
60C
100
AcDbVisualStyle
  2
Thicken
 70
    13
 71
     2
 72
     2
 73
     0
 90
        0
 40
-0.6
 41
-30.0
 62
     5
 63
     7
 74
     1
 91
        4
 64
     7
 65
   257
 75
     1
175
     1
 42
1.0
 92
       12
 66
     7
 43
1.0
 76
     1
 77
     6
 78
     2
 67
     7
 79
     5
170
     0
171
     0
290
     0
174
     0
 93
        1
 44
0.0
173
     0
291
     1
 45
0.0
1001
ACAD
1000
AcDbSavedByObjectVersion
1070
     0
  0
VISUALSTYLE
  5
613
102
{ACAD_XDICTIONARY
360
14DC
102
}
102
{ACAD_REACTORS
330
60C
102
}
330
60C
100
AcDbVisualStyle
  2
Wireframe
 70
     5
 71
     0
 72
     2
 73
     0
 90
        0
 40
-0.6
 41
-30.0
 62
     5
 63
     7
 74
     1
 91
        4
 64
     7
 65
   257
 75
     1
175
     1
 42
1.0
 92
        0
 66
   257
 43
1.0
 76
     1
 77
     6
 78
     2
 67
     7
 79
     3
170
     0
171
     0
290
     0
174
     0
 93
        1
 44
0.0
173
     0
291
     0
 45
0.0
1001
ACAD
1000
AcDbSavedByObjectVersion
1070
     0
  0
VISUALSTYLE
  5
61F
102
{ACAD_XDICTIONARY
360
14F4
102
}
102
{ACAD_REACTORS
330
60C
102
}
330
60C
100
AcDbVisualStyle
  2
X-Ray
 70
    25
 71
     2
 72
     2
 73
     1
 90
        1
 40
0.5
 41
-30.0
 62
     5
 63
     7
 74
     1
 91
        0
 64
     7
 65
   257
 75
     1
175
     1
 42
1.0
 92
        8
 66
     7
 43
1.0
 76
     1
 77
     6
 78
     2
 67
     7
 79
     3
170
     0
171
     0
290
     0
174
     0
 93
       13
 44
0.0
173
     0
291
     0
 45
0.0
1001
ACAD
1000
AcDbSavedByObjectVersion
1070
     0
  0
DICTIONARYVAR
  5
67B
102
{ACAD_REACTORS
330
5E
102
}
330
5E
100
DictionaryVariables
280
     0
  1
1:1
  0
DICTIONARYVAR
  5
679
102
{ACAD_REACTORS
330
5E
102
}
330
5E
100
DictionaryVariables
280
     0
  1
STANDARD
  0
DICTIONARYVAR
  5
84
102
{ACAD_REACTORS
330
5E
102
}
330
5E
100
DictionaryVariables
280
     0
  1
STANDARD
  0
DICTIONARYVAR
  5
5F
102
{ACAD_REACTORS
330
5E
102
}
330
5E
100
DictionaryVariables
280
     0
  1
2
  0
DICTIONARYVAR
  5
63
102
{ACAD_REACTORS
330
5E
102
}
330
5E
100
DictionaryVariables
280
     0
  1
1
  0
DICTIONARYVAR
  5
14BC
102
{ACAD_REACTORS
330
5E
102
}
330
5E
100
DictionaryVariables
280
     0
  1
0
  0
DICTIONARYVAR
  5
67D
102
{ACAD_REACTORS
330
5E
102
}
330
5E
100
DictionaryVariables
280
     0
  1
1
  0
DICTIONARYVAR
  5
67E
102
{ACAD_REACTORS
330
5E
102
}
330
5E
100
DictionaryVariables
280
     0
  1
15
  0
DICTIONARYVAR
  5
67C
102
{ACAD_REACTORS
330
5E
102
}
330
5E
100
DictionaryVariables
280
     0
  1
0
  0
DICTIONARYVAR
  5
67A
102
{ACAD_REACTORS
330
5E
102
}
330
5E
100
DictionaryVariables
280
     0
  1
0
  0
DICTIONARYVAR
  5
14BB
102
{ACAD_REACTORS
330
5E
102
}
330
5E
100
DictionaryVariables
280
     0
  1
127
  0
DICTIONARYVAR
  5
14BD
102
{ACAD_REACTORS
330
5E
102
}
330
5E
100
DictionaryVariables
280
     0
  1
0
  0
DICTIONARY
  5
65D
330
22
100
AcDbDictionary
280
     1
281
     1
  3
ACAD_XREC_ROUNDTRIP
360
14C7
  3
ADSK_XREC_LAYOUTTHUMBNAIL
360
65E
  0
DICTIONARY
  5
14C9
330
D3
100
AcDbDictionary
280
     1
281
     1
  3
ACAD_XREC_ROUNDTRIP
360
14CA
  0
DICTIONARY
  5
14CB
330
D7
100
AcDbDictionary
280
     1
281
     1
  3
ACAD_XREC_ROUNDTRIP
360
14CC
  0
DICTIONARY
  5
5FD
330
5FC
100
AcDbDictionary
280
     1
281
     1
  3
ACAD_XREC_ROUNDTRIP
360
14CE
  3
BUMPTILE
360
5FF
  3
DIFFUSETILE
360
5FE
  3
OPACITYTILE
360
602
  3
REFLECTIONTILE
360
601
  3
REFRACTIONTILE
360
603
  3
SPECULARTILE
360
600
  0
DICTIONARY
  5
5F5
330
5F4
100
AcDbDictionary
280
     1
281
     1
  3
ACAD_XREC_ROUNDTRIP
360
14CD
  3
BUMPTILE
360
5F7
  3
DIFFUSETILE
360
5F6
  3
OPACITYTILE
360
5FA
  3
REFLECTIONTILE
360
5F9
  3
REFRACTIONTILE
360
5FB
  3
SPECULARTILE
360
5F8
  0
DICTIONARY
  5
605
330
604
100
AcDbDictionary
280
     1
281
     1
  3
ACAD_XREC_ROUNDTRIP
360
14CF
  3
BUMPTILE
360
607
  3
DIFFUSETILE
360
606
  3
OPACITYTILE
360
60A
  3
REFLECTIONTILE
360
609
  3
REFRACTIONTILE
360
60B
  3
SPECULARTILE
360
608
  0
DICTIONARY
  5
14C0
330
638
100
AcDbDictionary
280
     1
281
     1
  3
ACAD_XREC_ROUNDTRIP
360
14C1
  0
DICTIONARY
  5
14BE
330
7F
100
AcDbDictionary
280
     1
281
     1
  3
ACAD_ROUNDTRIP_2008_TABLESTYLE_CELLSTYLEMAP
360
14BF
  3
ACAD_XREC_ROUNDTRIP
360
14C8
  0
DICTIONARY
  5
14DA
330
612
100
AcDbDictionary
280
     1
281
     1
  3
ACAD_XREC_ROUNDTRIP
360
14DB
  0
DICTIONARY
  5
14D8
330
611
100
AcDbDictionary
280
     1
281
     1
  3
ACAD_XREC_ROUNDTRIP
360
14D9
  0
DICTIONARY
  5
14E6
330
618
100
AcDbDictionary
280
     1
281
     1
  3
ACAD_XREC_ROUNDTRIP
360
14E7
  0
DICTIONARY
  5
14EE
330
61C
100
AcDbDictionary
280
     1
281
     1
  3
ACAD_XREC_ROUNDTRIP
360
14EF
  0
DICTIONARY
  5
14E0
330
615
100
AcDbDictionary
280
     1
281
     1
  3
ACAD_XREC_ROUNDTRIP
360
14E1
  0
DICTIONARY
  5
14E4
330
617
100
AcDbDictionary
280
     1
281
     1
  3
ACAD_XREC_ROUNDTRIP
360
14E5
  0
DICTIONARY
  5
14FE
330
624
100
AcDbDictionary
280
     1
281
     1
  3
ACAD_XREC_ROUNDTRIP
360
14FF
  0
DICTIONARY
  5
14EC
330
61B
100
AcDbDictionary
280
     1
281
     1
  3
ACAD_XREC_ROUNDTRIP
360
14ED
  0
DICTIONARY
  5
14D0
330
60D
100
AcDbDictionary
280
     1
281
     1
  3
ACAD_XREC_ROUNDTRIP
360
14D1
  0
DICTIONARY
  5
14D2
330
60E
100
AcDbDictionary
280
     1
281
     1
  3
ACAD_XREC_ROUNDTRIP
360
14D3
  0
DICTIONARY
  5
14D4
330
60F
100
AcDbDictionary
280
     1
281
     1
  3
ACAD_XREC_ROUNDTRIP
360
14D5
  0
DICTIONARY
  5
14D6
330
610
100
AcDbDictionary
280
     1
281
     1
  3
ACAD_XREC_ROUNDTRIP
360
14D7
  0
DICTIONARY
  5
14DE
330
614
100
AcDbDictionary
280
     1
281
     1
  3
ACAD_XREC_ROUNDTRIP
360
14DF
  0
DICTIONARY
  5
14FA
330
622
100
AcDbDictionary
280
     1
281
     1
  3
ACAD_XREC_ROUNDTRIP
360
14FB
  0
DICTIONARY
  5
14EA
330
61A
100
AcDbDictionary
280
     1
281
     1
  3
ACAD_XREC_ROUNDTRIP
360
14EB
  0
DICTIONARY
  5
14FC
330
623
100
AcDbDictionary
280
     1
281
     1
  3
ACAD_XREC_ROUNDTRIP
360
14FD
  0
DICTIONARY
  5
14E2
330
616
100
AcDbDictionary
280
     1
281
     1
  3
ACAD_XREC_ROUNDTRIP
360
14E3
  0
DICTIONARY
  5
14F8
330
621
100
AcDbDictionary
280
     1
281
     1
  3
ACAD_XREC_ROUNDTRIP
360
14F9
  0
DICTIONARY
  5
14F6
330
620
100
AcDbDictionary
280
     1
281
     1
  3
ACAD_XREC_ROUNDTRIP
360
14F7
  0
DICTIONARY
  5
14F0
330
61D
100
AcDbDictionary
280
     1
281
     1
  3
ACAD_XREC_ROUNDTRIP
360
14F1
  0
DICTIONARY
  5
14F2
330
61E
100
AcDbDictionary
280
     1
281
     1
  3
ACAD_XREC_ROUNDTRIP
360
14F3
  0
DICTIONARY
  5
14E8
330
619
100
AcDbDictionary
280
     1
281
     1
  3
ACAD_XREC_ROUNDTRIP
360
14E9
  0
DICTIONARY
  5
14DC
330
613
100
AcDbDictionary
280
     1
281
     1
  3
ACAD_XREC_ROUNDTRIP
360
14DD
  0
DICTIONARY
  5
14F4
330
61F
100
AcDbDictionary
280
     1
281
     1
  3
ACAD_XREC_ROUNDTRIP
360
14F5
  0
XRECORD
  5
14C7
102
{ACAD_REACTORS
330
65D
102
}
330
65D
100
AcDbXrecord
280
     1
102
SHADEPLOT
 70
     0
102
SHADEPLOTRESLEVEL
 70
     2
102
SHADEPLOTCUSTOMDPI
 70
   300
  0
XRECORD
  5
65E
102
{ACAD_REACTORS
330
65D
102
}
330
65D
100
AcDbXrecord
280
     1
310
280000000001000099000000010008000000000000990000000000000000000000010000000000003028210000000000C8C8C8000000000000000000000000000000000000000000000000000000000000000000330000006600000099000000CC000000FF00000000330000333300006633000099330000CC330000FF3300
310
0000660000336600006666000099660000CC660000FF66000000990000339900006699000099990000CC990000FF99000000CC000033CC000066CC000099CC0000CCCC0000FFCC000000FF000033FF000066FF000099FF0000CCFF0000FFFF000000003300330033006600330099003300CC003300FF003300003333003333
310
33006633330099333300CC333300FF33330000663300336633006666330099663300CC663300FF66330000993300339933006699330099993300CC993300FF99330000CC330033CC330066CC330099CC3300CCCC3300FFCC330000FF330033FF330066FF330099FF3300CCFF3300FFFF330000006600330066006600660099
310
006600CC006600FF00660000336600333366006633660099336600CC336600FF33660000666600336666006666660099666600CC666600FF66660000996600339966006699660099996600CC996600FF99660000CC660033CC660066CC660099CC6600CCCC6600FFCC660000FF660033FF660066FF660099FF6600CCFF6600
310
FFFF660000009900330099006600990099009900CC009900FF00990000339900333399006633990099339900CC339900FF33990000669900336699006666990099669900CC669900FF66990000999900339999006699990099999900CC999900FF99990000CC990033CC990066CC990099CC9900CCCC9900FFCC990000FF99
310
0033FF990066FF990099FF9900CCFF9900FFFF99000000CC003300CC006600CC009900CC00CC00CC00FF00CC000033CC003333CC006633CC009933CC00CC33CC00FF33CC000066CC003366CC006666CC009966CC00CC66CC00FF66CC000099CC003399CC006699CC009999CC00CC99CC00FF99CC0000CCCC0033CCCC0066CC
310
CC0099CCCC00CCCCCC00FFCCCC0000FFCC0033FFCC0066FFCC0099FFCC00CCFFCC00FFFFCC000000FF003300FF006600FF009900FF00CC00FF00FF00FF000033FF003333FF006633FF009933FF00CC33FF00FF33FF000066FF003366FF006666FF009966FF00CC66FF00FF66FF000099FF003399FF006699FF009999FF00CC
310
99FF00FF99FF0000CCFF0033CCFF0066CCFF0099CCFF00CCCCFF00FFCCFF0000FFFF0033FFFF0066FFFF0099FFFF00CCFFFF00FFFFFF00000000000D0D0D001A1A1A00282828003535350043434300505050005D5D5D006B6B6B00787878008686860093939300A1A1A100AEAEAE00BBBBBB00C9C9C900D6D6D600E4E4E400
310
F1F1F100FFFFFF000000000000000000000000000000000000000000000000000000000000000000000000000000000000000000000000000000000000000000000000000000000000000000000000000000000000000000000000000000000000000000000000000000000000000000000000000000000000000000000000
310
00000000000000000000000000000000000000000000000000000000000000000000000000000000000000000000000000000000000000000000000000000000000000000000000000000000000000000000000000000000000000000000000000000000000000000000000000000000000000000000000000000000000000
310
00000000000000000000000000000000000000000000000000000000000000000000000000000000000000000000000000000000000000000000000000000000000000000000BEBEBEBEBEBEBEBEBEBEBEBEBEBEBEBEBEBEBEBEBEBEBEBEBEBEBEBEBEBEBEBEBEBEBEBEBEBEBEBEBEBEBEBEBEBEBEBEBEBEBEBEBEBEBEBEBE
310
BEBEBEBEBEBEBEBEBEBEBEBEBEBEBEBEBEBEBEBEBEBEBEBEBEBEBEBEBEBEBEBEBEBEBEBEBEBEBEBEBEBEBEBEBEBEBEBEBEBEBEBEBEBEBEBEBEBEBEBEBEBEBEBEBEBEBEBEBEBEBEBEBEBEBEBEBEBEBEBEBEBEBEBEBEBEBEBEBEBEBEBEBEBEBEBEBEBEBEBEBEBEBEBEBEBEBEBEBEBEBEBEBEBEBEBEBEBEBEBEBEBEBEBEBEBEBE
310
BEBEBEBEBEBEBEBEBEBEBEBEBEBEBEBEBEBEBEBEBEBEBEBEBEBEBEBEBEBEBEBE00000000000000000000000000000000000000000000000000000000000000000000000000000000BE000000000000000000000000000000000000000000000000000000000000000000000000000000000000000000000000000000000000
310
00000000000000000000000000000000000000000000000000000000000000000000000000000000000000000000000000000000000000000000000000000000000000000000000000000000000000000000000000000000000000000000000000000000000000000000000000000000000000000000000000000000000000
310
000000000000000000000000000000000000000000000000000000000000000000BE00000000000000000000000000000000000000000000000000000000000000000000000000000000BE00000000000000000000000000000000000000000000000000000000000000000000000000000000000000000000000000000000
310
00000000000000000000000000000000000000000000000000000000000000000000000000000000000000000000000000000000000000000000000000000000000000000000000000000000000000000000000000000000000000000000000000000000000000000000000000000000000000000000000000000000000000
310
0000000000000000000000000000000000000000000000000000000000000000000000BE00000000000000000000000000000000000000000000000000000000000000000000000000000000BE0000000000000000000000000000000000000000000000000000000000000000000000000000000000000000000000000000
310
00000000000000000000000000000000000000000000000000000000000000000000000000000000000000000000000000000000000000000000000000000000000000000000000000000000000000000000000000000000000000000000000000000000000000000000000000000000000000000000000000000000000000
310
00000000000000000000000000000000000000000000000000000000000000000000000000BE00000000000000000000000000000000000000000000000000000000000000000000000000000000BE000000000000000000000000000000000000000000000000000000000000000000000000000000000000000000000000
310
00000000000000000000000000000000000000000000000000000000000000000000000000000000000000000000000000000000000000000000000000000000000000000000000000000000000000000000000000000000000000000000000000000000000000000000000000000000000000000000000000000000000000
310
000000000000000000000000000000000000000000000000000000000000000000000000000000BE00000000000000000000000000000000000000000000000000000000000000000000000000000000BE00000000000000000000F5F5F5F5F5F5F5F5F5F5F5F5F5F5F5F5F5F5F5F5F5F5F5F5F5F5F5F5F5F5F5F5F5F5F5F5
310
F5F5F5F5F5F5F5F5F5F5F5F5F5F5F5F5F5F5F5F5F5F5F5F5F5F5F5F5F5F5F5F5F5F5F5F5F5F5F5F5F5F5F5F5F5F5F5F5F5F5F5F5F5F5F5F5F5F5F5F5F5F5F5F5F5F5F5F5F5F5F5F5F5F5F5F5F5F5F5F5F5F5F5F5F5F5F5F5F5F5F5F5F5F5F5F5F5F5F5F5F5F5F5F5F5F5F5F5F5F5F5F5F5F5F5F5F5F5F5F5F5F5F5F5F5F5F5
310
F5F5F5F5F5F5F5F5F5F5F5F5F5F5F5F5F5F5F5F5F5F5F5F5F5F5F5F5F5F5F5F5F5F5F5F50000000000BE00000000000000000000000000000000000000000000000000000000000000000000000000000000BE00000000000000000000F5000000000000000000000000000000000000000000000000000000000000000000
310
0000000000000000000000000000000000000000000000000000000000000000000000000000000000000000000000000000000000000000000000000000000000000000000000000000000000000000000000000000000000000000000000000000000000000000000000000000000000F50000F5F5F5F500000000000000
310
00000000F5F5F5F5F5F5F5F500F500F5F5F5F5F5F5F5F5F5F500F5F5F5F5F500F5F5F50000F50000000000BE00000000000000000000000000000000000000000000000000000000000000000000000000000000BE00000000000000000000F500000000000000000000000000000000000000000000000000000000000000
310
00000000000000000000000000000000000000000000000000000000000000000000000000000000000000000000000000000000000000000000000000000000000000000000000000000000000000000000000000000000000000000000000000000000000000000000000000000000000000F500F5F5F5F5F5F500000000
310
000000000000F5F5F5F5F5F5F5F5F5F500F5F5F5F5F5F500F5F5F500F5F5F500F5F5F5F5F50000F50000000000BE00000000000000000000000000000000000000000000000000000000000000000000000000000000BE00000000000000000000F50000000000000000000000000000000000000000000000000000000000
310
000000000000000000000000000000000000000000000000000000000000000000000000000000000000000000000000000000000000000000000000000000000000000000000000000000000000000000000000000000000000000000000000000000000000000000000000000000000000000000F500F5F5F5F5F5F50000
310
F5F500F5F5F5F5F500F5F5F5F5F5F500F5000000F500F5F5F5F5000000000000000000000000000000F50000000000BE00000000000000000000000000000000000000000000000000000000000000000000000000000000BE00000000000000000000F5000000000000000000000000000000000000000000000000000000
310
0000000000000000000000000000000000000000000000000000000000000000000000000000000000000000000000000000000000000000000000000000000000000000000000000000000000000000000000000000000000000000000000000000000000000000000000000000000000000000000000F500F5F5F5F5F5F5
310
00F5F5F50000F500F5F5F5F500F5F5F5F5F5F5F5F5F5F5F5F5F5F5F5F5F5F5000000000000000000000000F50000000000BE00000000000000000000000000000000000000000000000000000000000000000000000000000000BE00000000000000000000F500000000000000000000000000000000000000000000000000
310
00000000000000000000000000000000000000000000000000000000000000000000000000000000000000000000000000000000000000000000000000000000000000000000000000000000000000000000000000000000000000000000000000000000000000000000000000000000000000000000000000F500F5F5F5F5
310
F5F500F5F5F5F5F5F5F500F5F5F500F5F5F5F5F5F5F5F5F500F5F5F5F5F5F5F5F5000000000000000000000000F50000000000BE00000000000000000000000000000000000000000000000000000000000000000000000000000000BE00000000000000000000F50000000000000000000000000000000000000000000000
310
000000000000000000000000000000000000000000000000000000000000000000000000000000000000000000000000000000000000000000000000000000000000000000000000000000000000000000000000000000000000000000000000000000000000000000000000000000000000000000000000000000F50000F5
310
F5F5F50000F5F5F5F5F5F5F500F5F5F500F5F5F5F5F5F5F5F5F5F500F5F500F5F5F500000000000000000000000000F50000000000BE00000000000000000000000000000000000000000000000000000000000000000000000000000000BE00000000000000000000F5000000000000000000000000000000000000000000
310
0000000000000000000000000000000000000000000000000000000000000000000000000000000000000000000000000000000000000000000000000000000000000000000000000000000000000000000000000000000000000000000000000000000000000000000000000000000000000000000000000000000000F5F5
310
F5F5F5F5F5F5F5F5F5F5F5F5F5F5F5F5F5F5F5F5F5F5F5F5F5F5F5F5F5F5F5F5F5F5F5F5F5F5F5F5F5F5F5F5F5F5F5F5F5F50000000000BE00000000000000000000000000000000000000000000000000000000000000000000000000000000BE00000000000000000000F500000000000000000000000000000000000000
310
00000000000000000000000000000000000000000000000000000000000000000000000000000000000000000000000000000000000000000000000000000000000000000000000000000000000000000000000000000000000000000000000000000000000000000000000000000000000000000000000000000000000000
310
F500000000000000F5000000000000000000000000000000000000000000000000000000000000F50000000000000000000000F50000000000BE00000000000000000000000000000000000000000000000000000000000000000000000000000000BE00000000000000000000F50000000000000000000000000000000000
310
00000000000000000000000000000000000000000000000000000000000000000000000000000000000000000000000000000000000000000000000000000000000000000000000000000000000000000000000000000000000000000000000000000000000000000000000000000000000000000000000000000000000000
310
0000F500F5F5F500F5F5F500000000000000F5F5F5F5F500F5F5F5F5F5F5F5F5F5F5F5000000000000F50000000000000000000000F50000000000BE00000000000000000000000000000000000000000000000000000000000000000000000000000000BE00000000000000000000F5000000000000000000000000000000
310
00000000000000000000000000000000000000000000000000000000000000000000000000000000000000000000000000000000000000000000000000000000000000000000000000000000000000000000000000000000000000000000000000000000000000000000000000000000000000000000000000000000000000
310
00000000F500F5F5F5F5F5F5F5000000000000F5F5F5F5F5F5F5F5F5F5F5F5F5F5F5F5F5F5000000000000F50000000000000000000000F50000000000BE00000000000000000000000000000000000000000000000000000000000000000000000000000000BE00000000000000000000F500000000000000000000000000
310
00000000000000000000000000000000000000000000000000000000000000000000000000000000000000000000000000000000000000000000000000000000000000000000000000000000000000000000000000000000000000000000000000000000000000000000000000000000000000000000000000000000000000
310
000000000000F5000000000000F5F500000000000000F5F5F5000000F5F5F50000F5F5F5F5F5F5000000000000F50000000000000000000000F50000000000BE00000000000000000000000000000000000000000000000000000000000000000000000000000000BE00000000000000000000F50000000000000000000000
310
00000000000000000000000000000000000000000000000000000000000000000000000000000000000000000000000000000000000000000000000000000000000000000000000000000000000000000000000000000000000000000000000000000000000000000000000000000000000000000000000000000000000000
310
0000000000000000F5F5F5F5F5F5F5F5F5F5F5F5F5F5F5F5F5F5F5F5F5F5F5F5F5F5F5F5F5F5F5F5F5F5F5F5F5F5F5F5F5F5F5F5F5F5F5F5F5F5F5F50000000000BE00000000000000000000000000000000000000000000000000000000000000000000000000000000BE00000000000000000000F5000000000000000000
310
00000000000000000000000000000000000000000000000000000000000000000000000000000000000000000000000000000000000000000000000000000000000000000000000000000000000000000000000000000000000000000000000000000000000000000000000000000000000000000000000000000000000000
310
00000000000000000000F500000000000000F50000000000F5F5F5F5F5F5F5F5F50000F500F500F5F5F5F5F50000000000F500000000F5000000000000F50000000000BE00000000000000000000000000000000000000000000000000000000000000000000000000000000BE00000000000000000000F500000000000000
310
00000000000000000000000000000000000000000000000000000000000000000000000000000000000000000000000000000000000000000000000000000000000000000000000000000000000000000000000000000000000000000000000000000000000000000000000000000000000000000000000000000000000000
310
000000000000000000000000F500F5F5F5F5F5F5F50000000000F5F5F5F5F5F5F5F5F5F5F5F5F5F5F5F5F5F5F5F50000000000F5F5F500F5F5F5F5F5F5F5F5F50000000000BE00000000000000000000000000000000000000000000000000000000000000000000000000000000BE00000000000000000000F50000000000
310
00000000000000000000000000000000000000000000000000000000000000000000000000000000000000000000000000000000000000000000000000000000000000000000000000000000000000000000000000000000000000000000000000000000000000000000000000000000000000000000000000000000000000
310
0000000000000000000000000000F500F5F5F5F5F5F5F50000000000000000F5F5F500F5F5F5F5F5F5F5F5F5F50000000000000000F5F5F5F5F5F5F500F5F5F5F5F50000000000BE00000000000000000000000000000000000000000000000000000000000000000000000000000000BE00000000000000000000F5000000
310
00000000000000000000000000000000000000000000000000000000000000000000000000000000000000000000000000000000000000000000000000000000000000000000000000000000000000000000000000000000000000000000000000000000000000000000000000000000000000000000000000000000000000
310
00000000000000000000000000000000F500F5F5F5F5F500F50000000000000000F5F5F5F5F500F5F5F5F5F5F5F5F50000000000000000F5F5F5F5F5F5F50000F5F5F5F50000000000BE00000000000000000000000000000000000000000000000000000000000000000000000000000000BE00000000000000000000F500
310
00000000000000000000000000000000000000000000000000000000000000000000000000000000000000000000000000000000000000000000000000000000000000000000000000000000000000000000000000000000000000000000000000000000000000000000000000000000000000000000000000000000000000
310
000000000000000000000000000000000000F5F5F5F5F5F5F5F5F5F5F5F5F5F5F5F5F5F5F5F5F5F5F5F5F5F5F5F5F5F5F5F5F5F5F5F5F5F5F5F5F5F5F5F5F5F5F5F5F5F5F5F50000000000BE00000000000000000000000000000000000000000000000000000000000000000000000000000000BE00000000000000000000
310
F5000000000000000000000000000000000000000000000000000000000000000000000000000000000000000000000000000000000000000000000000000000000000000000000000000000000000000000000000000000000000000000000000000000000000000000000000000000000000000000000000000000000000
310
0000000000000000000000000000000000000000000000000000000000000000000000000000000000000000000000000000000000000000000000000000000000000000000000F50000000000BE00000000000000000000000000000000000000000000000000000000000000000000000000000000BE0000000000000000
310
0000F500000000000000000000000000000000000000000000000000000000000000000000000000000000000000000000000000000000000000000000000000000000000000000000000000000000000000000000000000000000000000000000000000000000000000000000000000000000000000000000000000000000
310
00000000000000000000000000000000000000000000000000000000000000000000000000000000000000000000000000000000000000000000000000000000000000000000000000F50000000000BE00000000000000000000000000000000000000000000000000000000000000000000000000000000BE000000000000
310
00000000F50000000000000000000000000000000000000000000000000000000000000000000000000000000000000000000000000000000000000000000000002D00000000000000000000000000000000000000000000000000000000000000000000000000000000000000000000000000000000000000000000000000
310
000000000000000000000000000000000000000000000000000000000000000000000000000000000000000000000000000000000000000000000000000000000000000000000000000000F50000000000BE00000000000000000000000000000000000000000000000000000000000000000000000000000000BE00000000
310
000000000000F500000000000000000000000000000000000000000000F5F5F5F5F5F5F5F5F5F5F5F5F5F5F5F5F5F5F5F5F5F5F5F5F5F5F5F5F5F5F5F5F5F5F5F5F5F52DF5F5F5F5F5F5F5F5F5F5F5F5F5F5F5F5F5F5F5F5F5F5F5F5F5F5F5F5F5F5F5F5F5F500000000000000000000000000000000000000000000000000
310
0000000000000000000000000000000000000000000000000000000000000000000000000000000000000000000000000000000000000000000000000000000000000000000000000000000000F50000000000BE00000000000000000000000000000000000000000000000000000000000000000000000000000000BE0000
310
0000000000000000F500000000000000000000000000000000000000000000F5000000F50000000000000000000000000000000000000000000000000000000000000000002D000000000000000000000000000000000000000000000000000000000000000000F50000000000000000000000000000000000000000000000
310
00000000000000000000000000000000000000000000000000000000000000000000000000000000000000000000000000000000000000000000000000000000000000000000000000000000000000F50000000000BE00000000000000000000000000000000000000000000000000000000000000000000000000000000BE
310
00000000000000000000F500000000000000000000000000000000000000000000F5000000F500000000000000000000000000000000F5F5F5F5F5F5F5F5F5F5F5F5F5F5F5F5F5F5F5F5F5F5F5F5F5F5F5F5F5F5F5F5F5F5F500000000000000000000000000000000F5000000000000000000000000000000000000000000
310
000000000000000000000000000000000000000000000000000000000000000000000000000000000000000000000000000000000000000000000000000000000000000000000000000000000000000000F50000000000BE000000000000000000000000000000000000000000000000000000000000000000000000000000
310
00BE00000000000000000000F500000000000000000000000000000000000000000000F5000000F500000000000000000000000000000000F500F5F500F500000000000000000000002D00000000000000000000000000F5F500F500000000000000000000000000000000F500000000000000000000000000000000000000
310
0000000000000000000000000000000000000000000000000000000000000000000000000000000000000000000000000000000000000000000000000000F5F500000000000000000000000000000000000000F50000000000BE00000000000000000000000000000000000000000000000000000000000000000000000000
310
000000BE00000000000000000000F500000000000000000000000000000000000000000000F5000000F500000000000000000000000000000000F5F5F5F5F5F5F5F5F5F5F5F5F5F5F5F5F5F5F5F5F5F5F5F5F5F5F5F5F5F5F5F5F5F5F500000000000000000000000000000000F50000000000000000000000000000000000
310
0000000000000000000000000000000000000000000000000000000000000000000000000000000000000000000000000000F5F5F5F5F5F5F5F5F5F5F5F5F5F5F5F500000000000000000000000000000000000000F50000000000BE0000000000000000000000000000000000000000000000000000000000000000000000
310
0000000000BE00000000000000000000F500000000000000000000000000000000000000000000F5000000F500000000000000000000000000000000F500000000F500000000000000000000002D00000000000000000000000000000000F500000000000000000000000000000000F5000000000000000000000000000000
310
00000000000000000000000000000000000000000000000000000000000000000000000000000000000000000000000000000000F5F5F5F5F5F5F5F5F500F5F5F5F5F50000000000000000000000000000000000000000F50000000000BE000000000000000000000000000000000000000000000000000000000000000000
310
00000000000000BE00000000000000000000F500000000000000000000000000000000000000000000F5000000F500000000000000000000000000000000F500000000F500000000000000000000002D00000000000000000000000000000000F500000000000000000000000000000000F500000000000000000000000000
310
0000000000000000000000000000000000000000000000000000000000000000000000000000000000000000000000000000000000000000000000000000000000000000000000000000000000000000000000000000000000F50000000000BE00000000000000000000000000000000000000000000000000000000000000
310
000000000000000000BE00000000000000000000F500000000000000000000000000000000000000000000F5000000F500000000000000000000000000000000F500000000F500000000000000000000002D00000000000000000000000000000000F500000000000000000000000000000000F50000000000000000000000
310
00000000000000000000000000000000000000000000000000000000000000000000000000000000000000000000000000000000000000000000000000000000000000000000000000000000000000000000000000000000000000F50000000000BE0000000000000000000000000000000000000000000000000000000000
310
0000000000000000000000BE00000000000000000000F500000000000000000000000000000000000000000000F5000000F500000000000000000000000000000000F500000000F500000000000000000000002D00000000000000000000000000000000F500000000000000000000000000000000F5000000000000000000
310
000000000000000000000000000000000000000000000000000000000000000000000000000000000000000000000000000000000000000000000000000000000000000000000000000000000000000000000000000000000000000000F50000000000BE000000000000000000000000000000000000000000000000000000
310
00000000000000000000000000BE00000000000000000000F5000000000000000000000000000000000000000000F5F5000000F500000000000000000000000000000000F500000000F500000000000000000000002D00000000000000000000000000000000F500000000000000000000000000000000F500000000000000
310
0000000000000000000000000000000000000000000000000000000000000000000000000000000000000000000000000000000000000000000000000000000000000000000000000000000000000000000000000000000000000000000000F50000000000BE00000000000000000000000000000000000000000000000000
310
000000000000000000000000000000BE00000000000000000000F5000000000000000000000000000000000000000000F5F500002D2D2D2D2D2D2D2D2D2D2D2D2D2D2D2D2D2D2D2D2D2D2D2D2D2D2D2D2D2D2D2D2D2D2D2D2D2D2D2D2D2D2D2D2D2D2D2D2D2D2D2D2D2D2D2D2D2D2D2D2D2D2D2D2D2D2D2D2D2D2D00000000
310
00000000000000000000000000000000000000000000000000000000000000000000000000000000000000000000000000000000000000000000000000000000000000000000000000000000000000000000000000000000000000000000000000F50000000000BE0000000000000000000000000000000000000000000000
310
0000000000000000000000000000000000BE00000000000000000000F5000000000000000000000000000000000000000000F5F5000000F500000000000000000000000000000000F500000000F5F5000000000000000000002D00000000000000000000000000000000F500000000000000000000000000000000F5000000
310
000000000000000000000000000000000000000000000000000000000000000000000000000000000000000000000000000000000000000000000000000000000000000000000000000000000000000000000000000000000000000000000000000000F50000000000BE000000000000000000000000000000000000000000
310
00000000000000000000000000000000000000BE00000000000000000000F5000000000000000000000000000000000000000000F5F5000000F500000000000000000000000000000000F500000000F500000000000000000000F5F5F5000000000000000000000000000000F500000000000000000000000000000000F500
310
0000000000000000000000000000000000000000000000000000000000000000000000000000000000000000000000000000000000000000000000000000000000000000000000000000000000000000000000000000000000000000000000000000000000F50000000000BE00000000000000000000000000000000000000
310
000000000000000000000000000000000000000000BE00000000000000000000F500000000000000000000000000000000000000000000F5000000F500000000000000000000000000000000F500000000F500000000000000000000F5F5F5000000000000000000000000000000F500000000000000000000000000000000
310
F5000000000000000000000000000000000000000000000000000000000000000000000000000000000000000000000000000000000000000000000000000000000000000000000000000000000000000000000000000000000000000000000000000000000000F50000000000BE0000000000000000000000000000000000
310
0000000000000000000000000000000000000000000000BE00000000000000000000F500000000000000000000000000000000000000000000F5000000F500000000000000000000000000000000F5F5F5F5F5F5F5F5F5F5F5F5F5F5F5F5F5F5F5F5F5F5F5F5F5F5F5F5F5F5F5F5F5F5F50000000000000000000000000000
310
0000F5000000000000000000000000000000000000000000000000000000000000000000000000000000000000000000000000000000000000000000000000000000000000000000000000000000000000000000000000000000000000000000000000000000000000F50000000000BE000000000000000000000000000000
310
00000000000000000000000000000000000000000000000000BE00000000000000000000F500000000000000000000000000000000000000000000F5000000F500000000000000000000000000000000F500000000F500000000000000000000002D00000000000000000000000000000000F5000000000000000000000000
310
00000000F5000000000000000000000000000000000000000000000000000000000000000000000000000000000000000000000000000000000000000000000000000000000000000000000000000000000000000000000000000000000000000000000000000000000000F50000000000BE00000000000000000000000000
310
000000000000000000000000000000000000000000000000000000BE00000000000000000000F500000000000000000000000000000000000000000000F5000000F500000000000000000000000000000000F500000000F500000000000000000000002D00000000000000000000000000000000F500000000000000000000
310
000000000000F5000000000000000000000000000000000000000000000000000000000000000000000000000000000000000000000000000000000000000000000000000000000000000000000000000000000000000000000000000000000000000000000000000000000000F50000000000BE0000000000000000000000
310
0000000000000000000000000000000000000000000000000000000000BE00000000000000000000F500000000000000000000000000000000000000000000F5000000F500000000000000000000000000000000F5F5F5F5F5F5F5F5F5F5F5F5F5F5F5F5F5F5F5F5F5F5F5F5F5F5F5F5F5F5F5F5F5F5F50000000000000000
310
0000000000000000F5000000000000000000000000000000000000000000000000000000000000000000000000000000000000000000000000000000000000000000000000000000000000000000000000000000000000000000000000000000000000000000000000000000000000F50000000000BE000000000000000000
310
00000000000000000000000000000000000000000000000000000000000000BE00000000000000000000F500000000000000000000000000000000000000000000F5000000F500000000000000000000000000000000F500F5F500F500000000000000000000002D00000000000000000000000000F5F500F5000000000000
310
00000000000000000000F5000000000000000000000000000000000000000000000000000000000000000000000000000000000000000000000000000000000000000000000000000000000000000000000000000000000000000000000000000000000000000000000000000000000000F50000000000BE00000000000000
310
000000000000000000000000000000000000000000000000000000000000000000BE00000000000000000000F500000000000000000000000000000000000000000000F5000000F500000000000000000000000000000000F5F5F5F5F5F5F5F5F5F5F5F5F5F5F5F5F5F5F5F5F5F5F5F5F5F5F5F5F5F5F5F5F5F5F500000000
310
000000000000000000000000F5000000000000000000000000000000000000000000000000000000000000000000000000000000000000000000000000000000000000000000000000000000000000000000000000000000000000000000000000000000000000000000000000000000000000F50000000000BE0000000000
310
0000000000000000000000000000000000000000000000000000000000000000000000BE00000000000000000000F500000000000000000000000000000000000000000000F5000000F50000000000000000000000000000000000000000000000000000000000000000002D00000000000000000000000000000000000000
310
0000000000000000000000000000F5000000000000000000000000000000000000000000000000000000000000000000000000000000000000000000000000000000000000000000000000000000000000000000000000000000000000000000000000000000000000000000000000000000000000F50000000000BE000000
310
00000000000000000000000000000000000000000000000000000000000000000000000000BE00000000000000000000F500000000000000000000000000000000000000000000F5F5F5F5F5F5F5F5F5F5F5F5F5F5F5F5F5F5F5F5F5F5F5F5F5F5F5F5F5F5F5F5F5F5F5F5F5F52DF5F5F5F5F5F5F5F5F5F5F5F5F5F5F5F5F5
310
F5F5F5F5F5F5F5F5F5F5F5F5F5F5F5F5F5000000000000000000000000000000000000000000000000000000000000000000000000000000000000000000000000000000000000000000000000000000000000000000000000000000000000000000000000000000000000000000000000000000000000F50000000000BE00
310
000000000000000000000000000000000000000000000000000000000000000000000000000000BE00000000000000000000F50000000000000000000000000000000000000000000000000000F50000000000000000000000000000000000000000000000000000000000000000002D000000000000000000000000000000
310
000000000000000000000000000000000000F5000000000000000000000000000000000000000000000000000000000000000000000000000000000000000000000000000000000000000000000000000000000000000000000000000000000000000000000000000000000000000000000000000000000000F50000000000
310
BE00000000000000000000000000000000000000000000000000000000000000000000000000000000BE00000000000000000000F50000000000000000000000000000000000000000000000000000F50000000000000000000000000000000000000000000000000000000000000000000000000000000000000000000000
310
0000000000000000000000000000000000000000F5000000000000000000000000000000000000000000000000000000000000000000000000000000000000000000000000000000000000000000000000000000000000000000000000000000000000000000000000000000000000000000000000000000000000F5000000
310
0000BE00000000000000000000000000000000000000000000000000000000000000000000000000000000BE00000000000000000000F50000000000000000000000000000000000000000000000000000F5000000000000000000000000000000000000000000000000000000000000000000000000000000000000000000
310
00000000000000000000000000000000000000000000F5000000000000000000000000000000000000000000000000000000000000000000000000000000000000000000000000000000000000000000000000000000000000000000000000000000000000000000000000000000000000000000000000000000000000F500
310
00000000BE00000000000000000000000000000000000000000000000000000000000000000000000000000000BE00000000000000000000F50000000000000000000000000000000000000000000000000000F5F5F5F5F5F5F5F5F5F5F5F5F5F5F5F5F5F5F5F5F5F5F5F5F5F5F5F5F5F5F5F5F5F5F5F5F5F5F5F5F5F5F5F5
310
F5F5F5F5F5F5F5F5F5F5F5F5F5F5F5F5F5F5F5F5F5F5F5F5F5000000000000000000000000000000000000000000000000000000000000000000000000000000000000000000000000000000000000000000000000000000000000000000000000000000000000000000000000000000000000000000000000000000000000
310
F50000000000BE00000000000000000000000000000000000000000000000000000000000000000000000000000000BE00000000000000000000F500000000000000000000000000000000000000000000000000000000000000000000000000000000000000000000000000000000000000000000F5F5F5F5000000000000
310
00000000000000000000000000000000000000000000000000000000000000000000000000000000000000000000000000000000000000000000000000000000000000000000000000000000000000000000000000000000000000000000000000000000000000000000000000000000000000000000000000000000000000
310
0000F50000000000BE00000000000000000000000000000000000000000000000000000000000000000000000000000000BE00000000000000000000F50000000000000000000000000000000000000000000000000000000000000000000000000000000000000000000000000000000000000000000000F5F5F500000000
310
00000000000000000000000000000000000000000000000000000000000000000000000000000000000000000000000000000000000000000000000000000000000000000000000000000000000000000000000000000000000000000000000000000000000000000000000000000000000000000000000000000000000000
310
00000000F50000000000BE00000000000000000000000000000000000000000000000000000000000000000000000000000000BE00000000000000000000F500000000000000000000000000000000000000000000000000000000000000000000000000000000000000000000000000000000000000000000000000000000
310
00000000000000000000000000000000000000000000000000000000000000000000000000000000000000000000000000000000000000000000000000000000000000000000000000000000000000000000000000000000000000000000000000000000000000000000000000000000000000000000000000000000000000
310
000000000000F50000000000BE00000000000000000000000000000000000000000000000000000000000000000000000000000000BE00000000000000000000F50000000000000000000000000000000000000000000000000000000000000000000000000000000000000000000000000000000000000000000000F5F5F5
310
00000000000000000000000000000000000000000000000000000000000000000000000000000000000000000000000000000000000000000000000000000000000000000000000000000000000000000000000000000000000000000000000000000000000000000000000000000000000000000000000000000000000000
310
0000000000000000F50000000000BE00000000000000000000000000000000000000000000000000000000000000000000000000000000BE00000000000000000000F500000000000000000000000000000000000000000000000000000000000000000000000000000000000000000000000000000000000000000000F5F5
310
F5F50000000000000000000000000000000000000000000000000000000000000000000000000000000000000000000000000000000000000000000000000000000000000000000000000000000000000000000000000000000000000000000000000000000000000000000000000000000000000000000000000000000000
310
00000000000000000000F50000000000BE00000000000000000000000000000000000000000000000000000000000000000000000000000000BE00000000000000000000F500000000000000000000000000000000000000000000000000000000000000000000000000000000000000000000000000000000000000000000
310
00000000000000000000000000000000000000000000000000000000000000000000000000000000000000000000000000000000000000000000000000000000000000000000000000000000000000000000000000000000000000000000000000000000000000000000000000000000000000000000000000000000000000
310
000000000000000000000000F50000000000BE00000000000000000000000000000000000000000000000000000000000000000000000000000000BE00000000000000000000F50000000000000000000000000000000000000000000000000000000000000000000000000000000000000000000000000000000000000000
310
00000000000000000000000000000000000000000000000000000000000000000000000000000000000000000000000000000000000000000000000000000000000000000000000000000000000000000000000000000000000000000000000000000000000000000000000000000000000000000000000000000000000000
310
0000000000000000000000000000F50000000000BE00000000000000000000000000000000000000000000000000000000000000000000000000000000BE00000000000000000000F5000000000000000000000000000000000000000000000000000000000000000000000000000000000000000000000000000000000000
310
00000000000000000000000000000000000000000000000000000000000000000000000000000000000000000000000000000000000000000000000000000000000000000000000000000000000000000000000000000000000000000000000000000000000000000000000000000000000000000000000000000000000000
310
00000000000000000000000000000000F50000000000BE00000000000000000000000000000000000000000000000000000000000000000000000000000000BE00000000000000000000F500000000000000000000000000000000000000000000000000000000000000000000000000000000000000000000000000000000
310
00000000000000000000000000000000000000000000000000000000000000000000000000000000000000000000000000000000000000000000000000000000000000000000000000000000000000000000000000000000000000000000000000000000000000000000000000000000000000000000000000000000000000
310
000000000000000000000000000000000000F50000000000BE00000000000000000000000000000000000000000000000000000000000000000000000000000000BE00000000000000000000F50000000000000000000000000000000000000000000000000000000000000000000000000000000000000000000000000000
310
00000000000000000000000000000000000000000000000000000000000000000000000000000000000000000000000000000000000000000000000000000000000000000000000000000000000000000000000000000000000000000000000000000000000000000000000000000000000000000000000000000000000000
310
0000000000000000000000000000000000000000F50000000000BE00000000000000000000000000000000000000000000000000000000000000000000000000000000BE00000000000000000000F5000000000000000000000000000000000000000000000000000000000000000000000000000000000000000000000000
310
00000000000000000000000000000000000000000000000000000000000000000000000000000000000000000000000000000000000000000000000000000000000000000000000000000000000000000000000000000000000000000000000000000000000000000000000000000000000000000000000000000000000000
310
00000000000000000000000000000000000000000000F50000000000BE00000000000000000000000000000000000000000000000000000000000000000000000000000000BE00000000000000000000F500000000000000000000000000000000000000000000000000000000000000000000000000000000000000000000
310
00000000000000000000000000000000000000000000000000000000000000000000000000000000000000000000000000000000000000000000000000000000000000000000000000000000000000000000000000000000000000000000000000000000000000000000000000000000000000000000000000000000000000
310
000000000000000000000000000000000000000000000000F50000000000BE00000000000000000000000000000000000000000000000000000000000000000000000000000000BE00000000000000000000F50000000000000000000000000000000000000000000000000000000000000000000000000000000000000000
310
00000000000000000000000000000000000000000000000000000000000000000000000000000000000000000000000000000000000000000000000000000000000000000000000000000000000000000000000000000000000000000000000000000000000000000000000000000000000000000000000000000000000000
310
0000000000000000000000000000000000000000000000000000F50000000000BE00000000000000000000000000000000000000000000000000000000000000000000000000000000BE00000000000000000000F5000000000000000000000000000000000000000000000000000000000000000000000000000000000000
310
00000000000000000000000000000000000000000000000000000000000000000000000000000000000000000000000000000000000000000000000000000000000000000000000000000000000000000000000000000000000000000000000000000000000000000000000000000000000000000000000000000000000000
310
00000000000000000000000000000000000000000000000000000000F50000000000BE00000000000000000000000000000000000000000000000000000000000000000000000000000000BE00000000000000000000F500000000000000000000000000000000000000000000000000000000000000000000000000000000
310
00000000000000000000000000000000000000000000000000000000000000000000000000000000000000000000000000000000000000000000000000000000000000000000000000000000000000000000000000000000000000000000000000000000000000000000000000000000000000000000000000000000000000
310
000000000000000000000000000000000000000000000000000000000000F50000000000BE00000000000000000000000000000000000000000000000000000000000000000000000000000000BE00000000000000000000F50000000000000000000000000000000000000000000000000000000000000000000000000000
310
00000000000000000000000000000000000000000000000000000000000000000000000000000000000000000000000000000000000000000000000000000000000000000000000000000000000000000000000000000000000000000000000000000000000000000000000000000000000000000000000000000000000000
310
0000000000000000000000000000000000000000000000000000000000000000F50000000000BE00000000000000000000000000000000000000000000000000000000000000000000000000000000BE00000000000000000000F5000000000000000000000000000000000000000000000000000000000000000000000000
310
00000000000000000000000000000000000000000000000000000000000000000000000000000000000000000000000000000000000000000000000000000000000000000000000000000000000000000000000000000000000000000000000000000000000000000000000000000000000000000000000000000000000000
310
00000000000000000000000000000000000000000000000000000000000000000000F50000000000BE00000000000000000000000000000000000000000000000000000000000000000000000000000000BE00000000000000000000F500000000000000000000000000000000000000000000000000000000000000000000
310
00000000000000000000000000000000000000000000000000000000000000000000000000000000000000000000000000000000000000000000000000000000000000000000000000000000000000000000000000000000000000000000000000000000000000000000000000000000000000000000000000000000000000
310
000000000000000000000000000000000000000000000000000000000000000000000000F50000000000BE00000000000000000000000000000000000000000000000000000000000000000000000000000000BE00000000000000000000F50000000000000000000000000000000000000000000000000000000000000000
310
00000000000000000000000000000000000000000000000000000000000000000000000000000000000000000000000000000000000000000000000000000000000000000000000000000000000000000000000000000000000000000000000000000000000000000000000000000000000000000000000000000000000000
310
0000000000000000000000000000000000000000000000000000000000000000000000000000F50000000000BE00000000000000000000000000000000000000000000000000000000000000000000000000000000BE00000000000000000000F5000000000000000000000000000000000000000000000000000000000000
310
00000000000000000000000000000000000000000000000000000000000000000000000000000000000000000000000000000000000000000000000000000000000000000000000000000000000000000000000000000000000000000000000000000000000000000000000000000000000000000000000000000000000000
310
00000000000000000000000000000000000000000000000000000000000000000000000000000000F50000000000BE00000000000000000000000000000000000000000000000000000000000000000000000000000000BE00000000000000000000F500000000000000000000000000000000000000000000000000000000
310
00000000000000000000000000000000000000000000000000000000000000000000000000000000000000000000000000000000000000000000000000000000000000000000000000000000000000000000000000000000000000000000000000000000000000000000000000000000000000000000000000000000000000
310
000000000000000000000000000000000000000000000000000000000000000000000000000000000000F50000000000BE00000000000000000000000000000000000000000000000000000000000000000000000000000000BE00000000000000000000F50000000000000000000000000000000000000000000000000000
310
00000000000000000000000000000000000000000000000000000000000000000000000000000000000000000000000000000000000000000000000000000000000000000000000000000000000000000000000000000000000000000000000000000000000000000000000000000000000000000000000000000000000000
310
0000000000000000000000000000000000000000000000000000000000000000000000000000000000000000F50000000000BE00000000000000000000000000000000000000000000000000000000000000000000000000000000BE00000000000000000000F5000000000000000000000000000000000000000000000000
310
00000000000000000000000000000000000000000000000000000000000000000000000000000000000000000000000000000000000000000000000000000000000000000000000000000000000000000000000000000000000000000000000000000000000000000000000000000000000000000000000000000000000000
310
00000000000000000000000000000000000000000000000000000000000000000000000000000000000000000000F50000000000BE00000000000000000000000000000000000000000000000000000000000000000000000000000000BE00000000000000000000F500000000000000000000000000000000000000000000
310
00000000000000000000000000000000000000000000000000000000000000000000000000000000000000000000000000000000000000000000000000000000000000000000000000000000000000000000000000000000000000000000000000000000000000000000000000000000000000000000000000000000000000
310
000000000000000000000000000000000000000000000000000000000000000000000000000000000000000000000000F50000000000BE00000000000000000000000000000000000000000000000000000000000000000000000000000000BE00000000000000000000F50000000000000000000000000000000000000000
310
00000000000000000000000000000000000000000000000000000000000000000000000000000000000000000000000000000000000000000000000000000000000000000000000000000000000000000000000000000000000000000000000000000000000000000000000000000000000000000000000000000000000000
310
0000000000000000000000000000000000000000000000000000000000000000000000000000000000000000000000000000F50000000000BE00000000000000000000000000000000000000000000000000000000000000000000000000000000BE00000000000000000000F5000000000000000000000000000000000000
310
00000000000000000000000000000000000000000000000000000000000000000000000000000000000000000000000000000000000000000000000000000000000000000000000000000000000000000000000000000000000000000000000000000000000000000000000000000000000000000000000000000000000000
310
00000000000000000000000000000000000000000000000000000000000000000000000000000000000000000000000000000000F50000000000BE00000000000000000000000000000000000000000000000000000000000000000000000000000000BE00000000000000000000F500000000000000000000000000000000
310
00000000000000000000000000000000000000000000000000000000000000000000000000000000000000000000000000000000000000000000000000000000000000000000000000000000000000000000000000000000000000000000000000000000000000000000000000000000000000000000000000000000000000
310
000000000000000000000000000000000000000000000000000000000000000000000000000000000000000000000000000000000000F50000000000BE00000000000000000000000000000000000000000000000000000000000000000000000000000000BE00000000000000000000F50000000000000000000000000000
310
00000000000000000000000000000000000000000000000000000000000000000000000000000000000000000000000000000000000000000000000000000000000000000000000000000000000000000000000000000000000000000000000000000000000000000000000000000000000000000000000000000000000000
310
0000000000000000000000000000000000000000000000000000000000000000000000000000000000000000000000000000000000000000F50000000000BE00000000000000000000000000000000000000000000000000000000000000000000000000000000BE00000000000000000000F5000000000000000000000000
310
00000000000000000000000000000000000000000000000000000000000000000000000000000000000000000000000000000000000000000000000000000000000000000000000000000000000000000000000000000000000000000000000000000000000000000000000000000000000000000000000000000000000000
310
00000000000000000000000000000000000000000000000000000000000000000000000000000000000000000000000000000000000000000000F50000000000BE00000000000000000000000000000000000000000000000000000000000000000000000000000000BE00000000000000000000F500000000000000000000
310
00000000000000000000000000000000000000000000000000000000000000000000000000000000000000000000000000000000000000000000000000000000000000000000000000000000000000000000000000000000000000000000000000000000000000000000000000000000000000000000000000000000000000
310
000000000000000000000000000000000000000000000000000000000000000000000000000000000000000000000000000000000000000000000000F50000000000BE00000000000000000000000000000000000000000000000000000000000000000000000000000000BE00000000000000000000F50000000000000000
310
00000000000000000000000000000000000000000000000000000000000000000000000000000000000000000000000000000000000000000000000000000000000000000000000000000000000000000000000000000000000000000000000000000000000000000000000000000000000000000000000000000000000000
310
0000000000000000000000000000000000000000000000000000000000000000000000000000000000000000000000000000000000000000000000000000F50000000000BE00000000000000000000000000000000000000000000000000000000000000000000000000000000BE00000000000000000000F5000000000000
310
00000000000000000000000000000000000000000000000000000000000000000000000000000000000000000000000000000000000000000000000000000000000000000000000000000000000000000000000000000000000000000000000000000000000000000000000000000000000000000000000000000000000000
310
00000000000000000000000000000000000000000000000000000000000000000000000000000000000000000000000000000000000000000000000000000000F50000000000BE00000000000000000000000000000000000000000000000000000000000000000000000000000000BE00000000000000000000F500000000
310
00000000000000000000000000000000000000000000000000000000000000000000000000000000000000000000000000000000000000000000000000000000000000000000000000000000000000000000000000000000000000000000000000000000000000000000000000000000000000000000000000000000000000
310
000000000000000000000000000000000000000000000000000000000000000000000000000000000000000000000000000000000000000000000000000000000000F50000000000BE00000000000000000000000000000000000000000000000000000000000000000000000000000000BE00000000000000000000F50000
310
00000000000000000000000000000000000000000000000000000000000000000000000000000000000000000000000000000000000000000000000000000000000000000000000000000000000000000000000000000000000000000000000000000000000000000000000000000000000000000000000000000000000000
310
0000000000000000000000000000000000000000000000000000000000000000000000000000000000000000000000000000000000000000000000000000000000000000F50000000000BE00000000000000000000000000000000000000000000000000000000000000000000000000000000BE00000000000000000000F5
310
00000000000000000000000000000000000000000000000000000000000000000000000000000000000000000000000000000000000000000000000000000000000000000000000000000000000000000000000000000000000000000000000000000000000000000000000000000000000000000000000000000000000000
310
00000000000000000000000000000000000000000000000000000000000000000000000000000000000000000000000000000000000000000000000000000000000000000000F50000000000BE00000000000000000000000000000000000000000000000000000000000000000000000000000000BE000000000000000000
310
00F50000000000000000000000000000000000000000000000000000000000000000000000000000000000000000000000000000000000000000000000000000000000000000000000000000000000000000000000000000000000000000000000000000000000000000000000000000000000000000000000000000000000
310
000000000000000000000000000000000000000000000000000000000000000000000000000000000000000000000000000000000000000000000000000000000000000000000000F50000000000BE00000000000000000000000000000000000000000000000000000000000000000000000000000000BE00000000000000
310
000000F5000000000000000000000000000000000000000000000000000000000000000000000000000000000000000000000000000000000000000000000000000000000000000000000000000000000000000000000000000000000000000000000000000000000000000000000000000000000000000000000000000000
310
0000000000000000000000000000000000000000000000000000000000000000000000000000000000000000000000000000000000000000000000000000000000000000000000000000F50000000000BE00000000000000000000000000000000000000000000000000000000000000000000000000000000BE0000000000
310
0000000000F500000000000000000000000000000000000000000000000000000000000000000000000000000000000000000000000000000000000000000000000000000000000000000000000000000000000000000000000000000000000000000000000000000000000000000000000000000000000000000000000000
310
00000000000000000000000000000000000000000000000000000000000000000000000000000000000000000000000000000000000000000000000000000000000000000000000000000000F50000000000BE00000000000000000000000000000000000000000000000000000000000000000000000000000000BE000000
310
00000000000000F50000000000000000000000000000000000000000000000000000000000000000000000000000000000000000000000000000000000000000000000000000000000000000000000000000000000000000000000000000000000000000000000000000000000000000000000000000000000000000000000
310
000000000000000000000000000000000000000000000000000000000000000000000000000000000000000000000000000000000000000000000000000000000000000000000000000000000000F50000000000BE00000000000000000000000000000000000000000000000000000000000000000000000000000000BE00
310
000000000000000000F5000000000000000000000000000000000000000000000000000000000000000000000000000000000000000000000000000000000000000000000000000000000000000000000000000000000000000000000000000000000000000000000000000000000000000000000000000000000000000000
310
0000000000000000000000000000000000000000000000000000000000000000000000000000000000000000000000000000000000000000000000000000000000000000000000000000000000000000F50000000000BE00000000000000000000000000000000000000000000000000000000000000000000000000000000
310
BE00000000000000000000F500000000000000000000000000000000000000000000000000000000000000000000000000000000000000000000000000000000000000000000000000000000000000000000000000000000000000000000000000000000000000000000000000000000000000000000000000000000000000
310
00000000000000000000000000000000000000000000000000000000000000000000000000000000000000000000000000000000000000000000000000000000000000000000000000000000000000000000F50000000000BE0000000000000000000000000000000000000000000000000000000000000000000000000000
310
0000BE00000000000000000000F50000000000000000000000000000000000000000000000000000000000000000000000000000000000000000000000000000000000000000000000000000000000000000000000000000000000000000000000000000000000000000000000000000000000000000000000000000000000
310
000000000000000000000000000000000000000000000000000000000000000000000000000000000000000000000000000000000000000000000000000000000000000000000000000000000000000000000000F50000000000BE000000000000000000000000000000000000000000000000000000000000000000000000
310
00000000BE00000000000000000000F5000000000000000000000000000000000000000000000000000000000000000000000000000000000000000000000000000000000000000000000000000000000000000000000000000000000000000000000000000000000000000000000000000000000000000000000000000000
310
0000000000000000000000000000000000000000000000000000000000000000000000000000000000000000000000000000000000000000000000000000000000000000000000000000000000000000000000000000F50000000000BE00000000000000000000000000000000000000000000000000000000000000000000
310
000000000000BE00000000000000000000F500000000000000000000000000000000000000000000000000000000000000000000000000000000000000000000000000000000000000000000000000000000000000000000000000000000000000000000000000000000000000000000000000000000000000000000000000
310
00000000000000000000000000000000000000000000000000000000000000000000000000000000000000000000000000000000000000000000000000000000000000000000000000000000000000000000000000000000F50000000000BE0000000000000000000000000000000000000000000000000000000000000000
310
0000000000000000BE00000000000000000000F50000000000000000000000000000000000000000000000000000000000000000000000000000000000000000000000000000000000000000000000000000000000000000000000000000000000000000000000000000000000000000000000000000000000000000000000
310
000000000000000000000000000000000000000000000000000000000000000000000000000000000000000000000000000000000000000000000000000000000000000000000000000000000000000000000000000000000000F50000000000BE000000000000000000000000000000000000000000000000000000000000
310
00000000000000000000BE00000000000000000000F5000000000000000000000000000000000000000000000000000000000000000000000000000000000000000000000000000000000000000000000000000000000000000000000000000000000000000000000000000000000000000000000000000000000000000000
310
0000000000000000000000000000000000000000000000000000000000000000000000000000000000000000000000000000000000000000000000000000000000000000000000000000000000000000000000000000000000000000F50000000000BE00000000000000000000000000000000000000000000000000000000
310
000000000000000000000000BE00000000000000000000F500000000000000000000000000000000000000000000000000000000000000000000000000000000000000000000000000000000000000000000000000000000000000000000000000000000000000000000000000000000000000000000000000000000000000
310
00000000000000000000000000000000000000000000000000000000000000000000000000000000000000000000000000000000000000000000000000000000000000000000000000000000000000000000000000000000000000000000F50000000000BE0000000000000000000000000000000000000000000000000000
310
0000000000000000000000000000BE00000000000000000000F50000000000000000000000000000000000000000000000000000000000000000000000000000000000000000000000000000000000000000000000000000000000000000000000000000000000000000000000000000000000000000000000000000000000
310
000000000000000000000000000000000000000000000000000000000000000000000000000000000000000000000000000000000000000000000000000000000000000000000000000000000000000000000000000000000000000000000000F50000000000BE000000000000000000000000000000000000000000000000
310
00000000000000000000000000000000BE00000000000000000000F5000000000000000000000000000000000000000000000000000000000000000000000000000000000000000000000000000000000000000000000000000000000000000000000000000000000000000000000000000000000000000000000000000000
310
0000000000000000000000000000000000000000000000000000000000000000000000000000000000000000000000000000000000000000000000000000000000000000000000000000000000000000000000000000000000000000000000000000F50000000000BE00000000000000000000000000000000000000000000
310
000000000000000000000000000000000000BE00000000000000000000F500000000000000000000000000000000000000000000000000000000000000000000000000000000000000000000000000000000000000000000000000000000000000000000000000000000000000000000000000000000000000000000000000
310
00000000000000000000000000000000000000000000000000000000000000000000000000000000000000000000000000000000000000000000000000000000000000000000000000000000000000000000000000000000000000000000000000000000F50000000000BE0000000000000000000000000000000000000000
310
0000000000000000000000000000000000000000BE00000000000000000000F50000000000000000000000000000000000000000000000000000000000000000000000000000000000000000000000000000000000000000000000000000000000000000000000000000000000000000000000000000000000000000000000
310
000000000000000000000000000000000000000000000000000000000000000000000000000000000000000000000000000000000000000000000000000000000000000000000000000000000000000000000000000000000000000000000000000000000000F50000000000BE000000000000000000000000000000000000
310
00000000000000000000000000000000000000000000BE00000000000000000000F5000000000000000000000000000000000000000000000000000000000000000000000000000000000000000000000000000000000000000000000000000000000000000000000000000000000000000000000000000000000000000000
310
0000000000000000000000000000000000000000000000000000000000000000000000000000000000000000000000000000000000000000000000000000000000000000000000000000000000000000000000000000000000000000000000000000000000000000F50000000000BE00000000000000000000000000000000
310
000000000000000000000000000000000000000000000000BE00000000000000000000F500000000000000000000000000000000000000000000000000000000000000000000000000000000000000000000000000000000000000000000000000000000000000000000000000000000000000000000000000000000000000
310
00000000000000000000000000000000000000000000000000000000000000000000000000000000000000000000000000000000000000000000000000000000000000000000000000000000000000000000000000000000000000000000000000000000000000000000F50000000000BE0000000000000000000000000000
310
0000000000000000000000000000000000000000000000000000BE00000000000000000000F50000000000000000000000000000000000000000000000000000000000000000000000000000000000000000000000000000000000000000000000000000000000000000000000000000000000000000000000000000000000
310
000000000000000000000000000000000000000000000000000000000000000000F5F5F5000000000000F5F5F5000000000000F5F500000000000000000000000000000000000000000000000000F5F5000000000000F5F5F5000000000000F5F50000000000000000000000F50000000000BE000000000000000000000000
310
00000000000000000000000000000000000000000000000000000000BE00000000000000000000F5000000000000000000000000000000000000000000000000000000000000000000000000000000000000000000000000000000000000000000000000000000000000000000000000000000000000000000000000000000
310
00000000000000000000000000000000000000000000000000000000000000000000F5F5F5F5F5F5F5F5F5F5F5F5F5F5F5F5F5F5F5F5F5F50000000000000000000000000000000000000000000000F5F5F5F5F5F5F5F5F5F5F5F5F5F5F5F5F5F5F5F5F500000000000000000000F50000000000BE00000000000000000000
310
000000000000000000000000000000000000000000000000000000000000BE00000000000000000000F500000000000000000000000000000000000000000000000000000000000000000000000000000000000000000000000000000000000000000000000000000000000000000000000000000000000000000000000000
310
000000000000000000000000000000000000000000000000000000000000000000000000F5F500F5F5F50000000000000000000000F5F50000F50000000000000000000000000000000000000000000000F5F5F5F5F50000000000000000000000F5F500F5F500000000000000000000F50000000000BE0000000000000000
310
0000000000000000000000000000000000000000000000000000000000000000BE00000000000000000000F50000000000000000000000000000000000000000000000000000000000000000000000000000000000000000000000000000000000000000000000002D00000000000000000000000000000000000000000000
310
0000000000000000000000000000000000000000000000000000000000000000000000000000F5000000F50000000000002D0000000000F5000000F5000000F500000000000000000000000000000000000000F50000F50000000000002D000000000000F50000F500000000000000000000F50000000000BE000000000000
310
00000000000000000000000000000000000000000000000000000000000000000000BE00000000000000000000F500000000000000000000000000000000000000000000F5F5F5F5F5F5F5F5F5F5F5F5F5F5F5F5F5F5F5F5F5F5F5F5F5F5F5F5F5F5F5F5F5F5F5F5F5F52DF5F5F5F5F5F5F5F5F5F5F5F5F5F5F5F5F5F5F5F5
310
F5F5F5F5F5F5F5F5F5F5F5F5F5F500000000000000000000000000000000000000000000F5F5F5F5F52DF5F5F50000000000002D0000000000F5F5F5F5F5F5F5F5F50000000000000000000000000000F5F5F5F5F5F5F5F5F50000000000002D000000000000F5F5F5F500000000000000000000F50000000000BE00000000
310
000000000000000000000000000000000000000000000000000000000000000000000000BE00000000000000000000F500000000000000000000000000000000000000000000F5000000F50000F50000000000000000000000000000000000000000000000000000000000002D000000000000000000000000000000000000
310
0000000000000000000000F5F50000F500000000000000000000000000000000000000000000F5000000F52DF5F5F50000000000002D0000000000F500F5F5F5000000F5F500000000000000000000000000F500000000F50000F50000000000002D000000000000F50000F500000000000000000000F50000000000BE0000
310
0000000000000000000000000000000000000000000000000000000000000000000000000000BE00000000000000000000F500000000000000000000000000000000000000000000F5000000F50000F50000000000000000000000000000000000000000000000000000000000002D00000000000000000000000000000000
310
00000000000000000000000000F5F50000F500000000000000000000000000000000000000000000F5000000F52DF5F5F50000000000002D0000000000F500F5F5F5F5F5F5F5F500000000000000000000000000F500000000F50000F50000000000002D000000000000F50000F500000000000000000000F50000000000BE
310
00000000000000000000000000000000000000000000000000000000000000000000000000000000BE00000000000000000000F500000000000000000000000000000000000000000000F5000000F50000F50000000000000000000000000000000000000000000000000000000000002D0000000000000000000000000000
310
000000000000000000000000000000F5F50000F500000000000000000000000000000000000000000000F5000000F52DF5F5F50000000000002D0000000000F500F5F5F5000000F50000000000000000000000000000F500000000F50000F50000000000002D000000000000F50000F500000000000000000000F500000000
310
00BE00000000000000000000000000000000000000000000000000000000000000000000000000000000BE00000000000000000000F500000000000000000000000000000000000000000000F5000000F50000F50000000000000000000000000000000000000000000000000000000000002D000000000000000000000000
310
0000000000000000000000000000000000F5F50000F500000000000000000000000000000000000000000000F5000000F52DF5F5F50000000000002D0000000000F500F5F5F5000000F50000000000000000000000000000F500000000F50000F50000000000002D000000000000F50000F500000000000000000000F50000
310
000000BE00000000000000000000000000000000000000000000000000000000000000000000000000000000BE00000000000000000000F500000000000000000000000000000000000000000000F5000000F50000F50000000000000000000000000000000000000000000000000000000000002D00000000000000000000
310
00000000000000000000000000000000000000F5F50000F500000000000000000000000000000000000000000000F5000000F52DF5F5F50000000000002D0000000000F500F5F5F5000000F50000000000000000000000000000F500000000F50000F50000000000002D000000000000F50000F500000000000000000000F5
310
0000000000BE00000000000000000000000000000000000000000000000000000000000000000000000000000000BE00000000000000000000F500000000000000000000000000000000000000000000F5000000F50000F50000000000000000000000000000000000000000000000000000000000002D0000000000000000
310
000000000000000000000000000000000000000000F5F50000F500000000000000000000000000000000000000000000F5000000F52DF5F5F50000000000002D0000000000F500F5F5F5000000F50000000000000000000000000000F500000000F50000F50000000000002D000000000000F50000F5000000000000000000
310
00F50000000000BE00000000000000000000000000000000000000000000000000000000000000000000000000000000BE00000000000000000000F500000000000000000000000000000000000000000000F5000000F50000F5F5F5F5F5F5F5F5F5F5F5F5F5F5F5F5F5F5F5F5F5F5F5F5F5F5F5F5F5F5F52DF5F5F5F5F5F5
310
F5F5F5F5F5F5F5F5F5F5F5F5F5F5F5F5F5F5F5F5F5F5F5F5F50000F500000000000000000000000000000000000000000000F5000000F52DF5F5F50000000000002D0000000000F500F5F5F5000000F50000000000000000000000000000F500000000F50000F50000000000002D000000000000F50000F500000000000000
310
000000F50000000000BE00000000000000000000000000000000000000000000000000000000000000000000000000000000BE00000000000000000000F500000000000000000000000000000000000000000000F5000000F50000F50000000000000000000000000000000000000000000000000000000000002D00000000
310
00000000000000000000000000000000000000000000000000F5F50000F500000000000000000000000000000000000000000000F5000000F52DF5F5F50000000000002D0000000000F500F5F5F5000000F5F500000000000000000000000000F500000000F50000F50000000000002D000000000000F50000F50000000000
310
0000000000F50000000000BE00000000000000000000000000000000000000000000000000000000000000000000000000000000BE00000000000000000000F5000000000000000000000000000000000000000000F5F5000000F50000F50000000000000000000000000000000000000000000000000000000000002D0000
310
000000000000000000000000000000000000000000000000000000F5F50000F5000000000000000000000000000000000000000000F5F5000000F52DF5F5F50000000000002D0000000000F500F5F5F5000000F5F5000000000000000000000000F5F500000000F50000F50000000000002D000000000000F50000F5000000
310
00000000000000F50000000000BE00000000000000000000000000000000000000000000000000000000000000000000000000000000BE00000000000000000000F5000000000000000000000000000000000000000000F5F5000000F50000F50000000000000000000000000000000000000000000000000000000000002D
310
0000000000000000000000000000000000000000000000000000000000F5F50000F5000000000000000000000000000000000000000000F5F5000000F52DF5F5F50000000000002D0000000000F500F5F5F5000000F5F5000000000000000000000000F5F500000000F50000F50000000000002D000000000000F50000F500
310
000000000000000000F50000000000BE00000000000000000000000000000000000000000000000000000000000000000000000000000000BE00000000000000000000F5000000000000000000000000000000000000000000F5F5000000F50000F50000000000000000000000000000000000000000000000000000000000
310
002D000000000000000000000000000000000000000000000000000000000000F50000F5000000000000000000000000000000000000000000F5F5000000F52DF5F5F50000000000002D0000000000F500F5F5F5000000F500000000000000000000000000F5F500000000F50000F50000000000002D000000000000F50000
310
F500000000000000000000F50000000000BE00000000000000000000000000000000000000000000000000000000000000000000000000000000BE00000000000000000000F500000000000000000000000000000000000000000000F5000000F50000F5000000000000000000000000000000000000000000000000000000
310
0000002D000000000000000000000000000000000000000000000000000000000000F50000F500000000000000000000000000000000000000000000F5000000F52DF5F5F50000000000002D0000000000F500F5F5F5000000F50000000000000000000000000000F500000000F5000000F500000000002D000000000000F5
310
0000F500000000000000000000F50000000000BE00000000000000000000000000000000000000000000000000000000000000000000000000000000BE00000000000000000000F500000000000000000000000000000000000000000000F5000000F50000F500000000000000000000000000000000000000000000000000
310
00000000002D000000000000000000000000000000000000000000000000000000000000F50000F500000000000000000000000000000000000000000000F5000000F500F5F5F50000000000002D0000000000F500F5F5F5000000F50000000000000000000000000000F5000000F500000000F500000000002D0000000000
310
F500000000F5000000000000000000F50000000000BE00000000000000000000000000000000000000000000000000000000000000000000000000000000BE00000000000000000000F500000000000000000000000000000000000000000000F5000000F50000F50000000000000000000000000000000000000000000000
310
000000000000002D000000000000000000000000000000000000000000000000000000000000F50000F500000000000000000000000000000000000000000000F5000000F500F5F52DF5F5000000002D000000F5F52D00F5F5F5000000F50000000000000000000000000000F5000000F500000000F500000000002D000000
310
0000F500000000F5000000000000000000F50000000000BE00000000000000000000000000000000000000000000000000000000000000000000000000000000BE00000000000000000000F500000000000000000000000000000000000000000000F5000000F52D2DF5F5F5F5F5F5F5F5F5F5F5F5F5F52DF5F5F5F5F5F5F5
310
F5F5F5F5F5F5F5F5F52DF5F5F5F5F5F5F5F5F5F5F5F5F5F5F5F52DF5F5F5F5F5F5F5F5F5F5F5F5F5F52D2DF500000000000000000000000000000000000000000000F5000000F500F5F52D00F5F5F5F5F5F5F5F5F5F5F5F5F5F5F5F5F5F5F5F50000000000000000000000000000F5000000F500000000F500000000002D00
310
00000000F500000000F5000000000000000000F50000000000BE00000000000000000000000000000000000000000000000000000000000000000000000000000000BE00000000000000000000F500000000000000000000000000000000000000000000F5000000F5000000000000000000000000000000002D0000000000
310
00000000000000000000002D000000000000000000000000000000002D00000000000000000000000000000000F500000000000000000000000000000000000000000000F5000000F500F5F52D0000000000002D00000000002D00F5F5F5000000000000000000000000000000000000F5000000F5000000F5000000000000
310
2D000000000000F5000000F5000000000000000000F50000000000BE00000000000000000000000000000000000000000000000000000000000000000000000000000000BE00000000000000000000F500000000000000000000000000000000000000000000F5000000F5000000000000000000000000000000002D000000
310
000000000000000000000000002D000000000000000000000000000000002D00000000000000000000000000000000F500000000000000000000000000000000000000000000F5000000F5002D2D2D0000000000002D00000000002D2D2D00F5000000000000000000000000000000000000F5000000F500F5F5F500000000
310
00002D000000000000F5F5F500F5000000000000000000F50000000000BE00000000000000000000000000000000000000000000000000000000000000000000000000000000BE00000000000000000000F500000000000000000000000000000000000000000000F5000000F5000000000000000000000000000000002D00
310
0000000000000000000000000000002D000000000000000000000000000000002D00000000000000000000000000000000F500000000000000000000000000000000000000000000F5000000F5002D00000000000000002D000000000000002D00F5000000000000000000000000000000000000F5000000F500F500000000
310
000000002D0000000000000000F500F5000000000000000000F50000000000BE00000000000000000000000000000000000000000000000000000000000000000000000000000000BE00000000000000000000F500000000000000000000000000000000000000000000F5F5F5F5F5F5F5F5F5F5F5F5F5F5F5F5F5F5F5F5F5
310
2DF5F5F5F5F5F5F5F5F5F5F5F5F5F5F5F52DF5F5F5F5F5F5F5F5F5F5F5F5F5F5F5F52DF5F5F5F5F5F5F5F5F5F5F5F5F5F5F5F5F500000000000000000000000000000000000000000000F5F5F5F5F5F52DF5F5F5F5F5F5F5F52DF5F5F5F5F5F5F52DF5F5000000000000000000000000000000000000F5F5F5F5F5F5F50000
310
0000000000002D0000000000000000F5F5F5000000000000000000F50000000000BE00000000000000000000000000000000000000000000000000000000000000000000000000000000BE00000000000000000000F50000000000000000000000000000000000000000000000000000F50000000000000000000000000000
310
000000000000000000000000000000000000002D000000000000000000000000000000000000000000000000000000000000000000F50000000000000000000000000000000000000000000000000000F5000000000000000000002D000000000000000000F500000000000000000000000000000000000000000000F50000
310
00000000000000002D00000000000000000000F5000000000000000000F50000000000BE00000000000000000000000000000000000000000000000000000000000000000000000000000000BE00000000000000000000F50000000000000000000000000000000000000000000000000000F5000000000000000000000000
310
00000000000000000000000000000000000000000000000000000000000000000000000000000000000000000000000000000000000000F50000000000000000000000000000000000000000000000000000F50000000000000000000000000000000000000000F500000000000000000000000000000000000000000000F5
310
000000000000000000000000000000000000000000F5000000000000000000F50000000000BE00000000000000000000000000000000000000000000000000000000000000000000000000000000BE00000000000000000000F50000000000000000000000000000000000000000000000000000F500000000000000000000
310
000000000000000000000000000000000000000000000000000000000000000000000000000000000000000000000000000000000000000000F50000000000000000000000000000000000000000000000000000F50000000000000000000000000000000000000000F5000000000000000000000000000000000000000000
310
00F5000000000000000000000000000000000000000000F5000000000000000000F50000000000BE00000000000000000000000000000000000000000000000000000000000000000000000000000000BE00000000000000000000F50000000000000000000000000000000000000000000000000000F50000000000000000
310
0000000000000000000000000000000000000000000000000000000000000000000000000000000000000000000000000000000000000000000000F50000000000000000000000000000000000000000000000000000F50000000000000000000000000000000000000000F500000000000000000000000000000000000000
310
000000F5000000000000000000000000000000000000000000F5000000000000000000F50000000000BE00000000000000000000000000000000000000000000000000000000000000000000000000000000BE00000000000000000000F50000000000000000000000000000000000000000000000000000F5000000000000
310
00000000000000000000000000000000000000000000000000000000000000000000000000000000000000000000000000000000000000000000000000F50000000000000000000000000000000000000000000000000000F50000000000000000000000000000000000000000F50000000000000000000000000000000000
310
0000000000F5000000000000000000000000000000000000000000F5000000000000000000F50000000000BE00000000000000000000000000000000000000000000000000000000000000000000000000000000BE00000000000000000000F50000000000000000000000000000000000000000000000000000F5F5F5F5F5
310
F5F5F5F5F5F5F5F5F5F5F5F5F5F5F5F5F5F5F5F5F5F5F5F5F5F5F5F5F5F5F5F5F5F5F5F5F5F5F5F5F5F5F5F5F5F5F5F5F5F5F5F5F5F5F5F5F5F5F5F5F5F5F5F50000000000000000000000000000000000000000000000000000F5F5F5F5F5F5F5F5F5F5F5F5F5F5F5F5F5F5F5F5F5F5000000000000000000000000000000
310
00000000000000F5F5F5F5F5F5F5F5F5F5F5F5F5F5F5F5F5F5F5F5F5F5F5000000000000000000F50000000000BE00000000000000000000000000000000000000000000000000000000000000000000000000000000BE00000000000000000000F50000000000000000000000000000000000000000000000000000000000
310
0000000000000000000000000000000000000000000000000000000000F5F5F5F5000000000000000000000000000000000000000000000000000000000000000000000000000000000000000000000000000000000000000000000000000000000000000000F5F5F500000000000000000000000000000000000000000000
310
00000000000000000000000000000000000000F5F5F500000000000000000000000000000000000000F50000000000BE00000000000000000000000000000000000000000000000000000000000000000000000000000000BE00000000000000000000F5000000000000000000000000000000000000000000000000000000
310
00000000000000000000000000000000000000000000000000000000000000000000000000000000000000000000000000000000000000000000000000000000000000000000000000000000000000000000000000000000000000000000000000000000000000000000000000000000000000000000000000000000000000
310
00000000000000000000000000000000000000000000000000000000000000000000000000000000000000F50000000000BE00000000000000000000000000000000000000000000000000000000000000000000000000000000BE00000000000000000000F500000000000000000000000000000000000000000000000000
310
00000000000000000000000000000000000000000000000000000000000000000000000000000000000000000000000000000000000000000000000000000000000000000000000000000000000000000000000000000000000000000000000000000000000000000000000000000000000000000000000000000000000000
310
000000000000000000000000000000000000000000000000000000000000000000000000000000000000000000F50000000000BE00000000000000000000000000000000000000000000000000000000000000000000000000000000BE00000000000000000000F50000000000000000000000000000000000000000000000
310
00000000000000000000000000000000000000000000000000000000000000000000000000000000000000000000000000000000000000000000000000000000000000000000000000000000000000000000000000000000000000000000000000000000000000000000000000000000000000000000000000000000000000
310
0000000000000000000000000000000000000000000000000000000000000000000000000000000000000000000000F50000000000BE00000000000000000000000000000000000000000000000000000000000000000000000000000000BE00000000000000000000F5000000000000000000000000000000000000000000
310
00000000000000000000000000000000000000000000000000000000000000000000000000000000000000000000000000000000000000000000000000000000000000000000000000000000000000000000000000000000000000000000000000000000000000000000000000000000000000000000000000000000000000
310
00000000000000000000000000000000000000000000000000000000000000000000000000000000000000000000000000F50000000000BE00000000000000000000000000000000000000000000000000000000000000000000000000000000BE00000000000000000000F500000000000000000000000000000000000000
310
000000000000000000000000000000000000000000000000000000000000000000000000000000F5F5F5F50000000000000000000000000000000000000000000000000000000000000000000000000000000000000000000000000000000000000000000000000000000000000000F5F5F5F5000000000000000000000000
310
00000000000000000000000000000000000000000000000000000000F5F5F5F5F5000000000000000000000000000000000000F50000000000BE00000000000000000000000000000000000000000000000000000000000000000000000000000000BE00000000000000000000F50000000000000000000000000000000000
310
0000000000000000000000000000000000000000000000000000000000000000000000000000000000F5F5F5F50000000000000000000000000000000000000000000000000000000000000000000000000000000000000000000000000000000000000000000000000000000000000000F5F5F5F500000000000000000000
310
000000000000000000000000000000000000000000000000000000000000F5F5F5F5F5000000000000000000000000000000000000F50000000000BE00000000000000000000000000000000000000000000000000000000000000000000000000000000BE00000000000000000000F5000000000000000000000000000000
310
00000000000000000000000000000000000000000000000000000000000000000000000000000000000000000000000000000000000000000000000000000000000000000000000000000000000000000000000000000000000000000000000000000000000000000000000000000000000000000000000000000000000000
310
00000000000000000000000000000000000000000000000000000000000000000000000000000000000000000000000000000000000000F50000000000BE00000000000000000000000000000000000000000000000000000000000000000000000000000000BE00000000000000000000F500000000000000000000000000
310
00000000000000000000000000000000000000000000000000000000000000000000000000000000000000000000000000000000000000000000000000000000000000000000000000000000000000000000000000000000000000000000000000000000000000000000000000000000000000000000000000000000000000
310
000000000000000000000000000000000000000000000000000000000000000000000000000000000000000000000000000000000000000000F50000000000BE00000000000000000000000000000000000000000000000000000000000000000000000000000000BE00000000000000000000F50000000000000000000000
310
00000000000000000000000000000000000000000000000000000000000000000000000000000000000000000000000000000000000000000000000000000000000000000000000000000000000000000000000000000000000000000000000000000000000000000000000000000000000000000000000000000000000000
310
0000000000000000000000000000000000000000000000000000000000000000000000000000000000000000000000000000000000000000000000F50000000000BE00000000000000000000000000000000000000000000000000000000000000000000000000000000BE00000000000000000000F5F5F5F5F5F5F5F5F5F5
310
F5F5F5F5F5F5F5F5F5F5F5F5F5F5F5F5F5F5F5F5F5F5F5F5F5F5F5F5F5F5F5F5F5F5F5F5F5F5F5F5F5F5F5F5F5F5F5F5F5F5F5F5F5F5F5F5F5F5F5F5F5F5F5F5F5F5F5F5F5F5F5F5F5F5F5F5F5F5F5F5F5F5F5F5F5F5F5F5F5F5F5F5F5F5F5F5F5F5F5F5F5F5F5F5F5F5F5F5F5F5F5F5F5F5F5F5F5F5F5F5F5F5F5F5F5F5F5
310
F5F5F5F5F5F5F5F5F5F5F5F5F5F5F5F5F5F5F5F5F5F5F5F5F5F5F5F5F5F5F5F5F5F5F5F5F5F5F5F5F5F5F5F5F5F5F5F5F5F5F5F5F5F5F5F5F5F5F5F5F5F50000000000BE00000000000000000000000000000000000000000000000000000000000000000000000000000000BE000000000000000000000000000000000000
310
00000000000000000000000000000000000000000000000000000000000000000000000000000000000000000000000000000000000000000000000000000000000000000000000000000000000000000000000000000000000000000000000000000000000000000000000000000000000000000000000000000000000000
310
000000000000000000000000000000000000000000000000000000000000000000000000000000000000000000000000000000000000000000000000000000000000000000BE00000000000000000000000000000000000000000000000000000000000000000000000000000000BE00000000000000000000000000000000
310
00000000000000000000000000000000000000000000000000000000000000000000000000000000000000000000000000000000000000000000000000000000000000000000000000000000000000000000000000000000000000000000000000000000000000000000000000000000000000000000000000000000000000
310
0000000000000000000000000000000000000000000000000000000000000000000000000000000000000000000000000000000000000000000000000000000000000000000000BE00000000000000000000000000000000000000000000000000000000000000000000000000000000BE0000000000000000000000000000
310
00000000000000000000000000000000000000000000000000000000000000000000000000000000000000000000000000000000000000000000000000000000000000000000000000000000000000000000000000000000000000000000000000000000000000000000000000000000000000000000000000000000000000
310
00000000000000000000000000000000000000000000000000000000000000000000000000000000000000000000000000000000000000000000000000000000000000000000000000BE00000000000000000000000000000000000000000000000000000000000000000000000000000000BE000000000000000000000000
310
00000000000000000000000000000000000000000000000000000000000000000000000000000000000000000000000000000000000000000000000000000000000000000000000000000000000000000000000000000000000000000000000000000000000000000000000000000000000000000000000000000000000000
310
000000000000000000000000000000000000000000000000000000000000000000000000000000000000000000000000000000000000000000000000000000000000000000000000000000BE00000000000000000000000000000000000000000000000000000000000000000000000000000000BEBEBEBEBEBEBEBEBEBEBE
310
BEBEBEBEBEBEBEBEBEBEBEBEBEBEBEBEBEBEBEBEBEBEBEBEBEBEBEBEBEBEBEBEBEBEBEBEBEBEBEBEBEBEBEBEBEBEBEBEBEBEBEBEBEBEBEBEBEBEBEBEBEBEBEBEBEBEBEBEBEBEBEBEBEBEBEBEBEBEBEBEBEBEBEBEBEBEBEBEBEBEBEBEBEBEBEBEBEBEBEBEBEBEBEBEBEBEBEBEBEBEBEBEBEBEBEBEBEBEBEBEBEBEBEBEBEBEBE
310
BEBEBEBEBEBEBEBEBEBEBEBEBEBEBEBEBEBEBEBEBEBEBEBEBEBEBEBEBEBEBEBEBEBEBEBEBEBEBEBEBEBEBEBEBEBEBEBEBEBEBEBEBEBEBEBEBEBEBEBEBEBEBEBEBEBEBEBEBEBEBEBEBEBEBEBEBEBE00000000000000000000000000000000000000000000000000000000000000000000000000000000000000000000000000
310
00000000000000000000000000000000000000000000000000000000000000000000000000000000000000000000000000000000000000000000000000000000000000000000000000000000000000000000000000000000000000000000000000000000000000000000000000000000000000000000000000000000000000
310
00000000000000000000000000000000000000000000000000000000000000000000000000000000000000000000000000000000000000000000000000000000000000000000000000000000000000000000000000000000000000000000000000000000
  0
XRECORD
  5
14CA
102
{ACAD_REACTORS
330
14C9
102
}
330
14C9
100
AcDbXrecord
280
     1
102
SHADEPLOT
 70
     0
102
SHADEPLOTRESLEVEL
 70
     2
102
SHADEPLOTCUSTOMDPI
 70
   300
  0
XRECORD
  5
14CC
102
{ACAD_REACTORS
330
14CB
102
}
330
14CB
100
AcDbXrecord
280
     1
102
SHADEPLOT
 70
     0
102
SHADEPLOTRESLEVEL
 70
     2
102
SHADEPLOTCUSTOMDPI
 70
   300
  0
XRECORD
  5
14CE
102
{ACAD_REACTORS
330
5FD
102
}
330
5FD
100
AcDbXrecord
280
     1
102
MATERIAL
148
0.0
149
0.0
149
0.0
 93
        0
 94
      127
282
     0
 72
     0
 77
     0
171
     0
175
     0
179
     0
273
     0
  0
XRECORD
  5
5FF
102
{ACAD_REACTORS
330
5FD
102
}
330
5FD
100
AcDbXrecord
280
     1
270
     1
271
     1
  0
XRECORD
  5
5FE
102
{ACAD_REACTORS
330
5FD
102
}
330
5FD
100
AcDbXrecord
280
     1
270
     1
271
     1
  0
XRECORD
  5
602
102
{ACAD_REACTORS
330
5FD
102
}
330
5FD
100
AcDbXrecord
280
     1
270
     1
271
     1
  0
XRECORD
  5
601
102
{ACAD_REACTORS
330
5FD
102
}
330
5FD
100
AcDbXrecord
280
     1
270
     1
271
     1
  0
XRECORD
  5
603
102
{ACAD_REACTORS
330
5FD
102
}
330
5FD
100
AcDbXrecord
280
     1
270
     1
271
     1
  0
XRECORD
  5
600
102
{ACAD_REACTORS
330
5FD
102
}
330
5FD
100
AcDbXrecord
280
     1
270
     1
271
     1
  0
XRECORD
  5
14CD
102
{ACAD_REACTORS
330
5F5
102
}
330
5F5
100
AcDbXrecord
280
     1
102
MATERIAL
148
0.0
149
0.0
149
0.0
 93
        0
 94
      127
282
     0
 72
     0
 77
     0
171
     0
175
     0
179
     0
273
     0
  0
XRECORD
  5
5F7
102
{ACAD_REACTORS
330
5F5
102
}
330
5F5
100
AcDbXrecord
280
     1
270
     1
271
     1
  0
XRECORD
  5
5F6
102
{ACAD_REACTORS
330
5F5
102
}
330
5F5
100
AcDbXrecord
280
     1
270
     1
271
     1
  0
XRECORD
  5
5FA
102
{ACAD_REACTORS
330
5F5
102
}
330
5F5
100
AcDbXrecord
280
     1
270
     1
271
     1
  0
XRECORD
  5
5F9
102
{ACAD_REACTORS
330
5F5
102
}
330
5F5
100
AcDbXrecord
280
     1
270
     1
271
     1
  0
XRECORD
  5
5FB
102
{ACAD_REACTORS
330
5F5
102
}
330
5F5
100
AcDbXrecord
280
     1
270
     1
271
     1
  0
XRECORD
  5
5F8
102
{ACAD_REACTORS
330
5F5
102
}
330
5F5
100
AcDbXrecord
280
     1
270
     1
271
     1
  0
XRECORD
  5
14CF
102
{ACAD_REACTORS
330
605
102
}
330
605
100
AcDbXrecord
280
     1
102
MATERIAL
148
0.0
149
0.0
149
0.0
 93
        0
 94
      127
282
     0
 72
     0
 77
     0
171
     0
175
     0
179
     0
273
     0
  0
XRECORD
  5
607
102
{ACAD_REACTORS
330
605
102
}
330
605
100
AcDbXrecord
280
     1
270
     1
271
     1
  0
XRECORD
  5
606
102
{ACAD_REACTORS
330
605
102
}
330
605
100
AcDbXrecord
280
     1
270
     1
271
     1
  0
XRECORD
  5
60A
102
{ACAD_REACTORS
330
605
102
}
330
605
100
AcDbXrecord
280
     1
270
     1
271
     1
  0
XRECORD
  5
609
102
{ACAD_REACTORS
330
605
102
}
330
605
100
AcDbXrecord
280
     1
270
     1
271
     1
  0
XRECORD
  5
60B
102
{ACAD_REACTORS
330
605
102
}
330
605
100
AcDbXrecord
280
     1
270
     1
271
     1
  0
XRECORD
  5
608
102
{ACAD_REACTORS
330
605
102
}
330
605
100
AcDbXrecord
280
     1
270
     1
271
     1
  0
XRECORD
  5
14C1
102
{ACAD_REACTORS
330
14C0
102
}
330
14C0
100
AcDbXrecord
280
     1
102
ACAD_ROUNDTRIP_2012_MLEADER_STYLE
298
     1
  0
CELLSTYLEMAP
  5
14BF
102
{ACAD_REACTORS
330
14BE
102
}
330
14BE
100
AcDbCellStyleMap
 90
        3
300
CELLSTYLE
  1
TABLEFORMAT_BEGIN
 90
        5
170
     1
 91
        0
 92
    32768
 62
   257
 93
        1
300
CONTENTFORMAT
  1
CONTENTFORMAT_BEGIN
 90
        0
 91
        0
 92
        4
 93
        0
300

 40
0.0
140
1.0
 94
        5
 62
     0
340
11
144
6.0
309
CONTENTFORMAT_END
171
     1
301
MARGIN
  1
CELLMARGIN_BEGIN
 40
1.5
 40
1.5
 40
1.5
 40
1.5
 40
0.18
 40
0.18
309
CELLMARGIN_END
 94
        6
 95
        1
302
GRIDFORMAT
  1
GRIDFORMAT_BEGIN
 90
        0
 91
        1
 62
     0
 92
       -2
340
0
 93
        0
 40
0.045
309
GRIDFORMAT_END
 95
        2
302
GRIDFORMAT
  1
GRIDFORMAT_BEGIN
 90
        0
 91
        1
 62
     0
 92
       -2
340
0
 93
        0
 40
0.045
309
GRIDFORMAT_END
 95
        4
302
GRIDFORMAT
  1
GRIDFORMAT_BEGIN
 90
        0
 91
        1
 62
     0
 92
       -2
340
0
 93
        0
 40
0.045
309
GRIDFORMAT_END
 95
        8
302
GRIDFORMAT
  1
GRIDFORMAT_BEGIN
 90
        0
 91
        1
 62
     0
 92
       -2
340
0
 93
        0
 40
0.045
309
GRIDFORMAT_END
 95
       16
302
GRIDFORMAT
  1
GRIDFORMAT_BEGIN
 90
        0
 91
        1
 62
     0
 92
       -2
340
0
 93
        0
 40
0.045
309
GRIDFORMAT_END
 95
       32
302
GRIDFORMAT
  1
GRIDFORMAT_BEGIN
 90
        0
 91
        1
 62
     0
 92
       -2
340
0
 93
        0
 40
0.045
309
GRIDFORMAT_END
309
TABLEFORMAT_END
  1
CELLSTYLE_BEGIN
 90
        1
 91
        1
300
_TITLE
309
CELLSTYLE_END
300
CELLSTYLE
  1
TABLEFORMAT_BEGIN
 90
        5
170
     1
 91
        0
 92
        0
 62
   257
 93
        1
300
CONTENTFORMAT
  1
CONTENTFORMAT_BEGIN
 90
        0
 91
        0
 92
        4
 93
        0
300

 40
0.0
140
1.0
 94
        5
 62
     0
340
11
144
4.5
309
CONTENTFORMAT_END
171
     1
301
MARGIN
  1
CELLMARGIN_BEGIN
 40
1.5
 40
1.5
 40
1.5
 40
1.5
 40
0.18
 40
0.18
309
CELLMARGIN_END
 94
        6
 95
        1
302
GRIDFORMAT
  1
GRIDFORMAT_BEGIN
 90
        0
 91
        1
 62
     0
 92
       -2
340
0
 93
        0
 40
0.045
309
GRIDFORMAT_END
 95
        2
302
GRIDFORMAT
  1
GRIDFORMAT_BEGIN
 90
        0
 91
        1
 62
     0
 92
       -2
340
0
 93
        0
 40
0.045
309
GRIDFORMAT_END
 95
        4
302
GRIDFORMAT
  1
GRIDFORMAT_BEGIN
 90
        0
 91
        1
 62
     0
 92
       -2
340
0
 93
        0
 40
0.045
309
GRIDFORMAT_END
 95
        8
302
GRIDFORMAT
  1
GRIDFORMAT_BEGIN
 90
        0
 91
        1
 62
     0
 92
       -2
340
0
 93
        0
 40
0.045
309
GRIDFORMAT_END
 95
       16
302
GRIDFORMAT
  1
GRIDFORMAT_BEGIN
 90
        0
 91
        1
 62
     0
 92
       -2
340
0
 93
        0
 40
0.045
309
GRIDFORMAT_END
 95
       32
302
GRIDFORMAT
  1
GRIDFORMAT_BEGIN
 90
        0
 91
        1
 62
     0
 92
       -2
340
0
 93
        0
 40
0.045
309
GRIDFORMAT_END
309
TABLEFORMAT_END
  1
CELLSTYLE_BEGIN
 90
        2
 91
        1
300
_HEADER
309
CELLSTYLE_END
300
CELLSTYLE
  1
TABLEFORMAT_BEGIN
 90
        5
170
     1
 91
        0
 92
        0
 62
   257
 93
        1
300
CONTENTFORMAT
  1
CONTENTFORMAT_BEGIN
 90
        0
 91
        0
 92
        4
 93
        0
300

 40
0.0
140
1.0
 94
        2
 62
     0
340
11
144
4.5
309
CONTENTFORMAT_END
171
     1
301
MARGIN
  1
CELLMARGIN_BEGIN
 40
1.5
 40
1.5
 40
1.5
 40
1.5
 40
0.18
 40
0.18
309
CELLMARGIN_END
 94
        6
 95
        1
302
GRIDFORMAT
  1
GRIDFORMAT_BEGIN
 90
        0
 91
        1
 62
     0
 92
       -2
340
0
 93
        0
 40
0.045
309
GRIDFORMAT_END
 95
        2
302
GRIDFORMAT
  1
GRIDFORMAT_BEGIN
 90
        0
 91
        1
 62
     0
 92
       -2
340
0
 93
        0
 40
0.045
309
GRIDFORMAT_END
 95
        4
302
GRIDFORMAT
  1
GRIDFORMAT_BEGIN
 90
        0
 91
        1
 62
     0
 92
       -2
340
0
 93
        0
 40
0.045
309
GRIDFORMAT_END
 95
        8
302
GRIDFORMAT
  1
GRIDFORMAT_BEGIN
 90
        0
 91
        1
 62
     0
 92
       -2
340
0
 93
        0
 40
0.045
309
GRIDFORMAT_END
 95
       16
302
GRIDFORMAT
  1
GRIDFORMAT_BEGIN
 90
        0
 91
        1
 62
     0
 92
       -2
340
0
 93
        0
 40
0.045
309
GRIDFORMAT_END
 95
       32
302
GRIDFORMAT
  1
GRIDFORMAT_BEGIN
 90
        0
 91
        1
 62
     0
 92
       -2
340
0
 93
        0
 40
0.045
309
GRIDFORMAT_END
309
TABLEFORMAT_END
  1
CELLSTYLE_BEGIN
 90
        3
 91
        2
300
_DATA
309
CELLSTYLE_END
  0
XRECORD
  5
14C8
102
{ACAD_REACTORS
330
14BE
102
}
330
14BE
100
AcDbXrecord
280
     1
102
ACAD_ROUNDTRIP_PRE2007_TABLESTYLE
 90
        4
 91
        0
  1

 92
        4
 93
        0
  2

 94
        4
 95
        0
  3

  0
XRECORD
  5
14DB
102
{ACAD_REACTORS
330
14DA
102
}
330
14DA
100
AcDbXrecord
280
     1
102
RTVSPropertyOp0
 70
     1
102
RTVSPropertyOp1
 70
     1
102
RTVSPropertyOp2
 70
     1
102
RTVSPropertyOp3
 70
     1
102
RTVSPropertyOp4
 70
     1
102
RTVSPropertyOp5
 70
     1
102
RTVSPropertyOp6
 70
     1
102
RTVSPropertyOp7
 70
     1
102
RTVSPropertyOp8
 70
     1
102
RTVSPropertyOp9
 70
     1
102
RTVSPropertyOp10
 70
     1
102
RTVSPropertyOp11
 70
     1
102
RTVSPropertyOp12
 70
     1
102
RTVSPropertyOp13
 70
     1
102
RTVSPropertyOp14
 70
     1
102
RTVSPropertyOp15
 70
     1
102
RTVSPropertyOp16
 70
     1
102
RTVSPropertyOp17
 70
     1
102
RTVSPropertyOp18
 70
     1
102
RTVSPropertyOp19
 70
     1
102
RTVSPropertyOp20
 70
     1
102
RTVSPropertyOp21
 70
     1
102
RTVSPropertyOp22
 70
     1
102
RTVSPropertyOp23
 70
     1
102
RTVSPropertyOp24
 70
     1
102
RTVSPropertyOp25
 70
     1
102
RTVSPropertyOp26
 70
     1
102
RTVSPropertyOp27
 70
     1
102
RTVSPropertyOp28
 70
     1
102
RTVSPropertyOp29
 70
     1
102
RTVSPropertyOp30
 70
     1
102
RTVSPropertyOp31
 70
     1
102
RTVSPropertyOp32
 70
     1
  0
XRECORD
  5
14D9
102
{ACAD_REACTORS
330
14D8
102
}
330
14D8
100
AcDbXrecord
280
     1
102
RTVSPropertyOp0
 70
     1
102
RTVSPropertyOp1
 70
     1
102
RTVSPropertyOp2
 70
     1
102
RTVSPropertyOp3
 70
     1
102
RTVSPropertyOp4
 70
     1
102
RTVSPropertyOp5
 70
     1
102
RTVSPropertyOp6
 70
     1
102
RTVSPropertyOp7
 70
     1
102
RTVSPropertyOp8
 70
     1
102
RTVSPropertyOp9
 70
     1
102
RTVSPropertyOp10
 70
     1
102
RTVSPropertyOp11
 70
     1
102
RTVSPropertyOp12
 70
     1
102
RTVSPropertyOp13
 70
     1
102
RTVSPropertyOp14
 70
     1
102
RTVSPropertyOp15
 70
     1
102
RTVSPropertyOp16
 70
     1
102
RTVSPropertyOp17
 70
     1
102
RTVSPropertyOp18
 70
     1
102
RTVSPropertyOp19
 70
     1
102
RTVSPropertyOp20
 70
     1
102
RTVSPropertyOp21
 70
     1
102
RTVSPropertyOp22
 70
     1
102
RTVSPropertyOp23
 70
     1
102
RTVSPropertyOp24
 70
     1
102
RTVSPropertyOp25
 70
     1
102
RTVSPropertyOp26
 70
     1
102
RTVSPropertyOp27
 70
     1
102
RTVSPropertyOp28
 70
     1
102
RTVSPropertyOp29
 70
     1
102
RTVSPropertyOp30
 70
     1
102
RTVSPropertyOp31
 70
     1
102
RTVSPropertyOp32
 70
     1
  0
XRECORD
  5
14E7
102
{ACAD_REACTORS
330
14E6
102
}
330
14E6
100
AcDbXrecord
280
     1
102
RTVSPropertyOp0
 70
     1
102
RTVSPropertyOp1
 70
     1
102
RTVSPropertyOp2
 70
     1
102
RTVSPropertyOp3
 70
     1
102
RTVSPropertyOp4
 70
     1
102
RTVSPropertyOp5
 70
     1
102
RTVSPropertyOp6
 70
     1
102
RTVSPropertyOp7
 70
     1
102
RTVSPropertyOp8
 70
     1
102
RTVSPropertyOp9
 70
     1
102
RTVSPropertyOp10
 70
     1
102
RTVSPropertyOp11
 70
     1
102
RTVSPropertyOp12
 70
     1
102
RTVSPropertyOp13
 70
     1
102
RTVSPropertyOp14
 70
     1
102
RTVSPropertyOp15
 70
     1
102
RTVSPropertyOp16
 70
     1
102
RTVSPropertyOp17
 70
     1
102
RTVSPropertyOp18
 70
     1
102
RTVSPropertyOp19
 70
     1
102
RTVSPropertyOp20
 70
     1
102
RTVSPropertyOp21
 70
     1
102
RTVSPropertyOp22
 70
     1
102
RTVSPropertyOp23
 70
     1
102
RTVSPropertyOp24
 70
     1
102
RTVSPropertyOp25
 70
     1
102
RTVSPropertyOp26
 70
     1
102
RTVSPropertyOp27
 70
     1
102
RTVSPropertyOp28
 70
     1
102
RTVSPropertyOp29
 70
     1
102
RTVSPropertyOp30
 70
     1
102
RTVSPropertyOp31
 70
     1
102
RTVSPropertyOp32
 70
     1
  0
XRECORD
  5
14EF
102
{ACAD_REACTORS
330
14EE
102
}
330
14EE
100
AcDbXrecord
280
     1
102
RTVSPropertyOp0
 70
     1
102
RTVSPropertyOp1
 70
     1
102
RTVSPropertyOp2
 70
     1
102
RTVSPropertyOp3
 70
     1
102
RTVSPropertyOp4
 70
     1
102
RTVSPropertyOp5
 70
     1
102
RTVSPropertyOp6
 70
     1
102
RTVSPropertyOp7
 70
     1
102
RTVSPropertyOp8
 70
     1
102
RTVSPropertyOp9
 70
     1
102
RTVSPropertyOp10
 70
     1
102
RTVSPropertyOp11
 70
     1
102
RTVSPropertyOp12
 70
     1
102
RTVSPropertyOp13
 70
     1
102
RTVSPropertyOp14
 70
     1
102
RTVSPropertyOp15
 70
     1
102
RTVSPropertyOp16
 70
     1
102
RTVSPropertyOp17
 70
     1
102
RTVSPropertyOp18
 70
     1
102
RTVSPropertyOp19
 70
     1
102
RTVSPropertyOp20
 70
     1
102
RTVSPropertyOp21
 70
     1
102
RTVSPropertyOp22
 70
     1
102
RTVSPropertyOp23
 70
     1
102
RTVSPropertyOp24
 70
     1
102
RTVSPropertyOp25
 70
     1
102
RTVSPropertyOp26
 70
     1
102
RTVSPropertyOp27
 70
     1
102
RTVSPropertyOp28
 70
     1
102
RTVSPropertyOp29
 70
     1
102
RTVSPropertyOp30
 70
     1
102
RTVSPropertyOp31
 70
     1
102
RTVSPropertyOp32
 70
     1
  0
XRECORD
  5
14E1
102
{ACAD_REACTORS
330
14E0
102
}
330
14E0
100
AcDbXrecord
280
     1
102
RTVSPropertyOp0
 70
     1
102
RTVSPropertyOp1
 70
     1
102
RTVSPropertyOp2
 70
     1
102
RTVSPropertyOp3
 70
     1
102
RTVSPropertyOp4
 70
     1
102
RTVSPropertyOp5
 70
     1
102
RTVSPropertyOp6
 70
     1
102
RTVSPropertyOp7
 70
     1
102
RTVSPropertyOp8
 70
     1
102
RTVSPropertyOp9
 70
     1
102
RTVSPropertyOp10
 70
     1
102
RTVSPropertyOp11
 70
     1
102
RTVSPropertyOp12
 70
     1
102
RTVSPropertyOp13
 70
     1
102
RTVSPropertyOp14
 70
     1
102
RTVSPropertyOp15
 70
     1
102
RTVSPropertyOp16
 70
     1
102
RTVSPropertyOp17
 70
     1
102
RTVSPropertyOp18
 70
     1
102
RTVSPropertyOp19
 70
     1
102
RTVSPropertyOp20
 70
     1
102
RTVSPropertyOp21
 70
     1
102
RTVSPropertyOp22
 70
     1
102
RTVSPropertyOp23
 70
     1
102
RTVSPropertyOp24
 70
     1
102
RTVSPropertyOp25
 70
     1
102
RTVSPropertyOp26
 70
     1
102
RTVSPropertyOp27
 70
     1
102
RTVSPropertyOp28
 70
     1
102
RTVSPropertyOp29
 70
     1
102
RTVSPropertyOp30
 70
     1
102
RTVSPropertyOp31
 70
     1
102
RTVSPropertyOp32
 70
     1
  0
XRECORD
  5
14E5
102
{ACAD_REACTORS
330
14E4
102
}
330
14E4
100
AcDbXrecord
280
     1
102
RTVSPropertyOp0
 70
     1
102
RTVSPropertyOp1
 70
     1
102
RTVSPropertyOp2
 70
     1
102
RTVSPropertyOp3
 70
     1
102
RTVSPropertyOp4
 70
     1
102
RTVSPropertyOp5
 70
     1
102
RTVSPropertyOp6
 70
     1
102
RTVSPropertyOp7
 70
     1
102
RTVSPropertyOp8
 70
     1
102
RTVSPropertyOp9
 70
     1
102
RTVSPropertyOp10
 70
     1
102
RTVSPropertyOp11
 70
     1
102
RTVSPropertyOp12
 70
     1
102
RTVSPropertyOp13
 70
     1
102
RTVSPropertyOp14
 70
     1
102
RTVSPropertyOp15
 70
     1
102
RTVSPropertyOp16
 70
     1
102
RTVSPropertyOp17
 70
     1
102
RTVSPropertyOp18
 70
     1
102
RTVSPropertyOp19
 70
     1
102
RTVSPropertyOp20
 70
     1
102
RTVSPropertyOp21
 70
     1
102
RTVSPropertyOp22
 70
     1
102
RTVSPropertyOp23
 70
     1
102
RTVSPropertyOp24
 70
     1
102
RTVSPropertyOp25
 70
     1
102
RTVSPropertyOp26
 70
     1
102
RTVSPropertyOp27
 70
     1
102
RTVSPropertyOp28
 70
     1
102
RTVSPropertyOp29
 70
     1
102
RTVSPropertyOp30
 70
     1
102
RTVSPropertyOp31
 70
     1
102
RTVSPropertyOp32
 70
     1
  0
XRECORD
  5
14FF
102
{ACAD_REACTORS
330
14FE
102
}
330
14FE
100
AcDbXrecord
280
     1
102
RTVSPropertyOp0
 70
     0
102
RTVSPropertyOp1
 70
     0
102
RTVSPropertyOp2
 70
     0
102
RTVSPropertyOp3
 70
     0
102
RTVSPropertyOp4
 70
     0
102
RTVSPropertyOp5
 70
     0
102
RTVSPropertyOp6
 70
     0
102
RTVSPropertyOp7
 70
     0
102
RTVSPropertyOp8
 70
     0
102
RTVSPropertyOp9
 70
     0
102
RTVSPropertyOp10
 70
     0
102
RTVSPropertyOp11
 70
     0
102
RTVSPropertyOp12
 70
     0
102
RTVSPropertyOp13
 70
     0
102
RTVSPropertyOp14
 70
     2
102
RTVSPropertyOp15
 70
     0
102
RTVSPropertyOp16
 70
     0
102
RTVSPropertyOp17
 70
     0
102
RTVSPropertyOp18
 70
     0
102
RTVSPropertyOp19
 70
     0
102
RTVSPropertyOp20
 70
     0
102
RTVSPropertyOp21
 70
     0
102
RTVSPropertyOp22
 70
     0
102
RTVSPropertyOp23
 70
     0
102
RTVSPropertyOp24
 70
     0
102
RTVSPropertyOp25
 70
     0
102
RTVSPropertyOp26
 70
     0
102
RTVSPropertyOp27
 70
     0
102
RTVSPropertyOp28
 70
     1
102
RTVSPropertyOp29
 70
     1
102
RTVSPropertyOp30
 70
     1
102
RTVSPropertyOp31
 70
     1
102
RTVSPropertyOp32
 70
     1
  0
XRECORD
  5
14ED
102
{ACAD_REACTORS
330
14EC
102
}
330
14EC
100
AcDbXrecord
280
     1
102
RTVSPropertyOp0
 70
     1
102
RTVSPropertyOp1
 70
     1
102
RTVSPropertyOp2
 70
     1
102
RTVSPropertyOp3
 70
     1
102
RTVSPropertyOp4
 70
     1
102
RTVSPropertyOp5
 70
     1
102
RTVSPropertyOp6
 70
     1
102
RTVSPropertyOp7
 70
     1
102
RTVSPropertyOp8
 70
     1
102
RTVSPropertyOp9
 70
     1
102
RTVSPropertyOp10
 70
     1
102
RTVSPropertyOp11
 70
     1
102
RTVSPropertyOp12
 70
     1
102
RTVSPropertyOp13
 70
     1
102
RTVSPropertyOp14
 70
     1
102
RTVSPropertyOp15
 70
     1
102
RTVSPropertyOp16
 70
     1
102
RTVSPropertyOp17
 70
     1
102
RTVSPropertyOp18
 70
     1
102
RTVSPropertyOp19
 70
     1
102
RTVSPropertyOp20
 70
     1
102
RTVSPropertyOp21
 70
     1
102
RTVSPropertyOp22
 70
     1
102
RTVSPropertyOp23
 70
     1
102
RTVSPropertyOp24
 70
     1
102
RTVSPropertyOp25
 70
     1
102
RTVSPropertyOp26
 70
     1
102
RTVSPropertyOp27
 70
     1
102
RTVSPropertyOp28
 70
     1
102
RTVSPropertyOp29
 70
     1
102
RTVSPropertyOp30
 70
     1
102
RTVSPropertyOp31
 70
     1
102
RTVSPropertyOp32
 70
     1
  0
XRECORD
  5
14D1
102
{ACAD_REACTORS
330
14D0
102
}
330
14D0
100
AcDbXrecord
280
     1
102
RTVSPropertyOp0
 70
     1
102
RTVSPropertyOp1
 70
     1
102
RTVSPropertyOp2
 70
     1
102
RTVSPropertyOp3
 70
     1
102
RTVSPropertyOp4
 70
     1
102
RTVSPropertyOp5
 70
     1
102
RTVSPropertyOp6
 70
     1
102
RTVSPropertyOp7
 70
     1
102
RTVSPropertyOp8
 70
     1
102
RTVSPropertyOp9
 70
     1
102
RTVSPropertyOp10
 70
     1
102
RTVSPropertyOp11
 70
     1
102
RTVSPropertyOp12
 70
     1
102
RTVSPropertyOp13
 70
     1
102
RTVSPropertyOp14
 70
     1
102
RTVSPropertyOp15
 70
     1
102
RTVSPropertyOp16
 70
     1
102
RTVSPropertyOp17
 70
     1
102
RTVSPropertyOp18
 70
     1
102
RTVSPropertyOp19
 70
     1
102
RTVSPropertyOp20
 70
     1
102
RTVSPropertyOp21
 70
     1
102
RTVSPropertyOp22
 70
     1
102
RTVSPropertyOp23
 70
     1
102
RTVSPropertyOp24
 70
     1
102
RTVSPropertyOp25
 70
     1
102
RTVSPropertyOp26
 70
     1
102
RTVSPropertyOp27
 70
     1
102
RTVSPropertyOp28
 70
     1
102
RTVSPropertyOp29
 70
     1
102
RTVSPropertyOp30
 70
     1
102
RTVSPropertyOp31
 70
     1
102
RTVSPropertyOp32
 70
     1
  0
XRECORD
  5
14D3
102
{ACAD_REACTORS
330
14D2
102
}
330
14D2
100
AcDbXrecord
280
     1
102
RTVSPropertyOp0
 70
     1
102
RTVSPropertyOp1
 70
     1
102
RTVSPropertyOp2
 70
     1
102
RTVSPropertyOp3
 70
     1
102
RTVSPropertyOp4
 70
     1
102
RTVSPropertyOp5
 70
     1
102
RTVSPropertyOp6
 70
     1
102
RTVSPropertyOp7
 70
     1
102
RTVSPropertyOp8
 70
     1
102
RTVSPropertyOp9
 70
     1
102
RTVSPropertyOp10
 70
     1
102
RTVSPropertyOp11
 70
     1
102
RTVSPropertyOp12
 70
     1
102
RTVSPropertyOp13
 70
     1
102
RTVSPropertyOp14
 70
     1
102
RTVSPropertyOp15
 70
     1
102
RTVSPropertyOp16
 70
     1
102
RTVSPropertyOp17
 70
     1
102
RTVSPropertyOp18
 70
     1
102
RTVSPropertyOp19
 70
     1
102
RTVSPropertyOp20
 70
     1
102
RTVSPropertyOp21
 70
     1
102
RTVSPropertyOp22
 70
     1
102
RTVSPropertyOp23
 70
     1
102
RTVSPropertyOp24
 70
     1
102
RTVSPropertyOp25
 70
     1
102
RTVSPropertyOp26
 70
     1
102
RTVSPropertyOp27
 70
     1
102
RTVSPropertyOp28
 70
     1
102
RTVSPropertyOp29
 70
     1
102
RTVSPropertyOp30
 70
     1
102
RTVSPropertyOp31
 70
     1
102
RTVSPropertyOp32
 70
     1
  0
XRECORD
  5
14D5
102
{ACAD_REACTORS
330
14D4
102
}
330
14D4
100
AcDbXrecord
280
     1
102
RTVSPropertyOp0
 70
     1
102
RTVSPropertyOp1
 70
     1
102
RTVSPropertyOp2
 70
     1
102
RTVSPropertyOp3
 70
     1
102
RTVSPropertyOp4
 70
     1
102
RTVSPropertyOp5
 70
     1
102
RTVSPropertyOp6
 70
     1
102
RTVSPropertyOp7
 70
     1
102
RTVSPropertyOp8
 70
     1
102
RTVSPropertyOp9
 70
     1
102
RTVSPropertyOp10
 70
     1
102
RTVSPropertyOp11
 70
     1
102
RTVSPropertyOp12
 70
     1
102
RTVSPropertyOp13
 70
     1
102
RTVSPropertyOp14
 70
     1
102
RTVSPropertyOp15
 70
     1
102
RTVSPropertyOp16
 70
     1
102
RTVSPropertyOp17
 70
     1
102
RTVSPropertyOp18
 70
     1
102
RTVSPropertyOp19
 70
     1
102
RTVSPropertyOp20
 70
     1
102
RTVSPropertyOp21
 70
     1
102
RTVSPropertyOp22
 70
     1
102
RTVSPropertyOp23
 70
     1
102
RTVSPropertyOp24
 70
     1
102
RTVSPropertyOp25
 70
     1
102
RTVSPropertyOp26
 70
     1
102
RTVSPropertyOp27
 70
     1
102
RTVSPropertyOp28
 70
     1
102
RTVSPropertyOp29
 70
     1
102
RTVSPropertyOp30
 70
     1
102
RTVSPropertyOp31
 70
     1
102
RTVSPropertyOp32
 70
     1
  0
XRECORD
  5
14D7
102
{ACAD_REACTORS
330
14D6
102
}
330
14D6
100
AcDbXrecord
280
     1
102
RTVSPropertyOp0
 70
     1
102
RTVSPropertyOp1
 70
     1
102
RTVSPropertyOp2
 70
     1
102
RTVSPropertyOp3
 70
     1
102
RTVSPropertyOp4
 70
     1
102
RTVSPropertyOp5
 70
     1
102
RTVSPropertyOp6
 70
     1
102
RTVSPropertyOp7
 70
     1
102
RTVSPropertyOp8
 70
     1
102
RTVSPropertyOp9
 70
     1
102
RTVSPropertyOp10
 70
     1
102
RTVSPropertyOp11
 70
     1
102
RTVSPropertyOp12
 70
     1
102
RTVSPropertyOp13
 70
     1
102
RTVSPropertyOp14
 70
     1
102
RTVSPropertyOp15
 70
     1
102
RTVSPropertyOp16
 70
     1
102
RTVSPropertyOp17
 70
     1
102
RTVSPropertyOp18
 70
     1
102
RTVSPropertyOp19
 70
     1
102
RTVSPropertyOp20
 70
     1
102
RTVSPropertyOp21
 70
     1
102
RTVSPropertyOp22
 70
     1
102
RTVSPropertyOp23
 70
     1
102
RTVSPropertyOp24
 70
     1
102
RTVSPropertyOp25
 70
     1
102
RTVSPropertyOp26
 70
     1
102
RTVSPropertyOp27
 70
     1
102
RTVSPropertyOp28
 70
     1
102
RTVSPropertyOp29
 70
     1
102
RTVSPropertyOp30
 70
     1
102
RTVSPropertyOp31
 70
     1
102
RTVSPropertyOp32
 70
     1
  0
XRECORD
  5
14DF
102
{ACAD_REACTORS
330
14DE
102
}
330
14DE
100
AcDbXrecord
280
     1
102
RTVSPropertyOp0
 70
     1
102
RTVSPropertyOp1
 70
     1
102
RTVSPropertyOp2
 70
     1
102
RTVSPropertyOp3
 70
     1
102
RTVSPropertyOp4
 70
     1
102
RTVSPropertyOp5
 70
     1
102
RTVSPropertyOp6
 70
     1
102
RTVSPropertyOp7
 70
     1
102
RTVSPropertyOp8
 70
     1
102
RTVSPropertyOp9
 70
     1
102
RTVSPropertyOp10
 70
     1
102
RTVSPropertyOp11
 70
     1
102
RTVSPropertyOp12
 70
     1
102
RTVSPropertyOp13
 70
     1
102
RTVSPropertyOp14
 70
     1
102
RTVSPropertyOp15
 70
     1
102
RTVSPropertyOp16
 70
     1
102
RTVSPropertyOp17
 70
     1
102
RTVSPropertyOp18
 70
     1
102
RTVSPropertyOp19
 70
     1
102
RTVSPropertyOp20
 70
     1
102
RTVSPropertyOp21
 70
     1
102
RTVSPropertyOp22
 70
     1
102
RTVSPropertyOp23
 70
     1
102
RTVSPropertyOp24
 70
     1
102
RTVSPropertyOp25
 70
     1
102
RTVSPropertyOp26
 70
     1
102
RTVSPropertyOp27
 70
     1
102
RTVSPropertyOp28
 70
     1
102
RTVSPropertyOp29
 70
     1
102
RTVSPropertyOp30
 70
     1
102
RTVSPropertyOp31
 70
     1
102
RTVSPropertyOp32
 70
     1
  0
XRECORD
  5
14FB
102
{ACAD_REACTORS
330
14FA
102
}
330
14FA
100
AcDbXrecord
280
     1
102
RTVSPropertyOp0
 70
     0
102
RTVSPropertyOp1
 70
     0
102
RTVSPropertyOp2
 70
     0
102
RTVSPropertyOp3
 70
     0
102
RTVSPropertyOp4
 70
     0
102
RTVSPropertyOp5
 70
     0
102
RTVSPropertyOp6
 70
     0
102
RTVSPropertyOp7
 70
     0
102
RTVSPropertyOp8
 70
     0
102
RTVSPropertyOp9
 70
     0
102
RTVSPropertyOp10
 70
     0
102
RTVSPropertyOp11
 70
     0
102
RTVSPropertyOp12
 70
     0
102
RTVSPropertyOp13
 70
     0
102
RTVSPropertyOp14
 70
     2
102
RTVSPropertyOp15
 70
     0
102
RTVSPropertyOp16
 70
     0
102
RTVSPropertyOp17
 70
     0
102
RTVSPropertyOp18
 70
     0
102
RTVSPropertyOp19
 70
     0
102
RTVSPropertyOp20
 70
     0
102
RTVSPropertyOp21
 70
     0
102
RTVSPropertyOp22
 70
     0
102
RTVSPropertyOp23
 70
     0
102
RTVSPropertyOp24
 70
     0
102
RTVSPropertyOp25
 70
     0
102
RTVSPropertyOp26
 70
     0
102
RTVSPropertyOp27
 70
     0
102
RTVSPropertyOp28
 70
     1
102
RTVSPropertyOp29
 70
     1
102
RTVSPropertyOp30
 70
     1
102
RTVSPropertyOp31
 70
     1
102
RTVSPropertyOp32
 70
     1
  0
XRECORD
  5
14EB
102
{ACAD_REACTORS
330
14EA
102
}
330
14EA
100
AcDbXrecord
280
     1
102
RTVSPropertyOp0
 70
     1
102
RTVSPropertyOp1
 70
     1
102
RTVSPropertyOp2
 70
     1
102
RTVSPropertyOp3
 70
     1
102
RTVSPropertyOp4
 70
     1
102
RTVSPropertyOp5
 70
     1
102
RTVSPropertyOp6
 70
     1
102
RTVSPropertyOp7
 70
     1
102
RTVSPropertyOp8
 70
     1
102
RTVSPropertyOp9
 70
     1
102
RTVSPropertyOp10
 70
     1
102
RTVSPropertyOp11
 70
     1
102
RTVSPropertyOp12
 70
     1
102
RTVSPropertyOp13
 70
     1
102
RTVSPropertyOp14
 70
     1
102
RTVSPropertyOp15
 70
     1
102
RTVSPropertyOp16
 70
     1
102
RTVSPropertyOp17
 70
     1
102
RTVSPropertyOp18
 70
     1
102
RTVSPropertyOp19
 70
     1
102
RTVSPropertyOp20
 70
     1
102
RTVSPropertyOp21
 70
     1
102
RTVSPropertyOp22
 70
     1
102
RTVSPropertyOp23
 70
     1
102
RTVSPropertyOp24
 70
     1
102
RTVSPropertyOp25
 70
     1
102
RTVSPropertyOp26
 70
     1
102
RTVSPropertyOp27
 70
     1
102
RTVSPropertyOp28
 70
     1
102
RTVSPropertyOp29
 70
     1
102
RTVSPropertyOp30
 70
     1
102
RTVSPropertyOp31
 70
     1
102
RTVSPropertyOp32
 70
     1
  0
XRECORD
  5
14FD
102
{ACAD_REACTORS
330
14FC
102
}
330
14FC
100
AcDbXrecord
280
     1
102
RTVSPropertyOp0
 70
     0
102
RTVSPropertyOp1
 70
     0
102
RTVSPropertyOp2
 70
     0
102
RTVSPropertyOp3
 70
     0
102
RTVSPropertyOp4
 70
     0
102
RTVSPropertyOp5
 70
     0
102
RTVSPropertyOp6
 70
     0
102
RTVSPropertyOp7
 70
     0
102
RTVSPropertyOp8
 70
     0
102
RTVSPropertyOp9
 70
     0
102
RTVSPropertyOp10
 70
     0
102
RTVSPropertyOp11
 70
     0
102
RTVSPropertyOp12
 70
     0
102
RTVSPropertyOp13
 70
     0
102
RTVSPropertyOp14
 70
     2
102
RTVSPropertyOp15
 70
     0
102
RTVSPropertyOp16
 70
     0
102
RTVSPropertyOp17
 70
     0
102
RTVSPropertyOp18
 70
     0
102
RTVSPropertyOp19
 70
     0
102
RTVSPropertyOp20
 70
     0
102
RTVSPropertyOp21
 70
     0
102
RTVSPropertyOp22
 70
     0
102
RTVSPropertyOp23
 70
     0
102
RTVSPropertyOp24
 70
     0
102
RTVSPropertyOp25
 70
     0
102
RTVSPropertyOp26
 70
     0
102
RTVSPropertyOp27
 70
     0
102
RTVSPropertyOp28
 70
     1
102
RTVSPropertyOp29
 70
     1
102
RTVSPropertyOp30
 70
     1
102
RTVSPropertyOp31
 70
     1
102
RTVSPropertyOp32
 70
     1
  0
XRECORD
  5
14E3
102
{ACAD_REACTORS
330
14E2
102
}
330
14E2
100
AcDbXrecord
280
     1
102
RTVSPropertyOp0
 70
     1
102
RTVSPropertyOp1
 70
     1
102
RTVSPropertyOp2
 70
     1
102
RTVSPropertyOp3
 70
     1
102
RTVSPropertyOp4
 70
     1
102
RTVSPropertyOp5
 70
     1
102
RTVSPropertyOp6
 70
     1
102
RTVSPropertyOp7
 70
     1
102
RTVSPropertyOp8
 70
     1
102
RTVSPropertyOp9
 70
     1
102
RTVSPropertyOp10
 70
     1
102
RTVSPropertyOp11
 70
     1
102
RTVSPropertyOp12
 70
     1
102
RTVSPropertyOp13
 70
     1
102
RTVSPropertyOp14
 70
     1
102
RTVSPropertyOp15
 70
     1
102
RTVSPropertyOp16
 70
     1
102
RTVSPropertyOp17
 70
     1
102
RTVSPropertyOp18
 70
     1
102
RTVSPropertyOp19
 70
     1
102
RTVSPropertyOp20
 70
     1
102
RTVSPropertyOp21
 70
     1
102
RTVSPropertyOp22
 70
     1
102
RTVSPropertyOp23
 70
     1
102
RTVSPropertyOp24
 70
     1
102
RTVSPropertyOp25
 70
     1
102
RTVSPropertyOp26
 70
     1
102
RTVSPropertyOp27
 70
     1
102
RTVSPropertyOp28
 70
     1
102
RTVSPropertyOp29
 70
     1
102
RTVSPropertyOp30
 70
     1
102
RTVSPropertyOp31
 70
     1
102
RTVSPropertyOp32
 70
     1
  0
XRECORD
  5
14F9
102
{ACAD_REACTORS
330
14F8
102
}
330
14F8
100
AcDbXrecord
280
     1
102
RTVSPropertyOp0
 70
     1
102
RTVSPropertyOp1
 70
     1
102
RTVSPropertyOp2
 70
     1
102
RTVSPropertyOp3
 70
     1
102
RTVSPropertyOp4
 70
     1
102
RTVSPropertyOp5
 70
     1
102
RTVSPropertyOp6
 70
     1
102
RTVSPropertyOp7
 70
     1
102
RTVSPropertyOp8
 70
     1
102
RTVSPropertyOp9
 70
     1
102
RTVSPropertyOp10
 70
     1
102
RTVSPropertyOp11
 70
     1
102
RTVSPropertyOp12
 70
     1
102
RTVSPropertyOp13
 70
     1
102
RTVSPropertyOp14
 70
     1
102
RTVSPropertyOp15
 70
     1
102
RTVSPropertyOp16
 70
     1
102
RTVSPropertyOp17
 70
     1
102
RTVSPropertyOp18
 70
     1
102
RTVSPropertyOp19
 70
     1
102
RTVSPropertyOp20
 70
     1
102
RTVSPropertyOp21
 70
     1
102
RTVSPropertyOp22
 70
     1
102
RTVSPropertyOp23
 70
     1
102
RTVSPropertyOp24
 70
     1
102
RTVSPropertyOp25
 70
     1
102
RTVSPropertyOp26
 70
     1
102
RTVSPropertyOp27
 70
     1
102
RTVSPropertyOp28
 70
     1
102
RTVSPropertyOp29
 70
     1
102
RTVSPropertyOp30
 70
     1
102
RTVSPropertyOp31
 70
     1
102
RTVSPropertyOp32
 70
     1
  0
XRECORD
  5
14F7
102
{ACAD_REACTORS
330
14F6
102
}
330
14F6
100
AcDbXrecord
280
     1
102
RTVSPropertyOp0
 70
     1
102
RTVSPropertyOp1
 70
     1
102
RTVSPropertyOp2
 70
     1
102
RTVSPropertyOp3
 70
     1
102
RTVSPropertyOp4
 70
     1
102
RTVSPropertyOp5
 70
     1
102
RTVSPropertyOp6
 70
     1
102
RTVSPropertyOp7
 70
     1
102
RTVSPropertyOp8
 70
     1
102
RTVSPropertyOp9
 70
     1
102
RTVSPropertyOp10
 70
     1
102
RTVSPropertyOp11
 70
     1
102
RTVSPropertyOp12
 70
     1
102
RTVSPropertyOp13
 70
     1
102
RTVSPropertyOp14
 70
     1
102
RTVSPropertyOp15
 70
     1
102
RTVSPropertyOp16
 70
     1
102
RTVSPropertyOp17
 70
     1
102
RTVSPropertyOp18
 70
     1
102
RTVSPropertyOp19
 70
     1
102
RTVSPropertyOp20
 70
     1
102
RTVSPropertyOp21
 70
     1
102
RTVSPropertyOp22
 70
     1
102
RTVSPropertyOp23
 70
     1
102
RTVSPropertyOp24
 70
     1
102
RTVSPropertyOp25
 70
     1
102
RTVSPropertyOp26
 70
     1
102
RTVSPropertyOp27
 70
     1
102
RTVSPropertyOp28
 70
     1
102
RTVSPropertyOp29
 70
     1
102
RTVSPropertyOp30
 70
     1
102
RTVSPropertyOp31
 70
     1
102
RTVSPropertyOp32
 70
     1
  0
XRECORD
  5
14F1
102
{ACAD_REACTORS
330
14F0
102
}
330
14F0
100
AcDbXrecord
280
     1
102
RTVSPropertyOp0
 70
     1
102
RTVSPropertyOp1
 70
     1
102
RTVSPropertyOp2
 70
     1
102
RTVSPropertyOp3
 70
     1
102
RTVSPropertyOp4
 70
     1
102
RTVSPropertyOp5
 70
     1
102
RTVSPropertyOp6
 70
     1
102
RTVSPropertyOp7
 70
     1
102
RTVSPropertyOp8
 70
     1
102
RTVSPropertyOp9
 70
     1
102
RTVSPropertyOp10
 70
     1
102
RTVSPropertyOp11
 70
     1
102
RTVSPropertyOp12
 70
     1
102
RTVSPropertyOp13
 70
     1
102
RTVSPropertyOp14
 70
     1
102
RTVSPropertyOp15
 70
     1
102
RTVSPropertyOp16
 70
     1
102
RTVSPropertyOp17
 70
     1
102
RTVSPropertyOp18
 70
     1
102
RTVSPropertyOp19
 70
     1
102
RTVSPropertyOp20
 70
     1
102
RTVSPropertyOp21
 70
     1
102
RTVSPropertyOp22
 70
     1
102
RTVSPropertyOp23
 70
     1
102
RTVSPropertyOp24
 70
     1
102
RTVSPropertyOp25
 70
     1
102
RTVSPropertyOp26
 70
     1
102
RTVSPropertyOp27
 70
     1
102
RTVSPropertyOp28
 70
     1
102
RTVSPropertyOp29
 70
     1
102
RTVSPropertyOp30
 70
     1
102
RTVSPropertyOp31
 70
     1
102
RTVSPropertyOp32
 70
     1
  0
XRECORD
  5
14F3
102
{ACAD_REACTORS
330
14F2
102
}
330
14F2
100
AcDbXrecord
280
     1
102
RTVSPropertyOp0
 70
     1
102
RTVSPropertyOp1
 70
     1
102
RTVSPropertyOp2
 70
     1
102
RTVSPropertyOp3
 70
     1
102
RTVSPropertyOp4
 70
     1
102
RTVSPropertyOp5
 70
     1
102
RTVSPropertyOp6
 70
     1
102
RTVSPropertyOp7
 70
     1
102
RTVSPropertyOp8
 70
     1
102
RTVSPropertyOp9
 70
     1
102
RTVSPropertyOp10
 70
     1
102
RTVSPropertyOp11
 70
     1
102
RTVSPropertyOp12
 70
     1
102
RTVSPropertyOp13
 70
     1
102
RTVSPropertyOp14
 70
     1
102
RTVSPropertyOp15
 70
     1
102
RTVSPropertyOp16
 70
     1
102
RTVSPropertyOp17
 70
     1
102
RTVSPropertyOp18
 70
     1
102
RTVSPropertyOp19
 70
     1
102
RTVSPropertyOp20
 70
     1
102
RTVSPropertyOp21
 70
     1
102
RTVSPropertyOp22
 70
     1
102
RTVSPropertyOp23
 70
     1
102
RTVSPropertyOp24
 70
     1
102
RTVSPropertyOp25
 70
     1
102
RTVSPropertyOp26
 70
     1
102
RTVSPropertyOp27
 70
     1
102
RTVSPropertyOp28
 70
     1
102
RTVSPropertyOp29
 70
     1
102
RTVSPropertyOp30
 70
     1
102
RTVSPropertyOp31
 70
     1
102
RTVSPropertyOp32
 70
     1
  0
XRECORD
  5
14E9
102
{ACAD_REACTORS
330
14E8
102
}
330
14E8
100
AcDbXrecord
280
     1
102
RTVSPropertyOp0
 70
     1
102
RTVSPropertyOp1
 70
     1
102
RTVSPropertyOp2
 70
     1
102
RTVSPropertyOp3
 70
     1
102
RTVSPropertyOp4
 70
     1
102
RTVSPropertyOp5
 70
     1
102
RTVSPropertyOp6
 70
     1
102
RTVSPropertyOp7
 70
     1
102
RTVSPropertyOp8
 70
     1
102
RTVSPropertyOp9
 70
     1
102
RTVSPropertyOp10
 70
     1
102
RTVSPropertyOp11
 70
     1
102
RTVSPropertyOp12
 70
     1
102
RTVSPropertyOp13
 70
     1
102
RTVSPropertyOp14
 70
     1
102
RTVSPropertyOp15
 70
     1
102
RTVSPropertyOp16
 70
     1
102
RTVSPropertyOp17
 70
     1
102
RTVSPropertyOp18
 70
     1
102
RTVSPropertyOp19
 70
     1
102
RTVSPropertyOp20
 70
     1
102
RTVSPropertyOp21
 70
     1
102
RTVSPropertyOp22
 70
     1
102
RTVSPropertyOp23
 70
     1
102
RTVSPropertyOp24
 70
     1
102
RTVSPropertyOp25
 70
     1
102
RTVSPropertyOp26
 70
     1
102
RTVSPropertyOp27
 70
     1
102
RTVSPropertyOp28
 70
     1
102
RTVSPropertyOp29
 70
     1
102
RTVSPropertyOp30
 70
     1
102
RTVSPropertyOp31
 70
     1
102
RTVSPropertyOp32
 70
     1
  0
XRECORD
  5
14DD
102
{ACAD_REACTORS
330
14DC
102
}
330
14DC
100
AcDbXrecord
280
     1
102
RTVSPropertyOp0
 70
     1
102
RTVSPropertyOp1
 70
     1
102
RTVSPropertyOp2
 70
     1
102
RTVSPropertyOp3
 70
     1
102
RTVSPropertyOp4
 70
     1
102
RTVSPropertyOp5
 70
     1
102
RTVSPropertyOp6
 70
     1
102
RTVSPropertyOp7
 70
     1
102
RTVSPropertyOp8
 70
     1
102
RTVSPropertyOp9
 70
     1
102
RTVSPropertyOp10
 70
     1
102
RTVSPropertyOp11
 70
     1
102
RTVSPropertyOp12
 70
     1
102
RTVSPropertyOp13
 70
     1
102
RTVSPropertyOp14
 70
     1
102
RTVSPropertyOp15
 70
     1
102
RTVSPropertyOp16
 70
     1
102
RTVSPropertyOp17
 70
     1
102
RTVSPropertyOp18
 70
     1
102
RTVSPropertyOp19
 70
     1
102
RTVSPropertyOp20
 70
     1
102
RTVSPropertyOp21
 70
     1
102
RTVSPropertyOp22
 70
     1
102
RTVSPropertyOp23
 70
     1
102
RTVSPropertyOp24
 70
     1
102
RTVSPropertyOp25
 70
     1
102
RTVSPropertyOp26
 70
     1
102
RTVSPropertyOp27
 70
     1
102
RTVSPropertyOp28
 70
     1
102
RTVSPropertyOp29
 70
     1
102
RTVSPropertyOp30
 70
     1
102
RTVSPropertyOp31
 70
     1
102
RTVSPropertyOp32
 70
     1
  0
XRECORD
  5
14F5
102
{ACAD_REACTORS
330
14F4
102
}
330
14F4
100
AcDbXrecord
280
     1
102
RTVSPropertyOp0
 70
     1
102
RTVSPropertyOp1
 70
     1
102
RTVSPropertyOp2
 70
     1
102
RTVSPropertyOp3
 70
     1
102
RTVSPropertyOp4
 70
     1
102
RTVSPropertyOp5
 70
     1
102
RTVSPropertyOp6
 70
     1
102
RTVSPropertyOp7
 70
     1
102
RTVSPropertyOp8
 70
     1
102
RTVSPropertyOp9
 70
     1
102
RTVSPropertyOp10
 70
     1
102
RTVSPropertyOp11
 70
     1
102
RTVSPropertyOp12
 70
     1
102
RTVSPropertyOp13
 70
     1
102
RTVSPropertyOp14
 70
     1
102
RTVSPropertyOp15
 70
     1
102
RTVSPropertyOp16
 70
     1
102
RTVSPropertyOp17
 70
     1
102
RTVSPropertyOp18
 70
     1
102
RTVSPropertyOp19
 70
     1
102
RTVSPropertyOp20
 70
     1
102
RTVSPropertyOp21
 70
     1
102
RTVSPropertyOp22
 70
     1
102
RTVSPropertyOp23
 70
     1
102
RTVSPropertyOp24
 70
     1
102
RTVSPropertyOp25
 70
     1
102
RTVSPropertyOp26
 70
     1
102
RTVSPropertyOp27
 70
     1
102
RTVSPropertyOp28
 70
     1
102
RTVSPropertyOp29
 70
     1
102
RTVSPropertyOp30
 70
     1
102
RTVSPropertyOp31
 70
     1
102
RTVSPropertyOp32
 70
     1
  0
ENDSEC
  0
EOF
