  0
SECTION
  2
HEADER
  9
$ACADVER
  1
AC1015
  9
$ACADMAINTVER
 70
    20
  9
$DWGCODEPAGE
  3
ANSI_932
  9
$INSBASE
 10
0.0
 20
0.0
 30
0.0
  9
$EXTMIN
 10
82.73604652077848
 20
88.86387659404226
 30
-0.0000000000112498
  9
$EXTMAX
 10
4282.864189055181
 20
3058.954491671943
 30
0.0000000000002956
  9
$LIMMIN
 10
82.80008844952817
 20
88.90916338651733
  9
$LIMMAX
 10
502.8000884495281
 20
385.9091633865173
  9
$ORTHOMODE
 70
     0
  9
$REGENMODE
 70
     1
  9
$FILLMODE
 70
     1
  9
$QTEXTMODE
 70
     0
  9
$MIRRTEXT
 70
     0
  9
$LTSCALE
 40
1.0
  9
$ATTMODE
 70
     1
  9
$TEXTSIZE
 40
2.5
  9
$TRACEWID
 40
1.0
  9
$TEXTSTYLE
  7
Standard
  9
$CLAYER
  8
0
  9
$CELTYPE
  6
ByLayer
  9
$CECOLOR
 62
   256
  9
$CELTSCALE
 40
1.0
  9
$DISPSILH
 70
     0
  9
$DIMSCALE
 40
1.0
  9
$DIMASZ
 40
2.5
  9
$DIMEXO
 40
0.625
  9
$DIMDLI
 40
3.75
  9
$DIMRND
 40
0.0
  9
$DIMDLE
 40
0.0
  9
$DIMEXE
 40
1.25
  9
$DIMTP
 40
0.0
  9
$DIMTM
 40
0.0
  9
$DIMTXT
 40
2.5
  9
$DIMCEN
 40
2.5
  9
$DIMTSZ
 40
0.0
  9
$DIMTOL
 70
     0
  9
$DIMLIM
 70
     0
  9
$DIMTIH
 70
     0
  9
$DIMTOH
 70
     0
  9
$DIMSE1
 70
     0
  9
$DIMSE2
 70
     0
  9
$DIMTAD
 70
     2
  9
$DIMZIN
 70
     8
  9
$DIMBLK
  1

  9
$DIMASO
 70
     1
  9
$DIMSHO
 70
     1
  9
$DIMPOST
  1

  9
$DIMAPOST
  1

  9
$DIMALT
 70
     0
  9
$DIMALTD
 70
     3
  9
$DIMALTF
 40
0.03937007874016
  9
$DIMLFAC
 40
1.0
  9
$DIMTOFL
 70
     1
  9
$DIMTVP
 40
0.0
  9
$DIMTIX
 70
     0
  9
$DIMSOXD
 70
     0
  9
$DIMSAH
 70
     0
  9
$DIMBLK1
  1

  9
$DIMBLK2
  1

  9
$DIMSTYLE
  2
ISO-25
  9
$DIMCLRD
 70
     0
  9
$DIMCLRE
 70
     0
  9
$DIMCLRT
 70
     0
  9
$DIMTFAC
 40
1.0
  9
$DIMGAP
 40
0.625
  9
$DIMJUST
 70
     0
  9
$DIMSD1
 70
     0
  9
$DIMSD2
 70
     0
  9
$DIMTOLJ
 70
     0
  9
$DIMTZIN
 70
     8
  9
$DIMALTZ
 70
     0
  9
$DIMALTTZ
 70
     0
  9
$DIMUPT
 70
     0
  9
$DIMDEC
 70
     2
  9
$DIMTDEC
 70
     2
  9
$DIMALTU
 70
     2
  9
$DIMALTTD
 70
     3
  9
$DIMTXSTY
  7
Standard
  9
$DIMAUNIT
 70
     0
  9
$DIMADEC
 70
     0
  9
$DIMALTRND
 40
0.0
  9
$DIMAZIN
 70
     0
  9
$DIMDSEP
 70
    44
  9
$DIMATFIT
 70
     3
  9
$DIMFRAC
 70
     0
  9
$DIMLDRBLK
  1

  9
$DIMLUNIT
 70
     2
  9
$DIMLWD
 70
    -2
  9
$DIMLWE
 70
    -2
  9
$DIMTMOVE
 70
     0
  9
$LUNITS
 70
     2
  9
$LUPREC
 70
     4
  9
$SKETCHINC
 40
1.0
  9
$FILLETRAD
 40
0.0
  9
$AUNITS
 70
     0
  9
$AUPREC
 70
     0
  9
$MENU
  1
.
  9
$ELEVATION
 40
0.0
  9
$PELEVATION
 40
0.0
  9
$THICKNESS
 40
0.0
  9
$LIMCHECK
 70
     0
  9
$CHAMFERA
 40
0.0
  9
$CHAMFERB
 40
0.0
  9
$CHAMFERC
 40
0.0
  9
$CHAMFERD
 40
0.0
  9
$SKPOLY
 70
     0
  9
$TDCREATE
 40
2454427.395492431
  9
$TDUCREATE
 40
2454427.020492431
  9
$TDUPDATE
 40
2457014.700817187
  9
$TDUUPDATE
 40
2457014.325817187
  9
$TDINDWG
 40
0.2646662269
  9
$TDUSRTIMER
 40
0.2646662269
  9
$USRTIMER
 70
     1
  9
$ANGBASE
 50
0.0
  9
$ANGDIR
 70
     0
  9
$PDMODE
 70
     0
  9
$PDSIZE
 40
0.0
  9
$PLINEWID
 40
0.0
  9
$SPLFRAME
 70
     0
  9
$SPLINETYPE
 70
     6
  9
$SPLINESEGS
 70
     8
  9
$HANDSEED
  5
6141
  9
$SURFTAB1
 70
     6
  9
$SURFTAB2
 70
     6
  9
$SURFTYPE
 70
     6
  9
$SURFU
 70
     6
  9
$SURFV
 70
     6
  9
$UCSBASE
  2

  9
$UCSNAME
  2

  9
$UCSORG
 10
0.0
 20
0.0
 30
0.0
  9
$UCSXDIR
 10
1.0
 20
0.0
 30
0.0
  9
$UCSYDIR
 10
0.0
 20
1.0
 30
0.0
  9
$UCSORTHOREF
  2

  9
$UCSORTHOVIEW
 70
     0
  9
$UCSORGTOP
 10
0.0
 20
0.0
 30
0.0
  9
$UCSORGBOTTOM
 10
0.0
 20
0.0
 30
0.0
  9
$UCSORGLEFT
 10
0.0
 20
0.0
 30
0.0
  9
$UCSORGRIGHT
 10
0.0
 20
0.0
 30
0.0
  9
$UCSORGFRONT
 10
0.0
 20
0.0
 30
0.0
  9
$UCSORGBACK
 10
0.0
 20
0.0
 30
0.0
  9
$PUCSBASE
  2

  9
$PUCSNAME
  2

  9
$PUCSORG
 10
0.0
 20
0.0
 30
0.0
  9
$PUCSXDIR
 10
1.0
 20
0.0
 30
0.0
  9
$PUCSYDIR
 10
0.0
 20
1.0
 30
0.0
  9
$PUCSORTHOREF
  2

  9
$PUCSORTHOVIEW
 70
     0
  9
$PUCSORGTOP
 10
0.0
 20
0.0
 30
0.0
  9
$PUCSORGBOTTOM
 10
0.0
 20
0.0
 30
0.0
  9
$PUCSORGLEFT
 10
0.0
 20
0.0
 30
0.0
  9
$PUCSORGRIGHT
 10
0.0
 20
0.0
 30
0.0
  9
$PUCSORGFRONT
 10
0.0
 20
0.0
 30
0.0
  9
$PUCSORGBACK
 10
0.0
 20
0.0
 30
0.0
  9
$USERI1
 70
     0
  9
$USERI2
 70
     0
  9
$USERI3
 70
     0
  9
$USERI4
 70
     0
  9
$USERI5
 70
     0
  9
$USERR1
 40
0.0
  9
$USERR2
 40
0.0
  9
$USERR3
 40
0.0
  9
$USERR4
 40
0.0
  9
$USERR5
 40
0.0
  9
$WORLDVIEW
 70
     1
  9
$SHADEDGE
 70
     3
  9
$SHADEDIF
 70
    70
  9
$TILEMODE
 70
     1
  9
$MAXACTVP
 70
    64
  9
$PINSBASE
 10
0.0
 20
0.0
 30
0.0
  9
$PLIMCHECK
 70
     0
  9
$PEXTMIN
 10
0.0
 20
0.0
 30
0.0
  9
$PEXTMAX
 10
0.0
 20
0.0
 30
0.0
  9
$PLIMMIN
 10
0.0
 20
0.0
  9
$PLIMMAX
 10
12.0
 20
9.0
  9
$UNITMODE
 70
     0
  9
$VISRETAIN
 70
     1
  9
$PLINEGEN
 70
     0
  9
$PSLTSCALE
 70
     1
  9
$TREEDEPTH
 70
  3020
  9
$CMLSTYLE
  2
Standard
  9
$CMLJUST
 70
     0
  9
$CMLSCALE
 40
20.0
  9
$PROXYGRAPHICS
 70
     1
  9
$MEASUREMENT
 70
     1
  9
$CELWEIGHT
370
    -1
  9
$ENDCAPS
280
     0
  9
$JOINSTYLE
280
     0
  9
$LWDISPLAY
290
     0
  9
$INSUNITS
 70
     4
  9
$HYPERLINKBASE
  1

  9
$STYLESHEET
  1
monochrome.ctb
  9
$XEDIT
290
     1
  9
$CEPSNTYPE
380
     0
  9
$PSTYLEMODE
290
     1
  9
$FINGERPRINTGUID
  2
{4ECE4D8E-F13A-40A1-9A46-5F0BA8809353}
  9
$VERSIONGUID
  2
{EFA19261-1D90-4CE8-AD78-69644509BCBA}
  9
$EXTNAMES
290
     1
  9
$PSVPSCALE
 40
0.0
  9
$OLESTARTUP
290
     0
  0
ENDSEC
  0
SECTION
  2
CLASSES
  0
CLASS
  1
ACDBDICTIONARYWDFLT
  2
AcDbDictionaryWithDefault
  3
ObjectDBX Classes
 90
        0
280
     0
281
     0
  0
CLASS
  1
DICTIONARYVAR
  2
AcDbDictionaryVar
  3
ObjectDBX Classes
 90
        0
280
     0
281
     0
  0
CLASS
  1
TABLESTYLE
  2
AcDbTableStyle
  3
ObjectDBX Classes
 90
     4095
280
     0
281
     0
  0
CLASS
  1
SORTENTSTABLE
  2
AcDbSortentsTable
  3
ObjectDBX Classes
 90
        0
280
     0
281
     0
  0
CLASS
  1
DIMASSOC
  2
AcDbDimAssoc
  3
"AcDbDimAssoc|Product Desc:     AcDim ARX App For Dimension|Company:          Autodesk, Inc.|WEB Address:      www.autodesk.com"
 90
        0
280
     0
281
     0
  0
CLASS
  1
MATERIAL
  2
AcDbMaterial
  3
ObjectDBX Classes
 90
     1153
280
     0
281
     0
  0
CLASS
  1
VISUALSTYLE
  2
AcDbVisualStyle
  3
ObjectDBX Classes
 90
     4095
280
     0
281
     0
  0
CLASS
  1
SCALE
  2
AcDbScale
  3
ObjectDBX Classes
 90
     1153
280
     0
281
     0
  0
CLASS
  1
MLEADERSTYLE
  2
AcDbMLeaderStyle
  3
ACDB_MLEADERSTYLE_CLASS
 90
     4095
280
     0
281
     0
  0
CLASS
  1
CELLSTYLEMAP
  2
AcDbCellStyleMap
  3
ObjectDBX Classes
 90
     1152
280
     0
281
     0
  0
CLASS
  1
ACDBPLACEHOLDER
  2
AcDbPlaceHolder
  3
ObjectDBX Classes
 90
        0
280
     0
281
     0
  0
CLASS
  1
LAYOUT
  2
AcDbLayout
  3
ObjectDBX Classes
 90
        0
280
     0
281
     0
  0
ENDSEC
  0
SECTION
  2
TABLES
  0
TABLE
  2
VPORT
  5
8
330
0
100
AcDbSymbolTable
 70
     1
  0
VPORT
  5
6053
330
8
100
AcDbSymbolTableRecord
100
AcDbViewportTableRecord
  2
*Active
 70
     0
 10
0.0
 20
0.0
 11
1.0
 21
1.0
 12
2182.80011778798
 22
1573.909184132992
 13
0.0
 23
0.0
 14
10.0
 24
10.0
 15
10.0
 25
10.0
 16
0.0
 26
0.0
 36
1.0
 17
0.0
 27
0.0
 37
0.0
 40
2993.20416072053
 41
1.633766233766233
 42
50.0
 43
0.0
 44
0.0
 50
0.0
 51
0.0
 71
     0
 72
  1000
 73
     1
 74
     3
 75
     0
 76
     0
 77
     0
 78
     0
281
     0
 65
     1
110
0.0
120
0.0
130
0.0
111
1.0
121
0.0
131
0.0
112
0.0
122
1.0
132
0.0
 79
     0
146
0.0
1001
ACAD_NAV_VCDISPLAY
1070
     3
  0
ENDTAB
  0
TABLE
  2
LTYPE
  5
5
330
0
100
AcDbSymbolTable
 70
     4
  0
LTYPE
  5
14
330
5
100
AcDbSymbolTableRecord
100
AcDbLinetypeTableRecord
  2
ByBlock
 70
     0
  3

 72
    65
 73
     0
 40
0.0
  0
LTYPE
  5
15
330
5
100
AcDbSymbolTableRecord
100
AcDbLinetypeTableRecord
  2
ByLayer
 70
     0
  3

 72
    65
 73
     0
 40
0.0
  0
LTYPE
  5
16
330
5
100
AcDbSymbolTableRecord
100
AcDbLinetypeTableRecord
  2
Continuous
 70
     0
  3
Solid line
 72
    65
 73
     0
 40
0.0
  0
LTYPE
  5
14E
330
5
100
AcDbSymbolTableRecord
100
AcDbLinetypeTableRecord
  2
CENTER
 70
     0
  3
Center ____ _ ____ _ ____ _ ____ _ ____ _ ____
 72
    65
 73
     4
 40
50.8
 49
31.75
 74
     0
 49
-6.349999999999999
 74
     0
 49
6.349999999999999
 74
     0
 49
-6.349999999999999
 74
     0
  0
LTYPE
  5
1A6
330
5
100
AcDbSymbolTableRecord
100
AcDbLinetypeTableRecord
  2
DASHED
 70
     0
  3
Dashed __ __ __ __ __ __ __ __ __ __ __ __ __ _
 72
    65
 73
     2
 40
19.05
 49
12.7
 74
     0
 49
-6.349999999999999
 74
     0
  0
LTYPE
  5
1CC
330
5
100
AcDbSymbolTableRecord
100
AcDbLinetypeTableRecord
  2
FENCELINE1
 70
     0
  3
Fenceline circle ----0-----0----0-----0----0---
 72
    65
 73
     4
 40
36.83
 49
6.349999999999999
 74
     0
 49
-2.54
 74
     4
 75
   133
340
14D
 46
2.54
 50
0.0
 44
-2.54
 45
0.0
 49
-2.54
 74
     0
 49
25.4
 74
     0
  0
ENDTAB
  0
TABLE
  2
LAYER
  5
2
102
{ACAD_XDICTIONARY
360
101
102
}
330
0
100
AcDbSymbolTable
 70
    13
  0
LAYER
  5
10
102
{ACAD_XDICTIONARY
360
60A3
102
}
330
2
100
AcDbSymbolTableRecord
100
AcDbLayerTableRecord
  2
0
 70
     0
 62
     6
  6
Continuous
370
    -3
390
F
  0
LAYER
  5
FC
102
{ACAD_XDICTIONARY
360
60A5
102
}
330
2
100
AcDbSymbolTableRecord
100
AcDbLayerTableRecord
  2
題
 70
     0
 62
     7
  6
Continuous
370
    -3
390
F
1001
AcAecLayerStandard
1000

1000

  0
LAYER
  5
FD
330
2
100
AcDbSymbolTableRecord
100
AcDbLayerTableRecord
  2
DEFPOINTS
 70
     0
 62
     1
  6
Continuous
290
     0
370
    -3
390
F
1001
AcAecLayerStandard
1000

1000

  0
LAYER
  5
FE
102
{ACAD_XDICTIONARY
360
60A7
102
}
330
2
100
AcDbSymbolTableRecord
100
AcDbLayerTableRecord
  2
マーク
 70
     0
 62
   160
  6
Continuous
370
    -3
390
F
  0
LAYER
  5
FF
102
{ACAD_XDICTIONARY
360
60A9
102
}
330
2
100
AcDbSymbolTableRecord
100
AcDbLayerTableRecord
  2
図
 70
     0
 62
     7
  6
Continuous
370
    -3
390
F
1001
AcAecLayerStandard
1000

1000

  0
LAYER
  5
14B
102
{ACAD_XDICTIONARY
360
60AB
102
}
330
2
100
AcDbSymbolTableRecord
100
AcDbLayerTableRecord
  2
センター
 70
     0
 62
     4
  6
CENTER
370
    15
390
F
1001
AcAecLayerStandard
1000

1000

  0
LAYER
  5
14F
102
{ACAD_XDICTIONARY
360
60AD
102
}
330
2
100
AcDbSymbolTableRecord
100
AcDbLayerTableRecord
  2
補助
 70
     0
 62
     2
  6
Continuous
370
     9
390
F
1001
AcAecLayerStandard
1000

1000

  0
LAYER
  5
1A4
102
{ACAD_XDICTIONARY
360
60AF
102
}
330
2
100
AcDbSymbolTableRecord
100
AcDbLayerTableRecord
  2
寸法
 70
     0
 62
     7
  6
Continuous
370
    15
390
F
1001
AcAecLayerStandard
1000

1000

  0
LAYER
  5
1A5
102
{ACAD_XDICTIONARY
360
60B1
102
}
330
2
100
AcDbSymbolTableRecord
100
AcDbLayerTableRecord
  2
影
 70
     0
 62
   160
  6
DASHED
370
    15
390
F
1001
AcAecLayerStandard
1000

1000

  0
LAYER
  5
1747
102
{ACAD_XDICTIONARY
360
60B3
102
}
330
2
100
AcDbSymbolTableRecord
100
AcDbLayerTableRecord
  2
図文字
 70
     0
 62
     7
  6
Continuous
370
    -3
390
F
1001
AcAecLayerStandard
1000

1000

  0
LAYER
  5
49BB
102
{ACAD_XDICTIONARY
360
60B5
102
}
330
2
100
AcDbSymbolTableRecord
100
AcDbLayerTableRecord
  2
全体文字
 70
     0
 62
     7
  6
Continuous
370
    -3
390
F
1001
AcAecLayerStandard
1000

1000

  0
LAYER
  5
49BC
102
{ACAD_XDICTIONARY
360
60B7
102
}
330
2
100
AcDbSymbolTableRecord
100
AcDbLayerTableRecord
  2
鉄筋D
 70
     0
 62
     3
  6
FENCELINE1
370
     9
390
F
1001
AcAecLayerStandard
1000

1000

  0
LAYER
  5
49BD
102
{ACAD_XDICTIONARY
360
60B9
102
}
330
2
100
AcDbSymbolTableRecord
100
AcDbLayerTableRecord
  2
鉄筋\U+03C6
 70
     0
 62
     3
  6
Continuous
370
     9
390
F
1001
AcAecLayerStandard
1000

1000

  0
ENDTAB
  0
TABLE
  2
STYLE
  5
3
330
0
100
AcDbSymbolTable
 70
     2
  0
STYLE
  5
11
330
3
100
AcDbSymbolTableRecord
100
AcDbTextStyleTableRecord
  2
Standard
 70
     0
 40
0.0
 41
1.0
 50
0.0
 71
     0
 42
2.5
  3
txt.shx
  4
extfont2.shx
  0
STYLE
  5
14D
330
3
100
AcDbSymbolTableRecord
100
AcDbTextStyleTableRecord
  2

 70
     1
 40
0.0
 41
1.0
 50
0.0
 71
     0
 42
2.5
  3
ltypeshp.shx
  4

  0
ENDTAB
  0
TABLE
  2
VIEW
  5
6
330
0
100
AcDbSymbolTable
 70
     0
  0
ENDTAB
  0
TABLE
  2
UCS
  5
7
330
0
100
AcDbSymbolTable
 70
     0
  0
ENDTAB
  0
TABLE
  2
APPID
  5
9
330
0
100
AcDbSymbolTable
 70
    14
  0
APPID
  5
12
330
9
100
AcDbSymbolTableRecord
100
AcDbRegAppTableRecord
  2
ACAD
 70
     0
  0
APPID
  5
9E
330
9
100
AcDbSymbolTableRecord
100
AcDbRegAppTableRecord
  2
ACAD_PSEXT
 70
     0
  0
APPID
  5
100
330
9
100
AcDbSymbolTableRecord
100
AcDbRegAppTableRecord
  2
AcAecLayerStandard
 70
     0
  0
APPID
  5
1B6
330
9
100
AcDbSymbolTableRecord
100
AcDbRegAppTableRecord
  2
ACAD_EXEMPT_FROM_CAD_STANDARDS
 70
     0
  0
APPID
  5
E2E
330
9
100
AcDbSymbolTableRecord
100
AcDbRegAppTableRecord
  2
ACAD_DSTYLE_DIMTEXT_FILL
 70
     0
  0
APPID
  5
E2F
330
9
100
AcDbSymbolTableRecord
100
AcDbRegAppTableRecord
  2
ACAD_DSTYLE_DIMEXT_LENGTH
 70
     0
  0
APPID
  5
E30
330
9
100
AcDbSymbolTableRecord
100
AcDbRegAppTableRecord
  2
ACAD_DSTYLE_DIMEXT_ENABLED
 70
     0
  0
APPID
  5
E31
330
9
100
AcDbSymbolTableRecord
100
AcDbRegAppTableRecord
  2
ACAD_DSTYLE_DIM_LINETYPE
 70
     0
  0
APPID
  5
E32
330
9
100
AcDbSymbolTableRecord
100
AcDbRegAppTableRecord
  2
ACAD_DSTYLE_DIM_EXT1_LINETYPE
 70
     0
  0
APPID
  5
E33
330
9
100
AcDbSymbolTableRecord
100
AcDbRegAppTableRecord
  2
ACAD_DSTYLE_DIM_EXT2_LINETYPE
 70
     0
  0
APPID
  5
EEF
330
9
100
AcDbSymbolTableRecord
100
AcDbRegAppTableRecord
  2
ACAD_DSTYLE_DIMJOGGED_JOGANGLE_SYMBOL
 70
     0
  0
APPID
  5
F53
330
9
100
AcDbSymbolTableRecord
100
AcDbRegAppTableRecord
  2
ACAD_DSTYLE_DIMARC_LENGTH_SYMBOL
 70
     0
  0
APPID
  5
60C4
330
9
100
AcDbSymbolTableRecord
100
AcDbRegAppTableRecord
  2
ACAD_NAV_VCDISPLAY
 70
     0
  0
APPID
  5
6140
330
9
100
AcDbSymbolTableRecord
100
AcDbRegAppTableRecord
  2
ACAD_MLEADERVER
 70
     0
  0
ENDTAB
  0
TABLE
  2
DIMSTYLE
  5
A
330
0
100
AcDbSymbolTable
 70
     1
100
AcDbDimStyleTable
 71
     1
340
27
  0
DIMSTYLE
105
27
102
{ACAD_REACTORS
330
5B0A
330
5B11
330
5B1F
330
5B22
330
5B23
330
5B24
330
5B25
330
5B26
330
5B27
330
5B28
330
5B93
330
5A93
330
5A96
330
5A99
330
5A9C
330
5A9D
330
5AA0
330
5AA3
330
5AA6
330
5AA9
330
5AAC
330
5AAF
330
5AB2
330
5AB5
330
5AB8
330
5AB9
330
5ABC
330
5ABF
330
5AC9
330
5ACA
330
5ACD
330
5AD0
330
5AD3
330
5AD6
330
5AD9
330
5ADC
330
5ADF
330
5AE2
330
5AE5
102
}
330
A
100
AcDbSymbolTableRecord
100
AcDbDimStyleTableRecord
  2
ISO-25
 70
     0
 41
2.5
 42
0.625
 43
3.75
 44
1.25
 73
     0
 74
     0
 77
     2
 78
     8
140
2.5
141
2.5
143
0.03937007874016
147
0.625
171
     3
172
     1
271
     2
272
     2
274
     3
278
    44
283
     0
284
     8
340
11
1001
ACAD_DSTYLE_DIMEXT_LENGTH
1070
   378
1040
1.25
1001
ACAD_DSTYLE_DIMJOGGED_JOGANGLE_SYMBOL
1070
   384
1040
1.570796326794896
  0
ENDTAB
  0
TABLE
  2
BLOCK_RECORD
  5
1
330
0
100
AcDbSymbolTable
 70
    43
  0
BLOCK_RECORD
  5
1F
102
{ACAD_XDICTIONARY
360
C0A
102
}
330
1
100
AcDbSymbolTableRecord
100
AcDbBlockTableRecord
  2
*Model_Space
340
22
  0
BLOCK_RECORD
  5
D2
330
1
100
AcDbSymbolTableRecord
100
AcDbBlockTableRecord
  2
*Paper_Space
340
D3
  0
BLOCK_RECORD
  5
D6
330
1
100
AcDbSymbolTableRecord
100
AcDbBlockTableRecord
  2
*Paper_Space0
340
D7
  0
BLOCK_RECORD
  5
F3
330
1
100
AcDbSymbolTableRecord
100
AcDbBlockTableRecord
  2
AI9-BLK1
340
0
102
{BLKREFS
331
123
102
}
  0
BLOCK_RECORD
  5
F7
330
1
100
AcDbSymbolTableRecord
100
AcDbBlockTableRecord
  2
AI9-BLK2
340
0
102
{BLKREFS
331
F5
102
}
  0
BLOCK_RECORD
  5
10D7
330
1
100
AcDbSymbolTableRecord
100
AcDbBlockTableRecord
  2
_Open30
340
0
  0
BLOCK_RECORD
  5
5BAE
330
1
100
AcDbSymbolTableRecord
100
AcDbBlockTableRecord
  2
*D4
340
0
  0
BLOCK_RECORD
  5
5BBA
330
1
100
AcDbSymbolTableRecord
100
AcDbBlockTableRecord
  2
*D5
340
0
  0
BLOCK_RECORD
  5
5BC6
330
1
100
AcDbSymbolTableRecord
100
AcDbBlockTableRecord
  2
*D6
340
0
  0
BLOCK_RECORD
  5
5BD4
330
1
100
AcDbSymbolTableRecord
100
AcDbBlockTableRecord
  2
*D7
340
0
  0
BLOCK_RECORD
  5
5BE0
330
1
100
AcDbSymbolTableRecord
100
AcDbBlockTableRecord
  2
*D8
340
0
  0
BLOCK_RECORD
  5
5BEC
330
1
100
AcDbSymbolTableRecord
100
AcDbBlockTableRecord
  2
*D9
340
0
  0
BLOCK_RECORD
  5
5BFA
330
1
100
AcDbSymbolTableRecord
100
AcDbBlockTableRecord
  2
*D10
340
0
  0
BLOCK_RECORD
  5
5CAE
330
1
100
AcDbSymbolTableRecord
100
AcDbBlockTableRecord
  2
*D11
340
0
  0
BLOCK_RECORD
  5
5CDE
330
1
100
AcDbSymbolTableRecord
100
AcDbBlockTableRecord
  2
*D12
340
0
  0
BLOCK_RECORD
  5
5CEA
330
1
100
AcDbSymbolTableRecord
100
AcDbBlockTableRecord
  2
*D13
340
0
  0
BLOCK_RECORD
  5
5CF8
330
1
100
AcDbSymbolTableRecord
100
AcDbBlockTableRecord
  2
*D14
340
0
  0
BLOCK_RECORD
  5
5D04
330
1
100
AcDbSymbolTableRecord
100
AcDbBlockTableRecord
  2
*D15
340
0
  0
BLOCK_RECORD
  5
5D10
330
1
100
AcDbSymbolTableRecord
100
AcDbBlockTableRecord
  2
*D16
340
0
  0
BLOCK_RECORD
  5
5D1C
330
1
100
AcDbSymbolTableRecord
100
AcDbBlockTableRecord
  2
*D17
340
0
  0
BLOCK_RECORD
  5
5D28
330
1
100
AcDbSymbolTableRecord
100
AcDbBlockTableRecord
  2
*D18
340
0
  0
BLOCK_RECORD
  5
5E8E
330
1
100
AcDbSymbolTableRecord
100
AcDbBlockTableRecord
  2
*D19
340
0
  0
BLOCK_RECORD
  5
5E9A
330
1
100
AcDbSymbolTableRecord
100
AcDbBlockTableRecord
  2
*D20
340
0
  0
BLOCK_RECORD
  5
5EA6
330
1
100
AcDbSymbolTableRecord
100
AcDbBlockTableRecord
  2
*D21
340
0
  0
BLOCK_RECORD
  5
5EBB
330
1
100
AcDbSymbolTableRecord
100
AcDbBlockTableRecord
  2
*D22
340
0
  0
BLOCK_RECORD
  5
5EC7
330
1
100
AcDbSymbolTableRecord
100
AcDbBlockTableRecord
  2
*D23
340
0
  0
BLOCK_RECORD
  5
5ED5
330
1
100
AcDbSymbolTableRecord
100
AcDbBlockTableRecord
  2
*D24
340
0
  0
BLOCK_RECORD
  5
5EE1
330
1
100
AcDbSymbolTableRecord
100
AcDbBlockTableRecord
  2
*D25
340
0
  0
BLOCK_RECORD
  5
5EED
330
1
100
AcDbSymbolTableRecord
100
AcDbBlockTableRecord
  2
*D26
340
0
  0
BLOCK_RECORD
  5
5F06
330
1
100
AcDbSymbolTableRecord
100
AcDbBlockTableRecord
  2
*D27
340
0
  0
BLOCK_RECORD
  5
5F12
330
1
100
AcDbSymbolTableRecord
100
AcDbBlockTableRecord
  2
*D28
340
0
  0
BLOCK_RECORD
  5
5F1E
330
1
100
AcDbSymbolTableRecord
100
AcDbBlockTableRecord
  2
*D29
340
0
  0
BLOCK_RECORD
  5
5F33
330
1
100
AcDbSymbolTableRecord
100
AcDbBlockTableRecord
  2
*D30
340
0
  0
BLOCK_RECORD
  5
5F40
330
1
100
AcDbSymbolTableRecord
100
AcDbBlockTableRecord
  2
*D31
340
0
  0
BLOCK_RECORD
  5
5F4E
330
1
100
AcDbSymbolTableRecord
100
AcDbBlockTableRecord
  2
*D32
340
0
  0
BLOCK_RECORD
  5
5F64
330
1
100
AcDbSymbolTableRecord
100
AcDbBlockTableRecord
  2
*D33
340
0
  0
BLOCK_RECORD
  5
5F71
330
1
100
AcDbSymbolTableRecord
100
AcDbBlockTableRecord
  2
*D34
340
0
  0
BLOCK_RECORD
  5
5F7D
330
1
100
AcDbSymbolTableRecord
100
AcDbBlockTableRecord
  2
*D35
340
0
  0
BLOCK_RECORD
  5
5F8A
330
1
100
AcDbSymbolTableRecord
100
AcDbBlockTableRecord
  2
*D36
340
0
  0
BLOCK_RECORD
  5
5F98
330
1
100
AcDbSymbolTableRecord
100
AcDbBlockTableRecord
  2
*D37
340
0
  0
BLOCK_RECORD
  5
5FA5
330
1
100
AcDbSymbolTableRecord
100
AcDbBlockTableRecord
  2
*D38
340
0
  0
BLOCK_RECORD
  5
5FB1
330
1
100
AcDbSymbolTableRecord
100
AcDbBlockTableRecord
  2
*D39
340
0
  0
BLOCK_RECORD
  5
5FBF
330
1
100
AcDbSymbolTableRecord
100
AcDbBlockTableRecord
  2
*D40
340
0
  0
BLOCK_RECORD
  5
5FCB
330
1
100
AcDbSymbolTableRecord
100
AcDbBlockTableRecord
  2
*D41
340
0
  0
BLOCK_RECORD
  5
5FD7
330
1
100
AcDbSymbolTableRecord
100
AcDbBlockTableRecord
  2
*D42
340
0
  0
ENDTAB
  0
ENDSEC
  0
SECTION
  2
BLOCKS
  0
BLOCK
  5
20
330
1F
100
AcDbEntity
  8
0
100
AcDbBlockBegin
  2
*Model_Space
 70
     0
 10
0.0
 20
0.0
 30
0.0
  3
*Model_Space
  1

  0
ENDBLK
  5
21
330
1F
100
AcDbEntity
  8
0
100
AcDbBlockEnd
  0
BLOCK
  5
D4
330
D2
100
AcDbEntity
 67
     1
  8
0
100
AcDbBlockBegin
  2
*Paper_Space
 70
     0
 10
0.0
 20
0.0
 30
0.0
  3
*Paper_Space
  1

  0
ENDBLK
  5
D5
330
D2
100
AcDbEntity
 67
     1
  8
0
100
AcDbBlockEnd
  0
BLOCK
  5
D8
330
D6
100
AcDbEntity
 67
     1
  8
0
100
AcDbBlockBegin
  2
*Paper_Space0
 70
     0
 10
0.0
 20
0.0
 30
0.0
  3
*Paper_Space0
  1

  0
ENDBLK
  5
D9
330
D6
100
AcDbEntity
 67
     1
  8
0
100
AcDbBlockEnd
  0
BLOCK
  5
F4
330
F3
100
AcDbEntity
  8
マーク
 62
     7
100
AcDbBlockBegin
  2
AI9-BLK1
 70
     0
 10
0.0
 20
0.0
 30
0.0
  3
AI9-BLK1
  1

  0
INSERT
  5
F5
330
F3
100
AcDbEntity
  8
マーク
 62
     7
100
AcDbBlockReference
  2
AI9-BLK2
 10
0.0
 20
0.0
 30
0.0
  0
ENDBLK
  5
F6
330
F3
100
AcDbEntity
  8
マーク
100
AcDbBlockEnd
  0
BLOCK
  5
F8
330
F7
100
AcDbEntity
  8
マーク
 62
     7
100
AcDbBlockBegin
  2
AI9-BLK2
 70
     0
 10
0.0
 20
0.0
 30
0.0
  3
AI9-BLK2
  1

  0
HATCH
  5
F9
330
F7
100
AcDbEntity
  8
マーク
 62
     7
100
AcDbHatch
 10
0.0
 20
0.0
 30
0.0
210
0.0
220
0.0
230
1.0
  2
SOLID
 70
     1
 71
     0
 91
        1
 92
        1
 93
        1
 72
     4
 94
        3
 73
     0
 74
     0
 95
       59
 96
       55
 40
0.0
 40
0.0
 40
0.0
 40
0.0
 40
1.0
 40
1.0
 40
1.0
 40
2.0
 40
2.0
 40
2.0
 40
3.0
 40
3.0
 40
3.0
 40
4.0
 40
4.0
 40
4.0
 40
5.0
 40
5.0
 40
5.0
 40
6.0
 40
6.0
 40
6.0
 40
7.0
 40
7.0
 40
7.0
 40
8.0
 40
8.0
 40
8.0
 40
9.0
 40
9.0
 40
9.0
 40
10.0
 40
10.0
 40
10.0
 40
11.0
 40
11.0
 40
11.0
 40
12.0
 40
12.0
 40
12.0
 40
13.0
 40
13.0
 40
13.0
 40
14.0
 40
14.0
 40
14.0
 40
15.0
 40
15.0
 40
15.0
 40
16.0
 40
16.0
 40
16.0
 40
17.0
 40
17.0
 40
17.0
 40
18.0
 40
18.0
 40
18.0
 40
18.0
 10
19.11183946397569
 20
10.62743055555555
 10
19.11183946397569
 20
10.62743055555555
 10
19.13285454644097
 20
10.66274278428819
 10
19.13285454644097
 20
10.66274278428819
 10
19.61275634765625
 20
10.33804253472222
 10
20.1877427842882
 20
10.15114610460069
 10
20.80854899088542
 20
10.15114610460069
 10
22.46667344835069
 20
10.15114610460069
 10
23.81060519748264
 20
11.49525010850694
 10
23.81060519748264
 20
13.1497572157118
 10
23.81060519748264
 20
14.20102810329861
 10
23.26731363932291
 20
15.12879231770833
 10
22.44910346137153
 20
15.66502143012153
 10
22.44910346137153
 20
15.66502143012153
 10
22.45599365234375
 20
15.67914632161458
 10
22.45599365234375
 20
15.67914632161458
 10
22.45599365234375
 20
15.67914632161458
 10
-18.13102077907986
 20
42.28561876085069
 10
-18.13102077907986
 20
42.28561876085069
 10
-12.56770833333333
 20
44.67754855685764
 10
-6.436471896701387
 20
46.0004652235243
 10
0.0017225477430556
 20
46.0004652235243
 10
25.40533989800347
 20
46.0004652235243
 10
46.0004652235243
 20
25.40533989800347
 10
46.0004652235243
 20
0.0017225477430556
 10
46.0004652235243
 20
-14.73036702473958
 10
39.07547878689236
 20
-27.84308946397569
 10
28.30507676866319
 20
-36.26393636067708
 10
28.30507676866319
 20
-36.26393636067708
 10
1.067118326822916
 20
-19.00607503255208
 10
1.067118326822916
 20
-19.00607503255208
 10
1.416451009114583
 20
-18.86482611762152
 10
1.761994086371527
 20
-18.72357720269097
 10
2.107881673177083
 20
-18.57922770182291
 10
5.145077853732638
 20
-17.27732611762152
 10
7.381978352864583
 20
-15.23817409939236
 10
8.923314073350693
 20
-12.3032972547743
 10
10.4367445203993
 20
-9.410450575086803
 10
11.01896565755208
 20
-6.288160536024305
 10
10.21832546657986
 20
-3.092145453559027
 10
9.308131239149304
 20
0.53795166015625
 10
7.399548339843748
 20
3.974089898003471
 10
5.371076117621527
 20
6.95495876736111
 10
4.340992567274304
 20
8.468389214409722
 10
3.278869628906249
 20
10.03470187717014
 10
2.926091851128472
 20
11.85147298177083
 10
2.552298990885416
 20
13.76005588107639
 10
3.416673448350694
 20
16.33888210720486
 10
5.554355197482638
 20
16.90336100260416
 10
7.286549207899304
 20
17.35845811631944
 10
9.106937662760415
 20
16.76228434244791
 10
10.6909925672743
 20
16.05311143663194
 10
10.6909925672743
 20
16.05311143663194
 10
19.11183946397569
 20
10.62743055555555
 10
19.11183946397569
 20
10.62743055555555
 97
        0
 75
     2
 76
     1
 98
        1
 10
0.0
 20
0.0
  0
HATCH
  5
FA
330
F7
100
AcDbEntity
  8
マーク
 62
     7
100
AcDbHatch
 10
0.0
 20
0.0
 30
0.0
210
0.0
220
0.0
230
1.0
  2
SOLID
 70
     1
 71
     0
 91
        1
 92
        1
 93
        1
 72
     4
 94
        3
 73
     0
 74
     0
 95
       68
 96
       64
 40
0.0
 40
0.0
 40
0.0
 40
0.0
 40
1.0
 40
1.0
 40
1.0
 40
2.0
 40
2.0
 40
2.0
 40
3.0
 40
3.0
 40
3.0
 40
4.0
 40
4.0
 40
4.0
 40
5.0
 40
5.0
 40
5.0
 40
6.0
 40
6.0
 40
6.0
 40
7.0
 40
7.0
 40
7.0
 40
8.0
 40
8.0
 40
8.0
 40
9.0
 40
9.0
 40
9.0
 40
10.0
 40
10.0
 40
10.0
 40
11.0
 40
11.0
 40
11.0
 40
12.0
 40
12.0
 40
12.0
 40
13.0
 40
13.0
 40
13.0
 40
14.0
 40
14.0
 40
14.0
 40
15.0
 40
15.0
 40
15.0
 40
16.0
 40
16.0
 40
16.0
 40
17.0
 40
17.0
 40
17.0
 40
18.0
 40
18.0
 40
18.0
 40
19.0
 40
19.0
 40
19.0
 40
20.0
 40
20.0
 40
20.0
 40
21.0
 40
21.0
 40
21.0
 40
21.0
 10
-23.28161078559027
 20
-10.57454833984375
 10
-23.28161078559027
 20
-10.57454833984375
 10
22.7522718641493
 20
-39.98911810980903
 10
22.7522718641493
 20
-39.98911810980903
 10
16.0426038953993
 20
-43.81696370442708
 10
8.278047688802082
 20
-46.0004652235243
 10
0.0017225477430556
 20
-46.0004652235243
 10
-25.40533989800347
 20
-46.0004652235243
 10
-46.0004652235243
 20
-25.40533989800347
 10
-46.0004652235243
 20
0.0017225477430556
 10
-46.0004652235243
 20
16.32820231119791
 10
-37.49504123263888
 20
30.66875678168403
 10
-24.6715345594618
 20
38.8319105360243
 10
-24.6715345594618
 20
38.8319105360243
 10
-0.4709445529513889
 20
23.24268120659722
 10
-0.4709445529513889
 20
23.24268120659722
 10
-0.4709445529513889
 20
23.24268120659722
 10
-0.5345065646701388
 20
23.14397922092014
 10
-0.5345065646701388
 20
23.14397922092014
 10
-2.495971679687499
 20
22.2654798719618
 10
-4.446756998697916
 20
21.18251410590278
 10
-5.77673611111111
 20
19.44325764973958
 10
-7.515992567274304
 20
17.1679443359375
 10
-7.216097005208332
 20
14.03514675564236
 10
-6.394097222222221
 20
11.46700032552083
 10
-5.882672797309027
 20
9.868992784288193
 10
-5.145250108506943
 20
8.344882541232637
 10
-4.309297688802082
 20
6.89139675564236
 10
-3.501422797309027
 20
5.487348090277777
 10
-2.591228569878472
 20
4.15047878689236
 10
-1.677589246961805
 20
2.816882324218749
 10
-0.7250203450520833
 20
1.434020996093749
 10
0.2451185438368055
 20
0.0475423177083333
 10
1.028188747829861
 20
-1.441255696614583
 10
1.811603461371527
 20
-2.926436360677083
 10
2.421729871961805
 20
-4.549076334635416
 10
2.488909233940971
 20
-6.242340766059027
 10
2.555744086371527
 20
-7.847410753038193
 10
2.097201877170138
 20
-9.456270345052082
 10
1.084688313802083
 20
-10.71924235026041
 10
0.0687296549479167
 20
-11.98221435546875
 10
-1.413005913628472
 20
-12.77940945095486
 10
-3.003951009114583
 20
-13.04054768880208
 10
-4.732527669270832
 20
-13.31925591362847
 10
-6.475229220920137
 20
-12.97336832682291
 10
-8.143861219618054
 20
-12.51482611762152
 10
-8.588450792100694
 20
-12.39493679470486
 10
-9.025805664062499
 20
-12.25713297526041
 10
-9.470395236545137
 20
-12.13379855685764
 10
-9.470395236545137
 20
-12.13379855685764
 10
-9.558589680989582
 20
-12.27504747178819
 10
-9.558589680989582
 20
-12.27504747178819
 10
-9.558589680989582
 20
-12.27504747178819
 10
-19.96553412543402
 20
-5.684924316406249
 10
-19.96553412543402
 20
-5.684924316406249
 10
-20.50520833333333
 20
-5.159547254774304
 10
-21.24263102213542
 20
-4.838464355468749
 10
-22.05395100911458
 20
-4.838464355468749
 10
-23.70845811631944
 20
-4.838464355468749
 10
-25.05256212022569
 20
-6.182396104600694
 10
-25.05256212022569
 20
-7.840520562065971
 10
-25.05256212022569
 20
-9.057672797309026
 10
-24.32581922743056
 20
-10.10532633463541
 10
-23.28161078559027
 20
-10.57454833984375
 97
        0
 75
     2
 76
     1
 98
        1
 10
0.0
 20
0.0
  0
ENDBLK
  5
FB
330
F7
100
AcDbEntity
  8
マーク
100
AcDbBlockEnd
  0
BLOCK
  5
10DB
330
10D7
100
AcDbEntity
  8
0
100
AcDbBlockBegin
  2
_Open30
 70
     0
 10
0.0
 20
0.0
 30
0.0
  3
_Open30
  1

  0
LINE
  5
10D8
330
10D7
100
AcDbEntity
  8
0
  6
ByBlock
 62
     0
370
    -2
100
AcDbLine
 10
-1.0
 20
0.26794919
 30
0.0
 11
0.0
 21
0.0
 31
0.0
  0
LINE
  5
10D9
330
10D7
100
AcDbEntity
  8
0
  6
ByBlock
 62
     0
370
    -2
100
AcDbLine
 10
0.0
 20
0.0
 30
0.0
 11
-1.0
 21
-0.26794919
 31
0.0
  0
LINE
  5
10DA
330
10D7
100
AcDbEntity
  8
0
  6
ByBlock
 62
     0
370
    -2
100
AcDbLine
 10
0.0
 20
0.0
 30
0.0
 11
-1.0
 21
0.0
 31
0.0
  0
ENDBLK
  5
10DC
330
10D7
100
AcDbEntity
  8
0
100
AcDbBlockEnd
  0
BLOCK
  5
5BB8
330
5BAE
100
AcDbEntity
  8
0
100
AcDbBlockBegin
  2
*D4
 70
     1
 10
0.0
 20
0.0
 30
0.0
  3
*D4
  1

  0
LINE
  5
5D34
330
5BAE
100
AcDbEntity
  8
寸法
 62
     0
370
    -2
100
AcDbLine
 10
782.8000884495281
 20
1718.909163386516
 30
0.0
 11
782.8000884495281
 21
1793.45085461361
 31
0.0
  0
LINE
  5
5D35
330
5BAE
100
AcDbEntity
  8
寸法
 62
     0
370
    -2
100
AcDbLine
 10
2208.800088449528
 20
1718.909163386516
 30
0.0
 11
2208.800088449528
 21
1793.45085461361
 31
0.0
  0
LINE
  5
5D36
330
5BAE
100
AcDbEntity
  8
寸法
 62
     0
370
    -2
100
AcDbLine
 10
792.8000884495282
 20
1788.45085461361
 30
0.0
 11
2198.800088449528
 21
1788.45085461361
 31
0.0
  0
SOLID
  5
5D37
330
5BAE
100
AcDbEntity
  8
寸法
 62
     0
100
AcDbTrace
 10
792.8000884495282
 20
1790.117521280276
 30
0.0
 11
792.8000884495282
 21
1786.784187946943
 31
0.0
 12
782.8000884495281
 22
1788.45085461361
 32
0.0
 13
782.8000884495281
 23
1788.45085461361
 33
0.0
  0
SOLID
  5
5D38
330
5BAE
100
AcDbEntity
  8
寸法
 62
     0
100
AcDbTrace
 10
2198.800088449528
 20
1790.117521280276
 30
0.0
 11
2198.800088449528
 21
1786.784187946943
 31
0.0
 12
2208.800088449528
 22
1788.45085461361
 32
0.0
 13
2208.800088449528
 23
1788.45085461361
 33
0.0
  0
MTEXT
  5
5D39
330
5BAE
100
AcDbEntity
  8
寸法
 62
     0
100
AcDbMText
 10
1495.800088449528
 20
1808.45085461361
 30
0.0
 40
20.0
 41
0.0
 71
     5
 72
     1
  1
1426
 73
     1
 44
1.0
1001
ACAD
1000
MTEXTBEGIN
1070
    73
1070
     1
1070
    44
1040
1.0
1070
    74
1070
     0
1000
MTEXTEND
  0
POINT
  5
5D3A
330
5BAE
100
AcDbEntity
  8
DEFPOINTS
 62
     0
100
AcDbPoint
 10
782.8000884495281
 20
1688.909163386517
 30
0.0
  0
POINT
  5
5D3B
330
5BAE
100
AcDbEntity
  8
DEFPOINTS
 62
     0
100
AcDbPoint
 10
2208.800088449528
 20
1688.909163386517
 30
0.0
  0
POINT
  5
5D3C
330
5BAE
100
AcDbEntity
  8
DEFPOINTS
 62
     0
100
AcDbPoint
 10
2208.800088449528
 20
1788.45085461361
 30
0.0
  0
ENDBLK
  5
5BB9
330
5BAE
100
AcDbEntity
  8
0
100
AcDbBlockEnd
  0
BLOCK
  5
5BC4
330
5BBA
100
AcDbEntity
  8
0
100
AcDbBlockBegin
  2
*D5
 70
     1
 10
0.0
 20
0.0
 30
0.0
  3
*D5
  1

  0
LINE
  5
5D3D
330
5BBA
100
AcDbEntity
  8
寸法
 62
     0
370
    -2
100
AcDbLine
 10
2238.800088449528
 20
1688.909163386517
 30
0.0
 11
2267.854034440014
 21
1688.909163386517
 31
0.0
  0
LINE
  5
5D3E
330
5BBA
100
AcDbEntity
  8
寸法
 62
     0
370
    -2
100
AcDbLine
 10
2238.800088449528
 20
1389.909163386517
 30
0.0
 11
2267.854034440014
 21
1389.909163386517
 31
0.0
  0
LINE
  5
5D3F
330
5BBA
100
AcDbEntity
  8
寸法
 62
     0
370
    -2
100
AcDbLine
 10
2262.854034440014
 20
1678.909163386517
 30
0.0
 11
2262.854034440014
 21
1399.909163386517
 31
0.0
  0
SOLID
  5
5D40
330
5BBA
100
AcDbEntity
  8
寸法
 62
     0
100
AcDbTrace
 10
2261.187367773347
 20
1678.909163386517
 30
0.0
 11
2264.520701106681
 21
1678.909163386517
 31
0.0
 12
2262.854034440014
 22
1688.909163386517
 32
0.0
 13
2262.854034440014
 23
1688.909163386517
 33
0.0
  0
SOLID
  5
5D41
330
5BBA
100
AcDbEntity
  8
寸法
 62
     0
100
AcDbTrace
 10
2261.187367773347
 20
1399.909163386517
 30
0.0
 11
2264.520701106681
 21
1399.909163386517
 31
0.0
 12
2262.854034440014
 22
1389.909163386517
 32
0.0
 13
2262.854034440014
 23
1389.909163386517
 33
0.0
  0
MTEXT
  5
5D42
330
5BBA
100
AcDbEntity
  8
寸法
 62
     0
100
AcDbMText
 10
2282.854034440013
 20
1539.409163386517
 30
0.0
 40
20.0
 41
0.0
 71
     5
 72
     1
  1
299
 11
0.0000000000000001
 21
1.0
 31
0.0
 73
     1
 44
1.0
1001
ACAD
1000
MTEXTBEGIN
1070
    73
1070
     1
1070
    44
1040
1.0
1070
    74
1070
     0
1000
MTEXTEND
  0
POINT
  5
5D43
330
5BBA
100
AcDbEntity
  8
DEFPOINTS
 62
     0
100
AcDbPoint
 10
2208.800088449528
 20
1688.909163386517
 30
0.0
  0
POINT
  5
5D44
330
5BBA
100
AcDbEntity
  8
DEFPOINTS
 62
     0
100
AcDbPoint
 10
2208.800088449528
 20
1389.909163386517
 30
0.0
  0
POINT
  5
5D45
330
5BBA
100
AcDbEntity
  8
DEFPOINTS
 62
     0
100
AcDbPoint
 10
2262.854034440014
 20
1389.909163386517
 30
0.0
  0
ENDBLK
  5
5BC5
330
5BBA
100
AcDbEntity
  8
0
100
AcDbBlockEnd
  0
BLOCK
  5
5BD2
330
5BC6
100
AcDbEntity
  8
0
100
AcDbBlockBegin
  2
*D6
 70
     1
 10
0.0
 20
0.0
 30
0.0
  3
*D6
  1

  0
LINE
  5
5D46
330
5BC6
100
AcDbEntity
  8
寸法
 62
     0
370
    -2
100
AcDbLine
 10
2195.800088449528
 20
1384.909163386517
 30
0.0
 11
2267.854034440015
 21
1384.909163386517
 31
0.0
  0
LINE
  5
5D47
330
5BC6
100
AcDbEntity
  8
寸法
 62
     0
370
    -2
100
AcDbLine
 10
2238.800088449528
 20
1389.909163386517
 30
0.0
 11
2267.854034440015
 21
1389.909163386517
 31
0.0
  0
LINE
  5
5D48
330
5BC6
100
AcDbEntity
  8
寸法
 62
     0
370
    -2
100
AcDbLine
 10
2262.854034440014
 20
1374.909163386517
 30
0.0
 11
2262.854034440014
 21
1364.909163386517
 31
0.0
  0
LINE
  5
5D49
330
5BC6
100
AcDbEntity
  8
寸法
 62
     0
370
    -2
100
AcDbLine
 10
2262.854034440014
 20
1399.909163386517
 30
0.0
 11
2262.854034440014
 21
1409.909163386517
 31
0.0
  0
LINE
  5
5D4A
330
5BC6
100
AcDbEntity
  8
寸法
 62
     0
370
    -2
100
AcDbLine
 10
2262.854034440014
 20
1384.909163386517
 30
0.0
 11
2262.854034440014
 21
1389.909163386517
 31
0.0
  0
SOLID
  5
5D4B
330
5BC6
100
AcDbEntity
  8
寸法
 62
     0
100
AcDbTrace
 10
2261.187367773348
 20
1374.909163386517
 30
0.0
 11
2264.520701106681
 21
1374.909163386517
 31
0.0
 12
2262.854034440014
 22
1384.909163386517
 32
0.0
 13
2262.854034440014
 23
1384.909163386517
 33
0.0
  0
SOLID
  5
5D4C
330
5BC6
100
AcDbEntity
  8
寸法
 62
     0
100
AcDbTrace
 10
2261.187367773348
 20
1399.909163386517
 30
0.0
 11
2264.520701106681
 21
1399.909163386517
 31
0.0
 12
2262.854034440014
 22
1389.909163386517
 32
0.0
 13
2262.854034440014
 23
1389.909163386517
 33
0.0
  0
MTEXT
  5
5D4D
330
5BC6
100
AcDbEntity
  8
寸法
 62
     0
100
AcDbMText
 10
2282.854034440014
 20
1387.409163386517
 30
0.0
 40
20.0
 41
0.0
 71
     5
 72
     1
  1
5
 11
0.0000000000000001
 21
1.0
 31
0.0
 73
     1
 44
1.0
1001
ACAD
1000
MTEXTBEGIN
1070
    73
1070
     1
1070
    44
1040
1.0
1070
    74
1070
     0
1000
MTEXTEND
  0
POINT
  5
5D4E
330
5BC6
100
AcDbEntity
  8
DEFPOINTS
 62
     0
100
AcDbPoint
 10
2165.800088449528
 20
1384.909163386517
 30
0.0
  0
POINT
  5
5D4F
330
5BC6
100
AcDbEntity
  8
DEFPOINTS
 62
     0
100
AcDbPoint
 10
2208.800088449528
 20
1389.909163386517
 30
0.0
  0
POINT
  5
5D50
330
5BC6
100
AcDbEntity
  8
DEFPOINTS
 62
     0
100
AcDbPoint
 10
2262.854034440014
 20
1389.909163386517
 30
0.0
  0
ENDBLK
  5
5BD3
330
5BC6
100
AcDbEntity
  8
0
100
AcDbBlockEnd
  0
BLOCK
  5
5BDE
330
5BD4
100
AcDbEntity
  8
0
100
AcDbBlockBegin
  2
*D7
 70
     1
 10
0.0
 20
0.0
 30
0.0
  3
*D7
  1

  0
LINE
  5
5D51
330
5BD4
100
AcDbEntity
  8
寸法
 62
     0
370
    -2
100
AcDbLine
 10
2190.800088449528
 20
1288.909163386517
 30
0.0
 11
2267.854034440015
 21
1288.909163386517
 31
0.0
  0
LINE
  5
5D52
330
5BD4
100
AcDbEntity
  8
寸法
 62
     0
370
    -2
100
AcDbLine
 10
2195.800088449528
 20
1384.909163386517
 30
0.0
 11
2267.854034440015
 21
1384.909163386517
 31
0.0
  0
LINE
  5
5D53
330
5BD4
100
AcDbEntity
  8
寸法
 62
     0
370
    -2
100
AcDbLine
 10
2262.854034440014
 20
1298.909163386517
 30
0.0
 11
2262.854034440014
 21
1374.909163386517
 31
0.0
  0
SOLID
  5
5D54
330
5BD4
100
AcDbEntity
  8
寸法
 62
     0
100
AcDbTrace
 10
2261.187367773348
 20
1298.909163386517
 30
0.0
 11
2264.520701106681
 21
1298.909163386517
 31
0.0
 12
2262.854034440014
 22
1288.909163386517
 32
0.0
 13
2262.854034440014
 23
1288.909163386517
 33
0.0
  0
SOLID
  5
5D55
330
5BD4
100
AcDbEntity
  8
寸法
 62
     0
100
AcDbTrace
 10
2261.187367773348
 20
1374.909163386517
 30
0.0
 11
2264.520701106681
 21
1374.909163386517
 31
0.0
 12
2262.854034440014
 22
1384.909163386517
 32
0.0
 13
2262.854034440014
 23
1384.909163386517
 33
0.0
  0
MTEXT
  5
5D56
330
5BD4
100
AcDbEntity
  8
寸法
 62
     0
100
AcDbMText
 10
2282.854034440014
 20
1336.909163386517
 30
0.0
 40
20.0
 41
0.0
 71
     5
 72
     1
  1
96
 11
0.0000000000000001
 21
1.0
 31
0.0
 73
     1
 44
1.0
1001
ACAD
1000
MTEXTBEGIN
1070
    73
1070
     1
1070
    44
1040
1.0
1070
    74
1070
     0
1000
MTEXTEND
  0
POINT
  5
5D57
330
5BD4
100
AcDbEntity
  8
DEFPOINTS
 62
     0
100
AcDbPoint
 10
2160.800088449528
 20
1288.909163386517
 30
0.0
  0
POINT
  5
5D58
330
5BD4
100
AcDbEntity
  8
DEFPOINTS
 62
     0
100
AcDbPoint
 10
2165.800088449528
 20
1384.909163386517
 30
0.0
  0
POINT
  5
5D59
330
5BD4
100
AcDbEntity
  8
DEFPOINTS
 62
     0
100
AcDbPoint
 10
2262.854034440014
 20
1384.909163386517
 30
0.0
  0
ENDBLK
  5
5BDF
330
5BD4
100
AcDbEntity
  8
0
100
AcDbBlockEnd
  0
BLOCK
  5
5BEA
330
5BE0
100
AcDbEntity
  8
0
100
AcDbBlockBegin
  2
*D8
 70
     1
 10
0.0
 20
0.0
 30
0.0
  3
*D8
  1

  0
LINE
  5
5D5A
330
5BE0
100
AcDbEntity
  8
寸法
 62
     0
370
    -2
100
AcDbLine
 10
830.8000884495282
 20
1258.909163386517
 30
0.0
 11
830.8000884495282
 21
1228.21170822149
 31
0.0
  0
LINE
  5
5D5B
330
5BE0
100
AcDbEntity
  8
寸法
 62
     0
370
    -2
100
AcDbLine
 10
2160.800088449528
 20
1258.909163386517
 30
0.0
 11
2160.800088449528
 21
1228.21170822149
 31
0.0
  0
LINE
  5
5D5C
330
5BE0
100
AcDbEntity
  8
寸法
 62
     0
370
    -2
100
AcDbLine
 10
840.8000884495281
 20
1233.21170822149
 30
0.0
 11
2150.800088449528
 21
1233.21170822149
 31
0.0
  0
SOLID
  5
5D5D
330
5BE0
100
AcDbEntity
  8
寸法
 62
     0
100
AcDbTrace
 10
840.8000884495281
 20
1234.878374888157
 30
0.0
 11
840.8000884495281
 21
1231.545041554824
 31
0.0
 12
830.8000884495282
 22
1233.21170822149
 32
0.0
 13
830.8000884495282
 23
1233.21170822149
 33
0.0
  0
SOLID
  5
5D5E
330
5BE0
100
AcDbEntity
  8
寸法
 62
     0
100
AcDbTrace
 10
2150.800088449528
 20
1234.878374888157
 30
0.0
 11
2150.800088449528
 21
1231.545041554824
 31
0.0
 12
2160.800088449528
 22
1233.21170822149
 32
0.0
 13
2160.800088449528
 23
1233.21170822149
 33
0.0
  0
MTEXT
  5
5D5F
330
5BE0
100
AcDbEntity
  8
寸法
 62
     0
100
AcDbMText
 10
1495.800088449528
 20
1213.21170822149
 30
0.0
 40
20.0
 41
0.0
 71
     5
 72
     1
  1
1330
 73
     1
 44
1.0
1001
ACAD
1000
MTEXTBEGIN
1070
    73
1070
     1
1070
    44
1040
1.0
1070
    74
1070
     0
1000
MTEXTEND
  0
POINT
  5
5D60
330
5BE0
100
AcDbEntity
  8
DEFPOINTS
 62
     0
100
AcDbPoint
 10
830.8000884495282
 20
1288.909163386517
 30
0.0
  0
POINT
  5
5D61
330
5BE0
100
AcDbEntity
  8
DEFPOINTS
 62
     0
100
AcDbPoint
 10
2160.800088449528
 20
1288.909163386517
 30
0.0
  0
POINT
  5
5D62
330
5BE0
100
AcDbEntity
  8
DEFPOINTS
 62
     0
100
AcDbPoint
 10
2160.800088449528
 20
1233.21170822149
 30
0.0
  0
ENDBLK
  5
5BEB
330
5BE0
100
AcDbEntity
  8
0
100
AcDbBlockEnd
  0
BLOCK
  5
5BF8
330
5BEC
100
AcDbEntity
  8
0
100
AcDbBlockBegin
  2
*D9
 70
     1
 10
0.0
 20
0.0
 30
0.0
  3
*D9
  1

  0
LINE
  5
5D63
330
5BEC
100
AcDbEntity
  8
寸法
 62
     0
370
    -2
100
AcDbLine
 10
825.8000884495281
 20
1354.909163386517
 30
0.0
 11
825.8000884495281
 21
1228.21170822149
 31
0.0
  0
LINE
  5
5D64
330
5BEC
100
AcDbEntity
  8
寸法
 62
     0
370
    -2
100
AcDbLine
 10
830.8000884495282
 20
1258.909163386517
 30
0.0
 11
830.8000884495282
 21
1228.21170822149
 31
0.0
  0
LINE
  5
5D65
330
5BEC
100
AcDbEntity
  8
寸法
 62
     0
370
    -2
100
AcDbLine
 10
815.8000884495281
 20
1233.21170822149
 30
0.0
 11
805.8000884495282
 21
1233.21170822149
 31
0.0
  0
LINE
  5
5D66
330
5BEC
100
AcDbEntity
  8
寸法
 62
     0
370
    -2
100
AcDbLine
 10
840.8000884495281
 20
1233.21170822149
 30
0.0
 11
850.8000884495281
 21
1233.21170822149
 31
0.0
  0
LINE
  5
5D67
330
5BEC
100
AcDbEntity
  8
寸法
 62
     0
370
    -2
100
AcDbLine
 10
825.8000884495281
 20
1233.21170822149
 30
0.0
 11
830.8000884495282
 21
1233.21170822149
 31
0.0
  0
SOLID
  5
5D68
330
5BEC
100
AcDbEntity
  8
寸法
 62
     0
100
AcDbTrace
 10
815.8000884495281
 20
1234.878374888157
 30
0.0
 11
815.8000884495281
 21
1231.545041554824
 31
0.0
 12
825.8000884495281
 22
1233.21170822149
 32
0.0
 13
825.8000884495281
 23
1233.21170822149
 33
0.0
  0
SOLID
  5
5D69
330
5BEC
100
AcDbEntity
  8
寸法
 62
     0
100
AcDbTrace
 10
840.8000884495281
 20
1234.878374888157
 30
0.0
 11
840.8000884495281
 21
1231.545041554824
 31
0.0
 12
830.8000884495282
 22
1233.21170822149
 32
0.0
 13
830.8000884495282
 23
1233.21170822149
 33
0.0
  0
MTEXT
  5
5D6A
330
5BEC
100
AcDbEntity
  8
寸法
 62
     0
100
AcDbMText
 10
828.3000884495281
 20
1213.21170822149
 30
0.0
 40
20.0
 41
0.0
 71
     5
 72
     1
  1
5
 73
     1
 44
1.0
1001
ACAD
1000
MTEXTBEGIN
1070
    73
1070
     1
1070
    44
1040
1.0
1070
    74
1070
     0
1000
MTEXTEND
  0
POINT
  5
5D6B
330
5BEC
100
AcDbEntity
  8
DEFPOINTS
 62
     0
100
AcDbPoint
 10
825.8000884495281
 20
1384.909163386517
 30
0.0
  0
POINT
  5
5D6C
330
5BEC
100
AcDbEntity
  8
DEFPOINTS
 62
     0
100
AcDbPoint
 10
830.8000884495282
 20
1288.909163386517
 30
0.0
  0
POINT
  5
5D6D
330
5BEC
100
AcDbEntity
  8
DEFPOINTS
 62
     0
100
AcDbPoint
 10
830.8000884495282
 20
1233.21170822149
 30
0.0
  0
ENDBLK
  5
5BF9
330
5BEC
100
AcDbEntity
  8
0
100
AcDbBlockEnd
  0
BLOCK
  5
5C06
330
5BFA
100
AcDbEntity
  8
0
100
AcDbBlockBegin
  2
*D10
 70
     1
 10
0.0
 20
0.0
 30
0.0
  3
*D10
  1

  0
LINE
  5
5D6E
330
5BFA
100
AcDbEntity
  8
寸法
 62
     0
370
    -2
100
AcDbLine
 10
2165.800088449528
 20
1354.909163386517
 30
0.0
 11
2165.800088449528
 21
1228.21170822149
 31
0.0
  0
LINE
  5
5D6F
330
5BFA
100
AcDbEntity
  8
寸法
 62
     0
370
    -2
100
AcDbLine
 10
2160.800088449528
 20
1258.909163386517
 30
0.0
 11
2160.800088449528
 21
1228.21170822149
 31
0.0
  0
LINE
  5
5D70
330
5BFA
100
AcDbEntity
  8
寸法
 62
     0
370
    -2
100
AcDbLine
 10
2175.800088449528
 20
1233.21170822149
 30
0.0
 11
2185.800088449528
 21
1233.21170822149
 31
0.0
  0
LINE
  5
5D71
330
5BFA
100
AcDbEntity
  8
寸法
 62
     0
370
    -2
100
AcDbLine
 10
2150.800088449528
 20
1233.21170822149
 30
0.0
 11
2140.800088449529
 21
1233.21170822149
 31
0.0
  0
LINE
  5
5D72
330
5BFA
100
AcDbEntity
  8
寸法
 62
     0
370
    -2
100
AcDbLine
 10
2165.800088449528
 20
1233.21170822149
 30
0.0
 11
2160.800088449528
 21
1233.21170822149
 31
0.0
  0
SOLID
  5
5D73
330
5BFA
100
AcDbEntity
  8
寸法
 62
     0
100
AcDbTrace
 10
2175.800088449528
 20
1234.878374888157
 30
0.0
 11
2175.800088449528
 21
1231.545041554824
 31
0.0
 12
2165.800088449528
 22
1233.21170822149
 32
0.0
 13
2165.800088449528
 23
1233.21170822149
 33
0.0
  0
SOLID
  5
5D74
330
5BFA
100
AcDbEntity
  8
寸法
 62
     0
100
AcDbTrace
 10
2150.800088449528
 20
1234.878374888157
 30
0.0
 11
2150.800088449528
 21
1231.545041554824
 31
0.0
 12
2160.800088449528
 22
1233.21170822149
 32
0.0
 13
2160.800088449528
 23
1233.21170822149
 33
0.0
  0
MTEXT
  5
5D75
330
5BFA
100
AcDbEntity
  8
寸法
 62
     0
100
AcDbMText
 10
2163.300088449528
 20
1213.21170822149
 30
0.0
 40
20.0
 41
0.0
 71
     5
 72
     1
  1
5
 73
     1
 44
1.0
1001
ACAD
1000
MTEXTBEGIN
1070
    73
1070
     1
1070
    44
1040
1.0
1070
    74
1070
     0
1000
MTEXTEND
  0
POINT
  5
5D76
330
5BFA
100
AcDbEntity
  8
DEFPOINTS
 62
     0
100
AcDbPoint
 10
2165.800088449528
 20
1384.909163386517
 30
0.0
  0
POINT
  5
5D77
330
5BFA
100
AcDbEntity
  8
DEFPOINTS
 62
     0
100
AcDbPoint
 10
2160.800088449528
 20
1288.909163386517
 30
0.0
  0
POINT
  5
5D78
330
5BFA
100
AcDbEntity
  8
DEFPOINTS
 62
     0
100
AcDbPoint
 10
2160.800088449528
 20
1233.21170822149
 30
0.0
  0
ENDBLK
  5
5C07
330
5BFA
100
AcDbEntity
  8
0
100
AcDbBlockEnd
  0
BLOCK
  5
5CB8
330
5CAE
100
AcDbEntity
  8
0
100
AcDbBlockBegin
  2
*D11
 70
     1
 10
0.0
 20
0.0
 30
0.0
  3
*D11
  1

  0
LINE
  5
5E6A
330
5CAE
100
AcDbEntity
  8
寸法
 62
     0
370
    -2
100
AcDbLine
 10
916.1501925295878
 20
782.1943670860621
 30
0.0
 11
819.1984534147048
 21
592.4459633897917
 31
0.0
  0
LINE
  5
5E6B
330
5CAE
100
AcDbEntity
  8
寸法
 62
     0
370
    -2
100
AcDbLine
 10
782.5762110273138
 20
850.4438466857644
 30
0.0
 11
685.6244719124308
 21
660.695442989494
 31
0.0
  0
LINE
  5
5E6C
330
5CAE
100
AcDbEntity
  8
寸法
 62
     0
370
    -2
100
AcDbLine
 10
812.5685039678765
 20
601.4483947465143
 30
0.0
 11
696.8043866659058
 21
660.5979437329229
 31
0.0
  0
SOLID
  5
5E6D
330
5CAE
100
AcDbEntity
  8
寸法
 62
     0
100
AcDbTrace
 10
813.3268315189843
 20
602.9325500965395
 30
0.0
 11
811.8101764167688
 21
599.9642393964891
 31
0.0
 12
821.4734360680282
 22
596.8984294398674
 32
0.0
 13
821.4734360680282
 23
596.8984294398674
 33
0.0
  0
SOLID
  5
5E6E
330
5CAE
100
AcDbEntity
  8
寸法
 62
     0
100
AcDbTrace
 10
697.5627142170136
 20
662.0820990829481
 30
0.0
 11
696.046059114798
 21
659.1137883828977
 31
0.0
 12
687.8994545657542
 22
665.1479090395697
 32
0.0
 13
687.8994545657542
 23
665.1479090395697
 33
0.0
  0
MTEXT
  5
5E6F
330
5CAE
100
AcDbEntity
  8
寸法
 62
     0
100
AcDbMText
 10
745.5865147035977
 20
613.2133050394154
 30
0.0
 40
20.0
 41
0.0
 71
     5
 72
     1
  1
150
 11
0.8904932100151597
 21
-0.4549965306646816
 31
0.0
 73
     1
 44
1.0
1001
ACAD
1000
MTEXTBEGIN
1070
    73
1070
     1
1070
    44
1040
1.0
1070
    74
1070
     0
1000
MTEXTEND
  0
POINT
  5
5E70
330
5CAE
100
AcDbEntity
  8
DEFPOINTS
 62
     0
100
AcDbPoint
 10
929.8000884495282
 20
808.9091633865168
 30
0.0
  0
POINT
  5
5E71
330
5CAE
100
AcDbEntity
  8
DEFPOINTS
 62
     0
100
AcDbPoint
 10
796.2261069472543
 20
877.1586429862191
 30
0.0
  0
POINT
  5
5E72
330
5CAE
100
AcDbEntity
  8
DEFPOINTS
 62
     0
100
AcDbPoint
 10
687.8994545657542
 20
665.1479090395697
 30
0.0
  0
ENDBLK
  5
5CB9
330
5CAE
100
AcDbEntity
  8
0
100
AcDbBlockEnd
  0
BLOCK
  5
5CE8
330
5CDE
100
AcDbEntity
  8
0
100
AcDbBlockBegin
  2
*D12
 70
     1
 10
0.0
 20
0.0
 30
0.0
  3
*D12
  1

  0
LINE
  5
5EB2
330
5CDE
100
AcDbEntity
  8
寸法
 62
     0
370
    -2
100
AcDbLine
 10
825.8000884495281
 20
2568.909163386517
 30
0.0
 11
825.8000884495281
 21
2594.24438039825
 31
0.0
  0
LINE
  5
5EB3
330
5CDE
100
AcDbEntity
  8
寸法
 62
     0
370
    -2
100
AcDbLine
 10
782.8000884495281
 20
2568.909163386517
 30
0.0
 11
782.8000884495281
 21
2594.24438039825
 31
0.0
  0
LINE
  5
5EB4
330
5CDE
100
AcDbEntity
  8
寸法
 62
     0
370
    -2
100
AcDbLine
 10
815.8000884495281
 20
2589.24438039825
 30
0.0
 11
792.8000884495282
 21
2589.24438039825
 31
0.0
  0
SOLID
  5
5EB5
330
5CDE
100
AcDbEntity
  8
寸法
 62
     0
100
AcDbTrace
 10
815.8000884495281
 20
2590.911047064917
 30
0.0
 11
815.8000884495281
 21
2587.577713731584
 31
0.0
 12
825.8000884495281
 22
2589.24438039825
 32
0.0
 13
825.8000884495281
 23
2589.24438039825
 33
0.0
  0
SOLID
  5
5EB6
330
5CDE
100
AcDbEntity
  8
寸法
 62
     0
100
AcDbTrace
 10
792.8000884495282
 20
2590.911047064917
 30
0.0
 11
792.8000884495282
 21
2587.577713731584
 31
0.0
 12
782.8000884495281
 22
2589.24438039825
 32
0.0
 13
782.8000884495281
 23
2589.24438039825
 33
0.0
  0
MTEXT
  5
5EB7
330
5CDE
100
AcDbEntity
  8
寸法
 62
     0
100
AcDbMText
 10
804.3000884495281
 20
2609.24438039825
 30
0.0
 40
20.0
 41
0.0
 71
     5
 72
     1
  1
43
 73
     1
 44
1.0
1001
ACAD
1000
MTEXTBEGIN
1070
    73
1070
     1
1070
    44
1040
1.0
1070
    74
1070
     0
1000
MTEXTEND
  0
POINT
  5
5EB8
330
5CDE
100
AcDbEntity
  8
DEFPOINTS
 62
     0
100
AcDbPoint
 10
825.8000884495281
 20
2538.909163386517
 30
0.0
  0
POINT
  5
5EB9
330
5CDE
100
AcDbEntity
  8
DEFPOINTS
 62
     0
100
AcDbPoint
 10
782.8000884495281
 20
2538.909163386517
 30
0.0
  0
POINT
  5
5EBA
330
5CDE
100
AcDbEntity
  8
DEFPOINTS
 62
     0
100
AcDbPoint
 10
782.8000884495281
 20
2589.24438039825
 30
0.0
  0
ENDBLK
  5
5CE9
330
5CDE
100
AcDbEntity
  8
0
100
AcDbBlockEnd
  0
BLOCK
  5
5CF6
330
5CEA
100
AcDbEntity
  8
0
100
AcDbBlockBegin
  2
*D13
 70
     1
 10
0.0
 20
0.0
 30
0.0
  3
*D13
  1

  0
LINE
  5
5EFB
330
5CEA
100
AcDbEntity
  8
寸法
 62
     0
370
    -2
100
AcDbLine
 10
2165.800088449528
 20
2204.909163386517
 30
0.0
 11
2165.800088449528
 21
2078.211708221491
 31
0.0
  0
LINE
  5
5EFC
330
5CEA
100
AcDbEntity
  8
寸法
 62
     0
370
    -2
100
AcDbLine
 10
2160.800088449528
 20
2108.909163386517
 30
0.0
 11
2160.800088449528
 21
2078.211708221491
 31
0.0
  0
LINE
  5
5EFD
330
5CEA
100
AcDbEntity
  8
寸法
 62
     0
370
    -2
100
AcDbLine
 10
2175.800088449528
 20
2083.21170822149
 30
0.0
 11
2185.800088449528
 21
2083.21170822149
 31
0.0
  0
LINE
  5
5EFE
330
5CEA
100
AcDbEntity
  8
寸法
 62
     0
370
    -2
100
AcDbLine
 10
2150.800088449528
 20
2083.21170822149
 30
0.0
 11
2140.800088449529
 21
2083.21170822149
 31
0.0
  0
LINE
  5
5EFF
330
5CEA
100
AcDbEntity
  8
寸法
 62
     0
370
    -2
100
AcDbLine
 10
2165.800088449528
 20
2083.21170822149
 30
0.0
 11
2160.800088449528
 21
2083.21170822149
 31
0.0
  0
SOLID
  5
5F00
330
5CEA
100
AcDbEntity
  8
寸法
 62
     0
100
AcDbTrace
 10
2175.800088449528
 20
2084.878374888157
 30
0.0
 11
2175.800088449528
 21
2081.545041554824
 31
0.0
 12
2165.800088449528
 22
2083.21170822149
 32
0.0
 13
2165.800088449528
 23
2083.21170822149
 33
0.0
  0
SOLID
  5
5F01
330
5CEA
100
AcDbEntity
  8
寸法
 62
     0
100
AcDbTrace
 10
2150.800088449528
 20
2084.878374888157
 30
0.0
 11
2150.800088449528
 21
2081.545041554824
 31
0.0
 12
2160.800088449528
 22
2083.21170822149
 32
0.0
 13
2160.800088449528
 23
2083.21170822149
 33
0.0
  0
MTEXT
  5
5F02
330
5CEA
100
AcDbEntity
  8
寸法
 62
     0
100
AcDbMText
 10
2163.300088449528
 20
2063.211708221491
 30
0.0
 40
20.0
 41
0.0
 71
     5
 72
     1
  1
5
 73
     1
 44
1.0
1001
ACAD
1000
MTEXTBEGIN
1070
    73
1070
     1
1070
    44
1040
1.0
1070
    74
1070
     0
1000
MTEXTEND
  0
POINT
  5
5F03
330
5CEA
100
AcDbEntity
  8
DEFPOINTS
 62
     0
100
AcDbPoint
 10
2165.800088449528
 20
2234.909163386517
 30
0.0
  0
POINT
  5
5F04
330
5CEA
100
AcDbEntity
  8
DEFPOINTS
 62
     0
100
AcDbPoint
 10
2160.800088449528
 20
2138.909163386517
 30
0.0
  0
POINT
  5
5F05
330
5CEA
100
AcDbEntity
  8
DEFPOINTS
 62
     0
100
AcDbPoint
 10
2160.800088449528
 20
2083.21170822149
 30
0.0
  0
ENDBLK
  5
5CF7
330
5CEA
100
AcDbEntity
  8
0
100
AcDbBlockEnd
  0
BLOCK
  5
5D02
330
5CF8
100
AcDbEntity
  8
0
100
AcDbBlockBegin
  2
*D14
 70
     1
 10
0.0
 20
0.0
 30
0.0
  3
*D14
  1

  0
LINE
  5
5F2A
330
5CF8
100
AcDbEntity
  8
寸法
 62
     0
370
    -2
100
AcDbLine
 10
2208.800088449528
 20
808.9091633865168
 30
0.0
 11
2208.800088449528
 21
667.4970047881275
 31
0.0
  0
LINE
  5
5F2B
330
5CF8
100
AcDbEntity
  8
寸法
 62
     0
370
    -2
100
AcDbLine
 10
2165.800088449528
 20
758.9091633865169
 30
0.0
 11
2165.800088449528
 21
667.4970047881275
 31
0.0
  0
LINE
  5
5F2C
330
5CF8
100
AcDbEntity
  8
寸法
 62
     0
370
    -2
100
AcDbLine
 10
2198.800088449528
 20
672.4970047881274
 30
0.0
 11
2175.800088449528
 21
672.4970047881274
 31
0.0
  0
SOLID
  5
5F2D
330
5CF8
100
AcDbEntity
  8
寸法
 62
     0
100
AcDbTrace
 10
2198.800088449528
 20
674.1636714547941
 30
0.0
 11
2198.800088449528
 21
670.8303381214608
 31
0.0
 12
2208.800088449528
 22
672.4970047881274
 32
0.0
 13
2208.800088449528
 23
672.4970047881274
 33
0.0
  0
SOLID
  5
5F2E
330
5CF8
100
AcDbEntity
  8
寸法
 62
     0
100
AcDbTrace
 10
2175.800088449528
 20
674.1636714547941
 30
0.0
 11
2175.800088449528
 21
670.8303381214608
 31
0.0
 12
2165.800088449528
 22
672.4970047881274
 32
0.0
 13
2165.800088449528
 23
672.4970047881274
 33
0.0
  0
MTEXT
  5
5F2F
330
5CF8
100
AcDbEntity
  8
寸法
 62
     0
100
AcDbMText
 10
2187.300088449529
 20
652.4970047881274
 30
0.0
 40
20.0
 41
0.0
 71
     5
 72
     1
  1
43
 73
     1
 44
1.0
1001
ACAD
1000
MTEXTBEGIN
1070
    73
1070
     1
1070
    44
1040
1.0
1070
    74
1070
     0
1000
MTEXTEND
  0
POINT
  5
5F30
330
5CF8
100
AcDbEntity
  8
DEFPOINTS
 62
     0
100
AcDbPoint
 10
2208.800088449528
 20
838.9091633865168
 30
0.0
  0
POINT
  5
5F31
330
5CF8
100
AcDbEntity
  8
DEFPOINTS
 62
     0
100
AcDbPoint
 10
2165.800088449528
 20
788.9091633865168
 30
0.0
  0
POINT
  5
5F32
330
5CF8
100
AcDbEntity
  8
DEFPOINTS
 62
     0
100
AcDbPoint
 10
2165.800088449528
 20
672.4970047881274
 30
0.0
  0
ENDBLK
  5
5D03
330
5CF8
100
AcDbEntity
  8
0
100
AcDbBlockEnd
  0
BLOCK
  5
5D0E
330
5D04
100
AcDbEntity
  8
0
100
AcDbBlockBegin
  2
*D15
 70
     1
 10
0.0
 20
0.0
 30
0.0
  3
*D15
  1

  0
LINE
  5
5F5B
330
5D04
100
AcDbEntity
  8
寸法
 62
     0
370
    -2
100
AcDbLine
 10
2838.800088449529
 20
2138.909163386517
 30
0.0
 11
2863.800088449528
 21
2138.909163386517
 31
0.0
  0
LINE
  5
5F5C
330
5D04
100
AcDbEntity
  8
寸法
 62
     0
370
    -2
100
AcDbLine
 10
2838.800088449529
 20
2538.909163386517
 30
0.0
 11
2863.800088449528
 21
2538.909163386517
 31
0.0
  0
LINE
  5
5F5D
330
5D04
100
AcDbEntity
  8
寸法
 62
     0
370
    -2
100
AcDbLine
 10
2858.800088449529
 20
2148.909163386517
 30
0.0
 11
2858.800088449529
 21
2528.909163386517
 31
0.0
  0
SOLID
  5
5F5E
330
5D04
100
AcDbEntity
  8
寸法
 62
     0
100
AcDbTrace
 10
2857.133421782862
 20
2148.909163386517
 30
0.0
 11
2860.466755116195
 21
2148.909163386517
 31
0.0
 12
2858.800088449529
 22
2138.909163386517
 32
0.0
 13
2858.800088449529
 23
2138.909163386517
 33
0.0
  0
SOLID
  5
5F5F
330
5D04
100
AcDbEntity
  8
寸法
 62
     0
100
AcDbTrace
 10
2857.133421782862
 20
2528.909163386517
 30
0.0
 11
2860.466755116195
 21
2528.909163386517
 31
0.0
 12
2858.800088449529
 22
2538.909163386517
 32
0.0
 13
2858.800088449529
 23
2538.909163386517
 33
0.0
  0
MTEXT
  5
5F60
330
5D04
100
AcDbEntity
  8
寸法
 62
     0
100
AcDbMText
 10
2878.800088449528
 20
2338.909163386517
 30
0.0
 40
20.0
 41
0.0
 71
     5
 72
     1
  1
400
 11
0.0000000000000001
 21
1.0
 31
0.0
 73
     1
 44
1.0
1001
ACAD
1000
MTEXTBEGIN
1070
    73
1070
     1
1070
    44
1040
1.0
1070
    74
1070
     0
1000
MTEXTEND
  0
POINT
  5
5F61
330
5D04
100
AcDbEntity
  8
DEFPOINTS
 62
     0
100
AcDbPoint
 10
2808.800088449528
 20
2138.909163386517
 30
0.0
  0
POINT
  5
5F62
330
5D04
100
AcDbEntity
  8
DEFPOINTS
 62
     0
100
AcDbPoint
 10
2808.800088449528
 20
2538.909163386517
 30
0.0
  0
POINT
  5
5F63
330
5D04
100
AcDbEntity
  8
DEFPOINTS
 62
     0
100
AcDbPoint
 10
2858.800088449529
 20
2538.909163386517
 30
0.0
  0
ENDBLK
  5
5D0F
330
5D04
100
AcDbEntity
  8
0
100
AcDbBlockEnd
  0
BLOCK
  5
5D1A
330
5D10
100
AcDbEntity
  8
0
100
AcDbBlockBegin
  2
*D16
 70
     1
 10
0.0
 20
0.0
 30
0.0
  3
*D16
  1

  0
LINE
  5
5D11
330
5D10
100
AcDbEntity
  8
寸法
 62
     0
370
    -2
100
AcDbLine
 10
2708.800088449529
 20
2108.909163386517
 30
0.0
 11
2708.800088449529
 21
2028.110308324755
 31
0.0
  0
LINE
  5
5D12
330
5D10
100
AcDbEntity
  8
寸法
 62
     0
370
    -2
100
AcDbLine
 10
2808.800088449528
 20
2108.909163386517
 30
0.0
 11
2808.800088449528
 21
2028.110308324755
 31
0.0
  0
LINE
  5
5D13
330
5D10
100
AcDbEntity
  8
寸法
 62
     0
370
    -2
100
AcDbLine
 10
2718.800088449528
 20
2033.110308324755
 30
0.0
 11
2798.800088449528
 21
2033.110308324755
 31
0.0
  0
SOLID
  5
5D14
330
5D10
100
AcDbEntity
  8
寸法
 62
     0
100
AcDbTrace
 10
2718.800088449528
 20
2034.776974991422
 30
0.0
 11
2718.800088449528
 21
2031.443641658088
 31
0.0
 12
2708.800088449529
 22
2033.110308324755
 32
0.0
 13
2708.800088449529
 23
2033.110308324755
 33
0.0
  0
SOLID
  5
5D15
330
5D10
100
AcDbEntity
  8
寸法
 62
     0
100
AcDbTrace
 10
2798.800088449528
 20
2034.776974991422
 30
0.0
 11
2798.800088449528
 21
2031.443641658088
 31
0.0
 12
2808.800088449528
 22
2033.110308324755
 32
0.0
 13
2808.800088449528
 23
2033.110308324755
 33
0.0
  0
MTEXT
  5
5D16
330
5D10
100
AcDbEntity
  8
寸法
 62
     0
100
AcDbMText
 10
2758.800088449528
 20
2013.110308324755
 30
0.0
 40
20.0
 41
0.0
 71
     5
 72
     1
  1
100
 73
     1
 44
1.0
1001
ACAD
1000
MTEXTBEGIN
1070
    73
1070
     1
1070
    44
1040
1.0
1070
    74
1070
     0
1000
MTEXTEND
  0
POINT
  5
5D17
330
5D10
100
AcDbEntity
  8
DEFPOINTS
 62
     0
100
AcDbPoint
 10
2708.800088449529
 20
2138.909163386517
 30
0.0
  0
POINT
  5
5D18
330
5D10
100
AcDbEntity
  8
DEFPOINTS
 62
     0
100
AcDbPoint
 10
2808.800088449528
 20
2138.909163386517
 30
0.0
  0
POINT
  5
5D19
330
5D10
100
AcDbEntity
  8
DEFPOINTS
 62
     0
100
AcDbPoint
 10
2808.800088449528
 20
2033.110308324755
 30
0.0
  0
ENDBLK
  5
5D1B
330
5D10
100
AcDbEntity
  8
0
100
AcDbBlockEnd
  0
BLOCK
  5
5D26
330
5D1C
100
AcDbEntity
  8
0
100
AcDbBlockBegin
  2
*D17
 70
     1
 10
0.0
 20
0.0
 30
0.0
  3
*D17
  1

  0
LINE
  5
60F2
330
5D1C
100
AcDbEntity
  8
寸法
 62
     0
370
    -2
100
AcDbLine
 10
2075.449984369469
 20
782.1943670860621
 30
0.0
 11
2172.401723484352
 21
592.4459633897915
 31
0.0
  0
LINE
  5
60F3
330
5D1C
100
AcDbEntity
  8
寸法
 62
     0
370
    -2
100
AcDbLine
 10
2209.023965871743
 20
850.4438466857644
 30
0.0
 11
2305.975704986626
 21
660.6954429894937
 31
0.0
  0
LINE
  5
60F4
330
5D1C
100
AcDbEntity
  8
寸法
 62
     0
370
    -2
100
AcDbLine
 10
2179.03167293118
 20
601.4483947465139
 30
0.0
 11
2294.795790233151
 21
660.5979437329226
 31
0.0
  0
SOLID
  5
60F5
330
5D1C
100
AcDbEntity
  8
寸法
 62
     0
100
AcDbTrace
 10
2178.273345380072
 20
602.9325500965391
 30
0.0
 11
2179.790000482288
 21
599.9642393964887
 31
0.0
 12
2170.126740831029
 22
596.8984294398672
 32
0.0
 13
2170.126740831029
 23
596.8984294398672
 33
0.0
  0
SOLID
  5
60F6
330
5D1C
100
AcDbEntity
  8
寸法
 62
     0
100
AcDbTrace
 10
2294.037462682043
 20
662.0820990829479
 30
0.0
 11
2295.554117784259
 21
659.1137883828974
 31
0.0
 12
2303.700722333303
 22
665.1479090395694
 32
0.0
 13
2303.700722333303
 23
665.1479090395694
 33
0.0
  0
MTEXT
  5
60F7
330
5D1C
100
AcDbEntity
  8
寸法
 62
     0
100
AcDbMText
 10
2246.013662195459
 20
613.2133050394152
 30
0.0
 40
20.0
 41
0.0
 71
     5
 72
     1
  1
150
 11
0.8904932100151597
 21
0.4549965306646818
 31
0.0
 73
     1
 44
1.0
1001
ACAD
1000
MTEXTBEGIN
1070
    73
1070
     1
1070
    44
1040
1.0
1070
    74
1070
     0
1000
MTEXTEND
  0
POINT
  5
60F8
330
5D1C
100
AcDbEntity
  8
DEFPOINTS
 62
     0
100
AcDbPoint
 10
2061.800088449528
 20
808.9091633865169
 30
0.0
  0
POINT
  5
60F9
330
5D1C
100
AcDbEntity
  8
DEFPOINTS
 62
     0
100
AcDbPoint
 10
2195.374069951802
 20
877.1586429862193
 30
0.0
  0
POINT
  5
60FA
330
5D1C
100
AcDbEntity
  8
DEFPOINTS
 62
     0
100
AcDbPoint
 10
2303.700722333303
 20
665.1479090395694
 30
0.0
  0
ENDBLK
  5
5D27
330
5D1C
100
AcDbEntity
  8
0
100
AcDbBlockEnd
  0
BLOCK
  5
5D32
330
5D28
100
AcDbEntity
  8
0
100
AcDbBlockBegin
  2
*D18
 70
     1
 10
0.0
 20
0.0
 30
0.0
  3
*D18
  1

  0
LINE
  5
60E9
330
5D28
100
AcDbEntity
  8
寸法
 62
     0
370
    -2
100
AcDbLine
 10
929.8000884495282
 20
778.9091633865169
 30
0.0
 11
929.8000884495282
 21
732.3216160724964
 31
0.0
  0
LINE
  5
60EA
330
5D28
100
AcDbEntity
  8
寸法
 62
     0
370
    -2
100
AcDbLine
 10
2061.800088449528
 20
778.9091633865169
 30
0.0
 11
2061.800088449528
 21
732.3216160724964
 31
0.0
  0
LINE
  5
60EB
330
5D28
100
AcDbEntity
  8
寸法
 62
     0
370
    -2
100
AcDbLine
 10
939.8000884495282
 20
737.3216160724965
 30
0.0
 11
2051.800088449528
 21
737.3216160724965
 31
0.0
  0
SOLID
  5
60EC
330
5D28
100
AcDbEntity
  8
寸法
 62
     0
100
AcDbTrace
 10
939.8000884495282
 20
738.988282739163
 30
0.0
 11
939.8000884495282
 21
735.6549494058298
 31
0.0
 12
929.8000884495282
 22
737.3216160724965
 32
0.0
 13
929.8000884495282
 23
737.3216160724965
 33
0.0
  0
SOLID
  5
60ED
330
5D28
100
AcDbEntity
  8
寸法
 62
     0
100
AcDbTrace
 10
2051.800088449528
 20
738.988282739163
 30
0.0
 11
2051.800088449528
 21
735.6549494058298
 31
0.0
 12
2061.800088449528
 22
737.3216160724965
 32
0.0
 13
2061.800088449528
 23
737.3216160724965
 33
0.0
  0
MTEXT
  5
60EE
330
5D28
100
AcDbEntity
  8
寸法
 62
     0
100
AcDbMText
 10
1495.800088449528
 20
717.3216160724964
 30
0.0
 40
20.0
 41
0.0
 71
     5
 72
     1
  1
1132
 73
     1
 44
1.0
1001
ACAD
1000
MTEXTBEGIN
1070
    73
1070
     1
1070
    44
1040
1.0
1070
    74
1070
     0
1000
MTEXTEND
  0
POINT
  5
60EF
330
5D28
100
AcDbEntity
  8
DEFPOINTS
 62
     0
100
AcDbPoint
 10
929.8000884495282
 20
808.9091633865168
 30
0.0
  0
POINT
  5
60F0
330
5D28
100
AcDbEntity
  8
DEFPOINTS
 62
     0
100
AcDbPoint
 10
2061.800088449528
 20
808.9091633865168
 30
0.0
  0
POINT
  5
60F1
330
5D28
100
AcDbEntity
  8
DEFPOINTS
 62
     0
100
AcDbPoint
 10
2061.800088449528
 20
737.3216160724965
 30
0.0
  0
ENDBLK
  5
5D33
330
5D28
100
AcDbEntity
  8
0
100
AcDbBlockEnd
  0
BLOCK
  5
5E98
330
5E8E
100
AcDbEntity
  8
0
100
AcDbBlockBegin
  2
*D19
 70
     1
 10
0.0
 20
0.0
 30
0.0
  3
*D19
  1

  0
LINE
  5
5E8F
330
5E8E
100
AcDbEntity
  8
寸法
 62
     0
370
    -2
100
AcDbLine
 10
782.8000884495281
 20
2568.909163386517
 30
0.0
 11
782.8000884495281
 21
2643.45085461361
 31
0.0
  0
LINE
  5
5E90
330
5E8E
100
AcDbEntity
  8
寸法
 62
     0
370
    -2
100
AcDbLine
 10
2208.800088449528
 20
2568.909163386517
 30
0.0
 11
2208.800088449528
 21
2643.45085461361
 31
0.0
  0
LINE
  5
5E91
330
5E8E
100
AcDbEntity
  8
寸法
 62
     0
370
    -2
100
AcDbLine
 10
792.8000884495282
 20
2638.45085461361
 30
0.0
 11
2198.800088449528
 21
2638.45085461361
 31
0.0
  0
SOLID
  5
5E92
330
5E8E
100
AcDbEntity
  8
寸法
 62
     0
100
AcDbTrace
 10
792.8000884495282
 20
2640.117521280277
 30
0.0
 11
792.8000884495282
 21
2636.784187946944
 31
0.0
 12
782.8000884495281
 22
2638.45085461361
 32
0.0
 13
782.8000884495281
 23
2638.45085461361
 33
0.0
  0
SOLID
  5
5E93
330
5E8E
100
AcDbEntity
  8
寸法
 62
     0
100
AcDbTrace
 10
2198.800088449528
 20
2640.117521280277
 30
0.0
 11
2198.800088449528
 21
2636.784187946944
 31
0.0
 12
2208.800088449528
 22
2638.45085461361
 32
0.0
 13
2208.800088449528
 23
2638.45085461361
 33
0.0
  0
MTEXT
  5
5E94
330
5E8E
100
AcDbEntity
  8
寸法
 62
     0
100
AcDbMText
 10
1495.800088449528
 20
2658.45085461361
 30
0.0
 40
20.0
 41
0.0
 71
     5
 72
     1
  1
1426
 73
     1
 44
1.0
1001
ACAD
1000
MTEXTBEGIN
1070
    73
1070
     1
1070
    44
1040
1.0
1070
    74
1070
     0
1000
MTEXTEND
  0
POINT
  5
5E95
330
5E8E
100
AcDbEntity
  8
DEFPOINTS
 62
     0
100
AcDbPoint
 10
782.8000884495281
 20
2538.909163386517
 30
0.0
  0
POINT
  5
5E96
330
5E8E
100
AcDbEntity
  8
DEFPOINTS
 62
     0
100
AcDbPoint
 10
2208.800088449528
 20
2538.909163386517
 30
0.0
  0
POINT
  5
5E97
330
5E8E
100
AcDbEntity
  8
DEFPOINTS
 62
     0
100
AcDbPoint
 10
2208.800088449528
 20
2638.45085461361
 30
0.0
  0
ENDBLK
  5
5E99
330
5E8E
100
AcDbEntity
  8
0
100
AcDbBlockEnd
  0
BLOCK
  5
5EA4
330
5E9A
100
AcDbEntity
  8
0
100
AcDbBlockBegin
  2
*D20
 70
     1
 10
0.0
 20
0.0
 30
0.0
  3
*D20
  1

  0
LINE
  5
5E9B
330
5E9A
100
AcDbEntity
  8
寸法
 62
     0
370
    -2
100
AcDbLine
 10
825.8000884495281
 20
2568.909163386517
 30
0.0
 11
825.8000884495281
 21
2594.24438039825
 31
0.0
  0
LINE
  5
5E9C
330
5E9A
100
AcDbEntity
  8
寸法
 62
     0
370
    -2
100
AcDbLine
 10
2165.800088449528
 20
2568.909163386517
 30
0.0
 11
2165.800088449528
 21
2594.24438039825
 31
0.0
  0
LINE
  5
5E9D
330
5E9A
100
AcDbEntity
  8
寸法
 62
     0
370
    -2
100
AcDbLine
 10
835.8000884495281
 20
2589.24438039825
 30
0.0
 11
2155.800088449528
 21
2589.24438039825
 31
0.0
  0
SOLID
  5
5E9E
330
5E9A
100
AcDbEntity
  8
寸法
 62
     0
100
AcDbTrace
 10
835.8000884495281
 20
2590.911047064917
 30
0.0
 11
835.8000884495281
 21
2587.577713731584
 31
0.0
 12
825.8000884495281
 22
2589.24438039825
 32
0.0
 13
825.8000884495281
 23
2589.24438039825
 33
0.0
  0
SOLID
  5
5E9F
330
5E9A
100
AcDbEntity
  8
寸法
 62
     0
100
AcDbTrace
 10
2155.800088449528
 20
2590.911047064917
 30
0.0
 11
2155.800088449528
 21
2587.577713731584
 31
0.0
 12
2165.800088449528
 22
2589.24438039825
 32
0.0
 13
2165.800088449528
 23
2589.24438039825
 33
0.0
  0
MTEXT
  5
5EA0
330
5E9A
100
AcDbEntity
  8
寸法
 62
     0
100
AcDbMText
 10
1495.800088449528
 20
2609.24438039825
 30
0.0
 40
20.0
 41
0.0
 71
     5
 72
     1
  1
1340
 73
     1
 44
1.0
1001
ACAD
1000
MTEXTBEGIN
1070
    73
1070
     1
1070
    44
1040
1.0
1070
    74
1070
     0
1000
MTEXTEND
  0
POINT
  5
5EA1
330
5E9A
100
AcDbEntity
  8
DEFPOINTS
 62
     0
100
AcDbPoint
 10
825.8000884495281
 20
2538.909163386517
 30
0.0
  0
POINT
  5
5EA2
330
5E9A
100
AcDbEntity
  8
DEFPOINTS
 62
     0
100
AcDbPoint
 10
2165.800088449528
 20
2538.909163386517
 30
0.0
  0
POINT
  5
5EA3
330
5E9A
100
AcDbEntity
  8
DEFPOINTS
 62
     0
100
AcDbPoint
 10
2165.800088449528
 20
2589.24438039825
 30
0.0
  0
ENDBLK
  5
5EA5
330
5E9A
100
AcDbEntity
  8
0
100
AcDbBlockEnd
  0
BLOCK
  5
5EB0
330
5EA6
100
AcDbEntity
  8
0
100
AcDbBlockBegin
  2
*D21
 70
     1
 10
0.0
 20
0.0
 30
0.0
  3
*D21
  1

  0
LINE
  5
5EA7
330
5EA6
100
AcDbEntity
  8
寸法
 62
     0
370
    -2
100
AcDbLine
 10
2165.800088449528
 20
2568.909163386517
 30
0.0
 11
2165.800088449528
 21
2594.24438039825
 31
0.0
  0
LINE
  5
5EA8
330
5EA6
100
AcDbEntity
  8
寸法
 62
     0
370
    -2
100
AcDbLine
 10
2208.800088449528
 20
2568.909163386517
 30
0.0
 11
2208.800088449528
 21
2594.24438039825
 31
0.0
  0
LINE
  5
5EA9
330
5EA6
100
AcDbEntity
  8
寸法
 62
     0
370
    -2
100
AcDbLine
 10
2175.800088449528
 20
2589.24438039825
 30
0.0
 11
2198.800088449528
 21
2589.24438039825
 31
0.0
  0
SOLID
  5
5EAA
330
5EA6
100
AcDbEntity
  8
寸法
 62
     0
100
AcDbTrace
 10
2175.800088449528
 20
2590.911047064917
 30
0.0
 11
2175.800088449528
 21
2587.577713731584
 31
0.0
 12
2165.800088449528
 22
2589.24438039825
 32
0.0
 13
2165.800088449528
 23
2589.24438039825
 33
0.0
  0
SOLID
  5
5EAB
330
5EA6
100
AcDbEntity
  8
寸法
 62
     0
100
AcDbTrace
 10
2198.800088449528
 20
2590.911047064917
 30
0.0
 11
2198.800088449528
 21
2587.577713731584
 31
0.0
 12
2208.800088449528
 22
2589.24438039825
 32
0.0
 13
2208.800088449528
 23
2589.24438039825
 33
0.0
  0
MTEXT
  5
5EAC
330
5EA6
100
AcDbEntity
  8
寸法
 62
     0
100
AcDbMText
 10
2187.300088449529
 20
2609.24438039825
 30
0.0
 40
20.0
 41
0.0
 71
     5
 72
     1
  1
43
 73
     1
 44
1.0
1001
ACAD
1000
MTEXTBEGIN
1070
    73
1070
     1
1070
    44
1040
1.0
1070
    74
1070
     0
1000
MTEXTEND
  0
POINT
  5
5EAD
330
5EA6
100
AcDbEntity
  8
DEFPOINTS
 62
     0
100
AcDbPoint
 10
2165.800088449528
 20
2538.909163386517
 30
0.0
  0
POINT
  5
5EAE
330
5EA6
100
AcDbEntity
  8
DEFPOINTS
 62
     0
100
AcDbPoint
 10
2208.800088449528
 20
2538.909163386517
 30
0.0
  0
POINT
  5
5EAF
330
5EA6
100
AcDbEntity
  8
DEFPOINTS
 62
     0
100
AcDbPoint
 10
2208.800088449528
 20
2589.24438039825
 30
0.0
  0
ENDBLK
  5
5EB1
330
5EA6
100
AcDbEntity
  8
0
100
AcDbBlockEnd
  0
BLOCK
  5
5EC5
330
5EBB
100
AcDbEntity
  8
0
100
AcDbBlockBegin
  2
*D22
 70
     1
 10
0.0
 20
0.0
 30
0.0
  3
*D22
  1

  0
LINE
  5
5FEC
330
5EBB
100
AcDbEntity
  8
寸法
 62
     0
370
    -2
100
AcDbLine
 10
2238.800088449528
 20
2538.909163386517
 30
0.0
 11
2398.687720203968
 21
2538.909163386517
 31
0.0
  0
LINE
  5
5FED
330
5EBB
100
AcDbEntity
  8
寸法
 62
     0
370
    -2
100
AcDbLine
 10
2238.800088449528
 20
2239.909163386517
 30
0.0
 11
2398.687720203968
 21
2239.909163386517
 31
0.0
  0
LINE
  5
5FEE
330
5EBB
100
AcDbEntity
  8
寸法
 62
     0
370
    -2
100
AcDbLine
 10
2393.687720203968
 20
2528.909163386517
 30
0.0
 11
2393.687720203968
 21
2249.909163386517
 31
0.0
  0
SOLID
  5
5FEF
330
5EBB
100
AcDbEntity
  8
寸法
 62
     0
100
AcDbTrace
 10
2392.021053537302
 20
2528.909163386517
 30
0.0
 11
2395.354386870635
 21
2528.909163386517
 31
0.0
 12
2393.687720203968
 22
2538.909163386517
 32
0.0
 13
2393.687720203968
 23
2538.909163386517
 33
0.0
  0
SOLID
  5
5FF0
330
5EBB
100
AcDbEntity
  8
寸法
 62
     0
100
AcDbTrace
 10
2392.021053537302
 20
2249.909163386517
 30
0.0
 11
2395.354386870635
 21
2249.909163386517
 31
0.0
 12
2393.687720203968
 22
2239.909163386517
 32
0.0
 13
2393.687720203968
 23
2239.909163386517
 33
0.0
  0
MTEXT
  5
5FF1
330
5EBB
100
AcDbEntity
  8
寸法
 62
     0
100
AcDbMText
 10
2413.687720203968
 20
2389.409163386517
 30
0.0
 40
20.0
 41
0.0
 71
     5
 72
     1
  1
299
 11
0.0000000000000001
 21
1.0
 31
0.0
 73
     1
 44
1.0
1001
ACAD
1000
MTEXTBEGIN
1070
    73
1070
     1
1070
    44
1040
1.0
1070
    74
1070
     0
1000
MTEXTEND
  0
POINT
  5
5FF2
330
5EBB
100
AcDbEntity
  8
DEFPOINTS
 62
     0
100
AcDbPoint
 10
2208.800088449528
 20
2538.909163386517
 30
0.0
  0
POINT
  5
5FF3
330
5EBB
100
AcDbEntity
  8
DEFPOINTS
 62
     0
100
AcDbPoint
 10
2208.800088449528
 20
2239.909163386517
 30
0.0
  0
POINT
  5
5FF4
330
5EBB
100
AcDbEntity
  8
DEFPOINTS
 62
     0
100
AcDbPoint
 10
2393.687720203968
 20
2239.909163386517
 30
0.0
  0
ENDBLK
  5
5EC6
330
5EBB
100
AcDbEntity
  8
0
100
AcDbBlockEnd
  0
BLOCK
  5
5ED3
330
5EC7
100
AcDbEntity
  8
0
100
AcDbBlockBegin
  2
*D23
 70
     1
 10
0.0
 20
0.0
 30
0.0
  3
*D23
  1

  0
LINE
  5
5FF5
330
5EC7
100
AcDbEntity
  8
寸法
 62
     0
370
    -2
100
AcDbLine
 10
2195.800088449528
 20
2234.909163386517
 30
0.0
 11
2398.687720203969
 21
2234.909163386517
 31
0.0
  0
LINE
  5
5FF6
330
5EC7
100
AcDbEntity
  8
寸法
 62
     0
370
    -2
100
AcDbLine
 10
2238.800088449528
 20
2239.909163386517
 30
0.0
 11
2398.687720203969
 21
2239.909163386517
 31
0.0
  0
LINE
  5
5FF7
330
5EC7
100
AcDbEntity
  8
寸法
 62
     0
370
    -2
100
AcDbLine
 10
2393.687720203969
 20
2224.909163386517
 30
0.0
 11
2393.687720203969
 21
2214.909163386517
 31
0.0
  0
LINE
  5
5FF8
330
5EC7
100
AcDbEntity
  8
寸法
 62
     0
370
    -2
100
AcDbLine
 10
2393.687720203969
 20
2249.909163386517
 30
0.0
 11
2393.687720203969
 21
2259.909163386517
 31
0.0
  0
LINE
  5
5FF9
330
5EC7
100
AcDbEntity
  8
寸法
 62
     0
370
    -2
100
AcDbLine
 10
2393.687720203969
 20
2234.909163386517
 30
0.0
 11
2393.687720203969
 21
2239.909163386517
 31
0.0
  0
SOLID
  5
5FFA
330
5EC7
100
AcDbEntity
  8
寸法
 62
     0
100
AcDbTrace
 10
2392.021053537302
 20
2224.909163386517
 30
0.0
 11
2395.354386870635
 21
2224.909163386517
 31
0.0
 12
2393.687720203969
 22
2234.909163386517
 32
0.0
 13
2393.687720203969
 23
2234.909163386517
 33
0.0
  0
SOLID
  5
5FFB
330
5EC7
100
AcDbEntity
  8
寸法
 62
     0
100
AcDbTrace
 10
2392.021053537302
 20
2249.909163386517
 30
0.0
 11
2395.354386870635
 21
2249.909163386517
 31
0.0
 12
2393.687720203969
 22
2239.909163386517
 32
0.0
 13
2393.687720203969
 23
2239.909163386517
 33
0.0
  0
MTEXT
  5
5FFC
330
5EC7
100
AcDbEntity
  8
寸法
 62
     0
100
AcDbMText
 10
2413.687720203968
 20
2237.409163386518
 30
0.0
 40
20.0
 41
0.0
 71
     5
 72
     1
  1
5
 11
0.0000000000000001
 21
1.0
 31
0.0
 73
     1
 44
1.0
1001
ACAD
1000
MTEXTBEGIN
1070
    73
1070
     1
1070
    44
1040
1.0
1070
    74
1070
     0
1000
MTEXTEND
  0
POINT
  5
5FFD
330
5EC7
100
AcDbEntity
  8
DEFPOINTS
 62
     0
100
AcDbPoint
 10
2165.800088449528
 20
2234.909163386517
 30
0.0
  0
POINT
  5
5FFE
330
5EC7
100
AcDbEntity
  8
DEFPOINTS
 62
     0
100
AcDbPoint
 10
2208.800088449528
 20
2239.909163386517
 30
0.0
  0
POINT
  5
5FFF
330
5EC7
100
AcDbEntity
  8
DEFPOINTS
 62
     0
100
AcDbPoint
 10
2393.687720203969
 20
2239.909163386517
 30
0.0
  0
ENDBLK
  5
5ED4
330
5EC7
100
AcDbEntity
  8
0
100
AcDbBlockEnd
  0
BLOCK
  5
5EDF
330
5ED5
100
AcDbEntity
  8
0
100
AcDbBlockBegin
  2
*D24
 70
     1
 10
0.0
 20
0.0
 30
0.0
  3
*D24
  1

  0
LINE
  5
6000
330
5ED5
100
AcDbEntity
  8
寸法
 62
     0
370
    -2
100
AcDbLine
 10
2190.800088449528
 20
2138.909163386517
 30
0.0
 11
2398.687720203969
 21
2138.909163386517
 31
0.0
  0
LINE
  5
6001
330
5ED5
100
AcDbEntity
  8
寸法
 62
     0
370
    -2
100
AcDbLine
 10
2195.800088449528
 20
2234.909163386517
 30
0.0
 11
2398.687720203969
 21
2234.909163386517
 31
0.0
  0
LINE
  5
6002
330
5ED5
100
AcDbEntity
  8
寸法
 62
     0
370
    -2
100
AcDbLine
 10
2393.687720203969
 20
2148.909163386517
 30
0.0
 11
2393.687720203969
 21
2224.909163386517
 31
0.0
  0
SOLID
  5
6003
330
5ED5
100
AcDbEntity
  8
寸法
 62
     0
100
AcDbTrace
 10
2392.021053537302
 20
2148.909163386517
 30
0.0
 11
2395.354386870635
 21
2148.909163386517
 31
0.0
 12
2393.687720203969
 22
2138.909163386517
 32
0.0
 13
2393.687720203969
 23
2138.909163386517
 33
0.0
  0
SOLID
  5
6004
330
5ED5
100
AcDbEntity
  8
寸法
 62
     0
100
AcDbTrace
 10
2392.021053537302
 20
2224.909163386517
 30
0.0
 11
2395.354386870635
 21
2224.909163386517
 31
0.0
 12
2393.687720203969
 22
2234.909163386517
 32
0.0
 13
2393.687720203969
 23
2234.909163386517
 33
0.0
  0
MTEXT
  5
6005
330
5ED5
100
AcDbEntity
  8
寸法
 62
     0
100
AcDbMText
 10
2413.687720203968
 20
2186.909163386518
 30
0.0
 40
20.0
 41
0.0
 71
     5
 72
     1
  1
96
 11
0.0000000000000001
 21
1.0
 31
0.0
 73
     1
 44
1.0
1001
ACAD
1000
MTEXTBEGIN
1070
    73
1070
     1
1070
    44
1040
1.0
1070
    74
1070
     0
1000
MTEXTEND
  0
POINT
  5
6006
330
5ED5
100
AcDbEntity
  8
DEFPOINTS
 62
     0
100
AcDbPoint
 10
2160.800088449528
 20
2138.909163386517
 30
0.0
  0
POINT
  5
6007
330
5ED5
100
AcDbEntity
  8
DEFPOINTS
 62
     0
100
AcDbPoint
 10
2165.800088449528
 20
2234.909163386517
 30
0.0
  0
POINT
  5
6008
330
5ED5
100
AcDbEntity
  8
DEFPOINTS
 62
     0
100
AcDbPoint
 10
2393.687720203969
 20
2234.909163386517
 30
0.0
  0
ENDBLK
  5
5EE0
330
5ED5
100
AcDbEntity
  8
0
100
AcDbBlockEnd
  0
BLOCK
  5
5EEB
330
5EE1
100
AcDbEntity
  8
0
100
AcDbBlockBegin
  2
*D25
 70
     1
 10
0.0
 20
0.0
 30
0.0
  3
*D25
  1

  0
LINE
  5
5EE2
330
5EE1
100
AcDbEntity
  8
寸法
 62
     0
370
    -2
100
AcDbLine
 10
830.8000884495282
 20
2108.909163386517
 30
0.0
 11
830.8000884495282
 21
2078.211708221491
 31
0.0
  0
LINE
  5
5EE3
330
5EE1
100
AcDbEntity
  8
寸法
 62
     0
370
    -2
100
AcDbLine
 10
2160.800088449528
 20
2108.909163386517
 30
0.0
 11
2160.800088449528
 21
2078.211708221491
 31
0.0
  0
LINE
  5
5EE4
330
5EE1
100
AcDbEntity
  8
寸法
 62
     0
370
    -2
100
AcDbLine
 10
840.8000884495281
 20
2083.21170822149
 30
0.0
 11
2150.800088449528
 21
2083.21170822149
 31
0.0
  0
SOLID
  5
5EE5
330
5EE1
100
AcDbEntity
  8
寸法
 62
     0
100
AcDbTrace
 10
840.8000884495281
 20
2084.878374888157
 30
0.0
 11
840.8000884495281
 21
2081.545041554824
 31
0.0
 12
830.8000884495282
 22
2083.21170822149
 32
0.0
 13
830.8000884495282
 23
2083.21170822149
 33
0.0
  0
SOLID
  5
5EE6
330
5EE1
100
AcDbEntity
  8
寸法
 62
     0
100
AcDbTrace
 10
2150.800088449528
 20
2084.878374888157
 30
0.0
 11
2150.800088449528
 21
2081.545041554824
 31
0.0
 12
2160.800088449528
 22
2083.21170822149
 32
0.0
 13
2160.800088449528
 23
2083.21170822149
 33
0.0
  0
MTEXT
  5
5EE7
330
5EE1
100
AcDbEntity
  8
寸法
 62
     0
100
AcDbMText
 10
1495.800088449528
 20
2063.211708221491
 30
0.0
 40
20.0
 41
0.0
 71
     5
 72
     1
  1
1330
 73
     1
 44
1.0
1001
ACAD
1000
MTEXTBEGIN
1070
    73
1070
     1
1070
    44
1040
1.0
1070
    74
1070
     0
1000
MTEXTEND
  0
POINT
  5
5EE8
330
5EE1
100
AcDbEntity
  8
DEFPOINTS
 62
     0
100
AcDbPoint
 10
830.8000884495282
 20
2138.909163386517
 30
0.0
  0
POINT
  5
5EE9
330
5EE1
100
AcDbEntity
  8
DEFPOINTS
 62
     0
100
AcDbPoint
 10
2160.800088449528
 20
2138.909163386517
 30
0.0
  0
POINT
  5
5EEA
330
5EE1
100
AcDbEntity
  8
DEFPOINTS
 62
     0
100
AcDbPoint
 10
2160.800088449528
 20
2083.21170822149
 30
0.0
  0
ENDBLK
  5
5EEC
330
5EE1
100
AcDbEntity
  8
0
100
AcDbBlockEnd
  0
BLOCK
  5
5EF9
330
5EED
100
AcDbEntity
  8
0
100
AcDbBlockBegin
  2
*D26
 70
     1
 10
0.0
 20
0.0
 30
0.0
  3
*D26
  1

  0
LINE
  5
5EEE
330
5EED
100
AcDbEntity
  8
寸法
 62
     0
370
    -2
100
AcDbLine
 10
825.8000884495281
 20
2204.909163386517
 30
0.0
 11
825.8000884495281
 21
2078.211708221491
 31
0.0
  0
LINE
  5
5EEF
330
5EED
100
AcDbEntity
  8
寸法
 62
     0
370
    -2
100
AcDbLine
 10
830.8000884495282
 20
2108.909163386517
 30
0.0
 11
830.8000884495282
 21
2078.211708221491
 31
0.0
  0
LINE
  5
5EF0
330
5EED
100
AcDbEntity
  8
寸法
 62
     0
370
    -2
100
AcDbLine
 10
815.8000884495281
 20
2083.21170822149
 30
0.0
 11
805.8000884495282
 21
2083.21170822149
 31
0.0
  0
LINE
  5
5EF1
330
5EED
100
AcDbEntity
  8
寸法
 62
     0
370
    -2
100
AcDbLine
 10
840.8000884495281
 20
2083.21170822149
 30
0.0
 11
850.8000884495281
 21
2083.21170822149
 31
0.0
  0
LINE
  5
5EF2
330
5EED
100
AcDbEntity
  8
寸法
 62
     0
370
    -2
100
AcDbLine
 10
825.8000884495281
 20
2083.21170822149
 30
0.0
 11
830.8000884495282
 21
2083.21170822149
 31
0.0
  0
SOLID
  5
5EF3
330
5EED
100
AcDbEntity
  8
寸法
 62
     0
100
AcDbTrace
 10
815.8000884495281
 20
2084.878374888157
 30
0.0
 11
815.8000884495281
 21
2081.545041554824
 31
0.0
 12
825.8000884495281
 22
2083.21170822149
 32
0.0
 13
825.8000884495281
 23
2083.21170822149
 33
0.0
  0
SOLID
  5
5EF4
330
5EED
100
AcDbEntity
  8
寸法
 62
     0
100
AcDbTrace
 10
840.8000884495281
 20
2084.878374888157
 30
0.0
 11
840.8000884495281
 21
2081.545041554824
 31
0.0
 12
830.8000884495282
 22
2083.21170822149
 32
0.0
 13
830.8000884495282
 23
2083.21170822149
 33
0.0
  0
MTEXT
  5
5EF5
330
5EED
100
AcDbEntity
  8
寸法
 62
     0
100
AcDbMText
 10
828.3000884495281
 20
2063.211708221491
 30
0.0
 40
20.0
 41
0.0
 71
     5
 72
     1
  1
5
 73
     1
 44
1.0
1001
ACAD
1000
MTEXTBEGIN
1070
    73
1070
     1
1070
    44
1040
1.0
1070
    74
1070
     0
1000
MTEXTEND
  0
POINT
  5
5EF6
330
5EED
100
AcDbEntity
  8
DEFPOINTS
 62
     0
100
AcDbPoint
 10
825.8000884495281
 20
2234.909163386517
 30
0.0
  0
POINT
  5
5EF7
330
5EED
100
AcDbEntity
  8
DEFPOINTS
 62
     0
100
AcDbPoint
 10
830.8000884495282
 20
2138.909163386517
 30
0.0
  0
POINT
  5
5EF8
330
5EED
100
AcDbEntity
  8
DEFPOINTS
 62
     0
100
AcDbPoint
 10
830.8000884495282
 20
2083.21170822149
 30
0.0
  0
ENDBLK
  5
5EFA
330
5EED
100
AcDbEntity
  8
0
100
AcDbBlockEnd
  0
BLOCK
  5
5F10
330
5F06
100
AcDbEntity
  8
0
100
AcDbBlockBegin
  2
*D27
 70
     1
 10
0.0
 20
0.0
 30
0.0
  3
*D27
  1

  0
LINE
  5
5F07
330
5F06
100
AcDbEntity
  8
寸法
 62
     0
370
    -2
100
AcDbLine
 10
782.8000884495281
 20
918.9091633865169
 30
0.0
 11
782.8000884495281
 21
1010.430697582415
 31
0.0
  0
LINE
  5
5F08
330
5F06
100
AcDbEntity
  8
寸法
 62
     0
370
    -2
100
AcDbLine
 10
2208.800088449528
 20
918.9091633865169
 30
0.0
 11
2208.800088449528
 21
1010.430697582415
 31
0.0
  0
LINE
  5
5F09
330
5F06
100
AcDbEntity
  8
寸法
 62
     0
370
    -2
100
AcDbLine
 10
792.8000884495282
 20
1005.430697582415
 30
0.0
 11
2198.800088449528
 21
1005.430697582415
 31
0.0
  0
SOLID
  5
5F0A
330
5F06
100
AcDbEntity
  8
寸法
 62
     0
100
AcDbTrace
 10
792.8000884495282
 20
1007.097364249082
 30
0.0
 11
792.8000884495282
 21
1003.764030915748
 31
0.0
 12
782.8000884495281
 22
1005.430697582415
 32
0.0
 13
782.8000884495281
 23
1005.430697582415
 33
0.0
  0
SOLID
  5
5F0B
330
5F06
100
AcDbEntity
  8
寸法
 62
     0
100
AcDbTrace
 10
2198.800088449528
 20
1007.097364249082
 30
0.0
 11
2198.800088449528
 21
1003.764030915748
 31
0.0
 12
2208.800088449528
 22
1005.430697582415
 32
0.0
 13
2208.800088449528
 23
1005.430697582415
 33
0.0
  0
MTEXT
  5
5F0C
330
5F06
100
AcDbEntity
  8
寸法
 62
     0
100
AcDbMText
 10
1495.800088449528
 20
1025.430697582415
 30
0.0
 40
20.0
 41
0.0
 71
     5
 72
     1
  1
1426
 73
     1
 44
1.0
1001
ACAD
1000
MTEXTBEGIN
1070
    73
1070
     1
1070
    44
1040
1.0
1070
    74
1070
     0
1000
MTEXTEND
  0
POINT
  5
5F0D
330
5F06
100
AcDbEntity
  8
DEFPOINTS
 62
     0
100
AcDbPoint
 10
782.8000884495281
 20
888.9091633865168
 30
0.0
  0
POINT
  5
5F0E
330
5F06
100
AcDbEntity
  8
DEFPOINTS
 62
     0
100
AcDbPoint
 10
2208.800088449528
 20
888.9091633865168
 30
0.0
  0
POINT
  5
5F0F
330
5F06
100
AcDbEntity
  8
DEFPOINTS
 62
     0
100
AcDbPoint
 10
2208.800088449528
 20
1005.430697582415
 30
0.0
  0
ENDBLK
  5
5F11
330
5F06
100
AcDbEntity
  8
0
100
AcDbBlockEnd
  0
BLOCK
  5
5F1C
330
5F12
100
AcDbEntity
  8
0
100
AcDbBlockBegin
  2
*D28
 70
     1
 10
0.0
 20
0.0
 30
0.0
  3
*D28
  1

  0
LINE
  5
5F13
330
5F12
100
AcDbEntity
  8
寸法
 62
     0
370
    -2
100
AcDbLine
 10
825.8000884495281
 20
758.9091633865169
 30
0.0
 11
825.8000884495281
 21
667.4970047881275
 31
0.0
  0
LINE
  5
5F14
330
5F12
100
AcDbEntity
  8
寸法
 62
     0
370
    -2
100
AcDbLine
 10
2165.800088449528
 20
758.9091633865169
 30
0.0
 11
2165.800088449528
 21
667.4970047881275
 31
0.0
  0
LINE
  5
5F15
330
5F12
100
AcDbEntity
  8
寸法
 62
     0
370
    -2
100
AcDbLine
 10
835.8000884495281
 20
672.4970047881274
 30
0.0
 11
2155.800088449528
 21
672.4970047881274
 31
0.0
  0
SOLID
  5
5F16
330
5F12
100
AcDbEntity
  8
寸法
 62
     0
100
AcDbTrace
 10
835.8000884495281
 20
674.1636714547941
 30
0.0
 11
835.8000884495281
 21
670.8303381214608
 31
0.0
 12
825.8000884495281
 22
672.4970047881274
 32
0.0
 13
825.8000884495281
 23
672.4970047881274
 33
0.0
  0
SOLID
  5
5F17
330
5F12
100
AcDbEntity
  8
寸法
 62
     0
100
AcDbTrace
 10
2155.800088449528
 20
674.1636714547941
 30
0.0
 11
2155.800088449528
 21
670.8303381214608
 31
0.0
 12
2165.800088449528
 22
672.4970047881274
 32
0.0
 13
2165.800088449528
 23
672.4970047881274
 33
0.0
  0
MTEXT
  5
5F18
330
5F12
100
AcDbEntity
  8
寸法
 62
     0
100
AcDbMText
 10
1495.800088449528
 20
652.4970047881274
 30
0.0
 40
20.0
 41
0.0
 71
     5
 72
     1
  1
1340
 73
     1
 44
1.0
1001
ACAD
1000
MTEXTBEGIN
1070
    73
1070
     1
1070
    44
1040
1.0
1070
    74
1070
     0
1000
MTEXTEND
  0
POINT
  5
5F19
330
5F12
100
AcDbEntity
  8
DEFPOINTS
 62
     0
100
AcDbPoint
 10
825.8000884495281
 20
788.9091633865168
 30
0.0
  0
POINT
  5
5F1A
330
5F12
100
AcDbEntity
  8
DEFPOINTS
 62
     0
100
AcDbPoint
 10
2165.800088449528
 20
788.9091633865168
 30
0.0
  0
POINT
  5
5F1B
330
5F12
100
AcDbEntity
  8
DEFPOINTS
 62
     0
100
AcDbPoint
 10
2165.800088449528
 20
672.4970047881274
 30
0.0
  0
ENDBLK
  5
5F1D
330
5F12
100
AcDbEntity
  8
0
100
AcDbBlockEnd
  0
BLOCK
  5
5F28
330
5F1E
100
AcDbEntity
  8
0
100
AcDbBlockBegin
  2
*D29
 70
     1
 10
0.0
 20
0.0
 30
0.0
  3
*D29
  1

  0
LINE
  5
5F1F
330
5F1E
100
AcDbEntity
  8
寸法
 62
     0
370
    -2
100
AcDbLine
 10
782.8000884495281
 20
808.9091633865168
 30
0.0
 11
782.8000884495281
 21
667.4970047881275
 31
0.0
  0
LINE
  5
5F20
330
5F1E
100
AcDbEntity
  8
寸法
 62
     0
370
    -2
100
AcDbLine
 10
825.8000884495281
 20
758.9091633865169
 30
0.0
 11
825.8000884495281
 21
667.4970047881275
 31
0.0
  0
LINE
  5
5F21
330
5F1E
100
AcDbEntity
  8
寸法
 62
     0
370
    -2
100
AcDbLine
 10
792.8000884495282
 20
672.4970047881274
 30
0.0
 11
815.8000884495281
 21
672.4970047881274
 31
0.0
  0
SOLID
  5
5F22
330
5F1E
100
AcDbEntity
  8
寸法
 62
     0
100
AcDbTrace
 10
792.8000884495282
 20
674.1636714547941
 30
0.0
 11
792.8000884495282
 21
670.8303381214608
 31
0.0
 12
782.8000884495281
 22
672.4970047881274
 32
0.0
 13
782.8000884495281
 23
672.4970047881274
 33
0.0
  0
SOLID
  5
5F23
330
5F1E
100
AcDbEntity
  8
寸法
 62
     0
100
AcDbTrace
 10
815.8000884495281
 20
674.1636714547941
 30
0.0
 11
815.8000884495281
 21
670.8303381214608
 31
0.0
 12
825.8000884495281
 22
672.4970047881274
 32
0.0
 13
825.8000884495281
 23
672.4970047881274
 33
0.0
  0
MTEXT
  5
5F24
330
5F1E
100
AcDbEntity
  8
寸法
 62
     0
100
AcDbMText
 10
804.3000884495281
 20
652.4970047881274
 30
0.0
 40
20.0
 41
0.0
 71
     5
 72
     1
  1
43
 73
     1
 44
1.0
1001
ACAD
1000
MTEXTBEGIN
1070
    73
1070
     1
1070
    44
1040
1.0
1070
    74
1070
     0
1000
MTEXTEND
  0
POINT
  5
5F25
330
5F1E
100
AcDbEntity
  8
DEFPOINTS
 62
     0
100
AcDbPoint
 10
782.8000884495281
 20
838.9091633865168
 30
0.0
  0
POINT
  5
5F26
330
5F1E
100
AcDbEntity
  8
DEFPOINTS
 62
     0
100
AcDbPoint
 10
825.8000884495281
 20
788.9091633865168
 30
0.0
  0
POINT
  5
5F27
330
5F1E
100
AcDbEntity
  8
DEFPOINTS
 62
     0
100
AcDbPoint
 10
825.8000884495281
 20
672.4970047881274
 30
0.0
  0
ENDBLK
  5
5F29
330
5F1E
100
AcDbEntity
  8
0
100
AcDbBlockEnd
  0
BLOCK
  5
5F3E
330
5F33
100
AcDbEntity
  8
0
100
AcDbBlockBegin
  2
*D30
 70
     1
 10
0.0
 20
0.0
 30
0.0
  3
*D30
  1

  0
LINE
  5
5F34
330
5F33
100
AcDbEntity
  8
寸法
 62
     0
370
    -2
100
AcDbLine
 10
2195.800088449528
 20
788.9091633865168
 30
0.0
 11
2267.800379246352
 21
788.9091633865168
 31
0.0
  0
LINE
  5
5F35
330
5F33
100
AcDbEntity
  8
寸法
 62
     0
370
    -2
100
AcDbLine
 10
2238.800088449528
 20
833.9091633865168
 30
0.0
 11
2267.800379246352
 21
833.9091633865168
 31
0.0
  0
LINE
  5
5F36
330
5F33
100
AcDbEntity
  8
寸法
 62
     0
370
    -2
100
AcDbLine
 10
2262.800379246352
 20
823.9091633865168
 30
0.0
 11
2262.800379246352
 21
798.9091633865168
 31
0.0
  0
LINE
  5
5F37
330
5F33
100
AcDbEntity
  8
寸法
 62
     0
370
    -2
100
AcDbLine
 10
2262.800379246352
 20
788.9091633865168
 30
0.0
 11
2262.800379246352
 21
725.5758300531835
 31
0.0
  0
SOLID
  5
5F38
330
5F33
100
AcDbEntity
  8
寸法
 62
     0
100
AcDbTrace
 10
2261.133712579685
 20
823.9091633865168
 30
0.0
 11
2264.467045913018
 21
823.9091633865168
 31
0.0
 12
2262.800379246352
 22
833.9091633865168
 32
0.0
 13
2262.800379246352
 23
833.9091633865168
 33
0.0
  0
SOLID
  5
5F39
330
5F33
100
AcDbEntity
  8
寸法
 62
     0
100
AcDbTrace
 10
2261.133712579685
 20
798.9091633865168
 30
0.0
 11
2264.467045913018
 21
798.9091633865168
 31
0.0
 12
2262.800379246352
 22
788.9091633865168
 32
0.0
 13
2262.800379246352
 23
788.9091633865168
 33
0.0
  0
MTEXT
  5
5F3A
330
5F33
100
AcDbEntity
  8
寸法
 62
     0
100
AcDbMText
 10
2282.800379246352
 20
752.2424967198506
 30
0.0
 40
20.0
 41
0.0
 71
     5
 72
     1
  1
45
 11
0.0000000000000001
 21
1.0
 31
0.0
 73
     1
 44
1.0
1001
ACAD
1000
MTEXTBEGIN
1070
    73
1070
     1
1070
    44
1040
1.0
1070
    74
1070
     0
1000
MTEXTEND
  0
POINT
  5
5F3B
330
5F33
100
AcDbEntity
  8
DEFPOINTS
 62
     0
100
AcDbPoint
 10
2165.800088449528
 20
788.9091633865168
 30
0.0
  0
POINT
  5
5F3C
330
5F33
100
AcDbEntity
  8
DEFPOINTS
 62
     0
100
AcDbPoint
 10
2208.800088449528
 20
833.9091633865168
 30
0.0
  0
POINT
  5
5F3D
330
5F33
100
AcDbEntity
  8
DEFPOINTS
 62
     0
100
AcDbPoint
 10
2262.800379246352
 20
833.9091633865168
 30
0.0
  0
ENDBLK
  5
5F3F
330
5F33
100
AcDbEntity
  8
0
100
AcDbBlockEnd
  0
BLOCK
  5
5F4C
330
5F40
100
AcDbEntity
  8
0
100
AcDbBlockBegin
  2
*D31
 70
     1
 10
0.0
 20
0.0
 30
0.0
  3
*D31
  1

  0
LINE
  5
5F41
330
5F40
100
AcDbEntity
  8
寸法
 62
     0
370
    -2
100
AcDbLine
 10
2195.800088449528
 20
833.9091633865168
 30
0.0
 11
2267.800379246352
 21
833.9091633865168
 31
0.0
  0
LINE
  5
5F42
330
5F40
100
AcDbEntity
  8
寸法
 62
     0
370
    -2
100
AcDbLine
 10
2238.800088449528
 20
838.9091633865168
 30
0.0
 11
2267.800379246352
 21
838.9091633865168
 31
0.0
  0
LINE
  5
5F43
330
5F40
100
AcDbEntity
  8
寸法
 62
     0
370
    -2
100
AcDbLine
 10
2262.800379246352
 20
823.9091633865168
 30
0.0
 11
2262.800379246352
 21
813.9091633865168
 31
0.0
  0
LINE
  5
5F44
330
5F40
100
AcDbEntity
  8
寸法
 62
     0
370
    -2
100
AcDbLine
 10
2262.800379246352
 20
848.9091633865168
 30
0.0
 11
2262.800379246352
 21
858.9091633865168
 31
0.0
  0
LINE
  5
5F45
330
5F40
100
AcDbEntity
  8
寸法
 62
     0
370
    -2
100
AcDbLine
 10
2262.800379246352
 20
833.9091633865168
 30
0.0
 11
2262.800379246352
 21
838.9091633865168
 31
0.0
  0
SOLID
  5
5F46
330
5F40
100
AcDbEntity
  8
寸法
 62
     0
100
AcDbTrace
 10
2261.133712579685
 20
823.9091633865168
 30
0.0
 11
2264.467045913018
 21
823.9091633865168
 31
0.0
 12
2262.800379246352
 22
833.9091633865168
 32
0.0
 13
2262.800379246352
 23
833.9091633865168
 33
0.0
  0
SOLID
  5
5F47
330
5F40
100
AcDbEntity
  8
寸法
 62
     0
100
AcDbTrace
 10
2261.133712579685
 20
848.9091633865168
 30
0.0
 11
2264.467045913018
 21
848.9091633865168
 31
0.0
 12
2262.800379246352
 22
838.9091633865168
 32
0.0
 13
2262.800379246352
 23
838.9091633865168
 33
0.0
  0
MTEXT
  5
5F48
330
5F40
100
AcDbEntity
  8
寸法
 62
     0
100
AcDbMText
 10
2282.800379246352
 20
836.4091633865172
 30
0.0
 40
20.0
 41
0.0
 71
     5
 72
     1
  1
5
 11
0.0000000000000001
 21
1.0
 31
0.0
 73
     1
 44
1.0
1001
ACAD
1000
MTEXTBEGIN
1070
    73
1070
     1
1070
    44
1040
1.0
1070
    74
1070
     0
1000
MTEXTEND
  0
POINT
  5
5F49
330
5F40
100
AcDbEntity
  8
DEFPOINTS
 62
     0
100
AcDbPoint
 10
2165.800088449528
 20
833.9091633865168
 30
0.0
  0
POINT
  5
5F4A
330
5F40
100
AcDbEntity
  8
DEFPOINTS
 62
     0
100
AcDbPoint
 10
2208.800088449528
 20
838.9091633865168
 30
0.0
  0
POINT
  5
5F4B
330
5F40
100
AcDbEntity
  8
DEFPOINTS
 62
     0
100
AcDbPoint
 10
2262.800379246352
 20
838.9091633865168
 30
0.0
  0
ENDBLK
  5
5F4D
330
5F40
100
AcDbEntity
  8
0
100
AcDbBlockEnd
  0
BLOCK
  5
5F59
330
5F4E
100
AcDbEntity
  8
0
100
AcDbBlockBegin
  2
*D32
 70
     1
 10
0.0
 20
0.0
 30
0.0
  3
*D32
  1

  0
LINE
  5
5F4F
330
5F4E
100
AcDbEntity
  8
寸法
 62
     0
370
    -2
100
AcDbLine
 10
2238.800088449528
 20
838.9091633865168
 30
0.0
 11
2267.800379246352
 21
838.9091633865168
 31
0.0
  0
LINE
  5
5F50
330
5F4E
100
AcDbEntity
  8
寸法
 62
     0
370
    -2
100
AcDbLine
 10
2238.800088449528
 20
888.9091633865168
 30
0.0
 11
2267.800379246352
 21
888.9091633865168
 31
0.0
  0
LINE
  5
5F51
330
5F4E
100
AcDbEntity
  8
寸法
 62
     0
370
    -2
100
AcDbLine
 10
2262.800379246352
 20
848.9091633865168
 30
0.0
 11
2262.800379246352
 21
878.9091633865169
 31
0.0
  0
LINE
  5
5F52
330
5F4E
100
AcDbEntity
  8
寸法
 62
     0
370
    -2
100
AcDbLine
 10
2262.800379246352
 20
888.9091633865168
 30
0.0
 11
2262.800379246352
 21
948.9091633865168
 31
0.0
  0
SOLID
  5
5F53
330
5F4E
100
AcDbEntity
  8
寸法
 62
     0
100
AcDbTrace
 10
2261.133712579685
 20
848.9091633865168
 30
0.0
 11
2264.467045913018
 21
848.9091633865168
 31
0.0
 12
2262.800379246352
 22
838.9091633865168
 32
0.0
 13
2262.800379246352
 23
838.9091633865168
 33
0.0
  0
SOLID
  5
5F54
330
5F4E
100
AcDbEntity
  8
寸法
 62
     0
100
AcDbTrace
 10
2261.133712579685
 20
878.9091633865169
 30
0.0
 11
2264.467045913018
 21
878.9091633865169
 31
0.0
 12
2262.800379246352
 22
888.9091633865168
 32
0.0
 13
2262.800379246352
 23
888.9091633865168
 33
0.0
  0
MTEXT
  5
5F55
330
5F4E
100
AcDbEntity
  8
寸法
 62
     0
100
AcDbMText
 10
2282.800379246352
 20
923.9091633865172
 30
0.0
 40
20.0
 41
0.0
 71
     5
 72
     1
  1
50
 11
0.0000000000000001
 21
1.0
 31
0.0
 73
     1
 44
1.0
1001
ACAD
1000
MTEXTBEGIN
1070
    73
1070
     1
1070
    44
1040
1.0
1070
    74
1070
     0
1000
MTEXTEND
  0
POINT
  5
5F56
330
5F4E
100
AcDbEntity
  8
DEFPOINTS
 62
     0
100
AcDbPoint
 10
2208.800088449528
 20
838.9091633865168
 30
0.0
  0
POINT
  5
5F57
330
5F4E
100
AcDbEntity
  8
DEFPOINTS
 62
     0
100
AcDbPoint
 10
2208.800088449528
 20
888.9091633865168
 30
0.0
  0
POINT
  5
5F58
330
5F4E
100
AcDbEntity
  8
DEFPOINTS
 62
     0
100
AcDbPoint
 10
2262.800379246352
 20
888.9091633865168
 30
0.0
  0
ENDBLK
  5
5F5A
330
5F4E
100
AcDbEntity
  8
0
100
AcDbBlockEnd
  0
BLOCK
  5
5F6F
330
5F64
100
AcDbEntity
  8
0
100
AcDbBlockBegin
  2
*D33
 70
     1
 10
0.0
 20
0.0
 30
0.0
  3
*D33
  1

  0
LINE
  5
5F65
330
5F64
100
AcDbEntity
  8
寸法
 62
     0
370
    -2
100
AcDbLine
 10
2708.800088449529
 20
2108.909163386517
 30
0.0
 11
2708.800088449529
 21
2074.2633250841
 31
0.0
  0
LINE
  5
5F66
330
5F64
100
AcDbEntity
  8
寸法
 62
     0
370
    -2
100
AcDbLine
 10
2753.800088449529
 20
2108.909163386517
 30
0.0
 11
2753.800088449529
 21
2074.2633250841
 31
0.0
  0
LINE
  5
5F67
330
5F64
100
AcDbEntity
  8
寸法
 62
     0
370
    -2
100
AcDbLine
 10
2743.800088449528
 20
2079.2633250841
 30
0.0
 11
2718.800088449528
 21
2079.2633250841
 31
0.0
  0
LINE
  5
5F68
330
5F64
100
AcDbEntity
  8
寸法
 62
     0
370
    -2
100
AcDbLine
 10
2708.800088449529
 20
2079.2633250841
 30
0.0
 11
2645.466755116195
 21
2079.2633250841
 31
0.0
  0
SOLID
  5
5F69
330
5F64
100
AcDbEntity
  8
寸法
 62
     0
100
AcDbTrace
 10
2743.800088449528
 20
2080.929991750766
 30
0.0
 11
2743.800088449528
 21
2077.596658417433
 31
0.0
 12
2753.800088449529
 22
2079.2633250841
 32
0.0
 13
2753.800088449529
 23
2079.2633250841
 33
0.0
  0
SOLID
  5
5F6A
330
5F64
100
AcDbEntity
  8
寸法
 62
     0
100
AcDbTrace
 10
2718.800088449528
 20
2080.929991750766
 30
0.0
 11
2718.800088449528
 21
2077.596658417433
 31
0.0
 12
2708.800088449529
 22
2079.2633250841
 32
0.0
 13
2708.800088449529
 23
2079.2633250841
 33
0.0
  0
MTEXT
  5
5F6B
330
5F64
100
AcDbEntity
  8
寸法
 62
     0
100
AcDbMText
 10
2672.133421782862
 20
2059.2633250841
 30
0.0
 40
20.0
 41
0.0
 71
     5
 72
     1
  1
45
 73
     1
 44
1.0
1001
ACAD
1000
MTEXTBEGIN
1070
    73
1070
     1
1070
    44
1040
1.0
1070
    74
1070
     0
1000
MTEXTEND
  0
POINT
  5
5F6C
330
5F64
100
AcDbEntity
  8
DEFPOINTS
 62
     0
100
AcDbPoint
 10
2708.800088449529
 20
2138.909163386517
 30
0.0
  0
POINT
  5
5F6D
330
5F64
100
AcDbEntity
  8
DEFPOINTS
 62
     0
100
AcDbPoint
 10
2753.800088449529
 20
2138.909163386517
 30
0.0
  0
POINT
  5
5F6E
330
5F64
100
AcDbEntity
  8
DEFPOINTS
 62
     0
100
AcDbPoint
 10
2753.800088449529
 20
2079.2633250841
 30
0.0
  0
ENDBLK
  5
5F70
330
5F64
100
AcDbEntity
  8
0
100
AcDbBlockEnd
  0
BLOCK
  5
5F7B
330
5F71
100
AcDbEntity
  8
0
100
AcDbBlockBegin
  2
*D34
 70
     1
 10
0.0
 20
0.0
 30
0.0
  3
*D34
  1

  0
LINE
  5
5F72
330
5F71
100
AcDbEntity
  8
寸法
 62
     0
370
    -2
100
AcDbLine
 10
2753.800088449529
 20
2108.909163386517
 30
0.0
 11
2753.800088449529
 21
2074.2633250841
 31
0.0
  0
LINE
  5
5F73
330
5F71
100
AcDbEntity
  8
寸法
 62
     0
370
    -2
100
AcDbLine
 10
2808.800088449528
 20
2108.909163386517
 30
0.0
 11
2808.800088449528
 21
2074.2633250841
 31
0.0
  0
LINE
  5
5F74
330
5F71
100
AcDbEntity
  8
寸法
 62
     0
370
    -2
100
AcDbLine
 10
2763.800088449528
 20
2079.2633250841
 30
0.0
 11
2798.800088449528
 21
2079.2633250841
 31
0.0
  0
SOLID
  5
5F75
330
5F71
100
AcDbEntity
  8
寸法
 62
     0
100
AcDbTrace
 10
2763.800088449528
 20
2080.929991750766
 30
0.0
 11
2763.800088449528
 21
2077.596658417433
 31
0.0
 12
2753.800088449529
 22
2079.2633250841
 32
0.0
 13
2753.800088449529
 23
2079.2633250841
 33
0.0
  0
SOLID
  5
5F76
330
5F71
100
AcDbEntity
  8
寸法
 62
     0
100
AcDbTrace
 10
2798.800088449528
 20
2080.929991750766
 30
0.0
 11
2798.800088449528
 21
2077.596658417433
 31
0.0
 12
2808.800088449528
 22
2079.2633250841
 32
0.0
 13
2808.800088449528
 23
2079.2633250841
 33
0.0
  0
MTEXT
  5
5F77
330
5F71
100
AcDbEntity
  8
寸法
 62
     0
100
AcDbMText
 10
2781.300088449528
 20
2059.2633250841
 30
0.0
 40
20.0
 41
0.0
 71
     5
 72
     1
  1
55
 73
     1
 44
1.0
1001
ACAD
1000
MTEXTBEGIN
1070
    73
1070
     1
1070
    44
1040
1.0
1070
    74
1070
     0
1000
MTEXTEND
  0
POINT
  5
5F78
330
5F71
100
AcDbEntity
  8
DEFPOINTS
 62
     0
100
AcDbPoint
 10
2753.800088449529
 20
2138.909163386517
 30
0.0
  0
POINT
  5
5F79
330
5F71
100
AcDbEntity
  8
DEFPOINTS
 62
     0
100
AcDbPoint
 10
2808.800088449528
 20
2138.909163386517
 30
0.0
  0
POINT
  5
5F7A
330
5F71
100
AcDbEntity
  8
DEFPOINTS
 62
     0
100
AcDbPoint
 10
2808.800088449528
 20
2079.2633250841
 30
0.0
  0
ENDBLK
  5
5F7C
330
5F71
100
AcDbEntity
  8
0
100
AcDbBlockEnd
  0
BLOCK
  5
5F88
330
5F7D
100
AcDbEntity
  8
0
100
AcDbBlockBegin
  2
*D35
 70
     1
 10
0.0
 20
0.0
 30
0.0
  3
*D35
  1

  0
LINE
  5
5F7E
330
5F7D
100
AcDbEntity
  8
寸法
 62
     0
370
    -2
100
AcDbLine
 10
3108.800088449529
 20
2568.909163386517
 30
0.0
 11
3108.800088449529
 21
2594.5183862411
 31
0.0
  0
LINE
  5
5F7F
330
5F7D
100
AcDbEntity
  8
寸法
 62
     0
370
    -2
100
AcDbLine
 10
3153.800088449528
 20
2568.909163386517
 30
0.0
 11
3153.800088449528
 21
2594.5183862411
 31
0.0
  0
LINE
  5
5F80
330
5F7D
100
AcDbEntity
  8
寸法
 62
     0
370
    -2
100
AcDbLine
 10
3143.800088449528
 20
2589.518386241099
 30
0.0
 11
3118.800088449528
 21
2589.518386241099
 31
0.0
  0
LINE
  5
5F81
330
5F7D
100
AcDbEntity
  8
寸法
 62
     0
370
    -2
100
AcDbLine
 10
3108.800088449529
 20
2589.518386241099
 30
0.0
 11
3045.466755116195
 21
2589.518386241099
 31
0.0
  0
SOLID
  5
5F82
330
5F7D
100
AcDbEntity
  8
寸法
 62
     0
100
AcDbTrace
 10
3143.800088449528
 20
2591.185052907766
 30
0.0
 11
3143.800088449528
 21
2587.851719574433
 31
0.0
 12
3153.800088449528
 22
2589.518386241099
 32
0.0
 13
3153.800088449528
 23
2589.518386241099
 33
0.0
  0
SOLID
  5
5F83
330
5F7D
100
AcDbEntity
  8
寸法
 62
     0
100
AcDbTrace
 10
3118.800088449528
 20
2591.185052907766
 30
0.0
 11
3118.800088449528
 21
2587.851719574433
 31
0.0
 12
3108.800088449529
 22
2589.518386241099
 32
0.0
 13
3108.800088449529
 23
2589.518386241099
 33
0.0
  0
MTEXT
  5
5F84
330
5F7D
100
AcDbEntity
  8
寸法
 62
     0
100
AcDbMText
 10
3072.133421782862
 20
2609.518386241099
 30
0.0
 40
20.0
 41
0.0
 71
     5
 72
     1
  1
45
 73
     1
 44
1.0
1001
ACAD
1000
MTEXTBEGIN
1070
    73
1070
     1
1070
    44
1040
1.0
1070
    74
1070
     0
1000
MTEXTEND
  0
POINT
  5
5F85
330
5F7D
100
AcDbEntity
  8
DEFPOINTS
 62
     0
100
AcDbPoint
 10
3108.800088449529
 20
2538.909163386517
 30
0.0
  0
POINT
  5
5F86
330
5F7D
100
AcDbEntity
  8
DEFPOINTS
 62
     0
100
AcDbPoint
 10
3153.800088449528
 20
2538.909163386517
 30
0.0
  0
POINT
  5
5F87
330
5F7D
100
AcDbEntity
  8
DEFPOINTS
 62
     0
100
AcDbPoint
 10
3153.800088449528
 20
2589.518386241099
 30
0.0
  0
ENDBLK
  5
5F89
330
5F7D
100
AcDbEntity
  8
0
100
AcDbBlockEnd
  0
BLOCK
  5
5F96
330
5F8A
100
AcDbEntity
  8
0
100
AcDbBlockBegin
  2
*D36
 70
     1
 10
0.0
 20
0.0
 30
0.0
  3
*D36
  1

  0
LINE
  5
5F8B
330
5F8A
100
AcDbEntity
  8
寸法
 62
     0
370
    -2
100
AcDbLine
 10
3153.800088449528
 20
2568.909163386517
 30
0.0
 11
3153.800088449528
 21
2594.5183862411
 31
0.0
  0
LINE
  5
5F8C
330
5F8A
100
AcDbEntity
  8
寸法
 62
     0
370
    -2
100
AcDbLine
 10
3158.800088449528
 20
2568.909163386517
 30
0.0
 11
3158.800088449528
 21
2594.5183862411
 31
0.0
  0
LINE
  5
5F8D
330
5F8A
100
AcDbEntity
  8
寸法
 62
     0
370
    -2
100
AcDbLine
 10
3143.800088449528
 20
2589.518386241099
 30
0.0
 11
3133.800088449528
 21
2589.518386241099
 31
0.0
  0
LINE
  5
5F8E
330
5F8A
100
AcDbEntity
  8
寸法
 62
     0
370
    -2
100
AcDbLine
 10
3168.800088449528
 20
2589.518386241099
 30
0.0
 11
3178.800088449528
 21
2589.518386241099
 31
0.0
  0
LINE
  5
5F8F
330
5F8A
100
AcDbEntity
  8
寸法
 62
     0
370
    -2
100
AcDbLine
 10
3153.800088449528
 20
2589.518386241099
 30
0.0
 11
3158.800088449528
 21
2589.518386241099
 31
0.0
  0
SOLID
  5
5F90
330
5F8A
100
AcDbEntity
  8
寸法
 62
     0
100
AcDbTrace
 10
3143.800088449528
 20
2591.185052907766
 30
0.0
 11
3143.800088449528
 21
2587.851719574433
 31
0.0
 12
3153.800088449528
 22
2589.518386241099
 32
0.0
 13
3153.800088449528
 23
2589.518386241099
 33
0.0
  0
SOLID
  5
5F91
330
5F8A
100
AcDbEntity
  8
寸法
 62
     0
100
AcDbTrace
 10
3168.800088449528
 20
2591.185052907766
 30
0.0
 11
3168.800088449528
 21
2587.851719574433
 31
0.0
 12
3158.800088449528
 22
2589.518386241099
 32
0.0
 13
3158.800088449528
 23
2589.518386241099
 33
0.0
  0
MTEXT
  5
5F92
330
5F8A
100
AcDbEntity
  8
寸法
 62
     0
100
AcDbMText
 10
3156.300088449528
 20
2609.518386241099
 30
0.0
 40
20.0
 41
0.0
 71
     5
 72
     1
  1
5
 73
     1
 44
1.0
1001
ACAD
1000
MTEXTBEGIN
1070
    73
1070
     1
1070
    44
1040
1.0
1070
    74
1070
     0
1000
MTEXTEND
  0
POINT
  5
5F93
330
5F8A
100
AcDbEntity
  8
DEFPOINTS
 62
     0
100
AcDbPoint
 10
3153.800088449528
 20
2538.909163386517
 30
0.0
  0
POINT
  5
5F94
330
5F8A
100
AcDbEntity
  8
DEFPOINTS
 62
     0
100
AcDbPoint
 10
3158.800088449528
 20
2538.909163386517
 30
0.0
  0
POINT
  5
5F95
330
5F8A
100
AcDbEntity
  8
DEFPOINTS
 62
     0
100
AcDbPoint
 10
3158.800088449528
 20
2589.518386241099
 30
0.0
  0
ENDBLK
  5
5F97
330
5F8A
100
AcDbEntity
  8
0
100
AcDbBlockEnd
  0
BLOCK
  5
5FA3
330
5F98
100
AcDbEntity
  8
0
100
AcDbBlockBegin
  2
*D37
 70
     1
 10
0.0
 20
0.0
 30
0.0
  3
*D37
  1

  0
LINE
  5
5F99
330
5F98
100
AcDbEntity
  8
寸法
 62
     0
370
    -2
100
AcDbLine
 10
3158.800088449528
 20
2568.909163386517
 30
0.0
 11
3158.800088449528
 21
2594.5183862411
 31
0.0
  0
LINE
  5
5F9A
330
5F98
100
AcDbEntity
  8
寸法
 62
     0
370
    -2
100
AcDbLine
 10
3208.800088449528
 20
2568.909163386517
 30
0.0
 11
3208.800088449528
 21
2594.5183862411
 31
0.0
  0
LINE
  5
5F9B
330
5F98
100
AcDbEntity
  8
寸法
 62
     0
370
    -2
100
AcDbLine
 10
3168.800088449528
 20
2589.518386241099
 30
0.0
 11
3198.800088449528
 21
2589.518386241099
 31
0.0
  0
LINE
  5
5F9C
330
5F98
100
AcDbEntity
  8
寸法
 62
     0
370
    -2
100
AcDbLine
 10
3208.800088449528
 20
2589.518386241099
 30
0.0
 11
3268.800088449528
 21
2589.518386241099
 31
0.0
  0
SOLID
  5
5F9D
330
5F98
100
AcDbEntity
  8
寸法
 62
     0
100
AcDbTrace
 10
3168.800088449528
 20
2591.185052907766
 30
0.0
 11
3168.800088449528
 21
2587.851719574433
 31
0.0
 12
3158.800088449528
 22
2589.518386241099
 32
0.0
 13
3158.800088449528
 23
2589.518386241099
 33
0.0
  0
SOLID
  5
5F9E
330
5F98
100
AcDbEntity
  8
寸法
 62
     0
100
AcDbTrace
 10
3198.800088449528
 20
2591.185052907766
 30
0.0
 11
3198.800088449528
 21
2587.851719574433
 31
0.0
 12
3208.800088449528
 22
2589.518386241099
 32
0.0
 13
3208.800088449528
 23
2589.518386241099
 33
0.0
  0
MTEXT
  5
5F9F
330
5F98
100
AcDbEntity
  8
寸法
 62
     0
100
AcDbMText
 10
3243.800088449528
 20
2609.518386241099
 30
0.0
 40
20.0
 41
0.0
 71
     5
 72
     1
  1
50
 73
     1
 44
1.0
1001
ACAD
1000
MTEXTBEGIN
1070
    73
1070
     1
1070
    44
1040
1.0
1070
    74
1070
     0
1000
MTEXTEND
  0
POINT
  5
5FA0
330
5F98
100
AcDbEntity
  8
DEFPOINTS
 62
     0
100
AcDbPoint
 10
3158.800088449528
 20
2538.909163386517
 30
0.0
  0
POINT
  5
5FA1
330
5F98
100
AcDbEntity
  8
DEFPOINTS
 62
     0
100
AcDbPoint
 10
3208.800088449528
 20
2538.909163386517
 30
0.0
  0
POINT
  5
5FA2
330
5F98
100
AcDbEntity
  8
DEFPOINTS
 62
     0
100
AcDbPoint
 10
3208.800088449528
 20
2589.518386241099
 30
0.0
  0
ENDBLK
  5
5FA4
330
5F98
100
AcDbEntity
  8
0
100
AcDbBlockEnd
  0
BLOCK
  5
5FAF
330
5FA5
100
AcDbEntity
  8
0
100
AcDbBlockBegin
  2
*D38
 70
     1
 10
0.0
 20
0.0
 30
0.0
  3
*D38
  1

  0
LINE
  5
5FA6
330
5FA5
100
AcDbEntity
  8
寸法
 62
     0
370
    -2
100
AcDbLine
 10
3238.800088449528
 20
2239.909163386517
 30
0.0
 11
3261.485621563927
 21
2239.909163386517
 31
0.0
  0
LINE
  5
5FA7
330
5FA5
100
AcDbEntity
  8
寸法
 62
     0
370
    -2
100
AcDbLine
 10
3238.800088449528
 20
2538.909163386517
 30
0.0
 11
3261.485621563927
 21
2538.909163386517
 31
0.0
  0
LINE
  5
5FA8
330
5FA5
100
AcDbEntity
  8
寸法
 62
     0
370
    -2
100
AcDbLine
 10
3256.485621563927
 20
2249.909163386517
 30
0.0
 11
3256.485621563927
 21
2528.909163386517
 31
0.0
  0
SOLID
  5
5FA9
330
5FA5
100
AcDbEntity
  8
寸法
 62
     0
100
AcDbTrace
 10
3254.818954897261
 20
2249.909163386517
 30
0.0
 11
3258.152288230593
 21
2249.909163386517
 31
0.0
 12
3256.485621563927
 22
2239.909163386517
 32
0.0
 13
3256.485621563927
 23
2239.909163386517
 33
0.0
  0
SOLID
  5
5FAA
330
5FA5
100
AcDbEntity
  8
寸法
 62
     0
100
AcDbTrace
 10
3254.818954897261
 20
2528.909163386517
 30
0.0
 11
3258.152288230593
 21
2528.909163386517
 31
0.0
 12
3256.485621563927
 22
2538.909163386517
 32
0.0
 13
3256.485621563927
 23
2538.909163386517
 33
0.0
  0
MTEXT
  5
5FAB
330
5FA5
100
AcDbEntity
  8
寸法
 62
     0
100
AcDbMText
 10
3276.485621563927
 20
2389.409163386518
 30
0.0
 40
20.0
 41
0.0
 71
     5
 72
     1
  1
299
 11
0.0000000000000001
 21
1.0
 31
0.0
 73
     1
 44
1.0
1001
ACAD
1000
MTEXTBEGIN
1070
    73
1070
     1
1070
    44
1040
1.0
1070
    74
1070
     0
1000
MTEXTEND
  0
POINT
  5
5FAC
330
5FA5
100
AcDbEntity
  8
DEFPOINTS
 62
     0
100
AcDbPoint
 10
3208.800088449528
 20
2239.909163386517
 30
0.0
  0
POINT
  5
5FAD
330
5FA5
100
AcDbEntity
  8
DEFPOINTS
 62
     0
100
AcDbPoint
 10
3208.800088449528
 20
2538.909163386517
 30
0.0
  0
POINT
  5
5FAE
330
5FA5
100
AcDbEntity
  8
DEFPOINTS
 62
     0
100
AcDbPoint
 10
3256.485621563927
 20
2538.909163386517
 30
0.0
  0
ENDBLK
  5
5FB0
330
5FA5
100
AcDbEntity
  8
0
100
AcDbBlockEnd
  0
BLOCK
  5
5FBD
330
5FB1
100
AcDbEntity
  8
0
100
AcDbBlockBegin
  2
*D39
 70
     1
 10
0.0
 20
0.0
 30
0.0
  3
*D39
  1

  0
LINE
  5
5FB2
330
5FB1
100
AcDbEntity
  8
寸法
 62
     0
370
    -2
100
AcDbLine
 10
3238.800088449528
 20
2234.909163386517
 30
0.0
 11
3261.485621563928
 21
2234.909163386517
 31
0.0
  0
LINE
  5
5FB3
330
5FB1
100
AcDbEntity
  8
寸法
 62
     0
370
    -2
100
AcDbLine
 10
3238.800088449528
 20
2239.909163386517
 30
0.0
 11
3261.485621563928
 21
2239.909163386517
 31
0.0
  0
LINE
  5
5FB4
330
5FB1
100
AcDbEntity
  8
寸法
 62
     0
370
    -2
100
AcDbLine
 10
3256.485621563927
 20
2224.909163386517
 30
0.0
 11
3256.485621563927
 21
2214.909163386517
 31
0.0
  0
LINE
  5
5FB5
330
5FB1
100
AcDbEntity
  8
寸法
 62
     0
370
    -2
100
AcDbLine
 10
3256.485621563927
 20
2249.909163386517
 30
0.0
 11
3256.485621563927
 21
2259.909163386517
 31
0.0
  0
LINE
  5
5FB6
330
5FB1
100
AcDbEntity
  8
寸法
 62
     0
370
    -2
100
AcDbLine
 10
3256.485621563927
 20
2234.909163386517
 30
0.0
 11
3256.485621563927
 21
2239.909163386517
 31
0.0
  0
SOLID
  5
5FB7
330
5FB1
100
AcDbEntity
  8
寸法
 62
     0
100
AcDbTrace
 10
3254.818954897261
 20
2224.909163386517
 30
0.0
 11
3258.152288230594
 21
2224.909163386517
 31
0.0
 12
3256.485621563927
 22
2234.909163386517
 32
0.0
 13
3256.485621563927
 23
2234.909163386517
 33
0.0
  0
SOLID
  5
5FB8
330
5FB1
100
AcDbEntity
  8
寸法
 62
     0
100
AcDbTrace
 10
3254.818954897261
 20
2249.909163386517
 30
0.0
 11
3258.152288230594
 21
2249.909163386517
 31
0.0
 12
3256.485621563927
 22
2239.909163386517
 32
0.0
 13
3256.485621563927
 23
2239.909163386517
 33
0.0
  0
MTEXT
  5
5FB9
330
5FB1
100
AcDbEntity
  8
寸法
 62
     0
100
AcDbMText
 10
3276.485621563927
 20
2237.409163386518
 30
0.0
 40
20.0
 41
0.0
 71
     5
 72
     1
  1
5
 11
0.0000000000000001
 21
1.0
 31
0.0
 73
     1
 44
1.0
1001
ACAD
1000
MTEXTBEGIN
1070
    73
1070
     1
1070
    44
1040
1.0
1070
    74
1070
     0
1000
MTEXTEND
  0
POINT
  5
5FBA
330
5FB1
100
AcDbEntity
  8
DEFPOINTS
 62
     0
100
AcDbPoint
 10
3208.800088449528
 20
2234.909163386517
 30
0.0
  0
POINT
  5
5FBB
330
5FB1
100
AcDbEntity
  8
DEFPOINTS
 62
     0
100
AcDbPoint
 10
3208.800088449528
 20
2239.909163386517
 30
0.0
  0
POINT
  5
5FBC
330
5FB1
100
AcDbEntity
  8
DEFPOINTS
 62
     0
100
AcDbPoint
 10
3256.485621563927
 20
2239.909163386517
 30
0.0
  0
ENDBLK
  5
5FBE
330
5FB1
100
AcDbEntity
  8
0
100
AcDbBlockEnd
  0
BLOCK
  5
5FC9
330
5FBF
100
AcDbEntity
  8
0
100
AcDbBlockBegin
  2
*D40
 70
     1
 10
0.0
 20
0.0
 30
0.0
  3
*D40
  1

  0
LINE
  5
5FC0
330
5FBF
100
AcDbEntity
  8
寸法
 62
     0
370
    -2
100
AcDbLine
 10
3238.800088449528
 20
2234.909163386517
 30
0.0
 11
3261.485621563927
 21
2234.909163386517
 31
0.0
  0
LINE
  5
5FC1
330
5FBF
100
AcDbEntity
  8
寸法
 62
     0
370
    -2
100
AcDbLine
 10
3238.800088449528
 20
2138.909163386517
 30
0.0
 11
3261.485621563927
 21
2138.909163386517
 31
0.0
  0
LINE
  5
5FC2
330
5FBF
100
AcDbEntity
  8
寸法
 62
     0
370
    -2
100
AcDbLine
 10
3256.485621563927
 20
2224.909163386517
 30
0.0
 11
3256.485621563927
 21
2148.909163386517
 31
0.0
  0
SOLID
  5
5FC3
330
5FBF
100
AcDbEntity
  8
寸法
 62
     0
100
AcDbTrace
 10
3254.818954897261
 20
2224.909163386517
 30
0.0
 11
3258.152288230593
 21
2224.909163386517
 31
0.0
 12
3256.485621563927
 22
2234.909163386517
 32
0.0
 13
3256.485621563927
 23
2234.909163386517
 33
0.0
  0
SOLID
  5
5FC4
330
5FBF
100
AcDbEntity
  8
寸法
 62
     0
100
AcDbTrace
 10
3254.818954897261
 20
2148.909163386517
 30
0.0
 11
3258.152288230593
 21
2148.909163386517
 31
0.0
 12
3256.485621563927
 22
2138.909163386517
 32
0.0
 13
3256.485621563927
 23
2138.909163386517
 33
0.0
  0
MTEXT
  5
5FC5
330
5FBF
100
AcDbEntity
  8
寸法
 62
     0
100
AcDbMText
 10
3276.485621563927
 20
2186.909163386518
 30
0.0
 40
20.0
 41
0.0
 71
     5
 72
     1
  1
96
 11
0.0000000000000001
 21
1.0
 31
0.0
 73
     1
 44
1.0
1001
ACAD
1000
MTEXTBEGIN
1070
    73
1070
     1
1070
    44
1040
1.0
1070
    74
1070
     0
1000
MTEXTEND
  0
POINT
  5
5FC6
330
5FBF
100
AcDbEntity
  8
DEFPOINTS
 62
     0
100
AcDbPoint
 10
3208.800088449528
 20
2234.909163386517
 30
0.0
  0
POINT
  5
5FC7
330
5FBF
100
AcDbEntity
  8
DEFPOINTS
 62
     0
100
AcDbPoint
 10
3208.800088449528
 20
2138.909163386517
 30
0.0
  0
POINT
  5
5FC8
330
5FBF
100
AcDbEntity
  8
DEFPOINTS
 62
     0
100
AcDbPoint
 10
3256.485621563927
 20
2138.909163386517
 30
0.0
  0
ENDBLK
  5
5FCA
330
5FBF
100
AcDbEntity
  8
0
100
AcDbBlockEnd
  0
BLOCK
  5
5FD5
330
5FCB
100
AcDbEntity
  8
0
100
AcDbBlockBegin
  2
*D41
 70
     1
 10
0.0
 20
0.0
 30
0.0
  3
*D41
  1

  0
LINE
  5
5FCC
330
5FCB
100
AcDbEntity
  8
寸法
 62
     0
370
    -2
100
AcDbLine
 10
3108.800088449529
 20
2108.909163386517
 30
0.0
 11
3108.800088449529
 21
2028.110308324755
 31
0.0
  0
LINE
  5
5FCD
330
5FCB
100
AcDbEntity
  8
寸法
 62
     0
370
    -2
100
AcDbLine
 10
3208.800088449528
 20
2108.909163386517
 30
0.0
 11
3208.800088449528
 21
2028.110308324755
 31
0.0
  0
LINE
  5
5FCE
330
5FCB
100
AcDbEntity
  8
寸法
 62
     0
370
    -2
100
AcDbLine
 10
3118.800088449528
 20
2033.110308324755
 30
0.0
 11
3198.800088449528
 21
2033.110308324755
 31
0.0
  0
SOLID
  5
5FCF
330
5FCB
100
AcDbEntity
  8
寸法
 62
     0
100
AcDbTrace
 10
3118.800088449528
 20
2034.776974991422
 30
0.0
 11
3118.800088449528
 21
2031.443641658088
 31
0.0
 12
3108.800088449529
 22
2033.110308324755
 32
0.0
 13
3108.800088449529
 23
2033.110308324755
 33
0.0
  0
SOLID
  5
5FD0
330
5FCB
100
AcDbEntity
  8
寸法
 62
     0
100
AcDbTrace
 10
3198.800088449528
 20
2034.776974991422
 30
0.0
 11
3198.800088449528
 21
2031.443641658088
 31
0.0
 12
3208.800088449528
 22
2033.110308324755
 32
0.0
 13
3208.800088449528
 23
2033.110308324755
 33
0.0
  0
MTEXT
  5
5FD1
330
5FCB
100
AcDbEntity
  8
寸法
 62
     0
100
AcDbMText
 10
3158.800088449528
 20
2013.110308324755
 30
0.0
 40
20.0
 41
0.0
 71
     5
 72
     1
  1
100
 73
     1
 44
1.0
1001
ACAD
1000
MTEXTBEGIN
1070
    73
1070
     1
1070
    44
1040
1.0
1070
    74
1070
     0
1000
MTEXTEND
  0
POINT
  5
5FD2
330
5FCB
100
AcDbEntity
  8
DEFPOINTS
 62
     0
100
AcDbPoint
 10
3108.800088449529
 20
2138.909163386517
 30
0.0
  0
POINT
  5
5FD3
330
5FCB
100
AcDbEntity
  8
DEFPOINTS
 62
     0
100
AcDbPoint
 10
3208.800088449528
 20
2138.909163386517
 30
0.0
  0
POINT
  5
5FD4
330
5FCB
100
AcDbEntity
  8
DEFPOINTS
 62
     0
100
AcDbPoint
 10
3208.800088449528
 20
2033.110308324755
 30
0.0
  0
ENDBLK
  5
5FD6
330
5FCB
100
AcDbEntity
  8
0
100
AcDbBlockEnd
  0
BLOCK
  5
5FE1
330
5FD7
100
AcDbEntity
  8
0
100
AcDbBlockBegin
  2
*D42
 70
     1
 10
0.0
 20
0.0
 30
0.0
  3
*D42
  1

  0
LINE
  5
5FD8
330
5FD7
100
AcDbEntity
  8
寸法
 62
     0
370
    -2
100
AcDbLine
 10
2238.800088449528
 20
888.9091633865168
 30
0.0
 11
2316.7622978401
 21
888.9091633865167
 31
0.0
  0
LINE
  5
5FD9
330
5FD7
100
AcDbEntity
  8
寸法
 62
     0
370
    -2
100
AcDbLine
 10
2238.800088449528
 20
788.9091633865168
 30
0.0
 11
2316.7622978401
 21
788.9091633865167
 31
0.0
  0
LINE
  5
5FDA
330
5FD7
100
AcDbEntity
  8
寸法
 62
     0
370
    -2
100
AcDbLine
 10
2311.7622978401
 20
878.9091633865167
 30
0.0
 11
2311.7622978401
 21
798.9091633865167
 31
0.0
  0
SOLID
  5
5FDB
330
5FD7
100
AcDbEntity
  8
寸法
 62
     0
100
AcDbTrace
 10
2310.095631173433
 20
878.9091633865167
 30
0.0
 11
2313.428964506766
 21
878.9091633865167
 31
0.0
 12
2311.7622978401
 22
888.9091633865167
 32
0.0
 13
2311.7622978401
 23
888.9091633865167
 33
0.0
  0
SOLID
  5
5FDC
330
5FD7
100
AcDbEntity
  8
寸法
 62
     0
100
AcDbTrace
 10
2310.095631173433
 20
798.9091633865167
 30
0.0
 11
2313.428964506766
 21
798.9091633865167
 31
0.0
 12
2311.7622978401
 22
788.9091633865167
 32
0.0
 13
2311.7622978401
 23
788.9091633865167
 33
0.0
  0
MTEXT
  5
5FDD
330
5FD7
100
AcDbEntity
  8
寸法
 62
     0
100
AcDbMText
 10
2331.7622978401
 20
838.9091633865172
 30
0.0
 40
20.0
 41
0.0
 71
     5
 72
     1
  1
100
 11
0.0000000000000001
 21
1.0
 31
0.0
 73
     1
 44
1.0
1001
ACAD
1000
MTEXTBEGIN
1070
    73
1070
     1
1070
    44
1040
1.0
1070
    74
1070
     0
1000
MTEXTEND
  0
POINT
  5
5FDE
330
5FD7
100
AcDbEntity
  8
DEFPOINTS
 62
     0
100
AcDbPoint
 10
2208.800088449528
 20
888.9091633865168
 30
0.0
  0
POINT
  5
5FDF
330
5FD7
100
AcDbEntity
  8
DEFPOINTS
 62
     0
100
AcDbPoint
 10
2208.800088449528
 20
788.9091633865168
 30
0.0
  0
POINT
  5
5FE0
330
5FD7
100
AcDbEntity
  8
DEFPOINTS
 62
     0
100
AcDbPoint
 10
2311.7622978401
 20
788.9091633865167
 30
0.0
  0
ENDBLK
  5
5FE2
330
5FD7
100
AcDbEntity
  8
0
100
AcDbBlockEnd
  0
ENDSEC
  0
SECTION
  2
ENTITIES
  0
INSERT
  5
123
330
1F
100
AcDbEntity
  8
題
 62
     7
100
AcDbBlockReference
  2
AI9-BLK1
 10
3257.800088449528
 20
263.9091633865173
 30
0.0
 41
1.152000000001862
 42
1.152000000000157
 43
1.152
  0
MTEXT
  5
124
330
1F
100
AcDbEntity
  8
題
100
AcDbMText
 10
3332.800088449528
 20
288.9091633865173
 30
0.0
 40
60.0
 41
850.0
 71
     4
 72
     5
  1
{\fHGMaruGothicMPRO|b0|i0|c128|p50; 新生興産株式会社}
 73
     1
 44
1.0
1001
ACAD
1000
MTEXTBEGIN
1070
    73
1070
     1
1070
    44
1040
1.0
1070
    74
1070
     0
1000
MTEXTEND
1000
ACAD_MTEXT_DEFINED_HEIGHT_BEGIN
1070
    46
1040
10.0
1000
ACAD_MTEXT_DEFINED_HEIGHT_END
  0
MTEXT
  5
125
330
1F
100
AcDbEntity
  8
題
100
AcDbMText
 10
3332.800088449528
 20
213.9091633865173
 30
0.0
 40
60.0
 41
850.0
 71
     4
 72
     5
  1
{\fCentury Gothic|b0|i0|c0|p34;\H0.5x;                              SHINSEI KOSAN CO.,LTD}
 73
     1
 44
1.0
1001
ACAD
1000
MTEXTBEGIN
1070
    73
1070
     1
1070
    44
1040
1.0
1070
    74
1070
     0
1000
MTEXTEND
1000
ACAD_MTEXT_DEFINED_HEIGHT_BEGIN
1070
    46
1040
5.0
1000
ACAD_MTEXT_DEFINED_HEIGHT_END
  0
LWPOLYLINE
  5
126
330
1F
100
AcDbEntity
  8
DEFPOINTS
100
AcDbPolyline
 90
        4
 70
     1
 43
0.0
 10
82.80008844952817
 20
88.90916338651733
 10
4282.800088449529
 20
88.90916338651733
 10
4282.800088449529
 20
3058.909163386517
 10
82.80008844952817
 20
3058.909163386517
  0
LWPOLYLINE
  5
127
330
1F
100
AcDbEntity
  8
題
100
AcDbPolyline
 90
        4
 70
     1
 43
0.0
 10
4182.800088449528
 20
188.9091633865173
 10
3182.800088449528
 20
188.9091633865173
 10
3182.800088449528
 20
338.9091633865173
 10
4182.800088449528
 20
338.9091633865173
  0
LWPOLYLINE
  5
128
330
1F
100
AcDbEntity
  8
題
100
AcDbPolyline
 90
        4
 70
     1
 43
0.0
 10
3182.800088449528
 20
338.9091633865173
 10
3332.800088449528
 20
338.9091633865173
 10
3332.800088449528
 20
438.9091633865173
 10
3182.800088449528
 20
438.9091633865173
  0
LWPOLYLINE
  5
129
330
1F
100
AcDbEntity
  8
題
100
AcDbPolyline
 90
        4
 70
     1
 43
0.0
 10
3182.800088449528
 20
438.9091633865173
 10
3332.800088449528
 20
438.9091633865173
 10
3332.800088449528
 20
538.9091633865173
 10
3182.800088449528
 20
538.9091633865173
  0
LWPOLYLINE
  5
132
330
1F
100
AcDbEntity
  8
題
100
AcDbPolyline
 90
        4
 70
     1
 43
0.0
 10
3932.800088449528
 20
438.9091633865173
 10
4032.800088449528
 20
438.9091633865173
 10
4032.800088449528
 20
538.9091633865173
 10
3932.800088449528
 20
538.9091633865173
  0
LWPOLYLINE
  5
133
330
1F
100
AcDbEntity
  8
題
100
AcDbPolyline
 90
        4
 70
     1
 43
0.0
 10
3932.800088449528
 20
338.9091633865173
 10
3332.800088449528
 20
338.9091633865173
 10
3332.800088449528
 20
438.9091633865173
 10
3932.800088449528
 20
438.9091633865173
  0
LWPOLYLINE
  5
134
330
1F
100
AcDbEntity
  8
題
100
AcDbPolyline
 90
        4
 70
     1
 43
0.0
 10
3932.800088449528
 20
438.9091633865173
 10
3332.800088449528
 20
438.9091633865173
 10
3332.800088449528
 20
538.9091633865173
 10
3932.800088449528
 20
538.9091633865173
  0
MTEXT
  5
135
330
1F
100
AcDbEntity
  8
題
100
AcDbMText
 10
3982.800088449528
 20
488.9091633865173
 30
0.0
 40
25.0
 41
100.0
 71
     5
 72
     5
  1
{\fHGSeikaishotaiPRO|b0|i0|c128|p66;縮尺}
 73
     1
 44
1.0
1001
ACAD
1000
MTEXTBEGIN
1070
    73
1070
     1
1070
    44
1040
1.0
1070
    74
1070
     0
1000
MTEXTEND
  0
LWPOLYLINE
  5
136
330
1F
100
AcDbEntity
  8
題
100
AcDbPolyline
 90
        4
 70
     1
 43
0.0
 10
4032.800088449528
 20
438.9091633865173
 10
4182.800088449528
 20
438.9091633865173
 10
4182.800088449528
 20
538.9091633865173
 10
4032.800088449528
 20
538.9091633865173
  0
MTEXT
  5
137
330
1F
100
AcDbEntity
  8
題
100
AcDbMText
 10
4107.800088449528
 20
488.9091633865173
 30
0.0
 40
25.0
 41
150.0
 71
     5
 72
     5
  1
1：10
 73
     1
 44
1.0
1001
ACAD
1000
MTEXTBEGIN
1070
    73
1070
     1
1070
    44
1040
1.0
1070
    74
1070
     0
1000
MTEXTEND
  0
MTEXT
  5
138
330
1F
100
AcDbEntity
  8
題
100
AcDbMText
 10
3257.800088449528
 20
488.9091633865173
 30
0.0
 40
25.0
 41
150.0
 71
     5
 72
     5
  1
{\fHGSeikaishotaiPRO|b0|i0|c128|p66;製品名}
 73
     1
 44
1.0
1001
ACAD
1000
MTEXTBEGIN
1070
    73
1070
     1
1070
    44
1040
1.0
1070
    74
1070
     0
1000
MTEXTEND
  0
MTEXT
  5
139
330
1F
100
AcDbEntity
  8
題
100
AcDbMText
 10
3257.800088449528
 20
388.9091633865173
 30
0.0
 40
25.0
 41
150.0
 71
     5
 72
     5
  1
{\fHGSeikaishotaiPRO|b0|i0|c128|p66;規格}
 73
     1
 44
1.0
1001
ACAD
1000
MTEXTBEGIN
1070
    73
1070
     1
1070
    44
1040
1.0
1070
    74
1070
     0
1000
MTEXTEND
  0
LWPOLYLINE
  5
163
330
1F
100
AcDbEntity
  8
題
100
AcDbPolyline
 90
        4
 70
     1
 43
0.0
 10
282.8000884495282
 20
188.9091633865173
 10
4182.800088449528
 20
188.9091633865173
 10
4182.800088449528
 20
2958.909163386517
 10
282.8000884495282
 20
2958.909163386517
  0
MTEXT
  5
5A45
330
1F
100
AcDbEntity
  8
全体文字
100
AcDbMText
 10
3632.800088449528
 20
488.9091633865173
 30
0.0
 40
35.0
 41
600.0000000000002
 71
     5
 72
     5
  1
U形柵渠 側板
 73
     1
 44
1.0
1001
ACAD
1000
MTEXTBEGIN
1070
    73
1070
     1
1070
    44
1040
1.0
1070
    74
1070
     0
1000
MTEXTEND
1000
ACAD_MTEXT_DEFINED_HEIGHT_BEGIN
1070
    46
1040
100.0
1000
ACAD_MTEXT_DEFINED_HEIGHT_END
  0
MTEXT
  5
5A46
330
1F
100
AcDbEntity
  8
全体文字
100
AcDbMText
 10
3632.800088449528
 20
388.9091633865173
 30
0.0
 40
35.0
 41
600.0000000000002
 71
     5
 72
     5
  1
400（7）
 73
     1
 44
1.0
1001
ACAD
1000
MTEXTBEGIN
1070
    73
1070
     1
1070
    44
1040
1.0
1070
    74
1070
     0
1000
MTEXTEND
1000
ACAD_MTEXT_DEFINED_HEIGHT_BEGIN
1070
    46
1040
100.0
1000
ACAD_MTEXT_DEFINED_HEIGHT_END
  0
LWPOLYLINE
  5
5A50
102
{ACAD_REACTORS
330
5AD2
330
5AD8
330
5ADB
330
5AE1
330
5AE4
102
}
330
1F
100
AcDbEntity
  8
図
100
AcDbPolyline
 90
        4
 70
     1
 43
0.0
 10
3108.800088449529
 20
2138.909163386517
 10
3208.800088449528
 20
2138.909163386517
 10
3208.800088449528
 20
2538.909163386517
 10
3108.800088449529
 20
2538.909163386517
  0
LINE
  5
5A53
330
1F
100
AcDbEntity
  8
センター
100
AcDbLine
 10
1495.800088449528
 20
2568.909163386517
 30
0.0
 11
1495.800088449528
 21
2108.909163386517
 31
0.0
  0
LINE
  5
5A54
330
1F
100
AcDbEntity
  8
センター
100
AcDbLine
 10
1495.800088449528
 20
1718.909163386516
 30
0.0
 11
1495.800088449528
 21
1258.909163386517
 31
0.0
  0
LINE
  5
5A55
330
1F
100
AcDbEntity
  8
センター
100
AcDbLine
 10
1495.800088449528
 20
918.9091633865169
 30
0.0
 11
1495.800088449528
 21
758.9091633865169
 31
0.0
  0
LINE
  5
5A58
102
{ACAD_REACTORS
330
5AD2
330
5AD5
102
}
330
1F
100
AcDbEntity
  8
図
100
AcDbLine
 10
3153.800088449528
 20
2538.909163386517
 30
0.0
 11
3153.800088449528
 21
2234.909163386517
 31
0.0
  0
LINE
  5
5A59
102
{ACAD_REACTORS
330
5ADE
330
5AE1
102
}
330
1F
100
AcDbEntity
  8
図
100
AcDbLine
 10
3108.800088449529
 20
2234.909163386517
 30
0.0
 11
3208.800088449528
 21
2234.909163386517
 31
0.0
  0
LINE
  5
5A5A
102
{ACAD_REACTORS
330
5AD5
330
5AD8
102
}
330
1F
100
AcDbEntity
  8
図
100
AcDbLine
 10
3158.800088449528
 20
2538.909163386517
 30
0.0
 11
3158.800088449528
 21
2239.909163386517
 31
0.0
  0
LINE
  5
5A5B
102
{ACAD_REACTORS
330
5ADB
330
5ADE
102
}
330
1F
100
AcDbEntity
  8
図
100
AcDbLine
 10
3208.800088449528
 20
2239.909163386517
 30
0.0
 11
3158.800088449528
 21
2239.909163386517
 31
0.0
  0
LINE
  5
5A62
330
1F
100
AcDbEntity
  8
図
100
AcDbLine
 10
2708.800088449529
 20
2538.909163386517
 30
0.0
 11
2808.800088449528
 21
2538.909163386517
 31
0.0
  0
LINE
  5
5A63
330
1F
100
AcDbEntity
  8
図
100
AcDbLine
 10
2808.800088449528
 20
2538.909163386517
 30
0.0
 11
2808.800088449528
 21
2138.909163386517
 31
0.0
  0
LINE
  5
5A64
102
{ACAD_REACTORS
330
5ACF
330
5B0C
102
}
330
1F
100
AcDbEntity
  8
図
100
AcDbLine
 10
2808.800088449528
 20
2138.909163386517
 30
0.0
 11
2708.800088449529
 21
2138.909163386517
 31
0.0
  0
LINE
  5
5A65
102
{ACAD_REACTORS
330
5ACC
330
5B0C
102
}
330
1F
100
AcDbEntity
  8
図
100
AcDbLine
 10
2708.800088449529
 20
2138.909163386517
 30
0.0
 11
2708.800088449529
 21
2538.909163386517
 31
0.0
  0
LINE
  5
5A68
330
1F
100
AcDbEntity
  8
図
100
AcDbLine
 10
1495.800088449528
 20
2538.909163386517
 30
0.0
 11
782.8000884495281
 21
2538.909163386517
 31
0.0
  0
LINE
  5
5A69
102
{ACAD_REACTORS
330
5A95
102
}
330
1F
100
AcDbEntity
  8
図
100
AcDbLine
 10
782.8000884495281
 20
2538.909163386517
 30
0.0
 11
782.8000884495281
 21
2239.909163386517
 31
0.0
  0
LINE
  5
5A6A
330
1F
100
AcDbEntity
  8
図
100
AcDbLine
 10
782.8000884495281
 20
2239.909163386517
 30
0.0
 11
825.8000884495281
 21
2234.909163386517
 31
0.0
  0
LINE
  5
5A6B
330
1F
100
AcDbEntity
  8
図
100
AcDbLine
 10
825.8000884495281
 20
2234.909163386517
 30
0.0
 11
830.8000884495282
 21
2138.909163386517
 31
0.0
  0
LINE
  5
5A6C
102
{ACAD_REACTORS
330
5AA8
330
5AAB
102
}
330
1F
100
AcDbEntity
  8
図
100
AcDbLine
 10
830.8000884495282
 20
2138.909163386517
 30
0.0
 11
1495.800088449528
 21
2138.909163386517
 31
0.0
  0
LINE
  5
5A6D
330
1F
100
AcDbEntity
  8
図
100
AcDbLine
 10
1495.800088449528
 20
2538.909163386517
 30
0.0
 11
2208.800088449528
 21
2538.909163386517
 31
0.0
  0
LINE
  5
5A6E
102
{ACAD_REACTORS
330
5A95
330
5A9B
330
5A9F
102
}
330
1F
100
AcDbEntity
  8
図
100
AcDbLine
 10
2208.800088449528
 20
2538.909163386517
 30
0.0
 11
2208.800088449528
 21
2239.909163386517
 31
0.0
  0
LINE
  5
5A6F
102
{ACAD_REACTORS
330
5A9F
330
5AA2
102
}
330
1F
100
AcDbEntity
  8
図
100
AcDbLine
 10
2208.800088449528
 20
2239.909163386517
 30
0.0
 11
2165.800088449528
 21
2234.909163386517
 31
0.0
  0
LINE
  5
5A70
330
1F
100
AcDbEntity
  8
図
100
AcDbLine
 10
2165.800088449528
 20
2234.909163386517
 30
0.0
 11
2160.800088449528
 21
2138.909163386517
 31
0.0
  0
LINE
  5
5A71
102
{ACAD_REACTORS
330
5AA5
330
5AA8
102
}
330
1F
100
AcDbEntity
  8
図
100
AcDbLine
 10
2160.800088449528
 20
2138.909163386517
 30
0.0
 11
1495.800088449528
 21
2138.909163386517
 31
0.0
  0
LINE
  5
5A72
330
1F
100
AcDbEntity
  8
図
100
AcDbLine
 10
1495.800088449528
 20
1688.909163386517
 30
0.0
 11
782.8000884495281
 21
1688.909163386517
 31
0.0
  0
LINE
  5
5A73
330
1F
100
AcDbEntity
  8
図
100
AcDbLine
 10
782.8000884495281
 20
1688.909163386517
 30
0.0
 11
782.8000884495281
 21
1389.909163386517
 31
0.0
  0
LINE
  5
5A74
330
1F
100
AcDbEntity
  8
図
100
AcDbLine
 10
782.8000884495281
 20
1389.909163386517
 30
0.0
 11
825.8000884495281
 21
1384.909163386517
 31
0.0
  0
LINE
  5
5A75
330
1F
100
AcDbEntity
  8
図
100
AcDbLine
 10
825.8000884495281
 20
1384.909163386517
 30
0.0
 11
830.8000884495282
 21
1288.909163386517
 31
0.0
  0
LINE
  5
5A76
330
1F
100
AcDbEntity
  8
図
100
AcDbLine
 10
830.8000884495282
 20
1288.909163386517
 30
0.0
 11
1495.800088449528
 21
1288.909163386517
 31
0.0
  0
LINE
  5
5A77
330
1F
100
AcDbEntity
  8
図
100
AcDbLine
 10
1495.800088449528
 20
1688.909163386517
 30
0.0
 11
2208.800088449528
 21
1688.909163386517
 31
0.0
  0
LINE
  5
5A78
330
1F
100
AcDbEntity
  8
図
100
AcDbLine
 10
2208.800088449528
 20
1688.909163386517
 30
0.0
 11
2208.800088449528
 21
1389.909163386517
 31
0.0
  0
LINE
  5
5A79
330
1F
100
AcDbEntity
  8
図
100
AcDbLine
 10
2208.800088449528
 20
1389.909163386517
 30
0.0
 11
2165.800088449528
 21
1384.909163386517
 31
0.0
  0
LINE
  5
5A7A
330
1F
100
AcDbEntity
  8
図
100
AcDbLine
 10
2165.800088449528
 20
1384.909163386517
 30
0.0
 11
2160.800088449528
 21
1288.909163386517
 31
0.0
  0
LINE
  5
5A7B
330
1F
100
AcDbEntity
  8
図
100
AcDbLine
 10
2160.800088449528
 20
1288.909163386517
 30
0.0
 11
1495.800088449528
 21
1288.909163386517
 31
0.0
  0
LINE
  5
5A7C
102
{ACAD_REACTORS
330
5A98
330
5AAB
102
}
330
1F
100
AcDbEntity
  8
図
100
AcDbLine
 10
825.8000884495281
 20
2234.909163386517
 30
0.0
 11
825.8000884495281
 21
2538.909163386517
 31
0.0
  0
LINE
  5
5A7D
330
1F
100
AcDbEntity
  8
影
100
AcDbLine
 10
825.8000884495281
 20
1384.909163386517
 30
0.0
 11
825.8000884495281
 21
1688.909163386517
 31
0.0
  0
LINE
  5
5A7E
330
1F
100
AcDbEntity
  8
図
100
AcDbLine
 10
1495.800088449528
 20
1688.909163386517
 30
0.0
 11
2208.800088449528
 21
1688.909163386517
 31
0.0
  0
LINE
  5
5A7F
330
1F
100
AcDbEntity
  8
図
100
AcDbLine
 10
2208.800088449528
 20
1688.909163386517
 30
0.0
 11
2208.800088449528
 21
1389.909163386517
 31
0.0
  0
LINE
  5
5A80
330
1F
100
AcDbEntity
  8
図
100
AcDbLine
 10
2208.800088449528
 20
1389.909163386517
 30
0.0
 11
2165.800088449528
 21
1384.909163386517
 31
0.0
  0
LINE
  5
5A81
330
1F
100
AcDbEntity
  8
図
100
AcDbLine
 10
2165.800088449528
 20
1384.909163386517
 30
0.0
 11
2160.800088449528
 21
1288.909163386517
 31
0.0
  0
LINE
  5
5A82
330
1F
100
AcDbEntity
  8
図
100
AcDbLine
 10
2160.800088449528
 20
1288.909163386517
 30
0.0
 11
1495.800088449528
 21
1288.909163386517
 31
0.0
  0
LINE
  5
5A83
330
1F
100
AcDbEntity
  8
影
100
AcDbLine
 10
2165.800088449528
 20
1384.909163386517
 30
0.0
 11
2165.800088449528
 21
1688.909163386517
 31
0.0
  0
LINE
  5
5A86
330
1F
100
AcDbEntity
  8
図
100
AcDbLine
 10
1495.800088449528
 20
888.9091633865168
 30
0.0
 11
2208.800088449528
 21
888.9091633865168
 31
0.0
  0
LINE
  5
5A87
102
{ACAD_REACTORS
330
5AB1
330
5AC1
330
5AE7
102
}
330
1F
100
AcDbEntity
  8
図
100
AcDbLine
 10
2208.800088449528
 20
888.9091633865168
 30
0.0
 11
2208.800088449528
 21
838.9091633865168
 31
0.0
  0
LINE
  5
5A88
102
{ACAD_REACTORS
330
5ABE
330
5AC1
102
}
330
1F
100
AcDbEntity
  8
図
100
AcDbLine
 10
2208.800088449528
 20
838.9091633865168
 30
0.0
 11
2165.800088449528
 21
833.9091633865168
 31
0.0
  0
LINE
  5
5A89
102
{ACAD_REACTORS
330
5ABE
102
}
330
1F
100
AcDbEntity
  8
図
100
AcDbLine
 10
2165.800088449528
 20
833.9091633865168
 30
0.0
 11
2165.800088449528
 21
788.9091633865168
 31
0.0
  0
LINE
  5
5A8A
102
{ACAD_REACTORS
330
5AB4
330
5ABB
102
}
330
1F
100
AcDbEntity
  8
図
100
AcDbLine
 10
2165.800088449528
 20
788.9091633865168
 30
0.0
 11
1495.800088449528
 21
788.9091633865168
 31
0.0
  0
LINE
  5
5A8B
330
1F
100
AcDbEntity
  8
図
100
AcDbLine
 10
1495.800088449528
 20
888.9091633865168
 30
0.0
 11
782.8000884495281
 21
888.9091633865168
 31
0.0
  0
LINE
  5
5A8C
102
{ACAD_REACTORS
330
5AB1
102
}
330
1F
100
AcDbEntity
  8
図
100
AcDbLine
 10
782.8000884495281
 20
888.9091633865168
 30
0.0
 11
782.8000884495281
 21
838.9091633865168
 31
0.0
  0
LINE
  5
5A8D
102
{ACAD_REACTORS
330
5AB7
102
}
330
1F
100
AcDbEntity
  8
図
100
AcDbLine
 10
782.8000884495281
 20
838.9091633865168
 30
0.0
 11
825.8000884495281
 21
833.9091633865168
 31
0.0
  0
LINE
  5
5A8E
330
1F
100
AcDbEntity
  8
図
100
AcDbLine
 10
825.8000884495281
 20
833.9091633865168
 30
0.0
 11
825.8000884495281
 21
788.9091633865168
 31
0.0
  0
LINE
  5
5A8F
102
{ACAD_REACTORS
330
5AB4
330
5AB7
102
}
330
1F
100
AcDbEntity
  8
図
100
AcDbLine
 10
825.8000884495281
 20
788.9091633865168
 30
0.0
 11
1495.800088449528
 21
788.9091633865168
 31
0.0
  0
MTEXT
  5
5A91
330
1F
100
AcDbEntity
  8
図文字
100
AcDbMText
 10
3957.800088449529
 20
688.9091633865173
 30
0.0
 40
30.0
 41
450.0000000000004
 71
     5
 72
     5
  1
参考重量132kg
 73
     1
 44
1.0
1001
ACAD
1000
MTEXTBEGIN
1070
    73
1070
     1
1070
    44
1040
1.0
1070
    74
1070
     0
1000
MTEXTEND
  0
LINE
  5
5A92
102
{ACAD_REACTORS
330
5A98
330
5A9B
330
5AA2
330
5AA5
102
}
330
1F
100
AcDbEntity
  8
影
100
AcDbLine
 10
2165.800088449528
 20
2234.909163386517
 30
0.0
 11
2165.800088449528
 21
2538.909163386517
 31
0.0
  0
DIMENSION
  5
5A93
102
{ACAD_XDICTIONARY
360
5A94
102
}
102
{ACAD_REACTORS
330
5A95
102
}
330
1F
100
AcDbEntity
  8
寸法
100
AcDbDimension
  2
*D19
 10
2208.800088449528
 20
2638.45085461361
 30
0.0
 11
1495.800088449528
 21
2658.45085461361
 31
0.0
 70
    32
 71
     5
 42
1426.0
  3
ISO-25
100
AcDbAlignedDimension
 13
782.8000884495281
 23
2538.909163386517
 33
0.0
 14
2208.800088449528
 24
2538.909163386517
 34
0.0
100
AcDbRotatedDimension
1001
ACAD
1000
DSTYLE
1002
{
1070
    41
1040
10.0
1070
    42
1040
30.0
1070
    44
1040
5.0
1070
   140
1040
20.0
1070
   147
1040
10.0
1002
}
  0
DIMENSION
  5
5A96
102
{ACAD_XDICTIONARY
360
5A97
102
}
102
{ACAD_REACTORS
330
5A98
102
}
330
1F
100
AcDbEntity
  8
寸法
100
AcDbDimension
  2
*D20
 10
2165.800088449528
 20
2589.24438039825
 30
0.0
 11
1495.800088449528
 21
2609.24438039825
 31
0.0
 70
    32
 71
     5
 42
1340.0
  3
ISO-25
100
AcDbAlignedDimension
 13
825.8000884495281
 23
2538.909163386517
 33
0.0
 14
2165.800088449528
 24
2538.909163386517
 34
0.0
100
AcDbRotatedDimension
1001
ACAD
1000
DSTYLE
1002
{
1070
    41
1040
10.0
1070
    42
1040
30.0
1070
    44
1040
5.0
1070
   140
1040
20.0
1070
   147
1040
10.0
1002
}
  0
DIMENSION
  5
5A99
102
{ACAD_XDICTIONARY
360
5A9A
102
}
102
{ACAD_REACTORS
330
5A9B
102
}
330
1F
100
AcDbEntity
  8
寸法
100
AcDbDimension
  2
*D21
 10
2208.800088449528
 20
2589.24438039825
 30
0.0
 11
2187.300088449529
 21
2589.24438039825
 31
0.0
 70
   160
 71
     5
 42
43.0
  3
ISO-25
100
AcDbAlignedDimension
 13
2165.800088449528
 23
2538.909163386517
 33
0.0
 14
2208.800088449528
 24
2538.909163386517
 34
0.0
100
AcDbRotatedDimension
1001
ACAD
1000
DSTYLE
1002
{
1070
    41
1040
10.0
1070
    42
1040
30.0
1070
    44
1040
5.0
1070
   140
1040
20.0
1070
   147
1040
10.0
1002
}
  0
DIMENSION
  5
5A9C
330
1F
100
AcDbEntity
  8
寸法
100
AcDbDimension
  2
*D12
 10
782.8000884495281
 20
2589.24438039825
 30
0.0
 11
804.3000884495281
 21
2589.24438039825
 31
0.0
 70
   160
 71
     5
 42
43.0
  3
ISO-25
100
AcDbAlignedDimension
 13
825.8000884495281
 23
2538.909163386517
 33
0.0
 14
782.8000884495281
 24
2538.909163386517
 34
0.0
 50
180.0
100
AcDbRotatedDimension
1001
ACAD
1000
DSTYLE
1002
{
1070
    41
1040
10.0
1070
    42
1040
30.0
1070
    44
1040
5.0
1070
   140
1040
20.0
1070
   147
1040
10.0
1002
}
  0
DIMENSION
  5
5A9D
102
{ACAD_XDICTIONARY
360
5A9E
102
}
102
{ACAD_REACTORS
330
5A9F
102
}
330
1F
100
AcDbEntity
  8
寸法
100
AcDbDimension
  2
*D22
 10
2393.687720203968
 20
2239.909163386517
 30
0.0
 11
2413.687720203968
 21
2389.409163386517
 31
0.0
 70
    32
 71
     5
 42
299.0
  3
ISO-25
100
AcDbAlignedDimension
 13
2208.800088449528
 23
2538.909163386517
 33
0.0
 14
2208.800088449528
 24
2239.909163386517
 34
0.0
 50
90.0
100
AcDbRotatedDimension
1001
ACAD
1000
DSTYLE
1002
{
1070
    41
1040
10.0
1070
    42
1040
30.0
1070
    44
1040
5.0
1070
   140
1040
20.0
1070
   147
1040
10.0
1002
}
  0
DIMENSION
  5
5AA0
102
{ACAD_XDICTIONARY
360
5AA1
102
}
102
{ACAD_REACTORS
330
5AA2
102
}
330
1F
100
AcDbEntity
  8
寸法
100
AcDbDimension
  2
*D23
 10
2393.687720203969
 20
2239.909163386517
 30
0.0
 11
2393.687720203968
 21
2237.409163386518
 31
0.0
 70
   160
 71
     5
 42
5.0
  3
ISO-25
100
AcDbAlignedDimension
 13
2165.800088449528
 23
2234.909163386517
 33
0.0
 14
2208.800088449528
 24
2239.909163386517
 34
0.0
 50
90.0
100
AcDbRotatedDimension
1001
ACAD
1000
DSTYLE
1002
{
1070
    41
1040
10.0
1070
    42
1040
30.0
1070
    44
1040
5.0
1070
   140
1040
20.0
1070
   147
1040
10.0
1002
}
  0
DIMENSION
  5
5AA3
102
{ACAD_XDICTIONARY
360
5AA4
102
}
102
{ACAD_REACTORS
330
5AA5
102
}
330
1F
100
AcDbEntity
  8
寸法
100
AcDbDimension
  2
*D24
 10
2393.687720203969
 20
2234.909163386517
 30
0.0
 11
2413.687720203968
 21
2186.909163386518
 31
0.0
 70
    32
 71
     5
 42
96.0
  3
ISO-25
100
AcDbAlignedDimension
 13
2160.800088449528
 23
2138.909163386517
 33
0.0
 14
2165.800088449528
 24
2234.909163386517
 34
0.0
 50
90.0
100
AcDbRotatedDimension
1001
ACAD
1000
DSTYLE
1002
{
1070
    41
1040
10.0
1070
    42
1040
30.0
1070
    44
1040
5.0
1070
   140
1040
20.0
1070
   147
1040
10.0
1002
}
  0
DIMENSION
  5
5AA6
102
{ACAD_XDICTIONARY
360
5AA7
102
}
102
{ACAD_REACTORS
330
5AA8
102
}
330
1F
100
AcDbEntity
  8
寸法
100
AcDbDimension
  2
*D25
 10
2160.800088449528
 20
2083.21170822149
 30
0.0
 11
1495.800088449528
 21
2063.211708221491
 31
0.0
 70
    32
 71
     5
 42
1330.0
  3
ISO-25
100
AcDbAlignedDimension
 13
830.8000884495282
 23
2138.909163386517
 33
0.0
 14
2160.800088449528
 24
2138.909163386517
 34
0.0
100
AcDbRotatedDimension
1001
ACAD
1000
DSTYLE
1002
{
1070
    41
1040
10.0
1070
    42
1040
30.0
1070
    44
1040
5.0
1070
   140
1040
20.0
1070
   147
1040
10.0
1002
}
  0
DIMENSION
  5
5AA9
102
{ACAD_XDICTIONARY
360
5AAA
102
}
102
{ACAD_REACTORS
330
5AAB
102
}
330
1F
100
AcDbEntity
  8
寸法
100
AcDbDimension
  2
*D26
 10
830.8000884495282
 20
2083.21170822149
 30
0.0
 11
828.3000884495281
 21
2083.21170822149
 31
0.0
 70
   160
 71
     5
 42
5.0
  3
ISO-25
100
AcDbAlignedDimension
 13
825.8000884495281
 23
2234.909163386517
 33
0.0
 14
830.8000884495282
 24
2138.909163386517
 34
0.0
100
AcDbRotatedDimension
1001
ACAD
1000
DSTYLE
1002
{
1070
    41
1040
10.0
1070
    42
1040
30.0
1070
    44
1040
5.0
1070
   140
1040
20.0
1070
   147
1040
10.0
1002
}
  0
DIMENSION
  5
5AAC
330
1F
100
AcDbEntity
  8
寸法
100
AcDbDimension
  2
*D13
 10
2160.800088449528
 20
2083.21170822149
 30
0.0
 11
2163.300088449528
 21
2083.21170822149
 31
0.0
 70
   160
 71
     5
 42
5.0
  3
ISO-25
100
AcDbAlignedDimension
 13
2165.800088449528
 23
2234.909163386517
 33
0.0
 14
2160.800088449528
 24
2138.909163386517
 34
0.0
 50
180.0
100
AcDbRotatedDimension
1001
ACAD
1000
DSTYLE
1002
{
1070
    41
1040
10.0
1070
    42
1040
30.0
1070
    44
1040
5.0
1070
   140
1040
20.0
1070
   147
1040
10.0
1002
}
  0
MTEXT
  5
5AAD
330
1F
100
AcDbEntity
  8
図文字
100
AcDbMText
 10
1495.800088449528
 20
2738.909163386517
 30
0.0
 40
30.0
 41
1426.0
 71
     5
 72
     5
  1
正面図
 73
     1
 44
1.0
1001
ACAD
1000
MTEXTBEGIN
1070
    73
1070
     1
1070
    44
1040
1.0
1070
    74
1070
     0
1000
MTEXTEND
  0
MTEXT
  5
5AAE
330
1F
100
AcDbEntity
  8
図文字
100
AcDbMText
 10
1495.800088449528
 20
1888.909163386517
 30
0.0
 40
30.0
 41
1426.0
 71
     5
 72
     5
  1
背面図
 73
     1
 44
1.0
1001
ACAD
1000
MTEXTBEGIN
1070
    73
1070
     1
1070
    44
1040
1.0
1070
    74
1070
     0
1000
MTEXTEND
1000
ACAD_MTEXT_DEFINED_HEIGHT_BEGIN
1070
    46
1040
100.0
1000
ACAD_MTEXT_DEFINED_HEIGHT_END
  0
DIMENSION
  5
5AAF
102
{ACAD_XDICTIONARY
360
5AB0
102
}
102
{ACAD_REACTORS
330
5AB1
102
}
330
1F
100
AcDbEntity
  8
寸法
100
AcDbDimension
  2
*D27
 10
2208.800088449528
 20
1005.430697582415
 30
0.0
 11
1495.800088449528
 21
1025.430697582415
 31
0.0
 70
    32
 71
     5
 42
1426.0
  3
ISO-25
100
AcDbAlignedDimension
 13
782.8000884495281
 23
888.9091633865168
 33
0.0
 14
2208.800088449528
 24
888.9091633865168
 34
0.0
100
AcDbRotatedDimension
1001
ACAD
1000
DSTYLE
1002
{
1070
    41
1040
10.0
1070
    42
1040
30.0
1070
    44
1040
5.0
1070
   140
1040
20.0
1070
   147
1040
10.0
1002
}
  0
DIMENSION
  5
5AB2
102
{ACAD_XDICTIONARY
360
5AB3
102
}
102
{ACAD_REACTORS
330
5AB4
102
}
330
1F
100
AcDbEntity
  8
寸法
100
AcDbDimension
  2
*D28
 10
2165.800088449528
 20
672.4970047881274
 30
0.0
 11
1495.800088449528
 21
652.4970047881274
 31
0.0
 70
    32
 71
     5
 42
1340.0
  3
ISO-25
100
AcDbAlignedDimension
 13
825.8000884495281
 23
788.9091633865168
 33
0.0
 14
2165.800088449528
 24
788.9091633865168
 34
0.0
100
AcDbRotatedDimension
1001
ACAD
1000
DSTYLE
1002
{
1070
    41
1040
10.0
1070
    42
1040
30.0
1070
    44
1040
5.0
1070
   140
1040
20.0
1070
   147
1040
10.0
1002
}
  0
DIMENSION
  5
5AB5
102
{ACAD_XDICTIONARY
360
5AB6
102
}
102
{ACAD_REACTORS
330
5AB7
102
}
330
1F
100
AcDbEntity
  8
寸法
100
AcDbDimension
  2
*D29
 10
825.8000884495281
 20
672.4970047881274
 30
0.0
 11
804.3000884495281
 21
672.4970047881274
 31
0.0
 70
   160
 71
     5
 42
43.0
  3
ISO-25
100
AcDbAlignedDimension
 13
782.8000884495281
 23
838.9091633865168
 33
0.0
 14
825.8000884495281
 24
788.9091633865168
 34
0.0
100
AcDbRotatedDimension
1001
ACAD
1000
DSTYLE
1002
{
1070
    41
1040
10.0
1070
    42
1040
30.0
1070
    44
1040
5.0
1070
   140
1040
20.0
1070
   147
1040
10.0
1002
}
  0
DIMENSION
  5
5AB8
330
1F
100
AcDbEntity
  8
寸法
100
AcDbDimension
  2
*D14
 10
2165.800088449528
 20
672.4970047881274
 30
0.0
 11
2187.300088449529
 21
672.4970047881274
 31
0.0
 70
   160
 71
     5
 42
43.0
  3
ISO-25
100
AcDbAlignedDimension
 13
2208.800088449528
 23
838.9091633865168
 33
0.0
 14
2165.800088449528
 24
788.9091633865168
 34
0.0
 50
180.0
100
AcDbRotatedDimension
1001
ACAD
1000
DSTYLE
1002
{
1070
    41
1040
10.0
1070
    42
1040
30.0
1070
    44
1040
5.0
1070
   140
1040
20.0
1070
   147
1040
10.0
1002
}
  0
DIMENSION
  5
5AB9
102
{ACAD_XDICTIONARY
360
5ABA
102
}
102
{ACAD_REACTORS
330
5ABB
102
}
330
1F
100
AcDbEntity
  8
寸法
100
AcDbDimension
  2
*D30
 10
2262.800379246352
 20
833.9091633865168
 30
0.0
 11
2262.800379246352
 21
752.2424967198506
 31
0.0
 70
   160
 71
     5
 42
45.0
  3
ISO-25
100
AcDbAlignedDimension
 13
2165.800088449528
 23
788.9091633865168
 33
0.0
 14
2208.800088449528
 24
833.9091633865168
 34
0.0
 50
90.0
100
AcDbRotatedDimension
1001
ACAD
1000
DSTYLE
1002
{
1070
    41
1040
10.0
1070
    42
1040
30.0
1070
    44
1040
5.0
1070
   140
1040
20.0
1070
   147
1040
10.0
1002
}
  0
DIMENSION
  5
5ABC
102
{ACAD_XDICTIONARY
360
5ABD
102
}
102
{ACAD_REACTORS
330
5ABE
102
}
330
1F
100
AcDbEntity
  8
寸法
100
AcDbDimension
  2
*D31
 10
2262.800379246352
 20
838.9091633865168
 30
0.0
 11
2262.800379246352
 21
836.4091633865172
 31
0.0
 70
   160
 71
     5
 42
5.0
  3
ISO-25
100
AcDbAlignedDimension
 13
2165.800088449528
 23
833.9091633865168
 33
0.0
 14
2208.800088449528
 24
838.9091633865168
 34
0.0
 50
90.0
100
AcDbRotatedDimension
1001
ACAD
1000
DSTYLE
1002
{
1070
    41
1040
10.0
1070
    42
1040
30.0
1070
    44
1040
5.0
1070
   140
1040
20.0
1070
   147
1040
10.0
1002
}
  0
DIMENSION
  5
5ABF
102
{ACAD_XDICTIONARY
360
5AC0
102
}
102
{ACAD_REACTORS
330
5AC1
102
}
330
1F
100
AcDbEntity
  8
寸法
100
AcDbDimension
  2
*D32
 10
2262.800379246352
 20
888.9091633865168
 30
0.0
 11
2262.800379246352
 21
923.9091633865172
 31
0.0
 70
   160
 71
     5
 42
50.0
  3
ISO-25
100
AcDbAlignedDimension
 13
2208.800088449528
 23
838.9091633865168
 33
0.0
 14
2208.800088449528
 24
888.9091633865168
 34
0.0
 50
90.0
100
AcDbRotatedDimension
1001
ACAD
1000
DSTYLE
1002
{
1070
    41
1040
10.0
1070
    42
1040
30.0
1070
    44
1040
5.0
1070
   140
1040
20.0
1070
   147
1040
10.0
1002
}
  0
MTEXT
  5
5AC2
330
1F
100
AcDbEntity
  8
図文字
100
AcDbMText
 10
1495.800088449528
 20
1088.909163386517
 30
0.0
 40
30.0
 41
1426.0
 71
     5
 72
     5
  1
a-a'断面図
 73
     1
 44
1.0
1001
ACAD
1000
MTEXTBEGIN
1070
    73
1070
     1
1070
    44
1040
1.0
1070
    74
1070
     0
1000
MTEXTEND
1000
ACAD_MTEXT_DEFINED_HEIGHT_BEGIN
1070
    46
1040
100.0
1000
ACAD_MTEXT_DEFINED_HEIGHT_END
  0
MTEXT
  5
5AC7
330
1F
100
AcDbEntity
  8
図文字
100
AcDbMText
 10
2753.800088449529
 20
2738.909163386517
 30
0.0
 40
30.0
 41
400.0
 71
     5
 72
     5
  1
b-b'断面
 73
     1
 44
1.0
1001
ACAD
1000
MTEXTBEGIN
1070
    73
1070
     1
1070
    44
1040
1.0
1070
    74
1070
     0
1000
MTEXTEND
  0
MTEXT
  5
5AC8
330
1F
100
AcDbEntity
  8
図文字
100
AcDbMText
 10
3158.800088449528
 20
2738.909163386517
 30
0.0
 40
30.0
 41
400.0
 71
     5
 72
     5
  1
側面図
 73
     1
 44
1.0
1001
ACAD
1000
MTEXTBEGIN
1070
    73
1070
     1
1070
    44
1040
1.0
1070
    74
1070
     0
1000
MTEXTEND
  0
DIMENSION
  5
5AC9
330
1F
100
AcDbEntity
  8
寸法
100
AcDbDimension
  2
*D15
 10
2858.800088449529
 20
2538.909163386517
 30
0.0
 11
2878.800088449528
 21
2338.909163386517
 31
0.0
 70
    32
 71
     5
 42
400.0
  3
ISO-25
100
AcDbAlignedDimension
 13
2808.800088449528
 23
2138.909163386517
 33
0.0
 14
2808.800088449528
 24
2538.909163386517
 34
0.0
 50
90.0
100
AcDbRotatedDimension
1001
ACAD
1000
DSTYLE
1002
{
1070
    41
1040
10.0
1070
    42
1040
30.0
1070
    44
1040
5.0
1070
   140
1040
20.0
1070
   147
1040
10.0
1002
}
  0
DIMENSION
  5
5ACA
102
{ACAD_XDICTIONARY
360
5ACB
102
}
102
{ACAD_REACTORS
330
5ACC
102
}
330
1F
100
AcDbEntity
  8
寸法
100
AcDbDimension
  2
*D33
 10
2753.800088449529
 20
2079.2633250841
 30
0.0
 11
2672.133421782862
 21
2079.2633250841
 31
0.0
 70
   160
 71
     5
 42
45.0
  3
ISO-25
100
AcDbAlignedDimension
 13
2708.800088449529
 23
2138.909163386517
 33
0.0
 14
2753.800088449529
 24
2138.909163386517
 34
0.0
100
AcDbRotatedDimension
1001
ACAD
1000
DSTYLE
1002
{
1070
    41
1040
10.0
1070
    42
1040
30.0
1070
    44
1040
5.0
1070
   140
1040
20.0
1070
   147
1040
10.0
1002
}
  0
DIMENSION
  5
5ACD
102
{ACAD_XDICTIONARY
360
5ACE
102
}
102
{ACAD_REACTORS
330
5ACF
102
}
330
1F
100
AcDbEntity
  8
寸法
100
AcDbDimension
  2
*D34
 10
2808.800088449528
 20
2079.2633250841
 30
0.0
 11
2781.300088449528
 21
2059.2633250841
 31
0.0
 70
    32
 71
     5
 42
55.0
  3
ISO-25
100
AcDbAlignedDimension
 13
2753.800088449529
 23
2138.909163386517
 33
0.0
 14
2808.800088449528
 24
2138.909163386517
 34
0.0
100
AcDbRotatedDimension
1001
ACAD
1000
DSTYLE
1002
{
1070
    41
1040
10.0
1070
    42
1040
30.0
1070
    44
1040
5.0
1070
   140
1040
20.0
1070
   147
1040
10.0
1002
}
  0
DIMENSION
  5
5AD0
102
{ACAD_XDICTIONARY
360
5AD1
102
}
102
{ACAD_REACTORS
330
5AD2
102
}
330
1F
100
AcDbEntity
  8
寸法
100
AcDbDimension
  2
*D35
 10
3153.800088449528
 20
2589.518386241099
 30
0.0
 11
3072.133421782862
 21
2589.518386241099
 31
0.0
 70
   160
 71
     5
 42
45.0
  3
ISO-25
100
AcDbAlignedDimension
 13
3108.800088449529
 23
2538.909163386517
 33
0.0
 14
3153.800088449528
 24
2538.909163386517
 34
0.0
100
AcDbRotatedDimension
1001
ACAD
1000
DSTYLE
1002
{
1070
    41
1040
10.0
1070
    42
1040
30.0
1070
    44
1040
5.0
1070
   140
1040
20.0
1070
   147
1040
10.0
1002
}
  0
DIMENSION
  5
5AD3
102
{ACAD_XDICTIONARY
360
5AD4
102
}
102
{ACAD_REACTORS
330
5AD5
102
}
330
1F
100
AcDbEntity
  8
寸法
100
AcDbDimension
  2
*D36
 10
3158.800088449528
 20
2589.518386241099
 30
0.0
 11
3156.300088449528
 21
2589.518386241099
 31
0.0
 70
   160
 71
     5
 42
5.0
  3
ISO-25
100
AcDbAlignedDimension
 13
3153.800088449528
 23
2538.909163386517
 33
0.0
 14
3158.800088449528
 24
2538.909163386517
 34
0.0
100
AcDbRotatedDimension
1001
ACAD
1000
DSTYLE
1002
{
1070
    41
1040
10.0
1070
    42
1040
30.0
1070
    44
1040
5.0
1070
   140
1040
20.0
1070
   147
1040
10.0
1002
}
  0
DIMENSION
  5
5AD6
102
{ACAD_XDICTIONARY
360
5AD7
102
}
102
{ACAD_REACTORS
330
5AD8
102
}
330
1F
100
AcDbEntity
  8
寸法
100
AcDbDimension
  2
*D37
 10
3208.800088449528
 20
2589.518386241099
 30
0.0
 11
3243.800088449528
 21
2609.518386241099
 31
0.0
 70
    32
 71
     5
 42
50.0
  3
ISO-25
100
AcDbAlignedDimension
 13
3158.800088449528
 23
2538.909163386517
 33
0.0
 14
3208.800088449528
 24
2538.909163386517
 34
0.0
100
AcDbRotatedDimension
1001
ACAD
1000
DSTYLE
1002
{
1070
    41
1040
10.0
1070
    42
1040
30.0
1070
    44
1040
5.0
1070
   140
1040
20.0
1070
   147
1040
10.0
1002
}
  0
DIMENSION
  5
5AD9
102
{ACAD_XDICTIONARY
360
5ADA
102
}
102
{ACAD_REACTORS
330
5ADB
102
}
330
1F
100
AcDbEntity
  8
寸法
100
AcDbDimension
  2
*D38
 10
3256.485621563927
 20
2538.909163386517
 30
0.0
 11
3276.485621563927
 21
2389.409163386518
 31
0.0
 70
    32
 71
     5
 42
299.0
  3
ISO-25
100
AcDbAlignedDimension
 13
3208.800088449528
 23
2239.909163386517
 33
0.0
 14
3208.800088449528
 24
2538.909163386517
 34
0.0
 50
90.0
100
AcDbRotatedDimension
1001
ACAD
1000
DSTYLE
1002
{
1070
    41
1040
10.0
1070
    42
1040
30.0
1070
    44
1040
5.0
1070
   140
1040
20.0
1070
   147
1040
10.0
1002
}
  0
DIMENSION
  5
5ADC
102
{ACAD_XDICTIONARY
360
5ADD
102
}
102
{ACAD_REACTORS
330
5ADE
102
}
330
1F
100
AcDbEntity
  8
寸法
100
AcDbDimension
  2
*D39
 10
3256.485621563927
 20
2239.909163386517
 30
0.0
 11
3256.485621563927
 21
2237.409163386518
 31
0.0
 70
   160
 71
     5
 42
5.0
  3
ISO-25
100
AcDbAlignedDimension
 13
3208.800088449528
 23
2234.909163386517
 33
0.0
 14
3208.800088449528
 24
2239.909163386517
 34
0.0
 50
90.0
100
AcDbRotatedDimension
1001
ACAD
1000
DSTYLE
1002
{
1070
    41
1040
10.0
1070
    42
1040
30.0
1070
    44
1040
5.0
1070
   140
1040
20.0
1070
   147
1040
10.0
1002
}
  0
DIMENSION
  5
5ADF
102
{ACAD_XDICTIONARY
360
5AE0
102
}
102
{ACAD_REACTORS
330
5AE1
102
}
330
1F
100
AcDbEntity
  8
寸法
100
AcDbDimension
  2
*D40
 10
3256.485621563927
 20
2138.909163386517
 30
0.0
 11
3276.485621563927
 21
2186.909163386518
 31
0.0
 70
    32
 71
     5
 42
96.0
  3
ISO-25
100
AcDbAlignedDimension
 13
3208.800088449528
 23
2234.909163386517
 33
0.0
 14
3208.800088449528
 24
2138.909163386517
 34
0.0
 50
90.0
100
AcDbRotatedDimension
1001
ACAD
1000
DSTYLE
1002
{
1070
    41
1040
10.0
1070
    42
1040
30.0
1070
    44
1040
5.0
1070
   140
1040
20.0
1070
   147
1040
10.0
1002
}
  0
DIMENSION
  5
5AE2
102
{ACAD_XDICTIONARY
360
5AE3
102
}
102
{ACAD_REACTORS
330
5AE4
102
}
330
1F
100
AcDbEntity
  8
寸法
100
AcDbDimension
  2
*D41
 10
3208.800088449528
 20
2033.110308324755
 30
0.0
 11
3158.800088449528
 21
2013.110308324755
 31
0.0
 70
    32
 71
     5
 42
100.0
  3
ISO-25
100
AcDbAlignedDimension
 13
3108.800088449529
 23
2138.909163386517
 33
0.0
 14
3208.800088449528
 24
2138.909163386517
 34
0.0
100
AcDbRotatedDimension
1001
ACAD
1000
DSTYLE
1002
{
1070
    41
1040
10.0
1070
    42
1040
30.0
1070
    44
1040
5.0
1070
   140
1040
20.0
1070
   147
1040
10.0
1002
}
  0
DIMENSION
  5
5AE5
102
{ACAD_XDICTIONARY
360
5AE6
102
}
102
{ACAD_REACTORS
330
5AE7
102
}
330
1F
100
AcDbEntity
  8
寸法
100
AcDbDimension
  2
*D42
 10
2311.7622978401
 20
788.9091633865167
 30
0.0
 11
2331.7622978401
 21
838.9091633865172
 31
0.0
 70
    32
 71
     5
 42
100.0
  3
ISO-25
100
AcDbAlignedDimension
 13
2208.800088449528
 23
888.9091633865168
 33
0.0
 14
2208.800088449528
 24
788.9091633865168
 34
0.0
 50
90.0
100
AcDbRotatedDimension
1001
ACAD
1000
DSTYLE
1002
{
1070
    41
1040
10.0
1070
    42
1040
30.0
1070
    44
1040
5.0
1070
   140
1040
20.0
1070
   147
1040
10.0
1002
}
  0
LEADER
  5
5AFA
330
1F
100
AcDbEntity
  8
寸法
100
AcDbLeader
  3
ISO-25
 76
     3
 10
766.0969419765311
 20
2388.909163386517
 30
0.0
 10
740.4373033006363
 20
2388.909163386517
 30
0.0
 10
740.4373033006363
 20
2357.287954469986
 30
0.0
1001
ACAD
1000
DSTYLE
1002
{
1070
   341
1005
10D7
1070
    41
1040
10.0
1070
   147
1040
0.625
1070
    77
1070
     0
1002
}
  0
MTEXT
  5
5AFB
330
1F
100
AcDbEntity
  8
寸法
100
AcDbMText
 10
728.5611594485031
 20
2373.098558928251
 30
0.0
 40
20.0
 41
23.75228770426657
 71
     5
 72
     5
  1
a
 73
     1
 44
1.0
1001
ACAD
1000
MTEXTBEGIN
1070
    73
1070
     1
1070
    44
1040
1.0
1070
    74
1070
     0
1000
MTEXTEND
1000
ACAD_MTEXT_DEFINED_HEIGHT_BEGIN
1070
    46
1040
31.62120891653103
1000
ACAD_MTEXT_DEFINED_HEIGHT_END
  0
LEADER
  5
5AFC
330
1F
100
AcDbEntity
  8
寸法
100
AcDbLeader
  3
ISO-25
 76
     3
 10
2211.654076190676
 20
2389.632807726206
 30
0.0
 10
2232.460743982291
 20
2389.632807726206
 30
0.0
 10
2232.460743982291
 20
2358.082675818938
 30
0.0
211
-1.0
221
0.0
231
0.0
1001
ACAD
1000
DSTYLE
1002
{
1070
   341
1005
10D7
1070
    41
1040
10.0
1070
   147
1040
0.625
1070
    77
1070
     0
1002
}
  0
MTEXT
  5
5AFD
330
1F
100
AcDbEntity
  8
寸法
100
AcDbMText
 10
2247.305181448964
 20
2373.857741772571
 30
0.0
 40
19.99999999999999
 41
29.68887493334658
 71
     5
 72
     5
  1
a'
 73
     1
 44
1.0
1001
ACAD
1000
MTEXTBEGIN
1070
    73
1070
     1
1070
    44
1040
1.0
1070
    74
1070
     0
1000
MTEXTEND
1000
ACAD_MTEXT_DEFINED_HEIGHT_BEGIN
1070
    46
1040
31.55013190726822
1000
ACAD_MTEXT_DEFINED_HEIGHT_END
  0
LEADER
  5
5AFE
330
1F
100
AcDbEntity
  8
寸法
100
AcDbLeader
  3
ISO-25
 76
     3
 10
1498.498945484617
 20
2540.987729739428
 30
0.0
 10
1498.498945484617
 20
2563.936520095432
 30
0.0
 10
1528.470022477744
 20
2563.936520095433
 30
0.0
1001
ACAD
1000
DSTYLE
1002
{
1070
   341
1005
10D7
1070
    41
1040
10.0
1070
   147
1040
0.625
1070
    77
1070
     0
1002
}
  0
MTEXT
  5
5AFF
330
1F
100
AcDbEntity
  8
寸法
100
AcDbMText
 10
1513.48448398118
 20
2570.968952673268
 30
0.0
 40
10.0
 41
29.9710769931271
 71
     5
 72
     5
  1
b
 73
     1
 44
1.0
1001
ACAD
1000
MTEXTBEGIN
1070
    73
1070
     1
1070
    44
1040
1.0
1070
    74
1070
     0
1000
MTEXTEND
1000
ACAD_MTEXT_DEFINED_HEIGHT_BEGIN
1070
    46
1040
14.06486515567212
1000
ACAD_MTEXT_DEFINED_HEIGHT_END
  0
LEADER
  5
5B00
330
1F
100
AcDbEntity
  8
寸法
100
AcDbLeader
  3
ISO-25
 76
     3
 10
1498.498945484617
 20
2137.613010940754
 30
0.0
 10
1498.498945484617
 20
2114.664220584751
 30
0.0
 10
1528.470022477744
 20
2114.66422058475
 30
0.0
1001
ACAD
1000
DSTYLE
1002
{
1070
   341
1005
10D7
1070
    41
1040
10.0
1070
   147
1040
0.625
1070
    77
1070
     0
1002
}
  0
MTEXT
  5
5B01
330
1F
100
AcDbEntity
  8
寸法
100
AcDbMText
 10
1513.48448398118
 20
2107.631788006915
 30
0.0
 40
10.0
 41
29.9710769931271
 71
     5
 72
     5
  1
b
 73
     1
 44
1.0
1001
ACAD
1000
MTEXTBEGIN
1070
    73
1070
     1
1070
    44
1040
1.0
1070
    74
1070
     0
1000
MTEXTEND
1000
ACAD_MTEXT_DEFINED_HEIGHT_BEGIN
1070
    46
1040
14.06486515567212
1000
ACAD_MTEXT_DEFINED_HEIGHT_END
  0
DIMENSION
  5
5B0A
102
{ACAD_XDICTIONARY
360
5B0B
102
}
102
{ACAD_REACTORS
330
5B0C
102
}
330
1F
100
AcDbEntity
  8
寸法
100
AcDbDimension
  2
*D16
 10
2808.800088449528
 20
2033.110308324755
 30
0.0
 11
2758.800088449528
 21
2013.110308324755
 31
0.0
 70
    32
 71
     5
 42
100.0
  3
ISO-25
100
AcDbAlignedDimension
 13
2708.800088449529
 23
2138.909163386517
 33
0.0
 14
2808.800088449528
 24
2138.909163386517
 34
0.0
100
AcDbRotatedDimension
1001
ACAD
1000
DSTYLE
1002
{
1070
    41
1040
10.0
1070
    42
1040
30.0
1070
    44
1040
5.0
1070
   140
1040
20.0
1070
   147
1040
10.0
1002
}
  0
LINE
  5
5B0D
330
1F
100
AcDbEntity
  8
図
100
AcDbLine
 10
3153.800088449528
 20
2234.909163386517
 30
0.0
 11
3158.800088449528
 21
2239.909163386517
 31
0.0
  0
DIMENSION
  5
5B11
330
1F
100
AcDbEntity
  8
寸法
100
AcDbDimension
  2
*D17
 10
2303.700722333303
 20
665.1479090395694
 30
0.0
 11
2246.013662195459
 21
613.2133050394152
 31
0.0
 70
    33
 71
     5
 42
150.0
  3
ISO-25
100
AcDbAlignedDimension
 13
2061.800088449528
 23
808.9091633865168
 33
0.0
 14
2195.374069951802
 24
877.1586429862191
 34
0.0
1001
ACAD
1000
DSTYLE
1002
{
1070
    41
1040
10.0
1070
    42
1040
30.0
1070
    44
1040
5.0
1070
   140
1040
20.0
1070
   147
1040
10.0
1002
}
  0
DIMENSION
  5
5B1F
330
1F
100
AcDbEntity
  8
寸法
100
AcDbDimension
  2
*D18
 10
2061.800088449528
 20
737.3216160724965
 30
0.0
 11
1495.800088449528
 21
717.3216160724964
 31
0.0
 70
    32
 71
     5
 42
1132.0
  3
ISO-25
100
AcDbAlignedDimension
 13
929.8000884495282
 23
808.9091633865168
 33
0.0
 14
2061.800088449528
 24
808.9091633865168
 34
0.0
100
AcDbRotatedDimension
1001
ACAD
1000
DSTYLE
1002
{
1070
    41
1040
10.0
1070
    42
1040
30.0
1070
    44
1040
5.0
1070
   140
1040
20.0
1070
   147
1040
10.0
1002
}
  0
DIMENSION
  5
5B22
330
1F
100
AcDbEntity
  8
寸法
100
AcDbDimension
  2
*D4
 10
2208.800088449528
 20
1788.45085461361
 30
0.0
 11
1495.800088449528
 21
1808.45085461361
 31
0.0
 70
    32
 71
     5
 42
1426.0
  3
ISO-25
100
AcDbAlignedDimension
 13
782.8000884495281
 23
1688.909163386517
 33
0.0
 14
2208.800088449528
 24
1688.909163386517
 34
0.0
100
AcDbRotatedDimension
1001
ACAD
1000
DSTYLE
1002
{
1070
    41
1040
10.0
1070
    42
1040
30.0
1070
    44
1040
5.0
1070
   140
1040
20.0
1070
   147
1040
10.0
1002
}
  0
DIMENSION
  5
5B23
330
1F
100
AcDbEntity
  8
寸法
100
AcDbDimension
  2
*D5
 10
2262.854034440014
 20
1389.909163386517
 30
0.0
 11
2282.854034440013
 21
1539.409163386517
 31
0.0
 70
    32
 71
     5
 42
299.0
  3
ISO-25
100
AcDbAlignedDimension
 13
2208.800088449528
 23
1688.909163386517
 33
0.0
 14
2208.800088449528
 24
1389.909163386517
 34
0.0
 50
90.0
100
AcDbRotatedDimension
1001
ACAD
1000
DSTYLE
1002
{
1070
    41
1040
10.0
1070
    42
1040
30.0
1070
    44
1040
5.0
1070
   140
1040
20.0
1070
   147
1040
10.0
1002
}
  0
DIMENSION
  5
5B24
330
1F
100
AcDbEntity
  8
寸法
100
AcDbDimension
  2
*D6
 10
2262.854034440014
 20
1389.909163386517
 30
0.0
 11
2262.854034440014
 21
1387.409163386517
 31
0.0
 70
   160
 71
     5
 42
5.0
  3
ISO-25
100
AcDbAlignedDimension
 13
2165.800088449528
 23
1384.909163386517
 33
0.0
 14
2208.800088449528
 24
1389.909163386517
 34
0.0
 50
90.0
100
AcDbRotatedDimension
1001
ACAD
1000
DSTYLE
1002
{
1070
    41
1040
10.0
1070
    42
1040
30.0
1070
    44
1040
5.0
1070
   140
1040
20.0
1070
   147
1040
10.0
1002
}
  0
DIMENSION
  5
5B25
330
1F
100
AcDbEntity
  8
寸法
100
AcDbDimension
  2
*D7
 10
2262.854034440014
 20
1384.909163386517
 30
0.0
 11
2282.854034440014
 21
1336.909163386517
 31
0.0
 70
    32
 71
     5
 42
96.0
  3
ISO-25
100
AcDbAlignedDimension
 13
2160.800088449528
 23
1288.909163386517
 33
0.0
 14
2165.800088449528
 24
1384.909163386517
 34
0.0
 50
90.0
100
AcDbRotatedDimension
1001
ACAD
1000
DSTYLE
1002
{
1070
    41
1040
10.0
1070
    42
1040
30.0
1070
    44
1040
5.0
1070
   140
1040
20.0
1070
   147
1040
10.0
1002
}
  0
DIMENSION
  5
5B26
330
1F
100
AcDbEntity
  8
寸法
100
AcDbDimension
  2
*D8
 10
2160.800088449528
 20
1233.21170822149
 30
0.0
 11
1495.800088449528
 21
1213.21170822149
 31
0.0
 70
    32
 71
     5
 42
1330.0
  3
ISO-25
100
AcDbAlignedDimension
 13
830.8000884495282
 23
1288.909163386517
 33
0.0
 14
2160.800088449528
 24
1288.909163386517
 34
0.0
100
AcDbRotatedDimension
1001
ACAD
1000
DSTYLE
1002
{
1070
    41
1040
10.0
1070
    42
1040
30.0
1070
    44
1040
5.0
1070
   140
1040
20.0
1070
   147
1040
10.0
1002
}
  0
DIMENSION
  5
5B27
330
1F
100
AcDbEntity
  8
寸法
100
AcDbDimension
  2
*D9
 10
830.8000884495282
 20
1233.21170822149
 30
0.0
 11
828.3000884495281
 21
1233.21170822149
 31
0.0
 70
   160
 71
     5
 42
5.0
  3
ISO-25
100
AcDbAlignedDimension
 13
825.8000884495281
 23
1384.909163386517
 33
0.0
 14
830.8000884495282
 24
1288.909163386517
 34
0.0
100
AcDbRotatedDimension
1001
ACAD
1000
DSTYLE
1002
{
1070
    41
1040
10.0
1070
    42
1040
30.0
1070
    44
1040
5.0
1070
   140
1040
20.0
1070
   147
1040
10.0
1002
}
  0
DIMENSION
  5
5B28
330
1F
100
AcDbEntity
  8
寸法
100
AcDbDimension
  2
*D10
 10
2160.800088449528
 20
1233.21170822149
 30
0.0
 11
2163.300088449528
 21
1233.21170822149
 31
0.0
 70
   160
 71
     5
 42
5.0
  3
ISO-25
100
AcDbAlignedDimension
 13
2165.800088449528
 23
1384.909163386517
 33
0.0
 14
2160.800088449528
 24
1288.909163386517
 34
0.0
 50
180.0
100
AcDbRotatedDimension
1001
ACAD
1000
DSTYLE
1002
{
1070
    41
1040
10.0
1070
    42
1040
30.0
1070
    44
1040
5.0
1070
   140
1040
20.0
1070
   147
1040
10.0
1002
}
  0
DIMENSION
  5
5B93
330
1F
100
AcDbEntity
  8
寸法
100
AcDbDimension
  2
*D11
 10
687.8994545657542
 20
665.1479090395697
 30
0.0
 11
745.5865147035977
 21
613.2133050394154
 31
0.0
 70
    33
 71
     5
 42
150.0
  3
ISO-25
100
AcDbAlignedDimension
 13
929.8000884495282
 23
808.9091633865168
 33
0.0
 14
796.2261069472543
 24
877.1586429862191
 34
0.0
1001
ACAD
1000
DSTYLE
1002
{
1070
    41
1040
10.0
1070
    42
1040
30.0
1070
    44
1040
5.0
1070
   140
1040
20.0
1070
   147
1040
10.0
1002
}
  0
ENDSEC
  0
SECTION
  2
OBJECTS
  0
DICTIONARY
  5
C
330
0
100
AcDbDictionary
281
     1
  3
ACAD_2007HEADERVARS_RT
350
6104
  3
ACAD_CIP_PREVIOUS_PRODUCT_INFO
350
609F
  3
ACAD_COLOR
350
6B
  3
ACAD_GROUP
350
D
  3
ACAD_LAYOUT
350
1A
  3
ACAD_MATERIAL
350
6A
  3
ACAD_MLEADERSTYLE
350
6098
  3
ACAD_MLINESTYLE
350
17
  3
ACAD_PLOTSETTINGS
350
19
  3
ACAD_PLOTSTYLENAME
350
E
  3
ACAD_SCALELIST
350
6086
  3
ACAD_TABLESTYLE
350
7E
  3
ACAD_VISUALSTYLE
350
606D
  3
ACDB_RECOMPOSE_DATA
350
6102
  3
AcDbVariableDictionary
350
5E
  3
DWGPROPS
350
6103
  0
DICTIONARY
  5
101
330
2
100
AcDbDictionary
280
     1
281
     1
  3
ACAD_LAYERFILTERS
360
51A4
  3
ACAD_LAYERSTATES
360
102
  3
ACLYDICTIONARY
360
51A3
  0
DICTIONARY
  5
60A3
330
10
100
AcDbDictionary
280
     1
281
     1
  3
ADSK_XREC_LAYER_RECONCILED
360
60A4
  0
DICTIONARY
  5
60A5
330
FC
100
AcDbDictionary
280
     1
281
     1
  3
ADSK_XREC_LAYER_RECONCILED
360
60A6
  0
DICTIONARY
  5
60A7
330
FE
100
AcDbDictionary
280
     1
281
     1
  3
ADSK_XREC_LAYER_RECONCILED
360
60A8
  0
DICTIONARY
  5
60A9
330
FF
100
AcDbDictionary
280
     1
281
     1
  3
ADSK_XREC_LAYER_RECONCILED
360
60AA
  0
DICTIONARY
  5
60AB
330
14B
100
AcDbDictionary
280
     1
281
     1
  3
ADSK_XREC_LAYER_RECONCILED
360
60AC
  0
DICTIONARY
  5
60AD
330
14F
100
AcDbDictionary
280
     1
281
     1
  3
ADSK_XREC_LAYER_RECONCILED
360
60AE
  0
DICTIONARY
  5
60AF
330
1A4
100
AcDbDictionary
280
     1
281
     1
  3
ADSK_XREC_LAYER_RECONCILED
360
60B0
  0
DICTIONARY
  5
60B1
330
1A5
100
AcDbDictionary
280
     1
281
     1
  3
ADSK_XREC_LAYER_RECONCILED
360
60B2
  0
DICTIONARY
  5
60B3
330
1747
100
AcDbDictionary
280
     1
281
     1
  3
ADSK_XREC_LAYER_RECONCILED
360
60B4
  0
DICTIONARY
  5
60B5
330
49BB
100
AcDbDictionary
280
     1
281
     1
  3
ADSK_XREC_LAYER_RECONCILED
360
60B6
  0
DICTIONARY
  5
60B7
330
49BC
100
AcDbDictionary
280
     1
281
     1
  3
ADSK_XREC_LAYER_RECONCILED
360
60B8
  0
DICTIONARY
  5
60B9
330
49BD
100
AcDbDictionary
280
     1
281
     1
  3
ADSK_XREC_LAYER_RECONCILED
360
60BA
  0
DICTIONARY
  5
C0A
330
1F
100
AcDbDictionary
280
     1
281
     1
  3
ACAD_SORTENTS
360
C0B
  0
DICTIONARY
  5
5A94
330
5A93
100
AcDbDictionary
280
     1
281
     1
  3
ACAD_DIMASSOC
360
5A95
  0
DICTIONARY
  5
5A97
330
5A96
100
AcDbDictionary
280
     1
281
     1
  3
ACAD_DIMASSOC
360
5A98
  0
DICTIONARY
  5
5A9A
330
5A99
100
AcDbDictionary
280
     1
281
     1
  3
ACAD_DIMASSOC
360
5A9B
  0
DICTIONARY
  5
5A9E
330
5A9D
100
AcDbDictionary
280
     1
281
     1
  3
ACAD_DIMASSOC
360
5A9F
  0
DICTIONARY
  5
5AA1
330
5AA0
100
AcDbDictionary
280
     1
281
     1
  3
ACAD_DIMASSOC
360
5AA2
  0
DICTIONARY
  5
5AA4
330
5AA3
100
AcDbDictionary
280
     1
281
     1
  3
ACAD_DIMASSOC
360
5AA5
  0
DICTIONARY
  5
5AA7
330
5AA6
100
AcDbDictionary
280
     1
281
     1
  3
ACAD_DIMASSOC
360
5AA8
  0
DICTIONARY
  5
5AAA
330
5AA9
100
AcDbDictionary
280
     1
281
     1
  3
ACAD_DIMASSOC
360
5AAB
  0
DICTIONARY
  5
5AB0
330
5AAF
100
AcDbDictionary
280
     1
281
     1
  3
ACAD_DIMASSOC
360
5AB1
  0
DICTIONARY
  5
5AB3
330
5AB2
100
AcDbDictionary
280
     1
281
     1
  3
ACAD_DIMASSOC
360
5AB4
  0
DICTIONARY
  5
5AB6
330
5AB5
100
AcDbDictionary
280
     1
281
     1
  3
ACAD_DIMASSOC
360
5AB7
  0
DICTIONARY
  5
5ABA
330
5AB9
100
AcDbDictionary
280
     1
281
     1
  3
ACAD_DIMASSOC
360
5ABB
  0
DICTIONARY
  5
5ABD
330
5ABC
100
AcDbDictionary
280
     1
281
     1
  3
ACAD_DIMASSOC
360
5ABE
  0
DICTIONARY
  5
5AC0
330
5ABF
100
AcDbDictionary
280
     1
281
     1
  3
ACAD_DIMASSOC
360
5AC1
  0
DICTIONARY
  5
5ACB
330
5ACA
100
AcDbDictionary
280
     1
281
     1
  3
ACAD_DIMASSOC
360
5ACC
  0
DICTIONARY
  5
5ACE
330
5ACD
100
AcDbDictionary
280
     1
281
     1
  3
ACAD_DIMASSOC
360
5ACF
  0
DICTIONARY
  5
5AD1
330
5AD0
100
AcDbDictionary
280
     1
281
     1
  3
ACAD_DIMASSOC
360
5AD2
  0
DICTIONARY
  5
5AD4
330
5AD3
100
AcDbDictionary
280
     1
281
     1
  3
ACAD_DIMASSOC
360
5AD5
  0
DICTIONARY
  5
5AD7
330
5AD6
100
AcDbDictionary
280
     1
281
     1
  3
ACAD_DIMASSOC
360
5AD8
  0
DICTIONARY
  5
5ADA
330
5AD9
100
AcDbDictionary
280
     1
281
     1
  3
ACAD_DIMASSOC
360
5ADB
  0
DICTIONARY
  5
5ADD
330
5ADC
100
AcDbDictionary
280
     1
281
     1
  3
ACAD_DIMASSOC
360
5ADE
  0
DICTIONARY
  5
5AE0
330
5ADF
100
AcDbDictionary
280
     1
281
     1
  3
ACAD_DIMASSOC
360
5AE1
  0
DICTIONARY
  5
5AE3
330
5AE2
100
AcDbDictionary
280
     1
281
     1
  3
ACAD_DIMASSOC
360
5AE4
  0
DICTIONARY
  5
5AE6
330
5AE5
100
AcDbDictionary
280
     1
281
     1
  3
ACAD_DIMASSOC
360
5AE7
  0
DICTIONARY
  5
5B0B
330
5B0A
100
AcDbDictionary
280
     1
281
     1
  3
ACAD_DIMASSOC
360
5B0C
  0
DICTIONARY
  5
6104
102
{ACAD_REACTORS
330
C
102
}
330
C
100
AcDbDictionary
281
     1
  3
DIMFXL
350
6105
  3
DIMJOGANG
350
6106
  0
XRECORD
  5
609F
102
{ACAD_REACTORS
330
C
102
}
330
C
100
AcDbXrecord
280
     1
300
ACD
300
2012
300
ACD_F_S
  0
DICTIONARY
  5
6B
102
{ACAD_REACTORS
330
C
102
}
330
C
100
AcDbDictionary
281
     1
  0
DICTIONARY
  5
D
102
{ACAD_REACTORS
330
C
102
}
330
C
100
AcDbDictionary
281
     1
  0
DICTIONARY
  5
1A
102
{ACAD_REACTORS
330
C
102
}
330
C
100
AcDbDictionary
281
     1
  3
Model
350
22
  3
レイアウト1
350
D3
  3
レイアウト2
350
D7
  0
DICTIONARY
  5
6A
102
{ACAD_REACTORS
330
C
102
}
330
C
100
AcDbDictionary
281
     1
  3
ByBlock
350
605D
  3
ByLayer
350
6055
  3
Global
350
6065
  0
DICTIONARY
  5
6098
102
{ACAD_REACTORS
330
C
102
}
330
C
100
AcDbDictionary
281
     1
  3
Standard
350
6099
  0
DICTIONARY
  5
17
102
{ACAD_REACTORS
330
C
102
}
330
C
100
AcDbDictionary
281
     1
  3
Standard
350
18
  0
DICTIONARY
  5
19
102
{ACAD_REACTORS
330
C
102
}
330
C
100
AcDbDictionary
281
     1
  0
ACDBDICTIONARYWDFLT
  5
E
102
{ACAD_REACTORS
330
C
102
}
330
C
100
AcDbDictionary
281
     1
  3
Normal
350
F
100
AcDbDictionaryWithDefault
340
F
  0
DICTIONARY
  5
6086
102
{ACAD_REACTORS
330
C
102
}
330
C
100
AcDbDictionary
281
     1
  3
A0
350
6087
  3
A1
350
6088
  3
A2
350
6089
  3
A3
350
608A
  3
A4
350
608B
  3
A5
350
608C
  3
A6
350
608D
  3
A7
350
608E
  3
A8
350
608F
  3
A9
350
6090
  3
B0
350
6091
  3
B1
350
6092
  3
B2
350
6093
  3
B3
350
6094
  3
B4
350
6095
  3
B5
350
6096
  3
B6
350
6097
  0
DICTIONARY
  5
7E
102
{ACAD_REACTORS
330
C
102
}
330
C
100
AcDbDictionary
281
     1
  3
Standard
350
7F
  0
DICTIONARY
  5
606D
102
{ACAD_REACTORS
330
C
102
}
330
C
100
AcDbDictionary
281
     1
  3
2dWireframe
350
6073
  3
Basic
350
6072
  3
Brighten
350
6079
  3
ColorChange
350
607D
  3
Conceptual
350
6076
  3
Dim
350
6078
  3
EdgeColorOff
350
6085
  3
Facepattern
350
607C
  3
Flat
350
606E
  3
FlatWithEdges
350
606F
  3
Gouraud
350
6070
  3
GouraudWithEdges
350
6071
  3
Hidden
350
6075
  3
JitterOff
350
6083
  3
Linepattern
350
607B
  3
OverhangOff
350
6084
  3
Realistic
350
6077
  3
Shaded
350
6082
  3
Shaded with edges
350
6081
  3
Shades of Gray
350
607E
  3
Sketchy
350
607F
  3
Thicken
350
607A
  3
Wireframe
350
6074
  3
X-Ray
350
6080
  0
XRECORD
  5
6102
102
{ACAD_REACTORS
330
C
102
}
330
C
100
AcDbXrecord
280
     1
 90
        1
330
7F
  0
DICTIONARY
  5
5E
102
{ACAD_REACTORS
330
C
102
}
330
C
100
AcDbDictionary
281
     1
  3
CANNOSCALE
350
60C9
  3
CMLEADERSTYLE
350
60C7
  3
CTABLESTYLE
350
84
  3
DIMASSOC
350
5F
  3
HIDETEXT
350
63
  3
INDEXCTL
350
60FC
  3
LAYEREVAL
350
60CB
  3
LAYERNOTIFY
350
60CC
  3
LIGHTINGUNITS
350
60CA
  3
MSLTSCALE
350
60C8
  3
SORTENTS
350
60FB
  3
XCLIPFRAME
350
60FD
  0
XRECORD
  5
6103
102
{ACAD_REACTORS
330
C
102
}
330
C
100
AcDbXrecord
280
     1
  1
DWGPROPS COOKIE
  2

  3

  4

  6

  7

  8
tom
  9

300
=
301
=
302
=
303
=
304
=
305
=
306
=
307
=
308
=
309
=
 40
0.2646660416666667
 41
2454427.395492431
 42
2457014.700817187
  1

 90
        0
  0
DICTIONARY
  5
51A4
102
{ACAD_REACTORS
330
101
102
}
330
101
100
AcDbDictionary
281
     1
  0
DICTIONARY
  5
102
102
{ACAD_REACTORS
330
101
102
}
330
101
100
AcDbDictionary
281
     1
  0
DICTIONARY
  5
51A3
102
{ACAD_REACTORS
330
101
102
}
330
101
100
AcDbDictionary
281
     1
1001
ACAD
1000
<All
  0
XRECORD
  5
60A4
102
{ACAD_REACTORS
330
60A3
102
}
330
60A3
100
AcDbXrecord
280
     1
290
     1
  0
XRECORD
  5
60A6
102
{ACAD_REACTORS
330
60A5
102
}
330
60A5
100
AcDbXrecord
280
     1
290
     1
  0
XRECORD
  5
60A8
102
{ACAD_REACTORS
330
60A7
102
}
330
60A7
100
AcDbXrecord
280
     1
290
     1
  0
XRECORD
  5
60AA
102
{ACAD_REACTORS
330
60A9
102
}
330
60A9
100
AcDbXrecord
280
     1
290
     1
  0
XRECORD
  5
60AC
102
{ACAD_REACTORS
330
60AB
102
}
330
60AB
100
AcDbXrecord
280
     1
290
     1
  0
XRECORD
  5
60AE
102
{ACAD_REACTORS
330
60AD
102
}
330
60AD
100
AcDbXrecord
280
     1
290
     1
  0
XRECORD
  5
60B0
102
{ACAD_REACTORS
330
60AF
102
}
330
60AF
100
AcDbXrecord
280
     1
290
     1
  0
XRECORD
  5
60B2
102
{ACAD_REACTORS
330
60B1
102
}
330
60B1
100
AcDbXrecord
280
     1
290
     1
  0
XRECORD
  5
60B4
102
{ACAD_REACTORS
330
60B3
102
}
330
60B3
100
AcDbXrecord
280
     1
290
     1
  0
XRECORD
  5
60B6
102
{ACAD_REACTORS
330
60B5
102
}
330
60B5
100
AcDbXrecord
280
     1
290
     1
  0
XRECORD
  5
60B8
102
{ACAD_REACTORS
330
60B7
102
}
330
60B7
100
AcDbXrecord
280
     1
290
     1
  0
XRECORD
  5
60BA
102
{ACAD_REACTORS
330
60B9
102
}
330
60B9
100
AcDbXrecord
280
     1
290
     1
  0
SORTENTSTABLE
  5
C0B
102
{ACAD_REACTORS
330
C0A
102
}
330
C0A
100
AcDbSortentsTable
330
1F
331
133
  5
2263
331
129
  5
2261
331
163
  5
43E1
331
127
  5
225F
331
138
  5
43D7
331
125
  5
225D
331
136
  5
2266
331
123
  5
225B
331
134
  5
2264
331
132
  5
2262
331
128
  5
2260
331
139
  5
43E0
331
137
  5
2267
331
126
  5
225E
331
124
  5
225C
331
135
  5
2265
  0
DIMASSOC
  5
5A95
102
{ACAD_REACTORS
330
5A94
102
}
330
5A94
100
AcDbDimAssoc
330
5A93
 90
        3
 70
     0
 71
     0
  1
AcDbOsnapPointRef
 72
    13
331
5A69
 73
     2
 91
        0
 40
0.0
 10
0.0
 20
0.0
 30
2.000000000000000E+50
 75
     0
  1
AcDbOsnapPointRef
 72
    13
331
5A6E
 73
     2
 91
        0
 40
0.0
 10
0.0
 20
0.0
 30
2.000000000000000E+50
 75
     0
  0
DIMASSOC
  5
5A98
102
{ACAD_REACTORS
330
5A97
102
}
330
5A97
100
AcDbDimAssoc
330
5A96
 90
        3
 70
     0
 71
     0
  1
AcDbOsnapPointRef
 72
     1
331
5A7C
 73
     2
 91
        0
 40
1.0
 10
0.0
 20
0.0
 30
2.000000000000000E+50
 75
     0
  1
AcDbOsnapPointRef
 72
     1
331
5A92
 73
     2
 91
        0
 40
1.0
 10
0.0
 20
0.0
 30
2.000000000000000E+50
 75
     0
  0
DIMASSOC
  5
5A9B
102
{ACAD_REACTORS
330
5A9A
102
}
330
5A9A
100
AcDbDimAssoc
330
5A99
 90
        3
 70
     0
 71
     0
  1
AcDbOsnapPointRef
 72
     1
331
5A92
 73
     2
 91
        0
 40
1.0
 10
0.0
 20
0.0
 30
2.000000000000000E+50
 75
     0
  1
AcDbOsnapPointRef
 72
    13
331
5A6E
 73
     2
 91
        0
 40
0.0
 10
0.0
 20
0.0
 30
2.000000000000000E+50
 75
     0
  0
DIMASSOC
  5
5A9F
102
{ACAD_REACTORS
330
5A9E
102
}
330
5A9E
100
AcDbDimAssoc
330
5A9D
 90
        3
 70
     0
 71
     0
  1
AcDbOsnapPointRef
 72
    13
331
5A6E
 73
     2
 91
        0
 40
0.0
 10
0.0
 20
0.0
 30
2.000000000000000E+50
 75
     0
  1
AcDbOsnapPointRef
 72
    13
331
5A6F
 73
     2
 91
        0
 40
0.0
 10
0.0
 20
0.0
 30
2.000000000000000E+50
 75
     0
  0
DIMASSOC
  5
5AA2
102
{ACAD_REACTORS
330
5AA1
102
}
330
5AA1
100
AcDbDimAssoc
330
5AA0
 90
        3
 70
     0
 71
     0
  1
AcDbOsnapPointRef
 72
    13
331
5A92
 73
     2
 91
        0
 40
0.0
 10
0.0
 20
0.0
 30
2.000000000000000E+50
 75
     0
  1
AcDbOsnapPointRef
 72
    13
331
5A6F
 73
     2
 91
        0
 40
0.0
 10
0.0
 20
0.0
 30
2.000000000000000E+50
 75
     0
  0
DIMASSOC
  5
5AA5
102
{ACAD_REACTORS
330
5AA4
102
}
330
5AA4
100
AcDbDimAssoc
330
5AA3
 90
        3
 70
     0
 71
     0
  1
AcDbOsnapPointRef
 72
    13
331
5A71
 73
     2
 91
        0
 40
0.0
 10
0.0
 20
0.0
 30
2.000000000000000E+50
 75
     0
  1
AcDbOsnapPointRef
 72
    13
331
5A92
 73
     2
 91
        0
 40
0.0
 10
0.0
 20
0.0
 30
2.000000000000000E+50
 75
     0
  0
DIMASSOC
  5
5AA8
102
{ACAD_REACTORS
330
5AA7
102
}
330
5AA7
100
AcDbDimAssoc
330
5AA6
 90
        3
 70
     0
 71
     0
  1
AcDbOsnapPointRef
 72
    13
331
5A6C
 73
     2
 91
        0
 40
0.0
 10
0.0
 20
0.0
 30
2.000000000000000E+50
 75
     0
  1
AcDbOsnapPointRef
 72
    13
331
5A71
 73
     2
 91
        0
 40
0.0
 10
0.0
 20
0.0
 30
2.000000000000000E+50
 75
     0
  0
DIMASSOC
  5
5AAB
102
{ACAD_REACTORS
330
5AAA
102
}
330
5AAA
100
AcDbDimAssoc
330
5AA9
 90
        3
 70
     0
 71
     0
  1
AcDbOsnapPointRef
 72
    13
331
5A7C
 73
     2
 91
        0
 40
0.0
 10
0.0
 20
0.0
 30
2.000000000000000E+50
 75
     0
  1
AcDbOsnapPointRef
 72
    13
331
5A6C
 73
     2
 91
        0
 40
0.0
 10
0.0
 20
0.0
 30
2.000000000000000E+50
 75
     0
  0
DIMASSOC
  5
5AB1
102
{ACAD_REACTORS
330
5AB0
102
}
330
5AB0
100
AcDbDimAssoc
330
5AAF
 90
        3
 70
     0
 71
     0
  1
AcDbOsnapPointRef
 72
    13
331
5A8C
 73
     2
 91
        0
 40
0.0
 10
0.0
 20
0.0
 30
2.000000000000000E+50
 75
     0
  1
AcDbOsnapPointRef
 72
    13
331
5A87
 73
     2
 91
        0
 40
0.0
 10
0.0
 20
0.0
 30
2.000000000000000E+50
 75
     0
  0
DIMASSOC
  5
5AB4
102
{ACAD_REACTORS
330
5AB3
102
}
330
5AB3
100
AcDbDimAssoc
330
5AB2
 90
        3
 70
     0
 71
     0
  1
AcDbOsnapPointRef
 72
    13
331
5A8F
 73
     2
 91
        0
 40
0.0
 10
0.0
 20
0.0
 30
2.000000000000000E+50
 75
     0
  1
AcDbOsnapPointRef
 72
    13
331
5A8A
 73
     2
 91
        0
 40
0.0
 10
0.0
 20
0.0
 30
2.000000000000000E+50
 75
     0
  0
DIMASSOC
  5
5AB7
102
{ACAD_REACTORS
330
5AB6
102
}
330
5AB6
100
AcDbDimAssoc
330
5AB5
 90
        3
 70
     0
 71
     0
  1
AcDbOsnapPointRef
 72
    13
331
5A8D
 73
     2
 91
        0
 40
0.0
 10
0.0
 20
0.0
 30
2.000000000000000E+50
 75
     0
  1
AcDbOsnapPointRef
 72
    13
331
5A8F
 73
     2
 91
        0
 40
0.0
 10
0.0
 20
0.0
 30
2.000000000000000E+50
 75
     0
  0
DIMASSOC
  5
5ABB
102
{ACAD_REACTORS
330
5ABA
102
}
330
5ABA
100
AcDbDimAssoc
330
5AB9
 90
        1
 70
     0
 71
     0
  1
AcDbOsnapPointRef
 72
    13
331
5A8A
 73
     2
 91
        0
 40
0.0
 10
0.0
 20
0.0
 30
2.000000000000000E+50
 75
     0
  0
DIMASSOC
  5
5ABE
102
{ACAD_REACTORS
330
5ABD
102
}
330
5ABD
100
AcDbDimAssoc
330
5ABC
 90
        3
 70
     0
 71
     0
  1
AcDbOsnapPointRef
 72
    13
331
5A89
 73
     2
 91
        0
 40
0.0
 10
0.0
 20
0.0
 30
2.000000000000000E+50
 75
     0
  1
AcDbOsnapPointRef
 72
    13
331
5A88
 73
     2
 91
        0
 40
0.0
 10
0.0
 20
0.0
 30
2.000000000000000E+50
 75
     0
  0
DIMASSOC
  5
5AC1
102
{ACAD_REACTORS
330
5AC0
102
}
330
5AC0
100
AcDbDimAssoc
330
5ABF
 90
        3
 70
     0
 71
     0
  1
AcDbOsnapPointRef
 72
    13
331
5A88
 73
     2
 91
        0
 40
0.0
 10
0.0
 20
0.0
 30
2.000000000000000E+50
 75
     0
  1
AcDbOsnapPointRef
 72
    13
331
5A87
 73
     2
 91
        0
 40
0.0
 10
0.0
 20
0.0
 30
2.000000000000000E+50
 75
     0
  0
DIMASSOC
  5
5ACC
102
{ACAD_REACTORS
330
5ACB
102
}
330
5ACB
100
AcDbDimAssoc
330
5ACA
 90
        1
 70
     0
 71
     0
  1
AcDbOsnapPointRef
 72
    13
331
5A65
 73
     2
 91
        0
 40
0.0
 10
0.0
 20
0.0
 30
2.000000000000000E+50
 75
     0
  0
DIMASSOC
  5
5ACF
102
{ACAD_REACTORS
330
5ACE
102
}
330
5ACE
100
AcDbDimAssoc
330
5ACD
 90
        2
 70
     0
 71
     0
  1
AcDbOsnapPointRef
 72
    13
331
5A64
 73
     2
 91
        0
 40
0.0
 10
0.0
 20
0.0
 30
2.000000000000000E+50
 75
     0
  0
DIMASSOC
  5
5AD2
102
{ACAD_REACTORS
330
5AD1
102
}
330
5AD1
100
AcDbDimAssoc
330
5AD0
 90
        3
 70
     0
 71
     0
  1
AcDbOsnapPointRef
 72
     1
331
5A50
 73
     2
 91
        3
 40
1.0
 10
0.0
 20
0.0
 30
2.000000000000000E+50
 75
     0
  1
AcDbOsnapPointRef
 72
    13
331
5A58
 73
     2
 91
        0
 40
0.0
 10
0.0
 20
0.0
 30
2.000000000000000E+50
 75
     0
  0
DIMASSOC
  5
5AD5
102
{ACAD_REACTORS
330
5AD4
102
}
330
5AD4
100
AcDbDimAssoc
330
5AD3
 90
        3
 70
     0
 71
     0
  1
AcDbOsnapPointRef
 72
    13
331
5A58
 73
     2
 91
        0
 40
0.0
 10
0.0
 20
0.0
 30
2.000000000000000E+50
 75
     0
  1
AcDbOsnapPointRef
 72
    13
331
5A5A
 73
     2
 91
        0
 40
0.0
 10
0.0
 20
0.0
 30
2.000000000000000E+50
 75
     0
  0
DIMASSOC
  5
5AD8
102
{ACAD_REACTORS
330
5AD7
102
}
330
5AD7
100
AcDbDimAssoc
330
5AD6
 90
        3
 70
     0
 71
     0
  1
AcDbOsnapPointRef
 72
    13
331
5A5A
 73
     2
 91
        0
 40
0.0
 10
0.0
 20
0.0
 30
2.000000000000000E+50
 75
     0
  1
AcDbOsnapPointRef
 72
     1
331
5A50
 73
     2
 91
        2
 40
1.0
 10
0.0
 20
0.0
 30
2.000000000000000E+50
 75
     0
  0
DIMASSOC
  5
5ADB
102
{ACAD_REACTORS
330
5ADA
102
}
330
5ADA
100
AcDbDimAssoc
330
5AD9
 90
        3
 70
     0
 71
     0
  1
AcDbOsnapPointRef
 72
    13
331
5A5B
 73
     2
 91
        0
 40
0.0
 10
0.0
 20
0.0
 30
2.000000000000000E+50
 75
     0
  1
AcDbOsnapPointRef
 72
     1
331
5A50
 73
     2
 91
        2
 40
1.0
 10
0.0
 20
0.0
 30
2.000000000000000E+50
 75
     0
  0
DIMASSOC
  5
5ADE
102
{ACAD_REACTORS
330
5ADD
102
}
330
5ADD
100
AcDbDimAssoc
330
5ADC
 90
        3
 70
     0
 71
     0
  1
AcDbOsnapPointRef
 72
     1
331
5A59
 73
     2
 91
        0
 40
1.0
 10
0.0
 20
0.0
 30
2.000000000000000E+50
 75
     0
  1
AcDbOsnapPointRef
 72
    13
331
5A5B
 73
     2
 91
        0
 40
0.0
 10
0.0
 20
0.0
 30
2.000000000000000E+50
 75
     0
  0
DIMASSOC
  5
5AE1
102
{ACAD_REACTORS
330
5AE0
102
}
330
5AE0
100
AcDbDimAssoc
330
5ADF
 90
        3
 70
     0
 71
     0
  1
AcDbOsnapPointRef
 72
     1
331
5A59
 73
     2
 91
        0
 40
1.0
 10
0.0
 20
0.0
 30
2.000000000000000E+50
 75
     0
  1
AcDbOsnapPointRef
 72
     1
331
5A50
 73
     2
 91
        1
 40
1.0
 10
0.0
 20
0.0
 30
2.000000000000000E+50
 75
     0
  0
DIMASSOC
  5
5AE4
102
{ACAD_REACTORS
330
5AE3
102
}
330
5AE3
100
AcDbDimAssoc
330
5AE2
 90
        3
 70
     0
 71
     0
  1
AcDbOsnapPointRef
 72
    13
331
5A50
 73
     2
 91
        1
 40
0.0
 10
0.0
 20
0.0
 30
2.000000000000000E+50
 75
     0
  1
AcDbOsnapPointRef
 72
     1
331
5A50
 73
     2
 91
        1
 40
1.0
 10
0.0
 20
0.0
 30
2.000000000000000E+50
 75
     0
  0
DIMASSOC
  5
5AE7
102
{ACAD_REACTORS
330
5AE6
102
}
330
5AE6
100
AcDbDimAssoc
330
5AE5
 90
        1
 70
     0
 71
     0
  1
AcDbOsnapPointRef
 72
    13
331
5A87
 73
     2
 91
        0
 40
0.0
 10
0.0
 20
0.0
 30
2.000000000000000E+50
 75
     0
  0
DIMASSOC
  5
5B0C
102
{ACAD_REACTORS
330
5B0B
102
}
330
5B0B
100
AcDbDimAssoc
330
5B0A
 90
        3
 70
     0
 71
     0
  1
AcDbOsnapPointRef
 72
    13
331
5A65
 73
     2
 91
        0
 40
0.0
 10
0.0
 20
0.0
 30
2.000000000000000E+50
 75
     0
  1
AcDbOsnapPointRef
 72
    13
331
5A64
 73
     2
 91
        0
 40
0.0
 10
0.0
 20
0.0
 30
2.000000000000000E+50
 75
     0
  0
XRECORD
  5
6105
102
{ACAD_REACTORS
330
6104
102
}
330
6104
100
AcDbXrecord
280
     1
 40
1.25
  0
XRECORD
  5
6106
102
{ACAD_REACTORS
330
6104
102
}
330
6104
100
AcDbXrecord
280
     1
 40
1.570796326794896
  0
LAYOUT
  5
22
102
{ACAD_XDICTIONARY
360
60C2
102
}
102
{ACAD_REACTORS
330
1A
102
}
330
1A
100
AcDbPlotSettings
  1

  2
RICOH imagio Neo 353D RPCS
  4
A3
  6

 40
5.873749732971191
 41
5.873747825622558
 42
5.873748779296875
 43
5.873748779296875
 44
296.9259948730469
 45
419.9466552734374
 46
-5.910751819610595
 47
-5.900420665740966
 48
82.80008844952817
 49
88.90916338651733
140
4282.800088449529
141
3058.909163386517
142
1.0
143
10.0
 70
 11956
 72
     1
 73
     1
 74
     4
  7
monochrome.ctb
 75
    20
147
0.1
148
-82.80008844952817
149
-88.90916338651733
100
AcDbLayout
  1
Model
 70
     1
 71
     0
 10
0.0
 20
0.0
 11
12.0
 21
9.0
 12
0.0
 22
0.0
 32
0.0
 14
0.0
 24
0.0
 34
0.0
 15
0.0
 25
0.0
 35
0.0
146
0.0
 13
0.0
 23
0.0
 33
0.0
 16
1.0
 26
0.0
 36
0.0
 17
0.0
 27
1.0
 37
0.0
 76
     0
330
1F
331
6053
1001
ACAD_PSEXT
1000
RICOH imagio Neo 353D RPCS
1000
RICOH imagio Neo 353D RPCS
1000
IP_200.100.10.111
1000
RPCS Driver (Windows 2000/XP/Server 2003/2008/Vista/7)
1070
     0
  0
LAYOUT
  5
D3
102
{ACAD_XDICTIONARY
360
6109
102
}
102
{ACAD_REACTORS
330
1A
102
}
330
1A
100
AcDbPlotSettings
  1

  2
C:\Documents and Settings\basas\Application Data\Autodesk\AutoCAD 2005\R16.1\enu\plotters\Default Windows System Printer.pc3
  4

  6

 40
0.0
 41
0.0
 42
0.0
 43
0.0
 44
0.0
 45
0.0
 46
0.0
 47
0.0
 48
0.0
 49
0.0
140
0.0
141
0.0
142
1.0
143
1.0
 70
   688
 72
     0
 73
     0
 74
     5
  7
monochrome.ctb
 75
    16
147
1.0
148
0.0
149
0.0
100
AcDbLayout
  1
レイアウト1
 70
     1
 71
     1
 10
0.0
 20
0.0
 11
12.0
 21
9.0
 12
0.0
 22
0.0
 32
0.0
 14
0.0
 24
0.0
 34
0.0
 15
0.0
 25
0.0
 35
0.0
146
0.0
 13
0.0
 23
0.0
 33
0.0
 16
1.0
 26
0.0
 36
0.0
 17
0.0
 27
1.0
 37
0.0
 76
     0
330
D2
  0
LAYOUT
  5
D7
102
{ACAD_XDICTIONARY
360
610B
102
}
102
{ACAD_REACTORS
330
1A
102
}
330
1A
100
AcDbPlotSettings
  1

  2
C:\Documents and Settings\basas\Application Data\Autodesk\AutoCAD 2005\R16.1\enu\plotters\Default Windows System Printer.pc3
  4

  6

 40
0.0
 41
0.0
 42
0.0
 43
0.0
 44
0.0
 45
0.0
 46
0.0
 47
0.0
 48
0.0
 49
0.0
140
0.0
141
0.0
142
1.0
143
1.0
 70
   688
 72
     0
 73
     0
 74
     5
  7
monochrome.ctb
 75
    16
147
1.0
148
0.0
149
0.0
100
AcDbLayout
  1
レイアウト2
 70
     1
 71
     2
 10
0.0
 20
0.0
 11
12.0
 21
9.0
 12
0.0
 22
0.0
 32
0.0
 14
0.0
 24
0.0
 34
0.0
 15
0.0
 25
0.0
 35
0.0
146
0.0
 13
0.0
 23
0.0
 33
0.0
 16
1.0
 26
0.0
 36
0.0
 17
0.0
 27
1.0
 37
0.0
 76
     0
330
D6
  0
MATERIAL
  5
605D
102
{ACAD_XDICTIONARY
360
605E
102
}
102
{ACAD_REACTORS
330
6A
102
}
330
6A
100
AcDbMaterial
  1
ByBlock
 72
     0
 43
0.0008202099737533
 43
0.0
 43
0.0
 43
0.0
 43
0.0
 43
0.0008202099737533
 43
0.0
 43
0.0
 43
0.0
 43
0.0
 43
1.0
 43
0.0
 43
0.0
 43
0.0
 43
0.0
 43
1.0
 77
     0
 47
0.0008202099737533
 47
0.0
 47
0.0
 47
0.0
 47
0.0
 47
0.0008202099737533
 47
0.0
 47
0.0
 47
0.0
 47
0.0
 47
1.0
 47
0.0
 47
0.0
 47
0.0
 47
0.0
 47
1.0
171
     0
 49
0.0008202099737533
 49
0.0
 49
0.0
 49
0.0
 49
0.0
 49
0.0008202099737533
 49
0.0
 49
0.0
 49
0.0
 49
0.0
 49
1.0
 49
0.0
 49
0.0
 49
0.0
 49
0.0
 49
1.0
175
     0
142
0.0008202099737533
142
0.0
142
0.0
142
0.0
142
0.0
142
0.0008202099737533
142
0.0
142
0.0
142
0.0
142
0.0
142
1.0
142
0.0
142
0.0
142
0.0
142
0.0
142
1.0
179
     0
144
0.0008202099737533
144
0.0
144
0.0
144
0.0
144
0.0
144
0.0008202099737533
144
0.0
144
0.0
144
0.0
144
0.0
144
1.0
144
0.0
144
0.0
144
0.0
144
0.0
144
1.0
147
0.0008202099737533
147
0.0
147
0.0
147
0.0
147
0.0
147
0.0008202099737533
147
0.0
147
0.0
147
0.0
147
0.0
147
1.0
147
0.0
147
0.0
147
0.0
147
0.0
147
1.0
  0
MATERIAL
  5
6055
102
{ACAD_XDICTIONARY
360
6056
102
}
102
{ACAD_REACTORS
330
6A
102
}
330
6A
100
AcDbMaterial
  1
ByLayer
 72
     0
 43
0.0008202099737533
 43
0.0
 43
0.0
 43
0.0
 43
0.0
 43
0.0008202099737533
 43
0.0
 43
0.0
 43
0.0
 43
0.0
 43
1.0
 43
0.0
 43
0.0
 43
0.0
 43
0.0
 43
1.0
 77
     0
 47
0.0008202099737533
 47
0.0
 47
0.0
 47
0.0
 47
0.0
 47
0.0008202099737533
 47
0.0
 47
0.0
 47
0.0
 47
0.0
 47
1.0
 47
0.0
 47
0.0
 47
0.0
 47
0.0
 47
1.0
171
     0
 49
0.0008202099737533
 49
0.0
 49
0.0
 49
0.0
 49
0.0
 49
0.0008202099737533
 49
0.0
 49
0.0
 49
0.0
 49
0.0
 49
1.0
 49
0.0
 49
0.0
 49
0.0
 49
0.0
 49
1.0
175
     0
142
0.0008202099737533
142
0.0
142
0.0
142
0.0
142
0.0
142
0.0008202099737533
142
0.0
142
0.0
142
0.0
142
0.0
142
1.0
142
0.0
142
0.0
142
0.0
142
0.0
142
1.0
179
     0
144
0.0008202099737533
144
0.0
144
0.0
144
0.0
144
0.0
144
0.0008202099737533
144
0.0
144
0.0
144
0.0
144
0.0
144
1.0
144
0.0
144
0.0
144
0.0
144
0.0
144
1.0
147
0.0008202099737533
147
0.0
147
0.0
147
0.0
147
0.0
147
0.0008202099737533
147
0.0
147
0.0
147
0.0
147
0.0
147
1.0
147
0.0
147
0.0
147
0.0
147
0.0
147
1.0
  0
MATERIAL
  5
6065
102
{ACAD_XDICTIONARY
360
6066
102
}
102
{ACAD_REACTORS
330
6A
102
}
330
6A
100
AcDbMaterial
  1
Global
 72
     0
 43
0.0008202099737533
 43
0.0
 43
0.0
 43
0.0
 43
0.0
 43
0.0008202099737533
 43
0.0
 43
0.0
 43
0.0
 43
0.0
 43
1.0
 43
0.0
 43
0.0
 43
0.0
 43
0.0
 43
1.0
 77
     0
 47
0.0008202099737533
 47
0.0
 47
0.0
 47
0.0
 47
0.0
 47
0.0008202099737533
 47
0.0
 47
0.0
 47
0.0
 47
0.0
 47
1.0
 47
0.0
 47
0.0
 47
0.0
 47
0.0
 47
1.0
171
     0
 49
0.0008202099737533
 49
0.0
 49
0.0
 49
0.0
 49
0.0
 49
0.0008202099737533
 49
0.0
 49
0.0
 49
0.0
 49
0.0
 49
1.0
 49
0.0
 49
0.0
 49
0.0
 49
0.0
 49
1.0
175
     0
142
0.0008202099737533
142
0.0
142
0.0
142
0.0
142
0.0
142
0.0008202099737533
142
0.0
142
0.0
142
0.0
142
0.0
142
1.0
142
0.0
142
0.0
142
0.0
142
0.0
142
1.0
179
     0
144
0.0008202099737533
144
0.0
144
0.0
144
0.0
144
0.0
144
0.0008202099737533
144
0.0
144
0.0
144
0.0
144
0.0
144
1.0
144
0.0
144
0.0
144
0.0
144
0.0
144
1.0
147
0.0008202099737533
147
0.0
147
0.0
147
0.0
147
0.0
147
0.0008202099737533
147
0.0
147
0.0
147
0.0
147
0.0
147
1.0
147
0.0
147
0.0
147
0.0
147
0.0
147
1.0
  0
MLEADERSTYLE
  5
6099
102
{ACAD_XDICTIONARY
360
6100
102
}
102
{ACAD_REACTORS
330
6098
102
}
330
6098
100
AcDbMLeaderStyle
170
     2
171
     1
172
     0
 90
        2
 40
0.0
 41
0.0
173
     1
 91
-1056964608
340
14
 92
       -2
290
     1
 42
2.0
291
     1
 43
0.36
  3
Standard
 44
4.0
300

342
11
174
     1
178
     6
175
     1
176
     0
 93
-1056964608
 45
4.0
292
     0
297
     0
 46
4.0
 94
-1056964608
 47
1.0
 49
1.0
140
1.0
293
     1
141
0.0
294
     1
177
     0
142
1.0
295
     0
296
     0
143
0.125
1001
ACAD_MLEADERVER
1070
     2
  0
MLINESTYLE
  5
18
102
{ACAD_REACTORS
330
17
102
}
330
17
100
AcDbMlineStyle
  2
STANDARD
 70
     0
  3

 62
   256
 51
90.0
 52
90.0
 71
     2
 49
0.5
 62
   256
  6
BYLAYER
 49
-0.5
 62
   256
  6
BYLAYER
  0
ACDBPLACEHOLDER
  5
F
102
{ACAD_REACTORS
330
E
102
}
330
E
  0
SCALE
  5
6087
102
{ACAD_REACTORS
330
6086
102
}
330
6086
100
AcDbScale
 70
     0
300
1:1
140
1.0
141
1.0
290
     1
  0
SCALE
  5
6088
102
{ACAD_REACTORS
330
6086
102
}
330
6086
100
AcDbScale
 70
     0
300
1:2
140
1.0
141
2.0
290
     0
  0
SCALE
  5
6089
102
{ACAD_REACTORS
330
6086
102
}
330
6086
100
AcDbScale
 70
     0
300
1:4
140
1.0
141
4.0
290
     0
  0
SCALE
  5
608A
102
{ACAD_REACTORS
330
6086
102
}
330
6086
100
AcDbScale
 70
     0
300
1:5
140
1.0
141
5.0
290
     0
  0
SCALE
  5
608B
102
{ACAD_REACTORS
330
6086
102
}
330
6086
100
AcDbScale
 70
     0
300
1:8
140
1.0
141
8.0
290
     0
  0
SCALE
  5
608C
102
{ACAD_REACTORS
330
6086
102
}
330
6086
100
AcDbScale
 70
     0
300
1:10
140
1.0
141
10.0
290
     0
  0
SCALE
  5
608D
102
{ACAD_REACTORS
330
6086
102
}
330
6086
100
AcDbScale
 70
     0
300
1:16
140
1.0
141
16.0
290
     0
  0
SCALE
  5
608E
102
{ACAD_REACTORS
330
6086
102
}
330
6086
100
AcDbScale
 70
     0
300
1:20
140
1.0
141
20.0
290
     0
  0
SCALE
  5
608F
102
{ACAD_REACTORS
330
6086
102
}
330
6086
100
AcDbScale
 70
     0
300
1:30
140
1.0
141
30.0
290
     0
  0
SCALE
  5
6090
102
{ACAD_REACTORS
330
6086
102
}
330
6086
100
AcDbScale
 70
     0
300
1:40
140
1.0
141
40.0
290
     0
  0
SCALE
  5
6091
102
{ACAD_REACTORS
330
6086
102
}
330
6086
100
AcDbScale
 70
     0
300
1:50
140
1.0
141
50.0
290
     0
  0
SCALE
  5
6092
102
{ACAD_REACTORS
330
6086
102
}
330
6086
100
AcDbScale
 70
     0
300
1:100
140
1.0
141
100.0
290
     0
  0
SCALE
  5
6093
102
{ACAD_REACTORS
330
6086
102
}
330
6086
100
AcDbScale
 70
     0
300
2:1
140
2.0
141
1.0
290
     0
  0
SCALE
  5
6094
102
{ACAD_REACTORS
330
6086
102
}
330
6086
100
AcDbScale
 70
     0
300
4:1
140
4.0
141
1.0
290
     0
  0
SCALE
  5
6095
102
{ACAD_REACTORS
330
6086
102
}
330
6086
100
AcDbScale
 70
     0
300
8:1
140
8.0
141
1.0
290
     0
  0
SCALE
  5
6096
102
{ACAD_REACTORS
330
6086
102
}
330
6086
100
AcDbScale
 70
     0
300
10:1
140
10.0
141
1.0
290
     0
  0
SCALE
  5
6097
102
{ACAD_REACTORS
330
6086
102
}
330
6086
100
AcDbScale
 70
     0
300
100:1
140
100.0
141
1.0
290
     0
  0
TABLESTYLE
  5
7F
102
{ACAD_XDICTIONARY
360
60FE
102
}
102
{ACAD_REACTORS
330
7E
102
}
330
7E
100
AcDbTableStyle
  3
Standard
 70
     0
 71
     0
 40
1.5
 41
1.5
280
     0
281
     0
  7
Standard
140
4.5
170
     2
 62
     0
 63
     7
283
     0
274
    -2
284
     1
 64
     0
275
    -2
285
     1
 65
     0
276
    -2
286
     1
 66
     0
277
    -2
287
     1
 67
     0
278
    -2
288
     1
 68
     0
279
    -2
289
     1
 69
     0
  7
Standard
140
6.0
170
     5
 62
     0
 63
     7
283
     0
274
    -2
284
     1
 64
     0
275
    -2
285
     1
 65
     0
276
    -2
286
     1
 66
     0
277
    -2
287
     1
 67
     0
278
    -2
288
     1
 68
     0
279
    -2
289
     1
 69
     0
  7
Standard
140
4.5
170
     5
 62
     0
 63
     7
283
     0
274
    -2
284
     1
 64
     0
275
    -2
285
     1
 65
     0
276
    -2
286
     1
 66
     0
277
    -2
287
     1
 67
     0
278
    -2
288
     1
 68
     0
279
    -2
289
     1
 69
     0
  0
VISUALSTYLE
  5
6073
102
{ACAD_XDICTIONARY
360
611A
102
}
102
{ACAD_REACTORS
330
606D
102
}
330
606D
100
AcDbVisualStyle
  2
2dWireframe
 70
     4
 71
     0
 72
     2
 73
     0
 90
        0
 40
-0.6
 41
-30.0
 62
     5
 63
     7
 74
     1
 91
        4
 64
     7
 65
   257
 75
     1
175
     1
 42
1.0
 92
        0
 66
   257
 43
1.0
 76
     1
 77
     6
 78
     2
 67
     7
 79
     5
170
     0
171
     0
290
     0
174
     0
 93
        1
 44
0.0
173
     0
291
     0
 45
0.0
1001
ACAD
1000
AcDbSavedByObjectVersion
1070
     0
  0
VISUALSTYLE
  5
6072
102
{ACAD_XDICTIONARY
360
6118
102
}
102
{ACAD_REACTORS
330
606D
102
}
330
606D
100
AcDbVisualStyle
  2
Basic
 70
     7
 71
     1
 72
     0
 73
     1
 90
        0
 40
-0.6
 41
-30.0
 62
     5
 63
     7
 74
     0
 91
        4
 64
     7
 65
   257
 75
     1
175
     1
 42
1.0
 92
        8
 66
     7
 43
1.0
 76
     1
 77
     6
 78
     2
 67
     7
 79
     5
170
     0
171
     0
290
     0
174
     0
 93
        1
 44
0.0
173
     0
291
     1
 45
0.0
1001
ACAD
1000
AcDbSavedByObjectVersion
1070
     0
  0
VISUALSTYLE
  5
6079
102
{ACAD_XDICTIONARY
360
6126
102
}
102
{ACAD_REACTORS
330
606D
102
}
330
606D
100
AcDbVisualStyle
  2
Brighten
 70
    12
 71
     2
 72
     2
 73
     0
 90
        0
 40
-0.6
 41
-30.0
 62
     5
 63
     7
 74
     1
 91
        4
 64
     7
 65
   257
 75
     1
175
     1
 42
1.0
 92
        8
 66
     7
 43
1.0
 76
     1
 77
     6
 78
     2
 67
     7
 79
     5
170
     0
171
     0
290
     0
174
     0
 93
        1
 44
50.0
173
     0
291
     1
 45
0.0
1001
ACAD
1000
AcDbSavedByObjectVersion
1070
     0
  0
VISUALSTYLE
  5
607D
102
{ACAD_XDICTIONARY
360
612E
102
}
102
{ACAD_REACTORS
330
606D
102
}
330
606D
100
AcDbVisualStyle
  2
ColorChange
 70
    16
 71
     2
 72
     2
 73
     3
 90
        0
 40
-0.6
 41
-30.0
 62
     5
 63
     8
 74
     1
 91
        4
 64
     7
 65
   257
 75
     1
175
     1
 42
1.0
 92
        8
 66
     8
 43
1.0
 76
     1
 77
     6
 78
     2
 67
     7
 79
     5
170
     0
171
     0
290
     0
174
     0
 93
        1
 44
0.0
173
     0
291
     1
 45
0.0
1001
ACAD
1000
AcDbSavedByObjectVersion
1070
     0
  0
VISUALSTYLE
  5
6076
102
{ACAD_XDICTIONARY
360
6120
102
}
102
{ACAD_REACTORS
330
606D
102
}
330
606D
100
AcDbVisualStyle
  2
Conceptual
 70
     9
 71
     3
 72
     2
 73
     0
 90
        0
 40
-0.6
 41
-30.0
 62
     5
 63
     7
 74
     2
 91
        2
 64
     7
 65
   257
 75
     1
175
     1
 42
179.0
 92
        8
 66
     7
 43
1.0
 76
     1
 77
     6
 78
     2
 67
     7
 79
     3
170
     0
171
     0
290
     0
174
     0
 93
        1
 44
0.0
173
     0
291
     0
 45
0.0
1001
ACAD
1000
AcDbSavedByObjectVersion
1070
     0
  0
VISUALSTYLE
  5
6078
102
{ACAD_XDICTIONARY
360
6124
102
}
102
{ACAD_REACTORS
330
606D
102
}
330
606D
100
AcDbVisualStyle
  2
Dim
 70
    11
 71
     2
 72
     2
 73
     0
 90
        0
 40
-0.6
 41
-30.0
 62
     5
 63
     7
 74
     1
 91
        4
 64
     7
 65
   257
 75
     1
175
     1
 42
1.0
 92
        8
 66
     7
 43
1.0
 76
     1
 77
     6
 78
     2
 67
     7
 79
     5
170
     0
171
     0
290
     0
174
     0
 93
        1
 44
-50.0
173
     0
291
     1
 45
0.0
1001
ACAD
1000
AcDbSavedByObjectVersion
1070
     0
  0
VISUALSTYLE
  5
6085
102
{ACAD_XDICTIONARY
360
613E
102
}
102
{ACAD_REACTORS
330
606D
102
}
330
606D
100
AcDbVisualStyle
  2
EdgeColorOff
 70
    22
 71
     2
 72
     2
 73
     0
 90
        0
 40
-0.6
 41
-30.0
 62
     5
 63
     7
 74
     1
 91
        4
 64
     7
 65
   257
 75
     1
175
     1
 42
1.0
 92
        8
 66
     7
 43
1.0
 76
     1
 77
     6
 78
     2
 67
     7
 79
     5
170
     0
171
     0
290
     0
174
     0
 93
        1
 44
0.0
173
     0
291
     1
 45
0.0
1001
ACAD
1000
AcDbSavedByObjectVersion
1070
     0
  0
VISUALSTYLE
  5
607C
102
{ACAD_XDICTIONARY
360
612C
102
}
102
{ACAD_REACTORS
330
606D
102
}
330
606D
100
AcDbVisualStyle
  2
Facepattern
 70
    15
 71
     2
 72
     2
 73
     0
 90
        0
 40
-0.6
 41
-30.0
 62
     5
 63
     7
 74
     1
 91
        4
 64
     7
 65
   257
 75
     1
175
     1
 42
1.0
 92
        8
 66
     7
 43
1.0
 76
     1
 77
     6
 78
     2
 67
     7
 79
     5
170
     0
171
     0
290
     0
174
     0
 93
        1
 44
0.0
173
     0
291
     1
 45
0.0
1001
ACAD
1000
AcDbSavedByObjectVersion
1070
     0
  0
VISUALSTYLE
  5
606E
102
{ACAD_XDICTIONARY
360
6110
102
}
102
{ACAD_REACTORS
330
606D
102
}
330
606D
100
AcDbVisualStyle
  2
Flat
 70
     0
 71
     2
 72
     1
 73
     1
 90
        2
 40
-0.6
 41
30.0
 62
     5
 63
     7
 74
     0
 91
        0
 64
     7
 65
   257
 75
     1
175
     1
 42
1.0
 92
        8
 66
     7
 43
1.0
 76
     1
 77
     6
 78
     2
 67
     7
 79
     5
170
     0
171
     0
290
     0
174
     0
 93
       13
 44
0.0
173
     0
291
     1
 45
0.0
1001
ACAD
1000
AcDbSavedByObjectVersion
1070
     0
  0
VISUALSTYLE
  5
606F
102
{ACAD_XDICTIONARY
360
6112
102
}
102
{ACAD_REACTORS
330
606D
102
}
330
606D
100
AcDbVisualStyle
  2
FlatWithEdges
 70
     1
 71
     2
 72
     1
 73
     1
 90
        2
 40
-0.6
 41
30.0
 62
     5
 63
     7
 74
     1
 91
        0
 64
     7
 65
   257
 75
     1
175
     1
 42
1.0
 92
        0
 66
   257
 43
1.0
 76
     1
 77
     6
 78
     2
 67
     7
 79
     5
170
     0
171
     0
290
     0
174
     0
 93
       13
 44
0.0
173
     0
291
     1
 45
0.0
1001
ACAD
1000
AcDbSavedByObjectVersion
1070
     0
  0
VISUALSTYLE
  5
6070
102
{ACAD_XDICTIONARY
360
6114
102
}
102
{ACAD_REACTORS
330
606D
102
}
330
606D
100
AcDbVisualStyle
  2
Gouraud
 70
     2
 71
     2
 72
     2
 73
     1
 90
        2
 40
-0.6
 41
30.0
 62
     5
 63
     7
 74
     0
 91
        0
 64
     7
 65
   257
 75
     1
175
     1
 42
1.0
 92
        0
 66
     7
 43
1.0
 76
     1
 77
     6
 78
     2
 67
     7
 79
     5
170
     0
171
     0
290
     0
174
     0
 93
       13
 44
0.0
173
     0
291
     1
 45
0.0
1001
ACAD
1000
AcDbSavedByObjectVersion
1070
     0
  0
VISUALSTYLE
  5
6071
102
{ACAD_XDICTIONARY
360
6116
102
}
102
{ACAD_REACTORS
330
606D
102
}
330
606D
100
AcDbVisualStyle
  2
GouraudWithEdges
 70
     3
 71
     2
 72
     2
 73
     1
 90
        2
 40
-0.6
 41
30.0
 62
     5
 63
     7
 74
     1
 91
        0
 64
     7
 65
   257
 75
     1
175
     1
 42
1.0
 92
        0
 66
   257
 43
1.0
 76
     1
 77
     6
 78
     2
 67
     7
 79
     5
170
     0
171
     0
290
     0
174
     0
 93
       13
 44
0.0
173
     0
291
     1
 45
0.0
1001
ACAD
1000
AcDbSavedByObjectVersion
1070
     0
  0
VISUALSTYLE
  5
6075
102
{ACAD_XDICTIONARY
360
611E
102
}
102
{ACAD_REACTORS
330
606D
102
}
330
606D
100
AcDbVisualStyle
  2
Hidden
 70
     6
 71
     1
 72
     2
 73
     2
 90
        0
 40
-0.6
 41
-30.0
 62
     5
 63
     7
 74
     2
 91
        2
 64
     7
 65
   257
 75
     2
175
     1
 42
40.0
 92
        0
 66
   257
 43
1.0
 76
     1
 77
     6
 78
     2
 67
     7
 79
     3
170
     0
171
     0
290
     0
174
     0
 93
        1
 44
0.0
173
     0
291
     0
 45
0.0
1001
ACAD
1000
AcDbSavedByObjectVersion
1070
     0
  0
VISUALSTYLE
  5
6083
102
{ACAD_XDICTIONARY
360
613A
102
}
102
{ACAD_REACTORS
330
606D
102
}
330
606D
100
AcDbVisualStyle
  2
JitterOff
 70
    20
 71
     2
 72
     2
 73
     0
 90
        0
 40
-0.6
 41
-30.0
 62
     5
 63
     7
 74
     1
 91
        4
 64
     7
 65
   257
 75
     1
175
     1
 42
1.0
 92
       10
 66
     7
 43
1.0
 76
     1
 77
     6
 78
     2
 67
     7
 79
     5
170
     0
171
     0
290
     0
174
     0
 93
        1
 44
0.0
173
     0
291
     1
 45
0.0
1001
ACAD
1000
AcDbSavedByObjectVersion
1070
     0
  0
VISUALSTYLE
  5
607B
102
{ACAD_XDICTIONARY
360
612A
102
}
102
{ACAD_REACTORS
330
606D
102
}
330
606D
100
AcDbVisualStyle
  2
Linepattern
 70
    14
 71
     2
 72
     2
 73
     0
 90
        0
 40
-0.6
 41
-30.0
 62
     5
 63
     7
 74
     1
 91
        4
 64
     7
 65
   257
 75
     7
175
     7
 42
1.0
 92
        8
 66
     7
 43
1.0
 76
     1
 77
     6
 78
     2
 67
     7
 79
     5
170
     0
171
     0
290
     0
174
     0
 93
        1
 44
0.0
173
     0
291
     1
 45
0.0
1001
ACAD
1000
AcDbSavedByObjectVersion
1070
     0
  0
VISUALSTYLE
  5
6084
102
{ACAD_XDICTIONARY
360
613C
102
}
102
{ACAD_REACTORS
330
606D
102
}
330
606D
100
AcDbVisualStyle
  2
OverhangOff
 70
    21
 71
     2
 72
     2
 73
     0
 90
        0
 40
-0.6
 41
-30.0
 62
     5
 63
     7
 74
     1
 91
        4
 64
     7
 65
   257
 75
     1
175
     1
 42
1.0
 92
        9
 66
     7
 43
1.0
 76
     1
 77
     6
 78
     2
 67
     7
 79
     5
170
     0
171
     0
290
     0
174
     0
 93
        1
 44
0.0
173
     0
291
     1
 45
0.0
1001
ACAD
1000
AcDbSavedByObjectVersion
1070
     0
  0
VISUALSTYLE
  5
6077
102
{ACAD_XDICTIONARY
360
6122
102
}
102
{ACAD_REACTORS
330
606D
102
}
330
606D
100
AcDbVisualStyle
  2
Realistic
 70
     8
 71
     2
 72
     3
 73
     0
 90
        2
 40
-0.6
 41
30.0
 62
     5
 63
     7
 74
     0
 91
        0
 64
     7
 65
   257
 75
     1
175
     1
 42
1.0
 92
        8
 66
   257
 43
1.0
 76
     1
 77
     6
 78
     2
 67
     7
 79
     3
170
     0
171
     0
290
     0
174
     0
 93
       13
 44
0.0
173
     0
291
     0
 45
0.0
1001
ACAD
1000
AcDbSavedByObjectVersion
1070
     0
  0
VISUALSTYLE
  5
6082
102
{ACAD_XDICTIONARY
360
6138
102
}
102
{ACAD_REACTORS
330
606D
102
}
330
606D
100
AcDbVisualStyle
  2
Shaded
 70
    27
 71
     2
 72
     2
 73
     1
 90
        2
 40
-0.6
 41
30.0
 62
     5
 63
     7
 74
     0
 91
        4
 64
     7
 65
   257
 75
     1
175
     1
 42
1.0
 92
        8
 66
   257
 43
1.0
 76
     1
 77
     6
 78
     2
 67
     8
 79
     3
170
     0
171
     0
290
     0
174
     0
 93
        5
 44
0.0
173
     0
291
     0
 45
0.0
1001
ACAD
1000
AcDbSavedByObjectVersion
1070
     0
  0
VISUALSTYLE
  5
6081
102
{ACAD_XDICTIONARY
360
6136
102
}
102
{ACAD_REACTORS
330
606D
102
}
330
606D
100
AcDbVisualStyle
  2
Shaded with edges
 70
    26
 71
     2
 72
     2
 73
     1
 90
        2
 40
-0.6
 41
30.0
 62
     5
 63
     7
 74
     1
 91
       10
 64
     7
 65
   257
 75
     2
175
     1
 42
1.0
 92
        8
 66
   257
 43
1.0
 76
     1
 77
     6
 78
     2
 67
     7
 79
     3
170
     0
171
     0
290
     0
174
     0
 93
        5
 44
0.0
173
     0
291
     0
 45
0.0
1001
ACAD
1000
AcDbSavedByObjectVersion
1070
     0
  0
VISUALSTYLE
  5
607E
102
{ACAD_XDICTIONARY
360
6130
102
}
102
{ACAD_REACTORS
330
606D
102
}
330
606D
100
AcDbVisualStyle
  2
Shades of Gray
 70
    23
 71
     2
 72
     2
 73
     3
 90
        0
 40
-0.6
 41
-30.0
 62
     5
 63
     7
 74
     2
 91
        2
 64
     7
 65
     7
 75
     1
175
     1
 42
40.0
 92
        8
 66
     7
 43
1.0
 76
     1
 77
     6
 78
     2
 67
     7
 79
     3
170
     0
171
     0
290
     0
174
     0
 93
        1
 44
0.0
173
     0
291
     0
 45
0.0
1001
ACAD
1000
AcDbSavedByObjectVersion
1070
     0
  0
VISUALSTYLE
  5
607F
102
{ACAD_XDICTIONARY
360
6132
102
}
102
{ACAD_REACTORS
330
606D
102
}
330
606D
100
AcDbVisualStyle
  2
Sketchy
 70
    24
 71
     1
 72
     2
 73
     2
 90
        0
 40
-0.6
 41
-30.0
 62
     5
 63
     7
 74
     2
 91
        2
 64
     7
 65
     7
 75
     1
175
     1
 42
40.0
 92
       11
 66
     7
 43
1.0
 76
     1
 77
     6
 78
     2
 67
     7
 79
     6
170
     0
171
     0
290
     0
174
     0
 93
        1
 44
0.0
173
     0
291
     0
 45
0.0
1001
ACAD
1000
AcDbSavedByObjectVersion
1070
     0
  0
VISUALSTYLE
  5
607A
102
{ACAD_XDICTIONARY
360
6128
102
}
102
{ACAD_REACTORS
330
606D
102
}
330
606D
100
AcDbVisualStyle
  2
Thicken
 70
    13
 71
     2
 72
     2
 73
     0
 90
        0
 40
-0.6
 41
-30.0
 62
     5
 63
     7
 74
     1
 91
        4
 64
     7
 65
   257
 75
     1
175
     1
 42
1.0
 92
       12
 66
     7
 43
1.0
 76
     1
 77
     6
 78
     2
 67
     7
 79
     5
170
     0
171
     0
290
     0
174
     0
 93
        1
 44
0.0
173
     0
291
     1
 45
0.0
1001
ACAD
1000
AcDbSavedByObjectVersion
1070
     0
  0
VISUALSTYLE
  5
6074
102
{ACAD_XDICTIONARY
360
611C
102
}
102
{ACAD_REACTORS
330
606D
102
}
330
606D
100
AcDbVisualStyle
  2
Wireframe
 70
     5
 71
     0
 72
     2
 73
     0
 90
        0
 40
-0.6
 41
-30.0
 62
     5
 63
     7
 74
     1
 91
        4
 64
     7
 65
   257
 75
     1
175
     1
 42
1.0
 92
        0
 66
   257
 43
1.0
 76
     1
 77
     6
 78
     2
 67
     7
 79
     3
170
     0
171
     0
290
     0
174
     0
 93
        1
 44
0.0
173
     0
291
     0
 45
0.0
1001
ACAD
1000
AcDbSavedByObjectVersion
1070
     0
  0
VISUALSTYLE
  5
6080
102
{ACAD_XDICTIONARY
360
6134
102
}
102
{ACAD_REACTORS
330
606D
102
}
330
606D
100
AcDbVisualStyle
  2
X-Ray
 70
    25
 71
     2
 72
     2
 73
     1
 90
        1
 40
0.5
 41
-30.0
 62
     5
 63
     7
 74
     1
 91
        0
 64
     7
 65
   257
 75
     1
175
     1
 42
1.0
 92
        8
 66
     7
 43
1.0
 76
     1
 77
     6
 78
     2
 67
     7
 79
     3
170
     0
171
     0
290
     0
174
     0
 93
       13
 44
0.0
173
     0
291
     0
 45
0.0
1001
ACAD
1000
AcDbSavedByObjectVersion
1070
     0
  0
DICTIONARYVAR
  5
60C9
102
{ACAD_REACTORS
330
5E
102
}
330
5E
100
DictionaryVariables
280
     0
  1
1:1
  0
DICTIONARYVAR
  5
60C7
102
{ACAD_REACTORS
330
5E
102
}
330
5E
100
DictionaryVariables
280
     0
  1
STANDARD
  0
DICTIONARYVAR
  5
84
102
{ACAD_REACTORS
330
5E
102
}
330
5E
100
DictionaryVariables
280
     0
  1
STANDARD
  0
DICTIONARYVAR
  5
5F
102
{ACAD_REACTORS
330
5E
102
}
330
5E
100
DictionaryVariables
280
     0
  1
2
  0
DICTIONARYVAR
  5
63
102
{ACAD_REACTORS
330
5E
102
}
330
5E
100
DictionaryVariables
280
     0
  1
1
  0
DICTIONARYVAR
  5
60FC
102
{ACAD_REACTORS
330
5E
102
}
330
5E
100
DictionaryVariables
280
     0
  1
0
  0
DICTIONARYVAR
  5
60CB
102
{ACAD_REACTORS
330
5E
102
}
330
5E
100
DictionaryVariables
280
     0
  1
1
  0
DICTIONARYVAR
  5
60CC
102
{ACAD_REACTORS
330
5E
102
}
330
5E
100
DictionaryVariables
280
     0
  1
15
  0
DICTIONARYVAR
  5
60CA
102
{ACAD_REACTORS
330
5E
102
}
330
5E
100
DictionaryVariables
280
     0
  1
0
  0
DICTIONARYVAR
  5
60C8
102
{ACAD_REACTORS
330
5E
102
}
330
5E
100
DictionaryVariables
280
     0
  1
0
  0
DICTIONARYVAR
  5
60FB
102
{ACAD_REACTORS
330
5E
102
}
330
5E
100
DictionaryVariables
280
     0
  1
127
  0
DICTIONARYVAR
  5
60FD
102
{ACAD_REACTORS
330
5E
102
}
330
5E
100
DictionaryVariables
280
     0
  1
0
  0
DICTIONARY
  5
60C2
330
22
100
AcDbDictionary
280
     1
281
     1
  3
ACAD_XREC_ROUNDTRIP
360
6107
  3
ADSK_XREC_LAYOUTTHUMBNAIL
360
60C3
  0
DICTIONARY
  5
6109
330
D3
100
AcDbDictionary
280
     1
281
     1
  3
ACAD_XREC_ROUNDTRIP
360
610A
  0
DICTIONARY
  5
610B
330
D7
100
AcDbDictionary
280
     1
281
     1
  3
ACAD_XREC_ROUNDTRIP
360
610C
  0
DICTIONARY
  5
605E
330
605D
100
AcDbDictionary
280
     1
281
     1
  3
ACAD_XREC_ROUNDTRIP
360
610E
  3
BUMPTILE
360
6060
  3
DIFFUSETILE
360
605F
  3
OPACITYTILE
360
6063
  3
REFLECTIONTILE
360
6062
  3
REFRACTIONTILE
360
6064
  3
SPECULARTILE
360
6061
  0
DICTIONARY
  5
6056
330
6055
100
AcDbDictionary
280
     1
281
     1
  3
ACAD_XREC_ROUNDTRIP
360
610D
  3
BUMPTILE
360
6058
  3
DIFFUSETILE
360
6057
  3
OPACITYTILE
360
605B
  3
REFLECTIONTILE
360
605A
  3
REFRACTIONTILE
360
605C
  3
SPECULARTILE
360
6059
  0
DICTIONARY
  5
6066
330
6065
100
AcDbDictionary
280
     1
281
     1
  3
ACAD_XREC_ROUNDTRIP
360
610F
  3
BUMPTILE
360
6068
  3
DIFFUSETILE
360
6067
  3
OPACITYTILE
360
606B
  3
REFLECTIONTILE
360
606A
  3
REFRACTIONTILE
360
606C
  3
SPECULARTILE
360
6069
  0
DICTIONARY
  5
6100
330
6099
100
AcDbDictionary
280
     1
281
     1
  3
ACAD_XREC_ROUNDTRIP
360
6101
  0
DICTIONARY
  5
60FE
330
7F
100
AcDbDictionary
280
     1
281
     1
  3
ACAD_ROUNDTRIP_2008_TABLESTYLE_CELLSTYLEMAP
360
60FF
  3
ACAD_XREC_ROUNDTRIP
360
6108
  0
DICTIONARY
  5
611A
330
6073
100
AcDbDictionary
280
     1
281
     1
  3
ACAD_XREC_ROUNDTRIP
360
611B
  0
DICTIONARY
  5
6118
330
6072
100
AcDbDictionary
280
     1
281
     1
  3
ACAD_XREC_ROUNDTRIP
360
6119
  0
DICTIONARY
  5
6126
330
6079
100
AcDbDictionary
280
     1
281
     1
  3
ACAD_XREC_ROUNDTRIP
360
6127
  0
DICTIONARY
  5
612E
330
607D
100
AcDbDictionary
280
     1
281
     1
  3
ACAD_XREC_ROUNDTRIP
360
612F
  0
DICTIONARY
  5
6120
330
6076
100
AcDbDictionary
280
     1
281
     1
  3
ACAD_XREC_ROUNDTRIP
360
6121
  0
DICTIONARY
  5
6124
330
6078
100
AcDbDictionary
280
     1
281
     1
  3
ACAD_XREC_ROUNDTRIP
360
6125
  0
DICTIONARY
  5
613E
330
6085
100
AcDbDictionary
280
     1
281
     1
  3
ACAD_XREC_ROUNDTRIP
360
613F
  0
DICTIONARY
  5
612C
330
607C
100
AcDbDictionary
280
     1
281
     1
  3
ACAD_XREC_ROUNDTRIP
360
612D
  0
DICTIONARY
  5
6110
330
606E
100
AcDbDictionary
280
     1
281
     1
  3
ACAD_XREC_ROUNDTRIP
360
6111
  0
DICTIONARY
  5
6112
330
606F
100
AcDbDictionary
280
     1
281
     1
  3
ACAD_XREC_ROUNDTRIP
360
6113
  0
DICTIONARY
  5
6114
330
6070
100
AcDbDictionary
280
     1
281
     1
  3
ACAD_XREC_ROUNDTRIP
360
6115
  0
DICTIONARY
  5
6116
330
6071
100
AcDbDictionary
280
     1
281
     1
  3
ACAD_XREC_ROUNDTRIP
360
6117
  0
DICTIONARY
  5
611E
330
6075
100
AcDbDictionary
280
     1
281
     1
  3
ACAD_XREC_ROUNDTRIP
360
611F
  0
DICTIONARY
  5
613A
330
6083
100
AcDbDictionary
280
     1
281
     1
  3
ACAD_XREC_ROUNDTRIP
360
613B
  0
DICTIONARY
  5
612A
330
607B
100
AcDbDictionary
280
     1
281
     1
  3
ACAD_XREC_ROUNDTRIP
360
612B
  0
DICTIONARY
  5
613C
330
6084
100
AcDbDictionary
280
     1
281
     1
  3
ACAD_XREC_ROUNDTRIP
360
613D
  0
DICTIONARY
  5
6122
330
6077
100
AcDbDictionary
280
     1
281
     1
  3
ACAD_XREC_ROUNDTRIP
360
6123
  0
DICTIONARY
  5
6138
330
6082
100
AcDbDictionary
280
     1
281
     1
  3
ACAD_XREC_ROUNDTRIP
360
6139
  0
DICTIONARY
  5
6136
330
6081
100
AcDbDictionary
280
     1
281
     1
  3
ACAD_XREC_ROUNDTRIP
360
6137
  0
DICTIONARY
  5
6130
330
607E
100
AcDbDictionary
280
     1
281
     1
  3
ACAD_XREC_ROUNDTRIP
360
6131
  0
DICTIONARY
  5
6132
330
607F
100
AcDbDictionary
280
     1
281
     1
  3
ACAD_XREC_ROUNDTRIP
360
6133
  0
DICTIONARY
  5
6128
330
607A
100
AcDbDictionary
280
     1
281
     1
  3
ACAD_XREC_ROUNDTRIP
360
6129
  0
DICTIONARY
  5
611C
330
6074
100
AcDbDictionary
280
     1
281
     1
  3
ACAD_XREC_ROUNDTRIP
360
611D
  0
DICTIONARY
  5
6134
330
6080
100
AcDbDictionary
280
     1
281
     1
  3
ACAD_XREC_ROUNDTRIP
360
6135
  0
XRECORD
  5
6107
102
{ACAD_REACTORS
330
60C2
102
}
330
60C2
100
AcDbXrecord
280
     1
102
SHADEPLOT
 70
     0
102
SHADEPLOTRESLEVEL
 70
     2
102
SHADEPLOTCUSTOMDPI
 70
   300
  0
XRECORD
  5
60C3
102
{ACAD_REACTORS
330
60C2
102
}
330
60C2
100
AcDbXrecord
280
     1
310
28000000000100009C0000000100080000000000009C0000000000000000000000010000000000003028210000000000C8C8C8000000000000000000000000000000000000000000000000000000000000000000330000006600000099000000CC000000FF00000000330000333300006633000099330000CC330000FF3300
310
0000660000336600006666000099660000CC660000FF66000000990000339900006699000099990000CC990000FF99000000CC000033CC000066CC000099CC0000CCCC0000FFCC000000FF000033FF000066FF000099FF0000CCFF0000FFFF000000003300330033006600330099003300CC003300FF003300003333003333
310
33006633330099333300CC333300FF33330000663300336633006666330099663300CC663300FF66330000993300339933006699330099993300CC993300FF99330000CC330033CC330066CC330099CC3300CCCC3300FFCC330000FF330033FF330066FF330099FF3300CCFF3300FFFF330000006600330066006600660099
310
006600CC006600FF00660000336600333366006633660099336600CC336600FF33660000666600336666006666660099666600CC666600FF66660000996600339966006699660099996600CC996600FF99660000CC660033CC660066CC660099CC6600CCCC6600FFCC660000FF660033FF660066FF660099FF6600CCFF6600
310
FFFF660000009900330099006600990099009900CC009900FF00990000339900333399006633990099339900CC339900FF33990000669900336699006666990099669900CC669900FF66990000999900339999006699990099999900CC999900FF99990000CC990033CC990066CC990099CC9900CCCC9900FFCC990000FF99
310
0033FF990066FF990099FF9900CCFF9900FFFF99000000CC003300CC006600CC009900CC00CC00CC00FF00CC000033CC003333CC006633CC009933CC00CC33CC00FF33CC000066CC003366CC006666CC009966CC00CC66CC00FF66CC000099CC003399CC006699CC009999CC00CC99CC00FF99CC0000CCCC0033CCCC0066CC
310
CC0099CCCC00CCCCCC00FFCCCC0000FFCC0033FFCC0066FFCC0099FFCC00CCFFCC00FFFFCC000000FF003300FF006600FF009900FF00CC00FF00FF00FF000033FF003333FF006633FF009933FF00CC33FF00FF33FF000066FF003366FF006666FF009966FF00CC66FF00FF66FF000099FF003399FF006699FF009999FF00CC
310
99FF00FF99FF0000CCFF0033CCFF0066CCFF0099CCFF00CCCCFF00FFCCFF0000FFFF0033FFFF0066FFFF0099FFFF00CCFFFF00FFFFFF00000000000D0D0D001A1A1A00282828003535350043434300505050005D5D5D006B6B6B00787878008686860093939300A1A1A100AEAEAE00BBBBBB00C9C9C900D6D6D600E4E4E400
310
F1F1F100FFFFFF000000000000000000000000000000000000000000000000000000000000000000000000000000000000000000000000000000000000000000000000000000000000000000000000000000000000000000000000000000000000000000000000000000000000000000000000000000000000000000000000
310
00000000000000000000000000000000000000000000000000000000000000000000000000000000000000000000000000000000000000000000000000000000000000000000000000000000000000000000000000000000000000000000000000000000000000000000000000000000000000000000000000000000000000
310
0000000000000000000000000000000000000000000000000000000000000000000000000000000000000000000000000000000000000000000000000000000000000000BEBEBEBEBEBEBEBEBEBEBEBEBEBEBEBEBEBEBEBEBEBEBEBEBEBEBEBEBEBEBEBEBEBEBEBEBEBEBEBEBEBEBEBEBEBEBEBEBEBEBEBEBEBEBEBEBEBEBE
310
BEBEBEBEBEBEBEBEBEBEBEBEBEBEBEBEBEBEBEBEBEBEBEBEBEBEBEBEBEBEBEBEBEBEBEBEBEBEBEBEBEBEBEBEBEBEBEBEBEBEBEBEBEBEBEBEBEBEBEBEBEBEBEBEBEBEBEBEBEBEBEBEBEBEBEBEBEBEBEBEBEBEBEBEBEBEBEBEBEBEBEBEBEBEBEBEBEBEBEBEBEBEBEBEBEBEBEBEBEBEBEBEBEBEBEBEBEBEBEBEBEBEBEBEBEBEBE
310
BEBEBEBEBEBEBEBEBEBEBEBEBEBEBEBEBEBEBEBEBEBEBEBEBEBEBEBEBEBEBEBEBEBE000000000000000000000000000000000000000000000000000000000000000000000000BE0000000000000000000000000000000000000000000000000000000000000000000000000000000000000000000000000000000000000000
310
00000000000000000000000000000000000000000000000000000000000000000000000000000000000000000000000000000000000000000000000000000000000000000000000000000000000000000000000000000000000000000000000000000000000000000000000000000000000000000000000000000000000000
310
0000000000000000000000000000000000000000000000000000000000000000000000BE000000000000000000000000000000000000000000000000000000000000000000000000BE000000000000000000000000000000000000000000000000000000000000000000000000000000000000000000000000000000000000
310
00000000000000000000000000000000000000000000000000000000000000000000000000000000000000000000000000000000000000000000000000000000000000000000000000000000000000000000000000000000000000000000000000000000000000000000000000000000000000000000000000000000000000
310
00000000000000000000000000000000000000000000000000000000000000000000000000BE000000000000000000000000000000000000000000000000000000000000000000000000BE00000000000000000000000000000000000000000000000000000000000000000000000000000000000000000000000000000000
310
00000000000000000000000000000000000000000000000000000000000000000000000000000000000000000000000000000000000000000000000000000000000000000000000000000000000000000000000000000000000000000000000000000000000000000000000000000000000000000000000000000000000000
310
000000000000000000000000000000000000000000000000000000000000000000000000000000BE000000000000000000000000000000000000000000000000000000000000000000000000BE0000000000000000000000000000000000000000000000000000000000000000000000000000000000000000000000000000
310
00000000000000000000000000000000000000000000000000000000000000000000000000000000000000000000000000000000000000000000000000000000000000000000000000000000000000000000000000000000000000000000000000000000000000000000000000000000000000000000000000000000000000
310
0000000000000000000000000000000000000000000000000000000000000000000000000000000000BE000000000000000000000000000000000000000000000000000000000000000000000000BE000000000000000000F5F5F5F5F5F5F5F5F5F5F5F5F5F5F5F5F5F5F5F5F5F5F5F5F5F5F5F5F5F5F5F5F5F5F5F5F5F5F5
310
F5F5F5F5F5F5F5F5F5F5F5F5F5F5F5F5F5F5F5F5F5F5F5F5F5F5F5F5F5F5F5F5F5F5F5F5F5F5F5F5F5F5F5F5F5F5F5F5F5F5F5F5F5F5F5F5F5F5F5F5F5F5F5F5F5F5F5F5F5F5F5F5F5F5F5F5F5F5F5F5F5F5F5F5F5F5F5F5F5F5F5F5F5F5F5F5F5F5F5F5F5F5F5F5F5F5F5F5F5F5F5F5F5F5F5F5F5F5F5F5F5F5F5F5F5F5F5
310
F5F5F5F5F5F5F5F5F5F5F5F5F5F5F5F5F5F5F5F5F5F5F5F5F5F5F5F5F5F5F5F5F5F5F5F5F5F5F500000000BE000000000000000000000000000000000000000000000000000000000000000000000000BE000000000000000000F5000000000000000000000000000000000000000000000000000000000000000000000000
310
00000000000000000000000000000000000000000000000000000000000000000000000000000000000000000000000000000000000000000000000000000000000000000000000000000000000000000000000000000000000000000000000000000000000000000000000000000000000000F500F5F5F5F500F5F5F5F5F5
310
F5F5F5F5F5F5F5F5F5F5F5F5F5F5F5F5F5F5F5F5F5F5F5F5F5F5F5F5F5F5F5F5F5F5F5F5F5F50000F500000000BE000000000000000000000000000000000000000000000000000000000000000000000000BE000000000000000000F500000000000000000000000000000000000000000000000000000000000000000000
310
000000000000000000000000000000000000000000000000000000000000000000000000000000000000000000000000000000000000000000000000000000000000000000000000000000000000000000000000000000000000000000000000000000000000000000000000000000000000000000F5F5F5F5F5F5F5000000
310
000000000000000000000000000000000000000000000000000000000000000000000000000000000000F500000000BE000000000000000000000000000000000000000000000000000000000000000000000000BE000000000000000000F50000000000000000000000000000000000000000000000000000000000000000
310
0000000000000000000000000000000000000000000000000000000000000000000000000000000000000000000000000000000000000000000000000000000000000000000000000000000000000000000000000000000000000000000000000000000000000000000000000000000000000000000000F5F5F5F5F5F5F5F5
310
F5F5F5F5F5F5F5F5F5F5F5F5F5F5F5F5F5F5F5F5F5F5F5F5F5F5F5F5F5F5F5F5F5F500000000000000000000F500000000BE000000000000000000000000000000000000000000000000000000000000000000000000BE000000000000000000F5000000000000000000000000000000000000000000000000000000000000
310
00000000000000000000000000000000000000000000000000000000000000000000000000000000000000000000000000000000000000000000000000000000000000000000000000000000000000000000000000000000000000000000000000000000000000000000000000000000000000000000000000F5F5F5F5F5F5
310
F5F5F5F5F5F5F5F5F5F5F5F5F5F5F5F5F5F5F5F5F5F5F5F5F5F5F5F5F5F5F5F5F5F5F5F500000000000000000000F500000000BE000000000000000000000000000000000000000000000000000000000000000000000000BE000000000000000000F500000000000000000000000000000000000000000000000000000000
310
000000000000000000000000000000000000000000000000000000000000000000000000000000000000000000000000000000000000000000000000000000000000000000000000000000000000000000000000000000000000000000000000000000000000000000000000000000000000000000000000000000F5F5F5F5
310
F5F5F5F5F5F5F5F5F5F5F5F5F5F5F5F5F5F5F5F5F5F5F5F5F5F5F5F5F5F5F5F5F5F5F5F5F5F500000000000000000000F500000000BE000000000000000000000000000000000000000000000000000000000000000000000000BE000000000000000000F50000000000000000000000000000000000000000000000000000
310
0000000000000000000000000000000000000000000000000000000000000000000000000000000000000000000000000000000000000000000000000000000000000000000000000000000000000000000000000000000000000000000000000000000000000000000000000000000000000000000000000000000000F500
310
F5F5F5F5F5F5F5F5F5F5F5F5F5F5F5F5F5F5F5F5F5F5F5F5F5F5F5F5F5F5F5F5F5F5F5F5F5F5F5F500000000000000000000F500000000BE000000000000000000000000000000000000000000000000000000000000000000000000BE000000000000000000F5000000000000000000000000000000000000000000000000
310
00000000000000000000000000000000000000000000000000000000000000000000000000000000000000000000000000000000000000000000000000000000000000000000000000000000000000000000000000000000000000000000000000000000000000000000000000000000000000000000000000000000000000
310
F5000000000000000000000000000000000000000000000000000000000000000000000000000000000000000000000000000000F500000000BE000000000000000000000000000000000000000000000000000000000000000000000000BE000000000000000000F500000000000000000000000000000000000000000000
310
00000000000000000000000000000000000000000000000000000000000000000000000000000000000000000000000000000000000000000000000000000000000000000000000000000000000000000000000000000000000000000000000000000000000000000000000000000000000000000000000000000000000000
310
0000F5F5F5F5F5F5F5F5F5F5F5F5F5F5F5F5F5F5F5F5F5F5F5F5F5F5F5F5F5F5F5F5F5F5F5F5F5F5F5F5F5F5F5F5F5F5F5F5F5F5F5F5F500000000BE000000000000000000000000000000000000000000000000000000000000000000000000BE000000000000000000F50000000000000000000000000000000000000000
310
00000000000000000000000000000000000000000000000000000000000000000000000000000000000000000000000000000000000000000000000000000000000000000000000000000000000000000000000000000000000000000000000000000000000000000000000000000000000000000000000000000000000000
310
00000000F500F5F5F50000F50000000000000000000000F5F5F5F500F5F500F50000000000000000000000F5000000000000000000000000F500000000BE000000000000000000000000000000000000000000000000000000000000000000000000BE000000000000000000F5000000000000000000000000000000000000
310
00000000000000000000000000000000000000000000000000000000000000000000000000000000000000000000000000000000000000000000000000000000000000000000000000000000000000000000000000000000000000000000000000000000000000000000000000000000000000000000000000000000000000
310
000000000000F500F5F5F50000F500000000000000000000F5F5F5F5F500F500F5F50000000000000000000000F5000000000000000000000000F500000000BE000000000000000000000000000000000000000000000000000000000000000000000000BE000000000000000000F500000000000000000000000000000000
310
00000000000000000000000000000000000000000000000000000000000000000000000000000000000000000000000000000000000000000000000000000000000000000000000000000000000000000000000000000000000000000000000000000000000000000000000000000000000000000000000000000000000000
310
0000000000000000F5000000000000F50000000000000000000000F5F5F5F500F5F5F5F50000000000000000000000F5000000000000000000000000F500000000BE000000000000000000000000000000000000000000000000000000000000000000000000BE000000000000000000F50000000000000000000000000000
310
00000000000000000000000000000000000000000000000000000000000000000000000000000000000000000000000000000000000000000000000000000000000000000000000000000000000000000000000000000000000000000000000000000000000000000000000000000000000000000000000000000000000000
310
00000000000000000000F5000000000000F500000000000000000000000000000000000000000000000000000000000000F5000000000000000000000000F500000000BE000000000000000000000000000000000000000000000000000000000000000000000000BE000000000000000000F5000000000000000000000000
310
00000000000000000000000000000000000000000000000000000000000000000000000000000000000000000000000000000000000000000000000000000000000000000000000000000000000000000000000000000000000000000000000000000000000000000000000000000000000000000000000000000000000000
310
000000000000000000000000F5F5F5F5F5F5F5F5F5F5F5F5F5F5F5F5F5F5F5F5F5F5F5F5F5F5F5F5F5F5F5F5F5F5F5F5F5F5F5F5F5F5F5F5F5F5F5F5F5F5F5F5F500000000BE000000000000000000000000000000000000000000000000000000000000000000000000BE000000000000000000F500000000000000000000
310
00000000000000000000000000000000000000000000000000000000000000000000000000000000000000000000000000000000000000000000000000000000000000000000000000000000000000000000000000000000000000000000000000000000000000000000000000000000000000000000000000000000000000
310
0000000000000000000000000000F5F5F5F5F5F500F50000000000000000F5F5F5F5F5F5F5F5000000F5F5F5F50000000000000000F5F5F5F500F500000000000000F500000000BE000000000000000000000000000000000000000000000000000000000000000000000000BE000000000000000000F50000000000000000
310
00000000000000000000000000000000000000000000000000000000000000000000000000000000000000000000000000000000000000000000000000000000000000000000000000000000000000000000000000000000000000000000000000000000000000000000000000000000000000000000000000000000000000
310
00000000000000000000000000000000F5F5F5F5F5F500F50000000000000000F5F5F5F5F5F5F5F5F500F5F5F5F5F50000000000000000F5F5F5F500F500F5F5F5F5F500F500000000BE000000000000000000000000000000000000000000000000000000000000000000000000BE000000000000000000F5000000000000
310
00000000000000000000000000000000000000000000000000000000000000000000000000000000000000000000000000000000000000000000000000000000000000000000000000000000000000000000000000000000000000000000000000000000000000000000000000000000000000000000000000000000000000
310
000000000000000000000000000000000000F5000000000000F50000000000000000F5F5F5F5F5F5F5F5F50000F5F5F5F50000000000000000F500000000F500F5F5F5F5F500F500000000BE000000000000000000000000000000000000000000000000000000000000000000000000BE000000000000000000F500000000
310
00000000000000000000000000000000000000000000000000000000000000000000000000000000000000000000000000000000000000000000000000000000000000000000000000000000000000000000000000000000000000000000000000000000000000000000000000000000000000000000000000000000000000
310
0000000000000000000000000000000000000000F5000000000000F500000000000000000000000000000000000000000000000000000000000000F500000000F500000000000000F500000000BE000000000000000000000000000000000000000000000000000000000000000000000000BE000000000000000000F50000
310
00000000000000000000000000000000000000000000000000000000000000000000000000000000000000000000000000000000000000000000000000000000000000000000000000000000000000000000000000000000000000000000000000000000000000000000000000000000000000000000000000000000000000
310
00000000000000000000000000000000000000000000F5F5F5F5F5F5F5F5F5F5F5F5F5F5F5F5F5F5F5F5F5F5F5F5F5F5F5F5F5F5F5F5F5F5F5F5F5F5F5F5F5F5F5F5F5F5F5F5F5F5F5F5F500000000BE000000000000000000000000000000000000000000000000000000000000000000000000BE000000000000000000F5
310
00000000000000000000000000000000000000000000000000000000000000000000000000000000000000000000000000000000000000000000000000000000000000000000000000000000000000000000000000000000000000000000000000000000000000000000000000000000000000000000000000000000000000
310
00000000000000000000000000000000000000000000000000000000000000000000000000000000000000000000000000000000000000000000000000000000000000000000000000000000F500000000BE000000000000000000000000000000000000000000000000000000000000000000000000BE0000000000000000
310
00F50000000000000000000000000000000000000000000000000000000000000000000000000000000000000000000000000000000000000000000000000000000000000000000000000000000000000000000000000000000000000000000000000000000000000000000000000000000000000000000000000000000000
310
000000000000000000000000000000000000000000000000000000000000000000000000000000000000000000000000000000000000000000000000000000000000000000000000000000000000F500000000BE000000000000000000000000000000000000000000000000000000000000000000000000BE000000000000
310
000000F50000000000000000000000000000000000000000000000F5F50000F5F5000000000000000000000000000000000000000000000000000000000000000000000000000000000000000000000000000000000000000000000000000000000000000000F50000F5F50000000000000000000000000000000000000000
310
0000000000000000000000000000000000000000000000000000000000000000000000000000000000000000000000000000000000000000000000000000000000000000000000000000000000000000F500000000BE000000000000000000000000000000000000000000000000000000000000000000000000BE00000000
310
0000000000F500000000000000000000000000000000000000000000F5F5F5F5F500F5000000000000000000000000000000000000000000000000000000000000000000000000000000000000000000000000000000000000000000000000000000000000000000F5F5F5F5F5F50000000000000000000000000000000000
310
00000000000000000000000000000000000000000000000000000000000000000000000000000000000000000000000000000000000000000000000000000000000000000000000000000000000000000000F500000000BE000000000000000000000000000000000000000000000000000000000000000000000000BE0000
310
00000000000000F50000000000000000000000000000000000000000000000F5F500F5F5F50000000000000000000000000000000000000000000000000000000000000000F5F5F5F50000000000000000000000000000000000000000000000000000000000000000F5F5F5F5F5F5F5000000000000000000000000000000
310
000000000000000000000000000000000000000000000000000000000000000000000000000000000000000000000000000000000000000000000000000000000000000000000000000000000000000000000000F500000000BE000000000000000000000000000000000000000000000000000000000000000000000000BE
310
000000000000000000F50000000000000000000000000000000000000000F5F5F5000000F5F500F500000000000000000000000000000000000000000000000000000000000000F5F5F5F50000000000000000000000000000000000000000000000000000000000000000F5F5F5F50000F5F5F50000000000000000000000
310
0000000000000000000000000000000000000000000000000000000000000000000000000000000000000000000000000000000000000000000000000000000000000000000000000000000000000000000000000000F500000000BE0000000000000000000000000000000000000000000000000000000000000000000000
310
00BE000000000000000000F5000000000000000000000000000000000000000000F500000000F5F5F5F5F5F5F5F5F5F5F5F5F5F5F5F5F5F5F5F5F5F5F5F5F5F5F5F5F5F5F5F5F5F5F5F5F5F5F5F5F5F5F5F5F5F5F5F5F5F5F5F5F5F5F5F5F5F5F5F5F5F5F5F5F5F5F5F5F5F5F5F5F5F5F500000000F5000000000000000000
310
000000000000000000000000000000000000000000000000000000000000000000000000000000000000000000000000000000000000000000000000000000000000000000F5F500F5F5F5F5F5F5F5F5F5F5F5F500000000F500000000BE000000000000000000000000000000000000000000000000000000000000000000
310
000000BE000000000000000000F5000000000000000000000000000000000000000000F500000000F500F500F50000000000000000000000000000000000000000000000000000000000000000000000000000000000000000000000000000000000000000000000000000000000F500F500F5000000F50000000000000000
310
0000000000000000000000000000000000000000000000000000000000000000000000000000000000000000000000000000000000000000000000000000000000000000000000F5F5F5F5F5F5F5F5F5F5F5F5F5F5F500000000F500000000BE00000000000000000000000000000000000000000000000000000000000000
310
0000000000BE000000000000000000F500000000000000000000000000000000000000000000F5000000F500F500F5000000000000000000000000000000000000000000000000000000000000F5F5F5F5000000000000000000000000000000000000000000000000000000000000F50000F500F5000000F5000000000000
310
0000000000000000000000000000000000000000000000000000000000000000000000000000000000000000000000000000000000000000000000000000000000000000000000000000F5F5F5F5F5F5F5F5F5F5F5F5000000000000F500000000BE0000000000000000000000000000000000000000000000000000000000
310
00000000000000BE000000000000000000F500000000000000000000000000000000000000000000F5000000F500F50000F500F5F5F5F5F5F5F5F5F5F5F5F5F5F5F5F5F5F5F5F5F5F5F5F5F5F5F5F5F5F5F5F5F5F5F5F5F5F5F5F5F5F5F5F5F5F5F5F5F5F5F5F5F5F5F5F5F5F5F5F50000F50000F500F50000F5F500000000
310
00000000000000000000000000000000000000000000000000000000000000000000000000000000000000000000000000000000000000000000000000000000000000000000000000000000000000000000000000000000000000000000F500000000BE000000000000000000000000000000000000000000000000000000
310
000000000000000000BE000000000000000000F50000000000000000000000000000000000000000000000F50000F500F50000F500F500000000000000000000000000000000000000000000000000000000002D00000000000000000000000000000000000000000000000000000000F500F5000000F500F50000F5F50000
310
000000000000000000000000000000000000000000000000000000000000000000000000000000000000000000000000000000000000000000000000000000000000000000000000000000000000000000000000000000000000000000000000F500000000BE00000000000000000000000000000000000000000000000000
310
0000000000000000000000BE000000000000000000F50000000000000000000000000000000000000000000000F50000F50000000000F5F500000000000000000000000000000000000000000000000000000000002D00000000000000000000000000000000000000000000000000000000F500F50000000000F500F5F5F5
310
0000000000000000000000000000000000000000000000000000000000000000000000000000000000000000000000000000000000000000000000000000000000000000000000000000000000000000000000000000000000000000000000000000F500000000BE0000000000000000000000000000000000000000000000
310
00000000000000000000000000BE000000000000000000F5000000000000000000000000000000000000000000000000F500F500F5F5F5F5F5F5F5F5F5F5F5F5F5F5F5F5F5F5F5F5F5F5F5F5F5F5F5F5F5F5F5F5F5F5F5F5F5F5F5F5F5F5F5F5F5F5F5F5F5F5F5F5F5F5F5F5F5F5F5F5F5F5F5F5F5F5F5F5F5F5F5F5F5F5F5
310
F5F5F500000000000000000000000000000000000000000000000000000000000000000000000000000000000000000000000000000000000000000000000000000000000000000000000000000000000000000000000000000000000000000000000000F500000000BE000000000000000000000000000000000000000000
310
000000000000000000000000000000BE000000000000000000F5000000000000000000000000000000000000000000000000F500F500F500000000F500000000000000000000000000000000000000000000000000000000002D00000000000000000000000000000000000000000000000000000000F50000000000F500F5
310
F500F500F5F5F50000000000000000000000000000000000000000000000000000000000000000000000000000000000000000000000000000000000000000000000000000000000000000000000000000000000000000000000000000000000000000000000F500000000BE00000000000000000000000000000000000000
310
0000000000000000000000000000000000BE000000000000000000F500000000000000000000000000000000000000000000000000F5F5F5F5000000000000000000000000000000000000000000000000000000000000000000002D00000000000000000000000000000000000000000000000000000000000000000000F5
310
F5F5F5F5F5F5F5F5F50000000000000000000000000000000000000000000000000000000000000000000000000000000000000000000000000000000000000000000000000000000000000000000000000000000000000000000000000000000000000000000000F500000000BE0000000000000000000000000000000000
310
00000000000000000000000000000000000000BE000000000000000000F500000000000000000000000000000000000000000000000000F5F50000000000000000000000000000000000000000000000000000000000000000000000002D000000000000000000000000000000000000000000000000000000000000000000
310
000000F50000F5F5F5F5F50000000000000000000000000000000000000000000000000000000000000000000000000000000000000000000000000000000000000000000000000000000000000000000000000000000000000000000000000000000000000000000000F500000000BE000000000000000000000000000000
310
000000000000000000000000000000000000000000BE000000000000000000F50000000000000000000000000000000000000000000000000000F50000000000000000000000000000000000000000000000000000000000000000000000002D00000000000000000000000000000000000000000000000000000000000000
310
00000000F5F50000F500F500000000000000000000000000000000000000000000000000000000000000000000000000000000000000000000000000000000000000000000000000000000000000000000000000000000000000000000000000000000000000000000000000F500000000BE00000000000000000000000000
310
0000000000000000000000000000000000000000000000BE000000000000000000F50000000000000000000000000000000000000000000000000000F5F5F5F5F5F5F5F5F5F5F5F5F5F5F5F5F5F5F5F5F5F5F5F5F5F5F5F5F5F5F5F5F5F5F5F5F5F5F5F5F5F5F5F5F5F5F5F5F5F5F5F5F5F5F5F5F5F5F5F5F5F5F5F5F5F5F5
310
F5F5F5F5F5F5F5F5F5F5F5F5F500000000000000000000000000000000000000000000000000000000000000000000000000000000000000000000000000000000000000000000000000000000000000000000000000000000000000000000000000000000000000000000000000F500000000BE0000000000000000000000
310
00000000000000000000000000000000000000000000000000BE000000000000000000F50000000000000000000000000000000000000000000000000000000000000000000000000000000000000000000000000000000000000000000000000000002D000000000000000000000000000000000000000000000000000000
310
000000000000000000000000F5F50000000000000000000000000000000000000000000000000000000000000000000000000000000000000000000000000000000000000000000000000000000000000000000000000000000000000000000000000000000000000000000000000000F500000000BE000000000000000000
310
000000000000000000000000000000000000000000000000000000BE000000000000000000F50000000000000000000000000000000000000000000000000000F50000000000000000000000000000000000000000000000000000000000000000000000002D00000000000000000000000000000000000000000000000000
310
0000000000000000000000F50000F5F50000000000000000000000000000000000000000000000000000000000000000000000000000000000000000000000000000000000000000000000000000000000000000000000000000000000000000000000000000000000000000000000000000F500000000BE00000000000000
310
0000000000000000000000000000000000000000000000000000000000BE000000000000000000F50000000000000000000000000000000000000000000000000000F5000000000000000000000000000000000000000000000000000000000000000000000000000000000000000000000000000000000000000000000000
310
00000000000000000000000000F50000F5F50000000000000000000000000000000000000000000000000000000000000000000000000000000000000000000000000000000000000000000000000000000000000000000000000000000000000000000000000000000000000000000000000000F500000000BE0000000000
310
00000000000000000000000000000000000000000000000000000000000000BE000000000000000000F50000000000000000000000000000000000000000000000000000F500000000000000000000000000000000000000000000000000000000000000000000000000000000000000000000000000000000000000000000
310
000000000000000000000000000000F5000000000000000000000000000000000000000000000000000000000000000000000000000000000000000000000000000000000000000000000000000000000000000000000000000000000000000000000000000000000000000000000000000000000000F500000000BE000000
310
000000000000000000000000000000000000000000000000000000000000000000BE000000000000000000F50000000000000000000000000000000000000000000000000000F50000000000000000000000000000000000000000000000000000000000000000000000000000000000000000000000000000000000000000
310
0000000000000000000000000000000000F5000000000000000000000000000000000000000000000000000000000000000000000000000000000000000000000000000000000000000000000000000000000000000000000000000000000000000000000000000000000000000000000000000000000000F500000000BE00
310
0000000000000000000000000000000000000000000000000000000000000000000000BE000000000000000000F50000000000000000000000000000000000000000000000000000F5F5F5F5F5F5F5F5F5F5F5F5F5F5F5F5F5F5F5F5F5F5F5F5F5F5F5F5F5F5F5F5F5F5F5F5F5F5F5F5F5F5F5F5F5F5F5F5F5F5F5F5F5F5F5
310
F5F5F5F5F5F5F5F5F5F5F5F5F5F5F5F5F5F5F5F5000000000000000000000000000000000000000000000000000000000000000000000000000000000000000000000000000000000000000000000000000000000000000000000000000000000000000000000000000000000000000000000000000000000000F500000000
310
BE000000000000000000000000000000000000000000000000000000000000000000000000BE000000000000000000F500000000000000000000000000000000000000000000000000000000000000000000000000000000000000000000000000000000000000000000000000F5F5F5F50000000000000000000000000000
310
00000000000000000000000000000000000000000000000000000000000000000000000000000000000000000000000000000000000000000000000000000000000000000000000000000000000000000000000000000000000000000000000000000000000000000000000000000000000000000000000000000000F50000
310
0000BE000000000000000000000000000000000000000000000000000000000000000000000000BE000000000000000000F500000000000000000000000000000000000000000000000000000000000000000000000000000000000000000000000000000000000000000000000000F5F5F5F5000000000000000000000000
310
000000000000000000000000000000000000000000000000000000000000000000000000000000000000000000000000000000000000000000000000000000000000000000000000000000000000000000000000000000000000000000000000000000000000000000000000000000000000000000000000000000000000F5
310
00000000BE000000000000000000000000000000000000000000000000000000000000000000000000BE000000000000000000F5000000000000000000000000000000000000000000000000000000000000000000000000000000000000000000000000000000000000000000000000000000000000000000000000000000
310
00000000000000000000000000000000000000000000000000000000000000000000000000000000000000000000000000000000000000000000000000000000000000000000000000000000000000000000000000000000000000000000000000000000000000000000000000000000000000000000000000000000000000
310
00F500000000BE000000000000000000000000000000000000000000000000000000000000000000000000BE000000000000000000F5000000000000000000000000000000000000000000000000000000000000000000000000000000000000000000000000000000000000000000F5F5F5F5F5F5F5F5F5F5F5F500000000
310
00000000000000000000000000000000000000000000000000000000000000000000000000000000000000000000000000000000000000000000000000000000000000000000000000000000000000000000000000000000000000000000000000000000000000000000000000000000000000000000000000000000000000
310
000000F500000000BE000000000000000000000000000000000000000000000000000000000000000000000000BE000000000000000000F500000000000000000000000000000000000000000000000000000000000000000000000000000000000000000000000000000000000000000000F50000F5F5F5F5F5F5F5F50000
310
00000000000000000000000000000000000000000000000000000000000000000000000000000000000000000000000000000000000000000000000000000000000000000000000000000000000000000000000000000000000000000000000000000000000000000000000000000000000000000000000000000000000000
310
0000000000F500000000BE000000000000000000000000000000000000000000000000000000000000000000000000BE000000000000000000F5000000000000000000000000000000000000000000000000000000000000000000000000000000000000000000000000000000000000000000000000000000000000000000
310
00000000000000000000000000000000000000000000000000000000000000000000000000000000000000000000000000000000000000000000000000000000000000000000000000000000000000000000000000000000000000000000000000000000000000000000000000000000000000000000000000000000000000
310
00000000000000F500000000BE000000000000000000000000000000000000000000000000000000000000000000000000BE000000000000000000F500000000000000000000000000000000000000000000000000000000000000000000000000000000000000000000000000000000000000000000000000000000000000
310
00000000000000000000000000000000000000000000000000000000000000000000000000000000000000000000000000000000000000000000000000000000000000000000000000000000000000000000000000000000000000000000000000000000000000000000000000000000000000000000000000000000000000
310
000000000000000000F500000000BE000000000000000000000000000000000000000000000000000000000000000000000000BE000000000000000000F50000000000000000000000000000000000000000000000000000000000000000000000000000000000000000000000000000000000000000000000000000000000
310
00000000000000000000000000000000000000000000000000000000000000000000000000000000000000000000000000000000000000000000000000000000000000000000000000000000000000000000000000000000000000000000000000000000000000000000000000000000000000000000000000000000000000
310
0000000000000000000000F500000000BE000000000000000000000000000000000000000000000000000000000000000000000000BE000000000000000000F5000000000000000000000000000000000000000000000000000000000000000000000000000000000000000000000000000000000000000000000000000000
310
00000000000000000000000000000000000000000000000000000000000000000000000000000000000000000000000000000000000000000000000000000000000000000000000000000000000000000000000000000000000000000000000000000000000000000000000000000000000000000000000000000000000000
310
00000000000000000000000000F500000000BE000000000000000000000000000000000000000000000000000000000000000000000000BE000000000000000000F500000000000000000000000000000000000000000000000000000000F50000000000000000000000000000000000000000000000000000000000000000
310
F5F5F5F50000000000000000000000000000000000000000000000000000000000000000F5F50000000000000000000000000000000000000000000000000000000000000000000000000000000000000000000000000000000000000000000000000000000000000000000000000000000000000000000000000000000000
310
000000000000000000000000000000F500000000BE000000000000000000000000000000000000000000000000000000000000000000000000BE000000000000000000F500000000000000000000000000000000000000000000000000000000F5000000000000000000000000000000000000000000000000000000000000
310
0000F5F5F5F50000000000000000000000000000000000000000000000000000000000000000F5F5000000000000000000000000000000000000000000000000000000000000000000000000000000000000000000000000000000000000000000000000000000000000000000000000000000000000000000000000000000
310
0000000000000000000000000000000000F500000000BE000000000000000000000000000000000000000000000000000000000000000000000000BE000000000000000000F5000000000000000000000000000000000000000000000000000000F5F5F5F5F5F5F5F5F5F5F5F5F5F5F5F5F5F5F5F5F5F5F5F5F5F5F5F5F5F5
310
F5F5F5F5F5F5F5F5F5F5F5F5F5F5F5F5F5F5F5F5F5F5F5F5F5F5F5F5F5F5F5F5F5F5F5F5F5F5F5F5F5F5F5000000000000000000000000000000000000000000000000000000000000000000000000000000000000000000000000000000000000000000000000000000000000000000000000000000000000000000000000
310
00000000000000000000000000000000000000F500000000BE000000000000000000000000000000000000000000000000000000000000000000000000BE000000000000000000F500000000000000000000000000000000000000000000000000000000F50000000000000000000000000000000000000000000000000000
310
00000000000000002D000000000000000000000000000000000000000000000000000000000000000000F5F50000000000000000000000000000000000000000000000000000000000000000000000000000000000000000000000000000000000000000000000000000000000000000000000000000000000000000000000
310
000000000000000000000000000000000000000000F500000000BE000000000000000000000000000000000000000000000000000000000000000000000000BE000000000000000000F500000000000000000000000000000000000000000000000000000000F5000000000000000000000000000000000000000000000000
310
000000000000000000002D00000000000000000000000000000000000000000000000000000000000000000000F5000000000000000000000000000000000000000000000000000000000000000000000000000000000000000000000000000000000000000000000000000000000000000000000000000000000000000000
310
0000000000000000000000000000000000000000000000F500000000BE000000000000000000000000000000000000000000000000000000000000000000000000BE000000000000000000F500000000000000000000000000000000000000000000000000000000F5F5F5F5F5F5F5F5F5F5F5F5F5F5F5F5F5F5F5F5F5F5F5
310
F5F5F5F5F5F5F5F5F5F5F5F5F5F5F5F5F5F5F5F5F5F5F5F5F5F5F5F5F5F5F5F5F5F5F5F5F5F5F5F5F5F5F5F5F5F5F5F5F5F5F5F5F50000000000000000000000000000000000000000000000000000000000000000000000000000000000000000000000000000000000000000000000000000000000000000000000000000
310
00000000000000000000000000000000000000000000000000F500000000BE000000000000000000000000000000000000000000000000000000000000000000000000BE000000000000000000F500000000000000000000000000000000000000000000000000000000F50000000000000000000000000000000000000000
310
00000000000000000000000000002D000000000000000000000000000000000000000000000000000000000000000000F5F500000000F5F50000000000000000000000000000000000000000000000000000000000000000000000000000000000000000000000000000000000000000000000000000000000000000000000
310
000000000000000000000000000000000000000000000000000000F500000000BE000000000000000000000000000000000000000000000000000000000000000000000000BE000000000000000000F500000000000000000000000000000000000000000000000000000000F5000000000000000000000000000000000000
310
000000000000000000000000000000002D000000000000000000000000000000000000000000000000000000000000000000F5F500000000F5F5000000000000000000000000000000000000000000000000000000000000000000000000000000000000000000000000000000000000000000000000000000000000000000
310
0000000000000000000000000000000000000000000000000000000000F500000000BE000000000000000000000000000000000000000000000000000000000000000000000000BE000000000000000000F500000000000000000000000000000000000000000000000000000000F500000000000000000000000000000000
310
0000000000000000000000000000000000002D00000000000000000000000000000000000000000000000000000000000000000000F500000000F5F500000000000000000000000000000000000000000000000000000000000000000000000000000000000000000000000000000000000000000000000000000000000000
310
00000000000000000000000000000000000000000000000000000000000000F500000000BE000000000000000000000000000000000000000000000000000000000000000000000000BE000000000000000000F500000000000000000000000000000000000000000000000000000000F50000000000000000000000000000
310
00000000000000000000000000000000000000002D00000000000000000000000000000000000000000000000000000000000000000000F500000000F5F50000000000000000000000000000000000000000000000000000000000000000000000000000000000000000000000000000000000000000000000000000000000
310
000000000000000000000000000000000000000000000000000000000000000000F500000000BE000000000000000000000000000000000000000000000000000000000000000000000000BE000000000000000000F50000000000000000000000000000000000000000000000000000F5F5F5000000000000000000000000
310
000000000000000000000000000000000000000000002D00000000000000000000000000000000000000000000000000000000000000000000F5F5F5F5F5F5F5000000000000000000000000000000000000000000000000000000000000000000000000000000000000000000000000000000000000000000000000000000
310
0000000000000000000000000000000000000000000000000000000000000000000000F500000000BE000000000000000000000000000000000000000000000000000000000000000000000000BE000000000000000000F50000000000000000000000000000000000000000000000000000F5001500000000000000000000
310
0000000000000000000000000000000000000000000000002D000000000000000000000000000000000000000000000000000000000000000000001500F50000F50000000000000000000000000000000000000000000000000000000000000000000000000000000000000000000000000000000000000000000000000000
310
00000000000000000000000000000000000000000000000000000000000000000000000000F500000000BE000000000000000000000000000000000000000000000000000000000000000000000000BE000000000000000000F50000000000000000000000000000000000000000000000000000F500150000000000000000
310
00000000000000000000000000000000000000000000000000002D000000000000000000000000000000000000000000000000000000000000000000001500F50000F5000000000000000000000000000000000000000000000000000000000000000000000000000000000000000000000000000000000000000000000000
310
000000000000000000000000000000000000000000000000000000000000000000000000000000F500000000BE000000000000000000000000000000000000000000000000000000000000000000000000BE000000000000000000F50000000000000000000000000000000000000000000000000000F50015000000000000
310
000000000000000000000000000000000000000000000000000000002D000000000000000000000000000000000000000000000000000000000000000000001500F50000F500000000000000000000000000000000000000000000000000000000000000000000000000000000000000000000000000000000000000000000
310
0000000000000000000000000000000000000000000000000000000000000000000000000000000000F500000000BE000000000000000000000000000000000000000000000000000000000000000000000000BE000000000000000000F50000000000000000000000000000000000000000000000000000F5001500000000
310
0000000000000000000000000000000000000000000000000000000000002D000000000000000000000000000000000000000000000000000000000000000000001500F50000F50000000000000000000000000000000000000000000000000000000000000000000000000000000000000000000000000000000000000000
310
00000000000000000000000000000000000000000000000000000000000000000000000000000000000000F500000000BE000000000000000000000000000000000000000000000000000000000000000000000000BE000000000000000000F50000000000000000000000000000000000000000000000000000F500150000
310
00000000000000000000000000000000000000000000000000000000000000002D000000000000000000000000000000000000000000000000000000000000000000001500F50000F5000000000000000000000000000000000000000000000000000000000000000000000000000000000000000000000000000000000000
310
000000000000000000000000000000000000000000000000000000000000000000000000000000000000000000F500000000BE000000000000000000000000000000000000000000000000000000000000000000000000BE000000000000000000F50000000000000000000000000000000000000000000000000000F50015
310
000000000000000000000000000000000000000000000000000000000000000000002D000000000000000000000000000000000000000000000000000000000000000000001500F50000F5F5000000000000000000000000000000000000000000000000000000000000000000000000000000000000000000000000000000
310
0000000000000000000000000000000000000000000000000000000000000000000000000000000000000000000000F500000000BE000000000000000000000000000000000000000000000000000000000000000000000000BE000000000000000000F50000000000000000000000000000000000000000000000000000F5
310
0015000000000000000000000000000000000000000000000000000000000000000000002D000000000000000000000000000000000000000000000000000000000000000000001500F50000F5F500000000000000000000000000000000000000000000000000000000000000000000000000000000000000000000000000
310
00000000000000000000000000000000000000000000000000000000000000000000000000000000000000000000000000F500000000BE000000000000000000000000000000000000000000000000000000000000000000000000BE000000000000000000F500000000000000000000000000000000000000000000000000
310
00F50015000000000000000000000000000000000000000000000000000000000000000000002D000000000000000000000000000000000000000000000000000000000000000000001500F50000F5F50000000000000000000000000000000000000000000000000000000000000000000000000000000000000000000000
310
000000000000000000000000000000000000000000000000000000000000000000000000000000000000000000000000000000F500000000BE000000000000000000000000000000000000000000000000000000000000000000000000BE000000000000000000F50000000000000000000000000000000000000000000000
310
000000F50015000000000000000000000000000000000000000000000000000000000000000000002D000000000000000000000000000000000000000000000000000000000000000000001500F50000F5F5000000000000000000000000000000000000000000000000000000000000000000000000000000000000000000
310
0000000000000000000000000000000000000000000000000000000000000000000000000000000000000000000000000000000000F500000000BE000000000000000000000000000000000000000000000000000000000000000000000000BE000000000000000000F5000000000000000000000000000000000000000000
310
0000000000F50015000000000000000000000000000000000000000000000000000000000000000000002D000000000000000000000000000000000000000000000000000000000000000000001500F50000F50000000000000000000000000000000000000000000000000000000000000000000000000000000000000000
310
00000000000000000000000000000000000000000000000000000000000000000000000000000000000000000000000000000000000000F500000000BE000000000000000000000000000000000000000000000000000000000000000000000000BE000000000000000000F500000000000000000000000000000000000000
310
00000000000000F50015000000000000000000000000000000000000000000000000000000000000000000002D000000000000000000000000000000000000000000000000000000000000000000001500F50000F5000000000000000000000000000000000000000000000000000000000000000000000000000000000000
310
000000000000000000000000000000000000000000000000000000000000000000000000000000000000000000000000000000000000000000F500000000BE000000000000000000000000000000000000000000000000000000000000000000000000BE000000000000000000F50000000000000000000000000000000000
310
000000000000000000F50015000000000000000000000000000000000000000000000000000000000000000000002D000000000000000000000000000000000000000000000000000000000000000000001500F50000F500000000000000000000000000000000000000000000000000000000000000000000000000000000
310
0000000000000000000000000000000000000000000000000000000000000000000000000000000000000000000000000000000000000000000000F500000000BE000000000000000000000000000000000000000000000000000000000000000000000000BE000000000000000000F5000000000000000000000000000000
310
0000000000000000000000F50015000000000000000000000000000000000000000000000000000000000000000000002D000000000000000000000000000000000000000000000000000000000000000000001500F50000F50000000000000000000000000000000000000000000000000000000000000000000000000000
310
00000000000000000000000000000000000000000000000000000000000000000000000000000000000000000000000000000000000000000000000000F500000000BE000000000000000000000000000000000000000000000000000000000000000000000000BE000000000000000000F500000000000000000000000000
310
00000000000000000000000000F50015000000000000000000000000000000000000000000000000000000000000000000002D000000000000000000000000000000000000000000000000000000000000000000001500F50000F5000000000000000000000000000000000000000000000000000000000000000000000000
310
000000000000000000000000000000000000000000000000000000000000000000000000000000000000000000000000000000000000000000000000000000F500000000BE000000000000000000000000000000000000000000000000000000000000000000000000BE000000000000000000F50000000000000000000000
310
000000000000000000000000000000F5F515F5F5F5F5F5F5F5F5F5F5F5F5F5F5F5F5F5F5F5F5F5F5F5F5F5F5F5F5F5F5F5F5F5F5F5F5F5F5F5F5F5F5F5F5F5F5F5F5F5F5F5F5F5F5F5F5F5F5F5F5F5F5F5F5F5F5F5F5F515F5F5F5F5F500000000000000000000000000000000000000000000000000000000000000000000
310
0000000000000000000000000000000000000000000000000000000000000000000000000000000000000000000000000000000000000000000000000000000000F500000000BE000000000000000000000000000000000000000000000000000000000000000000000000BE000000000000000000F5000000000000000000
310
0000000000000000000000000000000000000000000000000000000000000000000000000000000000000000000000000000000000002D000000000000000000000000000000000000000000000000000000000000000000000000000000000000000000000000000000000000000000000000000000000000000000000000
310
00000000000000000000000000000000000000000000000000000000000000000000000000000000000000000000000000000000000000000000000000000000000000F500000000BE000000000000000000000000000000000000000000000000000000000000000000000000BE000000000000000000F500000000000000
310
00000000000000000000000000000000000000F50000000000000000000000000000000000000000000000000000000000000000000000002D000000000000000000000000000000000000000000000000000000000000000000000000F5000000000000000000000000000000000000000000000000000000000000000000
310
000000000000000000000000000000000000000000000000000000000000000000000000000000000000000000000000000000000000000000000000000000000000000000F500000000BE000000000000000000000000000000000000000000000000000000000000000000000000BE000000000000000000F50000000000
310
000000000000000000000000000000000000000000F500000000000000000000000000000000000000000000000000000000000000000000000000000000000000000000000000000000000000000000000000000000000000000000000000F500000000000000000000000000000000000000000000000000000000000000
310
0000000000000000000000000000000000000000000000000000000000000000000000000000000000000000000000000000000000000000000000000000000000000000000000F500000000BE000000000000000000000000000000000000000000000000000000000000000000000000BE000000000000000000F5000000
310
0000000000000000000000000000000000000000000000F500000000000000000000000000000000000000000000000000000000000000000000000000000000000000000000000000000000000000000000000000000000000000000000000000F50000000000000000000000000000000000000000000000000000000000
310
00000000000000000000000000000000000000000000000000000000000000000000000000000000000000000000000000000000000000000000000000000000000000000000000000F500000000BE000000000000000000000000000000000000000000000000000000000000000000000000BE000000000000000000F500
310
00000000000000000000000000000000000000000000000000F500000000000000000000000000000000000000000000000000000000000000000000000000000000000000000000000000000000000000000000000000000000000000000000000000F5000000000000000000000000000000000000000000000000000000
310
000000000000000000000000000000000000000000000000000000000000000000000000000000000000000000000000000000000000000000000000000000000000000000000000000000F500000000BE000000000000000000000000000000000000000000000000000000000000000000000000BE000000000000000000
310
F50000000000000000000000000000000000000000000000000000F5F5F5F5F5F5F5F5F5F5F5F5F5F5F5F5F5F5F5F5F5F5F5F5F5F5F5F5F5F5F5F5F5F5F5F5F5F5F5F5F5F5F5F5F5F5F5F5F5F5F5F5F5F5F5F5F5F5F5F5F5F5F5F5F5F5F5F5F5F5F5F5F5F5F500000000000000000000000000000000000000000000000000
310
0000000000000000000000000000000000000000000000000000000000000000000000000000000000000000000000000000000000000000000000000000000000000000000000000000000000F500000000BE000000000000000000000000000000000000000000000000000000000000000000000000BE00000000000000
310
0000F500000000000000000000000000000000000000000000000000000000000000000000000000000000000000000000000000000000000000000000000000F5F5F5F50000000000000000000000000000000000000000000000000000000000000000000000000000000000000000000000000000000000000000000000
310
00000000000000000000000000000000000000000000000000000000000000000000000000000000000000000000000000000000000000000000000000000000000000000000000000000000000000F500000000BE000000000000000000000000000000000000000000000000000000000000000000000000BE0000000000
310
00000000F50000000000000000000000000000000000000000000000000000000000000000000000000000000000000000000000000000000000000000000000000000000000000000000000000000000000000000000000000000000000000000000000000000000000000000000000000000000000000000000000000000
310
000000000000000000000000000000000000000000000000000000000000000000000000000000000000000000000000000000000000000000000000000000000000000000000000000000000000000000F500000000BE000000000000000000000000000000000000000000000000000000000000000000000000BE000000
310
000000000000F5000000000000000000000000000000000000000000000000000000000000000000000000000000000000000000000000000000000000000000000000000000000000000000000000000000000000000000000000000000000000000000000000000000000000000000000000000000000000000000000000
310
0000000000000000000000000000000000000000000000000000000000000000000000000000000000000000000000000000000000000000000000000000000000000000000000000000000000000000000000F500000000BE000000000000000000000000000000000000000000000000000000000000000000000000BE00
310
0000000000000000F5000000000000000000000000000000000000000000000000000000000000000000000000000000000000000000000000000000000000000000000000F5F5F5F5F5F500000000000000000000000000000000000000000000000000000000000000000000000000000000000000000000000000000000
310
00000000000000000000000000000000000000000000000000000000000000000000000000000000000000000000000000000000000000000000000000000000000000000000000000000000000000000000000000F500000000BE000000000000000000000000000000000000000000000000000000000000000000000000
310
BE000000000000000000F5000000000000000000000000000000000000000000000000000000000000000000000000000000000000000000000000000000000000000000000000F5F5F5F5F5F50000000000000000000000000000000000000000000000000000000000000000000000000000000000000000000000000000
310
000000000000000000000000000000000000000000000000000000000000000000000000000000000000000000000000000000000000000000000000000000000000000000000000000000000000000000000000000000F500000000BE00000000000000000000000000000000000000000000000000000000000000000000
310
0000BE000000000000000000F500000000000000000000000000000000000000000000000000000000000000000000000000000000000000000000000000000000000000000000000000F500000000000000000000000000000000000000000000000000000000000000000000000000000000000000000000000000000000
310
0000000000000000000000000000000000000000000000000000000000000000000000000000000000000000000000000000000000000000000000000000000000000000000000000000000000000000000000000000000000F500000000BE0000000000000000000000000000000000000000000000000000000000000000
310
00000000BE000000000000000000F500000000000000000000000000000000000000000000000000000000000000000000000000000000000000000000000000000000000000000000000000000000000000000000000000000000000000000000000000000000000000000000000000000000000000000000000000000000
310
00000000000000000000000000000000000000000000000000000000000000000000000000000000000000000000000000000000000000000000000000000000000000000000000000000000000000000000000000000000000000F500000000BE000000000000000000000000000000000000000000000000000000000000
310
000000000000BE000000000000000000F50000000000000000000000000000000000000000000000000000000000000000000000000000000000000000000000000000000000000000000000000000000000000000000000000000000000000000000000000000000000000000000000000000000000000000000000000000
310
000000000000000000000000000000000000000000000000000000000000000000000000000000000000000000000000000000000000000000000000000000000000000000000000000000000000000000000000000000000000000000F500000000BE00000000000000000000000000000000000000000000000000000000
310
0000000000000000BE000000000000000000F5000000000000000000000000000000000000000000000000000000000000000000000000000000000000000000000000000000000000000000000000000000000000000000000000000000000000000000000000000000000000000000000000000000000000000000000000
310
0000000000000000000000000000000000000000000000000000000000000000000000000000000000000000000000000000000000000000000000000000000000000000000000000000000000000000000000000000000000000000000000F500000000BE0000000000000000000000000000000000000000000000000000
310
00000000000000000000BE000000000000000000F500000000000000000000000000000000000000000000000000000000000000000000000000000000000000000000000000000000000000000000000000000000000000000000000000000000000000000000000000000000000000000000000000000000000000000000
310
00000000000000000000000000000000000000000000000000000000000000000000000000000000000000000000000000000000000000000000000000000000000000000000000000000000000000000000000000000000000000000000000000F500000000BE000000000000000000000000000000000000000000000000
310
000000000000000000000000BE000000000000000000F50000000000000000000000000000000000000000000000000000000000000000000000000000000000000000000000000000000000000000000000000000000000000000000000000000000000000000000000000000000000000000000000000000000000000000
310
0000000000000000000000000000000000000000000000F5F5F5F50000000000000000000000000000000000F5F5F500000000000000000000000000000000000000000000000000000000000000000000000000000000000000000000000000000000F500000000BE00000000000000000000000000000000000000000000
310
0000000000000000000000000000BE000000000000000000F5000000000000000000000000000000000000000000000000000000000000000000000000000000000000000000000000000000000000000000000000000000000000000000000000000000000000000000000000000000000000000000000000000000000000
310
000000000000000000000000000000000000000000000000F5F5F5F5F5F5000000000000000000000000000000F5F5F5F5F5F50000000000000000000000000000000000000000000000000000000000000000000000000000000000000000000000000000F500000000BE0000000000000000000000000000000000000000
310
00000000000000000000000000000000BE000000000000000000F500000000000000000000000000000000000000000000000000000000F50000000000000000000000000000000000000000000000000000000000000000F5F5F5F50000000000000000000000000000000000000000000000000000000000000000F5F500
310
0000000000000000000000000000000000000000000000F5F5F5F50000F5F5F5000000000000000000000000000000F500000000F50000000000000000000000000000000000000000000000000000000000000000000000000000000000000000000000000000F500000000BE000000000000000000000000000000000000
310
000000000000000000000000000000000000BE000000000000000000F500000000000000000000000000000000000000000000000000000000F50000000000000000000000000000000000000000000000000000000000000000F5F5F5F50000000000000000000000000000000000000000000000000000000000000000F5
310
F500000000000000000000000000000000000000000000000000F5F5F500F5F5F5F5000000000000000000000000000000F500000000F50000000000000000000000000000000000000000000000000000000000000000000000000000000000000000000000000000F500000000BE00000000000000000000000000000000
310
0000000000000000000000000000000000000000BE000000000000000000F5000000000000000000000000000000000000000000000000000000F5F5F5F5F5F5F5F5F5F5F5F5F5F5F5F5F5F5F5F5F5F5F5F5F5F5F5F5F5F5F5F5F5F5F5F5F5F5F5F5F5F5F5F5F5F5F5F5F5F5F5F5F5F5F5F5F5F5F5F5F5F5F5F5F5F5F5F5F5
310
F5F5F5F50000000000000000000000000000000000000000000000F5F5F5F5F5F5F5F5F5000000000000000000000000000000F500000000F50000000000000000000000000000000000000000000000000000000000000000000000000000000000000000000000000000F500000000BE0000000000000000000000000000
310
00000000000000000000000000000000000000000000BE000000000000000000F500000000000000000000000000000000000000000000000000000000F500000000000000000000000000000000000000000000000000000000000000000000F5F50000000000000000000000000000000000000000000000000000000000
310
000000F5F5000000000000000000000000000000000000000000000000000000F500F50000F5000000000000000000000000000000F500000000F50000000000000000000000000000000000000000000000000000000000000000000000000000000000000000000000000000F500000000BE000000000000000000000000
310
000000000000000000000000000000000000000000000000BE000000000000000000F500000000000000000000000000000000000000000000000000000000F500000000000000000000000000000000000000000000000000000000000000000000F500000000000000000000000000000000000000000000000000000000
310
000000000000F50000000000000000000000000000000000000000000000000000000000000000000000000000000000000000000000000000000000000000000000000000000000000000000000000000000000000000000000000000000000000000000000000000000000000000F500000000BE00000000000000000000
310
0000000000000000000000000000000000000000000000000000BE000000000000000000F500000000000000000000000000000000000000000000000000000000F5F5F5F5F5F5F5F5F5F5F5F5F5F5F5F5F5F5F5F5F5F5F5F5F5F5F5F5F5F5F5F5F5F5F5F5F5F5F5F5F5F5F5F5F5F5F5F5F5F5F5F5F5F5F5F5F5F5F5F5F5F5
310
F5F5F5F5F5F5F5F5F5F5F5F5F5F5F5F5F5F5F5F5F5000000000000000000000000000000F5F5F5F5F5F500F5F5000000000000000000000000F5F5F5F5F5F500F5F50000000000000000000000000000000000000000000000000000000000000000000000000000000000000000000000F500000000BE0000000000000000
310
00000000000000000000000000000000000000000000000000000000BE000000000000000000F500000000000000000000000000000000000000000000000000000000F5000000000000000000000000000000000000000000000000000000000000000000002D000000000000000000000000000000000000000000000000
310
000000000000000000F5F500000000000000000000F5F5000000000000000000000000000000F500000000F50000F5000000000000000000000000F500000000F500F5F50000000000000000000000000000000000000000000000000000000000000000000000000000000000000000000000F500000000BE000000000000
310
000000000000000000000000000000000000000000000000000000000000BE000000000000000000F500000000000000000000000000000000000000000000000000000000F5000000000000000000000000000000000000000000000000000000000000000000002D00000000000000000000000000000000000000000000
310
0000000000000000000000F5F500000000000000000000F5F5F50000000000000000000000000000F500000000F50000F5000000000000000000000000F500000000F500F5F5F500000000000000000000000000000000000000000000000000000000000000000000000000000000000000000000F500000000BE00000000
310
0000000000000000000000000000000000000000000000000000000000000000BE000000000000000000F500000000000000000000000000000000000000000000000000000000F5000000000000000000000000000000000000000000000000000000000000000000002D0000000000000000000000000000000000000000
310
0000000000000000000000000000F500000000000000000000F5F5F50000000000000000000000000000F500000000F50000F5000000000000000000000000F500000000F500F5F5F500000000000000000000000000000000000000000000000000000000000000000000000000000000000000000000F500000000BE0000
310
00000000000000000000000000000000000000000000000000000000000000000000BE000000000000000000F500000000000000000000000000000000000000000000000000000000F5000000000000000000000000000000000000000000000000000000000000000000002D000000000000000000000000000000000000
310
00000000000000000000000000000000F500000000000000000000F5F5000000000000000000000000000000F500000000F50000F5000000000000000000000000F500000000F500F5F50000000000000000000000000000000000000000000000000000000000000000000000000000000000000000000000F500000000BE
310
000000000000000000000000000000000000000000000000000000000000000000000000BE000000000000000000F50000000000000000000000000000000000000000000000000000F5F5F5000000000000000000000000000000000000000000000000000000000000000000002D00000000000000000000000000000000
310
000000000000000000000000000000000000F5F5F5F5F5F5F5F5F5F5F5F5F5F50000000000000000000000000000F500000000F50000F5000000000000000000000000F5F5F5F5F5F500F5F5F500000000000000000000000000000000000000000000000000000000000000000000000000000000000000000000F5000000
310
00BE000000000000000000000000000000000000000000000000000000000000000000000000BE000000000000000000F50000000000000000000000000000000000000000000000000000F500F5000000000000000000000000000000000000000000000000000000000000000000002D0000000000000000000000000000
310
00000000000000000000000000000000000000001500F50000000000000000F5F5000000000000000000000000000000F500000000F50000F5000000000000000000000000F500F50000F500F5F50000000000000000000000000000000000000000000000000000000000000000000000000000000000000000000000F500
310
000000BE000000000000000000000000000000000000000000000000000000000000000000000000BE000000000000000000F50000000000000000000000000000000000000000000000000000F500F5000000000000000000000000000000000000000000000000000000000000000000002D000000000000000000000000
310
000000000000000000000000000000000000000000001500F50000000000000000F500000000000000000000000000000000F500000000F50000F5000000000000000000000000F500F50000F500F5000000000000000000000000000000000000000000000000000000000000000000000000000000000000000000000000
310
F500000000BE000000000000000000000000000000000000000000000000000000000000000000000000BE000000000000000000F50000000000000000000000000000000000000000000000000000F500F5000000000000000000000000000000000000000000000000000000000000000000002D00000000000000000000
310
0000000000000000000000000000000000000000000000001500F50000000000000000F500000000000000000000000000000000F500000000F50000F5000000000000000000000000F500F50000F500F500000000000000000000000000000000000000000000000000000000000000000000000000000000000000000000
310
0000F500000000BE000000000000000000000000000000000000000000000000000000000000000000000000BE000000000000000000F50000000000000000000000000000000000000000000000000000F500F5000000000000000000000000000000000000000000000000000000000000000000002D0000000000000000
310
00000000000000000000000000000000000000000000000000001500F50000000000000000F500000000000000000000000000000000F500000000F50000F5F50000000000000000000000F500F50000F500F50000000000000000000000000000000000000000000000000000000000000000000000000000000000000000
310
00000000F500000000BE000000000000000000000000000000000000000000000000000000000000000000000000BE000000000000000000F50000000000000000000000000000000000000000000000000000F500F5000000000000000000000000000000000000000000000000000000000000000000002D000000000000
310
000000000000000000000000000000000000000000000000000000001500F50000000000000000F500000000000000000000000000000000F500000000F50000F5F50000000000000000000000F500F50000F500F5000000000000000000000000000000000000000000000000000000000000000000000000000000000000
310
000000000000F500000000BE000000000000000000000000000000000000000000000000000000000000000000000000BE000000000000000000F50000000000000000000000000000000000000000000000F50000F500F5000000000000000000000000000000000000000000000000000000000000000000002D00000000
310
0000000000000000000000000000000000000000000000000000000000001500F5F5F5000000000000F5F5F50000000000000000000000000000F500000000F50000F5F50000000000000000000000F500F50000F500F5F5F50000000000000000000000000000000000000000000000000000000000000000000000000000
310
0000000000000000F500000000BE000000000000000000000000000000000000000000000000000000000000000000000000BE000000000000000000F500000000000000000000000000000000000000000000F5F50000F500F5000000000000000000000000000000000000000000000000000000000000000000002D0000
310
00000000000000000000000000000000000000000000000000000000000000001500F5F5F5000000000000F5F5F50000000000000000000000000000F500000000F50000F5000000000000000000000000F500F50000F500F5F5F5000000000000000000000000000000000000000000000000000000000000000000000000
310
00000000000000000000F500000000BE000000000000000000000000000000000000000000000000000000000000000000000000BE000000000000000000F50000000000000000000000000000000000000000000000F5F5F5F500F5000000000000000000000000000000000000000000000000000000000000000000002D
310
000000000000000000000000000000000000000000000000000000000000000000001500F5F500000000000000F5F5F50000000000000000000000000000F500000000F50000F5000000000000000000000000F500F50000F500F5F5F500000000000000000000000000000000000000000000000000000000000000000000
310
000000000000000000000000F500000000BE000000000000000000000000000000000000000000000000000000000000000000000000BE000000000000000000F50000000000000000000000000000000000000000000000000000F500F5000000000000000000000000000000000000000000000000000000000000000000
310
002D000000000000000000000000000000000000000000000000000000000000000000001500F50000000000000000F5F5F50000000000000000000000000000F500000000F50000F5000000000000000000000000F500F50000F500F5F5F50000000000000000000000000000000000000000000000000000000000000000
310
0000000000000000000000000000F500000000BE000000000000000000000000000000000000000000000000000000000000000000000000BE000000000000000000F50000000000000000000000000000000000000000000000000000F500F500000000000000000000000000000000000000000000000000000000000000
310
0000002D000000000000000000000000000000000000000000000000000000000000000000001500F50000000000000000F500000000000000000000000000000000F500000000F50000F5000000000000000000000000F500F50000F500F50000000000000000000000000000000000000000000000000000000000000000
310
00000000000000000000000000000000F500000000BE000000000000000000000000000000000000000000000000000000000000000000000000BE000000000000000000F50000000000000000000000000000000000000000000000000000F500F50000000000000000000000000000000000000000000000000000000000
310
00000000002D000000000000000000000000000000000000000000000000000000000000000000001500F50000000000000000F500000000000000000000000000000000F500000000F50000F5000000000000000000000000F500F50000F500F5000000000000000000000000000000000000000000000000000000000000
310
000000000000000000000000000000000000F500000000BE000000000000000000000000000000000000000000000000000000000000000000000000BE000000000000000000F50000000000000000000000000000000000000000000000000000F500F5000000000000000000000000000000000000000000000000000000
310
000000000000002D000000000000000000000000000000000000000000000000000000000000000000001500F50000000000000000F500000000000000000000000000000000F500000000F50000F5000000000000000000000000F500F50000F500F500000000000000000000000000000000000000000000000000000000
310
0000000000000000000000000000000000000000F500000000BE000000000000000000000000000000000000000000000000000000000000000000000000BE000000000000000000F50000000000000000000000000000000000000000000000000000F500F500000000000000000000000000000000000000000000000000
310
0000000000000000002D000000000000000000000000000000000000000000000000000000000000000000001500F50000000000000000F500000000000000000000000000000000F500000000F50000F5000000000000000000000000F500F50000F500F50000000000000000000000000000000000000000000000000000
310
00000000000000000000000000000000000000000000F500000000BE000000000000000000000000000000000000000000000000000000000000000000000000BE000000000000000000F50000000000000000000000000000000000000000000000000000F500F50000000000000000000000000000000000000000000000
310
00000000000000000000002D000000000000000000000000000000000000000000000000000000000000000000001500F50000000000000000F500000000000000000000000000000000F500000000F50000F5000000000000000000000000F500F50000F500F5000000000000000000000000000000000000000000000000
310
000000000000000000000000000000000000000000000000F500000000BE000000000000000000000000000000000000000000000000000000000000000000000000BE000000000000000000F50000000000000000000000000000000000000000000000000000F5F5F5F5F5F5F5F5F5F5F5F5F5F5F5F5F5F5F5F5F5F5F5F5
310
F5F5F5F5F5F5F5F5F5F5F5F5F5F5F5F5F5F5F5F5F5F5F5F5F5F5F5F5F5F5F5F5F5F5F5F5F5F5F5F5F5F5F5F5F5F5F5F5F5F5F5F5F5F5F5F5F5F5F5F5F5000000000000000000000000000000F5F5F5F5F5F500F5F5000000000000000000000000F5F5F5F5F5F500F5F5000000000000000000000000000000000000000000
310
0000000000000000000000000000000000000000000000000000F500000000BE000000000000000000000000000000000000000000000000000000000000000000000000BE000000000000000000F5000000000000000000000000000000000000000000000000000000000000000000000000000000000000000000000000
310
000000000000000000000000000000F5000000000000000000000000000000000000000000000000000000000000000000000000000000000000000000000000000000000000000000000000000000000000000000000000000000000000000000000000000000000000000000000000000000000000000000000000000000
310
00000000000000000000000000000000000000000000000000000000F500000000BE000000000000000000000000000000000000000000000000000000000000000000000000BE000000000000000000F50000000000000000000000000000000000000000000000000000F500F50000000000000000000000000000000000
310
0000000000000000000000000000000000F5F5000000000000000000000000000000000000000000000000000000000000000000F500F500000000000000000000000000000000000000000000000000000000000000000000000000000000000000000000F500F50000F50000000000000000000000000000000000000000
310
000000000000000000000000000000000000000000000000000000000000F500000000BE000000000000000000000000000000000000000000000000000000000000000000000000BE000000000000000000F50000000000000000000000000000000000000000000000000000F5F5F5F5F5F5F5F5F5F5F5F5F5F5F5F5F5F5
310
F5F5F5F5F5F5F5F5F5F5F5F5F5F5F5F5F5F5F5F5F5F5F5F5F5F5F5F5F5F5F5F5F5F5F5F5F5F5F5F5F5F5F5F5F5F5F5F5F5F5F5F5F5F5F5F5F5000000000000000000000000000000000000000000000000000000000000000000000000000000000000F5F5F5F5F5F5F5F5F5F5F5F5F5000000000000000000000000000000
310
0000000000000000000000000000000000000000000000000000000000000000F500000000BE000000000000000000000000000000000000000000000000000000000000000000000000BE000000000000000000F50000000000000000000000000000000000000000000000000000F5F50000000000000000000000000000
310
00000000000000000000000000000000000000F5F5F5F5000000000000000000000000000000000000000000000000000000000000000000F5F5F500000000000000000000000000000000000000000000000000000000000000000000000000000000000000F5F5F50000F5F50000F5F5F500000000000000000000000000
310
00000000000000000000000000000000000000000000000000000000000000000000F500000000BE000000000000000000000000000000000000000000000000000000000000000000000000BE000000000000000000F50000000000000000000000000000000000000000000000000000F5F5000000000000000000000000
310
000000000000000000000000000000000000000000F5F5F5F5000000000000000000000000000000000000000000000000000000000000000000F5F5F50000000000000000000000000000000000000000000000000000000000000000000000000000000000000000F5F50000F5F50000F5F5000000000000000000000000
310
000000000000000000000000000000000000000000000000000000000000000000000000F500000000BE000000000000000000000000000000000000000000000000000000000000000000000000BE000000000000000000F50000000000000000000000000000000000000000000000000000F5F5F5F5F5F5F5F5F5F5F5F5
310
F5F5F5F5F5F5F5F5F5F5F5F5F5F5F5F5F5F5F5F5F5F5F5F5F5F5F5F5F5F5F5F5F5F5F5F5F5F5F5F5F5F5F5F5F5F5F5F5F5F5F5F5F5F5F5F5F5F5F5F5F5F5F500000000000000000000000000000000000000000000000000000000000000000000000000000000000000000000000000000000000000000000000000000000
310
0000000000000000000000000000000000000000000000000000000000000000000000000000F500000000BE000000000000000000000000000000000000000000000000000000000000000000000000BE000000000000000000F5000000000000000000000000000000000000000000000000000000000000000000000000
310
00000000000000000000000000000000000000000000000000F5F5F5F50000000000000000000000000000000000000000000000000000000000000000000000000000000000000000000000000000000000000000000000000000000000000000000000000000000000000000000000000000000000000000000000000000
310
00000000000000000000000000000000000000000000000000000000000000000000000000000000F500000000BE000000000000000000000000000000000000000000000000000000000000000000000000BE000000000000000000F500000000000000000000000000000000000000000000000000000000000000000000
310
00000000000000000000000000000000000000000000000000000000000000000000000000000000000000000000000000000000000000000000000000000000000000000000000000000000000000000000000000000000000000000000000000000000000000000000000000000000000000000000000000000000000000
310
000000000000000000000000000000000000000000000000000000000000000000000000000000000000F500000000BE000000000000000000000000000000000000000000000000000000000000000000000000BE000000000000000000F50000000000000000000000000000000000000000000000000000000000000000
310
00000000000000000000000000000000000000000000000000000000000000000000000000000000000000000000000000000000000000000000000000000000000000000000000000000000000000000000000000000000000000000000000000000000000000000000000000000000000000000000000000000000000000
310
0000000000000000000000000000000000000000000000000000000000000000000000000000000000000000F500000000BE000000000000000000000000000000000000000000000000000000000000000000000000BE000000000000000000F5000000000000000000000000000000000000000000000000000000000000
310
000000000000000000000000000000000000000000000000000000000000F5F5F5F5F5F500000000000000000000000000000000000000000000000000000000000000000000000000000000000000000000000000000000000000000000F5F500F5F5F5F5F5F5F500000000000000000000000000F5F5F5F5F5F500000000
310
00000000000000000000000000000000000000000000000000000000000000000000000000000000000000000000F500000000BE000000000000000000000000000000000000000000000000000000000000000000000000BE000000000000000000F500000000000000000000000000000000000000000000000000000000
310
0000000000000000000000000000000000000000000000000000000000000000F5F5F5F5F5F500000000000000000000000000000000000000000000000000000000000000000000000000000000000000000000000000000000000000000000F5F5F5F5F5F5F5F5F5F500000000000000000000000000F5F5F5F5F5F50000
310
000000000000000000000000000000000000000000000000000000000000000000000000000000000000000000000000F500000000BE000000000000000000000000000000000000000000000000000000000000000000000000BE000000000000000000F50000000000000000000000000000000000000000000000000000
310
0000000000000000000000000000000000000000000000000000000000000000000000000000000000000000000000000000000000000000000000000000000000000000000000000000000000000000000000000000000000000000000000000000F50000F500F500F5000000000000000000000000000000F5F500000000
310
0000000000000000000000000000000000000000000000000000000000000000000000000000000000000000000000000000F500000000BE000000000000000000000000000000000000000000000000000000000000000000000000BE000000000000000000F5000000000000000000000000000000000000000000000000
310
00000000000000000000000000000000000000000000000000000000000000000000000000000000000000000000000000000000000000000000000000000000000000000000000000000000000000000000000000000000000000000000000000000000000000000000000000000000000000000000000000000000000000
310
00000000000000000000000000000000000000000000000000000000000000000000000000000000000000000000000000000000F500000000BE000000000000000000000000000000000000000000000000000000000000000000000000BE000000000000000000F500000000000000000000000000000000000000000000
310
00000000000000000000000000000000000000000000000000000000000000000000000000000000000000000000000000000000000000000000000000000000000000000000000000000000000000000000000000000000000000000000000000000000000000000000000000000000000000000000000000000000000000
310
000000000000000000000000000000000000000000000000000000000000000000000000000000000000000000000000000000000000F500000000BE000000000000000000000000000000000000000000000000000000000000000000000000BE000000000000000000F50000000000000000000000000000000000000000
310
00000000000000000000000000000000000000000000000000000000000000000000000000000000000000000000000000000000000000000000000000000000000000000000000000000000000000000000000000000000000000000000000000000000000000000000000000000000000000000000000000000000000000
310
0000000000000000000000000000000000000000000000000000000000000000000000000000000000000000000000000000000000000000F500000000BE000000000000000000000000000000000000000000000000000000000000000000000000BE000000000000000000F5000000000000000000000000000000000000
310
00000000000000000000000000000000000000000000000000000000000000000000000000000000000000000000000000000000000000000000000000000000000000000000000000000000000000000000000000000000000000000000000000000000000000000000000000000000000000000000000000000000000000
310
00000000000000000000000000000000000000000000000000000000000000000000000000000000000000000000000000000000000000000000F500000000BE000000000000000000000000000000000000000000000000000000000000000000000000BE000000000000000000F500000000000000000000000000000000
310
00000000000000000000000000000000000000000000000000000000000000000000000000000000000000000000000000000000000000000000000000000000000000000000000000000000000000000000000000000000000000000000000000000000000000000000000000000000000000000000000000000000000000
310
000000000000000000000000000000000000000000000000000000000000000000000000000000000000000000000000000000000000000000000000F500000000BE000000000000000000000000000000000000000000000000000000000000000000000000BE000000000000000000F50000000000000000000000000000
310
00000000000000000000000000000000000000000000000000000000000000000000000000000000000000000000000000000000000000000000000000000000000000000000000000000000000000000000000000000000000000000000000000000000000000000000000000000000000000000000000000000000000000
310
0000000000000000000000000000000000000000000000000000000000000000000000000000000000000000000000000000000000000000000000000000F500000000BE000000000000000000000000000000000000000000000000000000000000000000000000BE000000000000000000F5000000000000000000000000
310
00000000000000000000000000000000000000000000000000000000000000000000000000000000000000000000000000000000000000000000000000000000000000000000000000000000000000000000000000000000000000000000000000000000000000000000000000000000000000000000000000000000000000
310
00000000000000000000000000000000000000000000000000000000000000000000000000000000000000000000000000000000000000000000000000000000F500000000BE000000000000000000000000000000000000000000000000000000000000000000000000BE000000000000000000F500000000000000000000
310
00000000000000000000000000000000000000000000000000000000000000000000000000000000000000000000000000000000000000000000000000000000000000000000000000000000000000000000000000000000000000000000000000000000000000000000000000000000000000000000000000000000000000
310
000000000000000000000000000000000000000000000000000000000000000000000000000000000000000000000000000000000000000000000000000000000000F500000000BE000000000000000000000000000000000000000000000000000000000000000000000000BE000000000000000000F50000000000000000
310
00000000000000000000000000000000000000000000000000000000000000000000000000000000000000000000000000000000000000000000000000000000000000000000000000000000000000000000000000000000000000000000000000000000000000000000000000000000000000000000000000000000000000
310
0000000000000000000000000000000000000000000000000000000000000000000000000000000000000000000000000000000000000000000000000000000000000000F500000000BE000000000000000000000000000000000000000000000000000000000000000000000000BE000000000000000000F5F5F5F5F5F5F5
310
F5F5F5F5F5F5F5F5F5F5F5F5F5F5F5F5F5F5F5F5F5F5F5F5F5F5F5F5F5F5F5F5F5F5F5F5F5F5F5F5F5F5F5F5F5F5F5F5F5F5F5F5F5F5F5F5F5F5F5F5F5F5F5F5F5F5F5F5F5F5F5F5F5F5F5F5F5F5F5F5F5F5F5F5F5F5F5F5F5F5F5F5F5F5F5F5F5F5F5F5F5F5F5F5F5F5F5F5F5F5F5F5F5F5F5F5F5F5F5F5F5F5F5F5F5F5F5
310
F5F5F5F5F5F5F5F5F5F5F5F5F5F5F5F5F5F5F5F5F5F5F5F5F5F5F5F5F5F5F5F5F5F5F5F5F5F5F5F5F5F5F5F5F5F5F5F5F5F5F5F5F5F5F5F5F5F5F5F5F5F5F5F5F5F5F5F5F5F5F500000000BE000000000000000000000000000000000000000000000000000000000000000000000000BE0000000000000000000000000000
310
00000000000000000000000000000000000000000000000000000000000000000000000000000000000000000000000000000000000000000000000000000000000000000000000000000000000000000000000000000000000000000000000000000000000000000000000000000000000000000000000000000000000000
310
0000000000000000000000000000000000000000000000000000000000000000000000000000000000000000000000000000000000000000000000000000000000000000000000000000000000BE000000000000000000000000000000000000000000000000000000000000000000000000BE000000000000000000000000
310
00000000000000000000000000000000000000000000000000000000000000000000000000000000000000000000000000000000000000000000000000000000000000000000000000000000000000000000000000000000000000000000000000000000000000000000000000000000000000000000000000000000000000
310
00000000000000000000000000000000000000000000000000000000000000000000000000000000000000000000000000000000000000000000000000000000000000000000000000000000000000BE000000000000000000000000000000000000000000000000000000000000000000000000BE00000000000000000000
310
00000000000000000000000000000000000000000000000000000000000000000000000000000000000000000000000000000000000000000000000000000000000000000000000000000000000000000000000000000000000000000000000000000000000000000000000000000000000000000000000000000000000000
310
000000000000000000000000000000000000000000000000000000000000000000000000000000000000000000000000000000000000000000000000000000000000000000000000000000000000000000BE000000000000000000000000000000000000000000000000000000000000000000000000BE0000000000000000
310
00000000000000000000000000000000000000000000000000000000000000000000000000000000000000000000000000000000000000000000000000000000000000000000000000000000000000000000000000000000000000000000000000000000000000000000000000000000000000000000000000000000000000
310
0000000000000000000000000000000000000000000000000000000000000000000000000000000000000000000000000000000000000000000000000000000000000000000000000000000000000000000000BE000000000000000000000000000000000000000000000000000000000000000000000000BEBEBEBEBEBEBE
310
BEBEBEBEBEBEBEBEBEBEBEBEBEBEBEBEBEBEBEBEBEBEBEBEBEBEBEBEBEBEBEBEBEBEBEBEBEBEBEBEBEBEBEBEBEBEBEBEBEBEBEBEBEBEBEBEBEBEBEBEBEBEBEBEBEBEBEBEBEBEBEBEBEBEBEBEBEBEBEBEBEBEBEBEBEBEBEBEBEBEBEBEBEBEBEBEBEBEBEBEBEBEBEBEBEBEBEBEBEBEBEBEBEBEBEBEBEBEBEBEBEBEBEBEBEBEBE
310
BEBEBEBEBEBEBEBEBEBEBEBEBEBEBEBEBEBEBEBEBEBEBEBEBEBEBEBEBEBEBEBEBEBEBEBEBEBEBEBEBEBEBEBEBEBEBEBEBEBEBEBEBEBEBEBEBEBEBEBEBEBEBEBEBEBEBEBEBEBEBEBEBEBEBEBEBEBEBEBEBEBEBEBEBEBE0000000000000000000000000000000000000000000000000000000000000000000000000000000000
310
00000000000000000000000000000000000000000000000000000000000000000000000000000000000000000000000000000000000000000000000000000000000000000000000000000000000000000000000000000000000000000000000000000000000000000000000000000000000000000000000000000000000000
310
00000000000000000000000000000000000000000000000000000000000000000000000000000000000000000000000000000000000000000000000000000000000000000000000000000000000000000000000000000000000000000000000000000000000000000000
  0
XRECORD
  5
610A
102
{ACAD_REACTORS
330
6109
102
}
330
6109
100
AcDbXrecord
280
     1
102
SHADEPLOT
 70
     0
102
SHADEPLOTRESLEVEL
 70
     2
102
SHADEPLOTCUSTOMDPI
 70
   300
  0
XRECORD
  5
610C
102
{ACAD_REACTORS
330
610B
102
}
330
610B
100
AcDbXrecord
280
     1
102
SHADEPLOT
 70
     0
102
SHADEPLOTRESLEVEL
 70
     2
102
SHADEPLOTCUSTOMDPI
 70
   300
  0
XRECORD
  5
610E
102
{ACAD_REACTORS
330
605E
102
}
330
605E
100
AcDbXrecord
280
     1
102
MATERIAL
148
0.0
149
0.0
149
0.0
 93
        0
 94
      127
282
     0
 72
     0
 77
     0
171
     0
175
     0
179
     0
273
     0
  0
XRECORD
  5
6060
102
{ACAD_REACTORS
330
605E
102
}
330
605E
100
AcDbXrecord
280
     1
270
     1
271
     1
  0
XRECORD
  5
605F
102
{ACAD_REACTORS
330
605E
102
}
330
605E
100
AcDbXrecord
280
     1
270
     1
271
     1
  0
XRECORD
  5
6063
102
{ACAD_REACTORS
330
605E
102
}
330
605E
100
AcDbXrecord
280
     1
270
     1
271
     1
  0
XRECORD
  5
6062
102
{ACAD_REACTORS
330
605E
102
}
330
605E
100
AcDbXrecord
280
     1
270
     1
271
     1
  0
XRECORD
  5
6064
102
{ACAD_REACTORS
330
605E
102
}
330
605E
100
AcDbXrecord
280
     1
270
     1
271
     1
  0
XRECORD
  5
6061
102
{ACAD_REACTORS
330
605E
102
}
330
605E
100
AcDbXrecord
280
     1
270
     1
271
     1
  0
XRECORD
  5
610D
102
{ACAD_REACTORS
330
6056
102
}
330
6056
100
AcDbXrecord
280
     1
102
MATERIAL
148
0.0
149
0.0
149
0.0
 93
        0
 94
      127
282
     0
 72
     0
 77
     0
171
     0
175
     0
179
     0
273
     0
  0
XRECORD
  5
6058
102
{ACAD_REACTORS
330
6056
102
}
330
6056
100
AcDbXrecord
280
     1
270
     1
271
     1
  0
XRECORD
  5
6057
102
{ACAD_REACTORS
330
6056
102
}
330
6056
100
AcDbXrecord
280
     1
270
     1
271
     1
  0
XRECORD
  5
605B
102
{ACAD_REACTORS
330
6056
102
}
330
6056
100
AcDbXrecord
280
     1
270
     1
271
     1
  0
XRECORD
  5
605A
102
{ACAD_REACTORS
330
6056
102
}
330
6056
100
AcDbXrecord
280
     1
270
     1
271
     1
  0
XRECORD
  5
605C
102
{ACAD_REACTORS
330
6056
102
}
330
6056
100
AcDbXrecord
280
     1
270
     1
271
     1
  0
XRECORD
  5
6059
102
{ACAD_REACTORS
330
6056
102
}
330
6056
100
AcDbXrecord
280
     1
270
     1
271
     1
  0
XRECORD
  5
610F
102
{ACAD_REACTORS
330
6066
102
}
330
6066
100
AcDbXrecord
280
     1
102
MATERIAL
148
0.0
149
0.0
149
0.0
 93
        0
 94
      127
282
     0
 72
     0
 77
     0
171
     0
175
     0
179
     0
273
     0
  0
XRECORD
  5
6068
102
{ACAD_REACTORS
330
6066
102
}
330
6066
100
AcDbXrecord
280
     1
270
     1
271
     1
  0
XRECORD
  5
6067
102
{ACAD_REACTORS
330
6066
102
}
330
6066
100
AcDbXrecord
280
     1
270
     1
271
     1
  0
XRECORD
  5
606B
102
{ACAD_REACTORS
330
6066
102
}
330
6066
100
AcDbXrecord
280
     1
270
     1
271
     1
  0
XRECORD
  5
606A
102
{ACAD_REACTORS
330
6066
102
}
330
6066
100
AcDbXrecord
280
     1
270
     1
271
     1
  0
XRECORD
  5
606C
102
{ACAD_REACTORS
330
6066
102
}
330
6066
100
AcDbXrecord
280
     1
270
     1
271
     1
  0
XRECORD
  5
6069
102
{ACAD_REACTORS
330
6066
102
}
330
6066
100
AcDbXrecord
280
     1
270
     1
271
     1
  0
XRECORD
  5
6101
102
{ACAD_REACTORS
330
6100
102
}
330
6100
100
AcDbXrecord
280
     1
102
ACAD_ROUNDTRIP_2012_MLEADER_STYLE
298
     1
  0
CELLSTYLEMAP
  5
60FF
102
{ACAD_REACTORS
330
60FE
102
}
330
60FE
100
AcDbCellStyleMap
 90
        3
300
CELLSTYLE
  1
TABLEFORMAT_BEGIN
 90
        5
170
     1
 91
        0
 92
    32768
 62
   257
 93
        1
300
CONTENTFORMAT
  1
CONTENTFORMAT_BEGIN
 90
        0
 91
        0
 92
        4
 93
        0
300

 40
0.0
140
1.0
 94
        5
 62
     0
340
11
144
6.0
309
CONTENTFORMAT_END
171
     1
301
MARGIN
  1
CELLMARGIN_BEGIN
 40
1.5
 40
1.5
 40
1.5
 40
1.5
 40
0.18
 40
0.18
309
CELLMARGIN_END
 94
        6
 95
        1
302
GRIDFORMAT
  1
GRIDFORMAT_BEGIN
 90
        0
 91
        1
 62
     0
 92
       -2
340
0
 93
        0
 40
0.045
309
GRIDFORMAT_END
 95
        2
302
GRIDFORMAT
  1
GRIDFORMAT_BEGIN
 90
        0
 91
        1
 62
     0
 92
       -2
340
0
 93
        0
 40
0.045
309
GRIDFORMAT_END
 95
        4
302
GRIDFORMAT
  1
GRIDFORMAT_BEGIN
 90
        0
 91
        1
 62
     0
 92
       -2
340
0
 93
        0
 40
0.045
309
GRIDFORMAT_END
 95
        8
302
GRIDFORMAT
  1
GRIDFORMAT_BEGIN
 90
        0
 91
        1
 62
     0
 92
       -2
340
0
 93
        0
 40
0.045
309
GRIDFORMAT_END
 95
       16
302
GRIDFORMAT
  1
GRIDFORMAT_BEGIN
 90
        0
 91
        1
 62
     0
 92
       -2
340
0
 93
        0
 40
0.045
309
GRIDFORMAT_END
 95
       32
302
GRIDFORMAT
  1
GRIDFORMAT_BEGIN
 90
        0
 91
        1
 62
     0
 92
       -2
340
0
 93
        0
 40
0.045
309
GRIDFORMAT_END
309
TABLEFORMAT_END
  1
CELLSTYLE_BEGIN
 90
        1
 91
        1
300
_TITLE
309
CELLSTYLE_END
300
CELLSTYLE
  1
TABLEFORMAT_BEGIN
 90
        5
170
     1
 91
        0
 92
        0
 62
   257
 93
        1
300
CONTENTFORMAT
  1
CONTENTFORMAT_BEGIN
 90
        0
 91
        0
 92
        4
 93
        0
300

 40
0.0
140
1.0
 94
        5
 62
     0
340
11
144
4.5
309
CONTENTFORMAT_END
171
     1
301
MARGIN
  1
CELLMARGIN_BEGIN
 40
1.5
 40
1.5
 40
1.5
 40
1.5
 40
0.18
 40
0.18
309
CELLMARGIN_END
 94
        6
 95
        1
302
GRIDFORMAT
  1
GRIDFORMAT_BEGIN
 90
        0
 91
        1
 62
     0
 92
       -2
340
0
 93
        0
 40
0.045
309
GRIDFORMAT_END
 95
        2
302
GRIDFORMAT
  1
GRIDFORMAT_BEGIN
 90
        0
 91
        1
 62
     0
 92
       -2
340
0
 93
        0
 40
0.045
309
GRIDFORMAT_END
 95
        4
302
GRIDFORMAT
  1
GRIDFORMAT_BEGIN
 90
        0
 91
        1
 62
     0
 92
       -2
340
0
 93
        0
 40
0.045
309
GRIDFORMAT_END
 95
        8
302
GRIDFORMAT
  1
GRIDFORMAT_BEGIN
 90
        0
 91
        1
 62
     0
 92
       -2
340
0
 93
        0
 40
0.045
309
GRIDFORMAT_END
 95
       16
302
GRIDFORMAT
  1
GRIDFORMAT_BEGIN
 90
        0
 91
        1
 62
     0
 92
       -2
340
0
 93
        0
 40
0.045
309
GRIDFORMAT_END
 95
       32
302
GRIDFORMAT
  1
GRIDFORMAT_BEGIN
 90
        0
 91
        1
 62
     0
 92
       -2
340
0
 93
        0
 40
0.045
309
GRIDFORMAT_END
309
TABLEFORMAT_END
  1
CELLSTYLE_BEGIN
 90
        2
 91
        1
300
_HEADER
309
CELLSTYLE_END
300
CELLSTYLE
  1
TABLEFORMAT_BEGIN
 90
        5
170
     1
 91
        0
 92
        0
 62
   257
 93
        1
300
CONTENTFORMAT
  1
CONTENTFORMAT_BEGIN
 90
        0
 91
        0
 92
        4
 93
        0
300

 40
0.0
140
1.0
 94
        2
 62
     0
340
11
144
4.5
309
CONTENTFORMAT_END
171
     1
301
MARGIN
  1
CELLMARGIN_BEGIN
 40
1.5
 40
1.5
 40
1.5
 40
1.5
 40
0.18
 40
0.18
309
CELLMARGIN_END
 94
        6
 95
        1
302
GRIDFORMAT
  1
GRIDFORMAT_BEGIN
 90
        0
 91
        1
 62
     0
 92
       -2
340
0
 93
        0
 40
0.045
309
GRIDFORMAT_END
 95
        2
302
GRIDFORMAT
  1
GRIDFORMAT_BEGIN
 90
        0
 91
        1
 62
     0
 92
       -2
340
0
 93
        0
 40
0.045
309
GRIDFORMAT_END
 95
        4
302
GRIDFORMAT
  1
GRIDFORMAT_BEGIN
 90
        0
 91
        1
 62
     0
 92
       -2
340
0
 93
        0
 40
0.045
309
GRIDFORMAT_END
 95
        8
302
GRIDFORMAT
  1
GRIDFORMAT_BEGIN
 90
        0
 91
        1
 62
     0
 92
       -2
340
0
 93
        0
 40
0.045
309
GRIDFORMAT_END
 95
       16
302
GRIDFORMAT
  1
GRIDFORMAT_BEGIN
 90
        0
 91
        1
 62
     0
 92
       -2
340
0
 93
        0
 40
0.045
309
GRIDFORMAT_END
 95
       32
302
GRIDFORMAT
  1
GRIDFORMAT_BEGIN
 90
        0
 91
        1
 62
     0
 92
       -2
340
0
 93
        0
 40
0.045
309
GRIDFORMAT_END
309
TABLEFORMAT_END
  1
CELLSTYLE_BEGIN
 90
        3
 91
        2
300
_DATA
309
CELLSTYLE_END
  0
XRECORD
  5
6108
102
{ACAD_REACTORS
330
60FE
102
}
330
60FE
100
AcDbXrecord
280
     1
102
ACAD_ROUNDTRIP_PRE2007_TABLESTYLE
 90
        4
 91
        0
  1

 92
        4
 93
        0
  2

 94
        4
 95
        0
  3

  0
XRECORD
  5
611B
102
{ACAD_REACTORS
330
611A
102
}
330
611A
100
AcDbXrecord
280
     1
102
RTVSPropertyOp0
 70
     1
102
RTVSPropertyOp1
 70
     1
102
RTVSPropertyOp2
 70
     1
102
RTVSPropertyOp3
 70
     1
102
RTVSPropertyOp4
 70
     1
102
RTVSPropertyOp5
 70
     1
102
RTVSPropertyOp6
 70
     1
102
RTVSPropertyOp7
 70
     1
102
RTVSPropertyOp8
 70
     1
102
RTVSPropertyOp9
 70
     1
102
RTVSPropertyOp10
 70
     1
102
RTVSPropertyOp11
 70
     1
102
RTVSPropertyOp12
 70
     1
102
RTVSPropertyOp13
 70
     1
102
RTVSPropertyOp14
 70
     1
102
RTVSPropertyOp15
 70
     1
102
RTVSPropertyOp16
 70
     1
102
RTVSPropertyOp17
 70
     1
102
RTVSPropertyOp18
 70
     1
102
RTVSPropertyOp19
 70
     1
102
RTVSPropertyOp20
 70
     1
102
RTVSPropertyOp21
 70
     1
102
RTVSPropertyOp22
 70
     1
102
RTVSPropertyOp23
 70
     1
102
RTVSPropertyOp24
 70
     1
102
RTVSPropertyOp25
 70
     1
102
RTVSPropertyOp26
 70
     1
102
RTVSPropertyOp27
 70
     1
102
RTVSPropertyOp28
 70
     1
102
RTVSPropertyOp29
 70
     1
102
RTVSPropertyOp30
 70
     1
102
RTVSPropertyOp31
 70
     1
102
RTVSPropertyOp32
 70
     1
  0
XRECORD
  5
6119
102
{ACAD_REACTORS
330
6118
102
}
330
6118
100
AcDbXrecord
280
     1
102
RTVSPropertyOp0
 70
     1
102
RTVSPropertyOp1
 70
     1
102
RTVSPropertyOp2
 70
     1
102
RTVSPropertyOp3
 70
     1
102
RTVSPropertyOp4
 70
     1
102
RTVSPropertyOp5
 70
     1
102
RTVSPropertyOp6
 70
     1
102
RTVSPropertyOp7
 70
     1
102
RTVSPropertyOp8
 70
     1
102
RTVSPropertyOp9
 70
     1
102
RTVSPropertyOp10
 70
     1
102
RTVSPropertyOp11
 70
     1
102
RTVSPropertyOp12
 70
     1
102
RTVSPropertyOp13
 70
     1
102
RTVSPropertyOp14
 70
     1
102
RTVSPropertyOp15
 70
     1
102
RTVSPropertyOp16
 70
     1
102
RTVSPropertyOp17
 70
     1
102
RTVSPropertyOp18
 70
     1
102
RTVSPropertyOp19
 70
     1
102
RTVSPropertyOp20
 70
     1
102
RTVSPropertyOp21
 70
     1
102
RTVSPropertyOp22
 70
     1
102
RTVSPropertyOp23
 70
     1
102
RTVSPropertyOp24
 70
     1
102
RTVSPropertyOp25
 70
     1
102
RTVSPropertyOp26
 70
     1
102
RTVSPropertyOp27
 70
     1
102
RTVSPropertyOp28
 70
     1
102
RTVSPropertyOp29
 70
     1
102
RTVSPropertyOp30
 70
     1
102
RTVSPropertyOp31
 70
     1
102
RTVSPropertyOp32
 70
     1
  0
XRECORD
  5
6127
102
{ACAD_REACTORS
330
6126
102
}
330
6126
100
AcDbXrecord
280
     1
102
RTVSPropertyOp0
 70
     1
102
RTVSPropertyOp1
 70
     1
102
RTVSPropertyOp2
 70
     1
102
RTVSPropertyOp3
 70
     1
102
RTVSPropertyOp4
 70
     1
102
RTVSPropertyOp5
 70
     1
102
RTVSPropertyOp6
 70
     1
102
RTVSPropertyOp7
 70
     1
102
RTVSPropertyOp8
 70
     1
102
RTVSPropertyOp9
 70
     1
102
RTVSPropertyOp10
 70
     1
102
RTVSPropertyOp11
 70
     1
102
RTVSPropertyOp12
 70
     1
102
RTVSPropertyOp13
 70
     1
102
RTVSPropertyOp14
 70
     1
102
RTVSPropertyOp15
 70
     1
102
RTVSPropertyOp16
 70
     1
102
RTVSPropertyOp17
 70
     1
102
RTVSPropertyOp18
 70
     1
102
RTVSPropertyOp19
 70
     1
102
RTVSPropertyOp20
 70
     1
102
RTVSPropertyOp21
 70
     1
102
RTVSPropertyOp22
 70
     1
102
RTVSPropertyOp23
 70
     1
102
RTVSPropertyOp24
 70
     1
102
RTVSPropertyOp25
 70
     1
102
RTVSPropertyOp26
 70
     1
102
RTVSPropertyOp27
 70
     1
102
RTVSPropertyOp28
 70
     1
102
RTVSPropertyOp29
 70
     1
102
RTVSPropertyOp30
 70
     1
102
RTVSPropertyOp31
 70
     1
102
RTVSPropertyOp32
 70
     1
  0
XRECORD
  5
612F
102
{ACAD_REACTORS
330
612E
102
}
330
612E
100
AcDbXrecord
280
     1
102
RTVSPropertyOp0
 70
     1
102
RTVSPropertyOp1
 70
     1
102
RTVSPropertyOp2
 70
     1
102
RTVSPropertyOp3
 70
     1
102
RTVSPropertyOp4
 70
     1
102
RTVSPropertyOp5
 70
     1
102
RTVSPropertyOp6
 70
     1
102
RTVSPropertyOp7
 70
     1
102
RTVSPropertyOp8
 70
     1
102
RTVSPropertyOp9
 70
     1
102
RTVSPropertyOp10
 70
     1
102
RTVSPropertyOp11
 70
     1
102
RTVSPropertyOp12
 70
     1
102
RTVSPropertyOp13
 70
     1
102
RTVSPropertyOp14
 70
     1
102
RTVSPropertyOp15
 70
     1
102
RTVSPropertyOp16
 70
     1
102
RTVSPropertyOp17
 70
     1
102
RTVSPropertyOp18
 70
     1
102
RTVSPropertyOp19
 70
     1
102
RTVSPropertyOp20
 70
     1
102
RTVSPropertyOp21
 70
     1
102
RTVSPropertyOp22
 70
     1
102
RTVSPropertyOp23
 70
     1
102
RTVSPropertyOp24
 70
     1
102
RTVSPropertyOp25
 70
     1
102
RTVSPropertyOp26
 70
     1
102
RTVSPropertyOp27
 70
     1
102
RTVSPropertyOp28
 70
     1
102
RTVSPropertyOp29
 70
     1
102
RTVSPropertyOp30
 70
     1
102
RTVSPropertyOp31
 70
     1
102
RTVSPropertyOp32
 70
     1
  0
XRECORD
  5
6121
102
{ACAD_REACTORS
330
6120
102
}
330
6120
100
AcDbXrecord
280
     1
102
RTVSPropertyOp0
 70
     1
102
RTVSPropertyOp1
 70
     1
102
RTVSPropertyOp2
 70
     1
102
RTVSPropertyOp3
 70
     1
102
RTVSPropertyOp4
 70
     1
102
RTVSPropertyOp5
 70
     1
102
RTVSPropertyOp6
 70
     1
102
RTVSPropertyOp7
 70
     1
102
RTVSPropertyOp8
 70
     1
102
RTVSPropertyOp9
 70
     1
102
RTVSPropertyOp10
 70
     1
102
RTVSPropertyOp11
 70
     1
102
RTVSPropertyOp12
 70
     1
102
RTVSPropertyOp13
 70
     1
102
RTVSPropertyOp14
 70
     1
102
RTVSPropertyOp15
 70
     1
102
RTVSPropertyOp16
 70
     1
102
RTVSPropertyOp17
 70
     1
102
RTVSPropertyOp18
 70
     1
102
RTVSPropertyOp19
 70
     1
102
RTVSPropertyOp20
 70
     1
102
RTVSPropertyOp21
 70
     1
102
RTVSPropertyOp22
 70
     1
102
RTVSPropertyOp23
 70
     1
102
RTVSPropertyOp24
 70
     1
102
RTVSPropertyOp25
 70
     1
102
RTVSPropertyOp26
 70
     1
102
RTVSPropertyOp27
 70
     1
102
RTVSPropertyOp28
 70
     1
102
RTVSPropertyOp29
 70
     1
102
RTVSPropertyOp30
 70
     1
102
RTVSPropertyOp31
 70
     1
102
RTVSPropertyOp32
 70
     1
  0
XRECORD
  5
6125
102
{ACAD_REACTORS
330
6124
102
}
330
6124
100
AcDbXrecord
280
     1
102
RTVSPropertyOp0
 70
     1
102
RTVSPropertyOp1
 70
     1
102
RTVSPropertyOp2
 70
     1
102
RTVSPropertyOp3
 70
     1
102
RTVSPropertyOp4
 70
     1
102
RTVSPropertyOp5
 70
     1
102
RTVSPropertyOp6
 70
     1
102
RTVSPropertyOp7
 70
     1
102
RTVSPropertyOp8
 70
     1
102
RTVSPropertyOp9
 70
     1
102
RTVSPropertyOp10
 70
     1
102
RTVSPropertyOp11
 70
     1
102
RTVSPropertyOp12
 70
     1
102
RTVSPropertyOp13
 70
     1
102
RTVSPropertyOp14
 70
     1
102
RTVSPropertyOp15
 70
     1
102
RTVSPropertyOp16
 70
     1
102
RTVSPropertyOp17
 70
     1
102
RTVSPropertyOp18
 70
     1
102
RTVSPropertyOp19
 70
     1
102
RTVSPropertyOp20
 70
     1
102
RTVSPropertyOp21
 70
     1
102
RTVSPropertyOp22
 70
     1
102
RTVSPropertyOp23
 70
     1
102
RTVSPropertyOp24
 70
     1
102
RTVSPropertyOp25
 70
     1
102
RTVSPropertyOp26
 70
     1
102
RTVSPropertyOp27
 70
     1
102
RTVSPropertyOp28
 70
     1
102
RTVSPropertyOp29
 70
     1
102
RTVSPropertyOp30
 70
     1
102
RTVSPropertyOp31
 70
     1
102
RTVSPropertyOp32
 70
     1
  0
XRECORD
  5
613F
102
{ACAD_REACTORS
330
613E
102
}
330
613E
100
AcDbXrecord
280
     1
102
RTVSPropertyOp0
 70
     0
102
RTVSPropertyOp1
 70
     0
102
RTVSPropertyOp2
 70
     0
102
RTVSPropertyOp3
 70
     0
102
RTVSPropertyOp4
 70
     0
102
RTVSPropertyOp5
 70
     0
102
RTVSPropertyOp6
 70
     0
102
RTVSPropertyOp7
 70
     0
102
RTVSPropertyOp8
 70
     0
102
RTVSPropertyOp9
 70
     0
102
RTVSPropertyOp10
 70
     0
102
RTVSPropertyOp11
 70
     0
102
RTVSPropertyOp12
 70
     0
102
RTVSPropertyOp13
 70
     0
102
RTVSPropertyOp14
 70
     2
102
RTVSPropertyOp15
 70
     0
102
RTVSPropertyOp16
 70
     0
102
RTVSPropertyOp17
 70
     0
102
RTVSPropertyOp18
 70
     0
102
RTVSPropertyOp19
 70
     0
102
RTVSPropertyOp20
 70
     0
102
RTVSPropertyOp21
 70
     0
102
RTVSPropertyOp22
 70
     0
102
RTVSPropertyOp23
 70
     0
102
RTVSPropertyOp24
 70
     0
102
RTVSPropertyOp25
 70
     0
102
RTVSPropertyOp26
 70
     0
102
RTVSPropertyOp27
 70
     0
102
RTVSPropertyOp28
 70
     1
102
RTVSPropertyOp29
 70
     1
102
RTVSPropertyOp30
 70
     1
102
RTVSPropertyOp31
 70
     1
102
RTVSPropertyOp32
 70
     1
  0
XRECORD
  5
612D
102
{ACAD_REACTORS
330
612C
102
}
330
612C
100
AcDbXrecord
280
     1
102
RTVSPropertyOp0
 70
     1
102
RTVSPropertyOp1
 70
     1
102
RTVSPropertyOp2
 70
     1
102
RTVSPropertyOp3
 70
     1
102
RTVSPropertyOp4
 70
     1
102
RTVSPropertyOp5
 70
     1
102
RTVSPropertyOp6
 70
     1
102
RTVSPropertyOp7
 70
     1
102
RTVSPropertyOp8
 70
     1
102
RTVSPropertyOp9
 70
     1
102
RTVSPropertyOp10
 70
     1
102
RTVSPropertyOp11
 70
     1
102
RTVSPropertyOp12
 70
     1
102
RTVSPropertyOp13
 70
     1
102
RTVSPropertyOp14
 70
     1
102
RTVSPropertyOp15
 70
     1
102
RTVSPropertyOp16
 70
     1
102
RTVSPropertyOp17
 70
     1
102
RTVSPropertyOp18
 70
     1
102
RTVSPropertyOp19
 70
     1
102
RTVSPropertyOp20
 70
     1
102
RTVSPropertyOp21
 70
     1
102
RTVSPropertyOp22
 70
     1
102
RTVSPropertyOp23
 70
     1
102
RTVSPropertyOp24
 70
     1
102
RTVSPropertyOp25
 70
     1
102
RTVSPropertyOp26
 70
     1
102
RTVSPropertyOp27
 70
     1
102
RTVSPropertyOp28
 70
     1
102
RTVSPropertyOp29
 70
     1
102
RTVSPropertyOp30
 70
     1
102
RTVSPropertyOp31
 70
     1
102
RTVSPropertyOp32
 70
     1
  0
XRECORD
  5
6111
102
{ACAD_REACTORS
330
6110
102
}
330
6110
100
AcDbXrecord
280
     1
102
RTVSPropertyOp0
 70
     1
102
RTVSPropertyOp1
 70
     1
102
RTVSPropertyOp2
 70
     1
102
RTVSPropertyOp3
 70
     1
102
RTVSPropertyOp4
 70
     1
102
RTVSPropertyOp5
 70
     1
102
RTVSPropertyOp6
 70
     1
102
RTVSPropertyOp7
 70
     1
102
RTVSPropertyOp8
 70
     1
102
RTVSPropertyOp9
 70
     1
102
RTVSPropertyOp10
 70
     1
102
RTVSPropertyOp11
 70
     1
102
RTVSPropertyOp12
 70
     1
102
RTVSPropertyOp13
 70
     1
102
RTVSPropertyOp14
 70
     1
102
RTVSPropertyOp15
 70
     1
102
RTVSPropertyOp16
 70
     1
102
RTVSPropertyOp17
 70
     1
102
RTVSPropertyOp18
 70
     1
102
RTVSPropertyOp19
 70
     1
102
RTVSPropertyOp20
 70
     1
102
RTVSPropertyOp21
 70
     1
102
RTVSPropertyOp22
 70
     1
102
RTVSPropertyOp23
 70
     1
102
RTVSPropertyOp24
 70
     1
102
RTVSPropertyOp25
 70
     1
102
RTVSPropertyOp26
 70
     1
102
RTVSPropertyOp27
 70
     1
102
RTVSPropertyOp28
 70
     1
102
RTVSPropertyOp29
 70
     1
102
RTVSPropertyOp30
 70
     1
102
RTVSPropertyOp31
 70
     1
102
RTVSPropertyOp32
 70
     1
  0
XRECORD
  5
6113
102
{ACAD_REACTORS
330
6112
102
}
330
6112
100
AcDbXrecord
280
     1
102
RTVSPropertyOp0
 70
     1
102
RTVSPropertyOp1
 70
     1
102
RTVSPropertyOp2
 70
     1
102
RTVSPropertyOp3
 70
     1
102
RTVSPropertyOp4
 70
     1
102
RTVSPropertyOp5
 70
     1
102
RTVSPropertyOp6
 70
     1
102
RTVSPropertyOp7
 70
     1
102
RTVSPropertyOp8
 70
     1
102
RTVSPropertyOp9
 70
     1
102
RTVSPropertyOp10
 70
     1
102
RTVSPropertyOp11
 70
     1
102
RTVSPropertyOp12
 70
     1
102
RTVSPropertyOp13
 70
     1
102
RTVSPropertyOp14
 70
     1
102
RTVSPropertyOp15
 70
     1
102
RTVSPropertyOp16
 70
     1
102
RTVSPropertyOp17
 70
     1
102
RTVSPropertyOp18
 70
     1
102
RTVSPropertyOp19
 70
     1
102
RTVSPropertyOp20
 70
     1
102
RTVSPropertyOp21
 70
     1
102
RTVSPropertyOp22
 70
     1
102
RTVSPropertyOp23
 70
     1
102
RTVSPropertyOp24
 70
     1
102
RTVSPropertyOp25
 70
     1
102
RTVSPropertyOp26
 70
     1
102
RTVSPropertyOp27
 70
     1
102
RTVSPropertyOp28
 70
     1
102
RTVSPropertyOp29
 70
     1
102
RTVSPropertyOp30
 70
     1
102
RTVSPropertyOp31
 70
     1
102
RTVSPropertyOp32
 70
     1
  0
XRECORD
  5
6115
102
{ACAD_REACTORS
330
6114
102
}
330
6114
100
AcDbXrecord
280
     1
102
RTVSPropertyOp0
 70
     1
102
RTVSPropertyOp1
 70
     1
102
RTVSPropertyOp2
 70
     1
102
RTVSPropertyOp3
 70
     1
102
RTVSPropertyOp4
 70
     1
102
RTVSPropertyOp5
 70
     1
102
RTVSPropertyOp6
 70
     1
102
RTVSPropertyOp7
 70
     1
102
RTVSPropertyOp8
 70
     1
102
RTVSPropertyOp9
 70
     1
102
RTVSPropertyOp10
 70
     1
102
RTVSPropertyOp11
 70
     1
102
RTVSPropertyOp12
 70
     1
102
RTVSPropertyOp13
 70
     1
102
RTVSPropertyOp14
 70
     1
102
RTVSPropertyOp15
 70
     1
102
RTVSPropertyOp16
 70
     1
102
RTVSPropertyOp17
 70
     1
102
RTVSPropertyOp18
 70
     1
102
RTVSPropertyOp19
 70
     1
102
RTVSPropertyOp20
 70
     1
102
RTVSPropertyOp21
 70
     1
102
RTVSPropertyOp22
 70
     1
102
RTVSPropertyOp23
 70
     1
102
RTVSPropertyOp24
 70
     1
102
RTVSPropertyOp25
 70
     1
102
RTVSPropertyOp26
 70
     1
102
RTVSPropertyOp27
 70
     1
102
RTVSPropertyOp28
 70
     1
102
RTVSPropertyOp29
 70
     1
102
RTVSPropertyOp30
 70
     1
102
RTVSPropertyOp31
 70
     1
102
RTVSPropertyOp32
 70
     1
  0
XRECORD
  5
6117
102
{ACAD_REACTORS
330
6116
102
}
330
6116
100
AcDbXrecord
280
     1
102
RTVSPropertyOp0
 70
     1
102
RTVSPropertyOp1
 70
     1
102
RTVSPropertyOp2
 70
     1
102
RTVSPropertyOp3
 70
     1
102
RTVSPropertyOp4
 70
     1
102
RTVSPropertyOp5
 70
     1
102
RTVSPropertyOp6
 70
     1
102
RTVSPropertyOp7
 70
     1
102
RTVSPropertyOp8
 70
     1
102
RTVSPropertyOp9
 70
     1
102
RTVSPropertyOp10
 70
     1
102
RTVSPropertyOp11
 70
     1
102
RTVSPropertyOp12
 70
     1
102
RTVSPropertyOp13
 70
     1
102
RTVSPropertyOp14
 70
     1
102
RTVSPropertyOp15
 70
     1
102
RTVSPropertyOp16
 70
     1
102
RTVSPropertyOp17
 70
     1
102
RTVSPropertyOp18
 70
     1
102
RTVSPropertyOp19
 70
     1
102
RTVSPropertyOp20
 70
     1
102
RTVSPropertyOp21
 70
     1
102
RTVSPropertyOp22
 70
     1
102
RTVSPropertyOp23
 70
     1
102
RTVSPropertyOp24
 70
     1
102
RTVSPropertyOp25
 70
     1
102
RTVSPropertyOp26
 70
     1
102
RTVSPropertyOp27
 70
     1
102
RTVSPropertyOp28
 70
     1
102
RTVSPropertyOp29
 70
     1
102
RTVSPropertyOp30
 70
     1
102
RTVSPropertyOp31
 70
     1
102
RTVSPropertyOp32
 70
     1
  0
XRECORD
  5
611F
102
{ACAD_REACTORS
330
611E
102
}
330
611E
100
AcDbXrecord
280
     1
102
RTVSPropertyOp0
 70
     1
102
RTVSPropertyOp1
 70
     1
102
RTVSPropertyOp2
 70
     1
102
RTVSPropertyOp3
 70
     1
102
RTVSPropertyOp4
 70
     1
102
RTVSPropertyOp5
 70
     1
102
RTVSPropertyOp6
 70
     1
102
RTVSPropertyOp7
 70
     1
102
RTVSPropertyOp8
 70
     1
102
RTVSPropertyOp9
 70
     1
102
RTVSPropertyOp10
 70
     1
102
RTVSPropertyOp11
 70
     1
102
RTVSPropertyOp12
 70
     1
102
RTVSPropertyOp13
 70
     1
102
RTVSPropertyOp14
 70
     1
102
RTVSPropertyOp15
 70
     1
102
RTVSPropertyOp16
 70
     1
102
RTVSPropertyOp17
 70
     1
102
RTVSPropertyOp18
 70
     1
102
RTVSPropertyOp19
 70
     1
102
RTVSPropertyOp20
 70
     1
102
RTVSPropertyOp21
 70
     1
102
RTVSPropertyOp22
 70
     1
102
RTVSPropertyOp23
 70
     1
102
RTVSPropertyOp24
 70
     1
102
RTVSPropertyOp25
 70
     1
102
RTVSPropertyOp26
 70
     1
102
RTVSPropertyOp27
 70
     1
102
RTVSPropertyOp28
 70
     1
102
RTVSPropertyOp29
 70
     1
102
RTVSPropertyOp30
 70
     1
102
RTVSPropertyOp31
 70
     1
102
RTVSPropertyOp32
 70
     1
  0
XRECORD
  5
613B
102
{ACAD_REACTORS
330
613A
102
}
330
613A
100
AcDbXrecord
280
     1
102
RTVSPropertyOp0
 70
     0
102
RTVSPropertyOp1
 70
     0
102
RTVSPropertyOp2
 70
     0
102
RTVSPropertyOp3
 70
     0
102
RTVSPropertyOp4
 70
     0
102
RTVSPropertyOp5
 70
     0
102
RTVSPropertyOp6
 70
     0
102
RTVSPropertyOp7
 70
     0
102
RTVSPropertyOp8
 70
     0
102
RTVSPropertyOp9
 70
     0
102
RTVSPropertyOp10
 70
     0
102
RTVSPropertyOp11
 70
     0
102
RTVSPropertyOp12
 70
     0
102
RTVSPropertyOp13
 70
     0
102
RTVSPropertyOp14
 70
     2
102
RTVSPropertyOp15
 70
     0
102
RTVSPropertyOp16
 70
     0
102
RTVSPropertyOp17
 70
     0
102
RTVSPropertyOp18
 70
     0
102
RTVSPropertyOp19
 70
     0
102
RTVSPropertyOp20
 70
     0
102
RTVSPropertyOp21
 70
     0
102
RTVSPropertyOp22
 70
     0
102
RTVSPropertyOp23
 70
     0
102
RTVSPropertyOp24
 70
     0
102
RTVSPropertyOp25
 70
     0
102
RTVSPropertyOp26
 70
     0
102
RTVSPropertyOp27
 70
     0
102
RTVSPropertyOp28
 70
     1
102
RTVSPropertyOp29
 70
     1
102
RTVSPropertyOp30
 70
     1
102
RTVSPropertyOp31
 70
     1
102
RTVSPropertyOp32
 70
     1
  0
XRECORD
  5
612B
102
{ACAD_REACTORS
330
612A
102
}
330
612A
100
AcDbXrecord
280
     1
102
RTVSPropertyOp0
 70
     1
102
RTVSPropertyOp1
 70
     1
102
RTVSPropertyOp2
 70
     1
102
RTVSPropertyOp3
 70
     1
102
RTVSPropertyOp4
 70
     1
102
RTVSPropertyOp5
 70
     1
102
RTVSPropertyOp6
 70
     1
102
RTVSPropertyOp7
 70
     1
102
RTVSPropertyOp8
 70
     1
102
RTVSPropertyOp9
 70
     1
102
RTVSPropertyOp10
 70
     1
102
RTVSPropertyOp11
 70
     1
102
RTVSPropertyOp12
 70
     1
102
RTVSPropertyOp13
 70
     1
102
RTVSPropertyOp14
 70
     1
102
RTVSPropertyOp15
 70
     1
102
RTVSPropertyOp16
 70
     1
102
RTVSPropertyOp17
 70
     1
102
RTVSPropertyOp18
 70
     1
102
RTVSPropertyOp19
 70
     1
102
RTVSPropertyOp20
 70
     1
102
RTVSPropertyOp21
 70
     1
102
RTVSPropertyOp22
 70
     1
102
RTVSPropertyOp23
 70
     1
102
RTVSPropertyOp24
 70
     1
102
RTVSPropertyOp25
 70
     1
102
RTVSPropertyOp26
 70
     1
102
RTVSPropertyOp27
 70
     1
102
RTVSPropertyOp28
 70
     1
102
RTVSPropertyOp29
 70
     1
102
RTVSPropertyOp30
 70
     1
102
RTVSPropertyOp31
 70
     1
102
RTVSPropertyOp32
 70
     1
  0
XRECORD
  5
613D
102
{ACAD_REACTORS
330
613C
102
}
330
613C
100
AcDbXrecord
280
     1
102
RTVSPropertyOp0
 70
     0
102
RTVSPropertyOp1
 70
     0
102
RTVSPropertyOp2
 70
     0
102
RTVSPropertyOp3
 70
     0
102
RTVSPropertyOp4
 70
     0
102
RTVSPropertyOp5
 70
     0
102
RTVSPropertyOp6
 70
     0
102
RTVSPropertyOp7
 70
     0
102
RTVSPropertyOp8
 70
     0
102
RTVSPropertyOp9
 70
     0
102
RTVSPropertyOp10
 70
     0
102
RTVSPropertyOp11
 70
     0
102
RTVSPropertyOp12
 70
     0
102
RTVSPropertyOp13
 70
     0
102
RTVSPropertyOp14
 70
     2
102
RTVSPropertyOp15
 70
     0
102
RTVSPropertyOp16
 70
     0
102
RTVSPropertyOp17
 70
     0
102
RTVSPropertyOp18
 70
     0
102
RTVSPropertyOp19
 70
     0
102
RTVSPropertyOp20
 70
     0
102
RTVSPropertyOp21
 70
     0
102
RTVSPropertyOp22
 70
     0
102
RTVSPropertyOp23
 70
     0
102
RTVSPropertyOp24
 70
     0
102
RTVSPropertyOp25
 70
     0
102
RTVSPropertyOp26
 70
     0
102
RTVSPropertyOp27
 70
     0
102
RTVSPropertyOp28
 70
     1
102
RTVSPropertyOp29
 70
     1
102
RTVSPropertyOp30
 70
     1
102
RTVSPropertyOp31
 70
     1
102
RTVSPropertyOp32
 70
     1
  0
XRECORD
  5
6123
102
{ACAD_REACTORS
330
6122
102
}
330
6122
100
AcDbXrecord
280
     1
102
RTVSPropertyOp0
 70
     1
102
RTVSPropertyOp1
 70
     1
102
RTVSPropertyOp2
 70
     1
102
RTVSPropertyOp3
 70
     1
102
RTVSPropertyOp4
 70
     1
102
RTVSPropertyOp5
 70
     1
102
RTVSPropertyOp6
 70
     1
102
RTVSPropertyOp7
 70
     1
102
RTVSPropertyOp8
 70
     1
102
RTVSPropertyOp9
 70
     1
102
RTVSPropertyOp10
 70
     1
102
RTVSPropertyOp11
 70
     1
102
RTVSPropertyOp12
 70
     1
102
RTVSPropertyOp13
 70
     1
102
RTVSPropertyOp14
 70
     1
102
RTVSPropertyOp15
 70
     1
102
RTVSPropertyOp16
 70
     1
102
RTVSPropertyOp17
 70
     1
102
RTVSPropertyOp18
 70
     1
102
RTVSPropertyOp19
 70
     1
102
RTVSPropertyOp20
 70
     1
102
RTVSPropertyOp21
 70
     1
102
RTVSPropertyOp22
 70
     1
102
RTVSPropertyOp23
 70
     1
102
RTVSPropertyOp24
 70
     1
102
RTVSPropertyOp25
 70
     1
102
RTVSPropertyOp26
 70
     1
102
RTVSPropertyOp27
 70
     1
102
RTVSPropertyOp28
 70
     1
102
RTVSPropertyOp29
 70
     1
102
RTVSPropertyOp30
 70
     1
102
RTVSPropertyOp31
 70
     1
102
RTVSPropertyOp32
 70
     1
  0
XRECORD
  5
6139
102
{ACAD_REACTORS
330
6138
102
}
330
6138
100
AcDbXrecord
280
     1
102
RTVSPropertyOp0
 70
     1
102
RTVSPropertyOp1
 70
     1
102
RTVSPropertyOp2
 70
     1
102
RTVSPropertyOp3
 70
     1
102
RTVSPropertyOp4
 70
     1
102
RTVSPropertyOp5
 70
     1
102
RTVSPropertyOp6
 70
     1
102
RTVSPropertyOp7
 70
     1
102
RTVSPropertyOp8
 70
     1
102
RTVSPropertyOp9
 70
     1
102
RTVSPropertyOp10
 70
     1
102
RTVSPropertyOp11
 70
     1
102
RTVSPropertyOp12
 70
     1
102
RTVSPropertyOp13
 70
     1
102
RTVSPropertyOp14
 70
     1
102
RTVSPropertyOp15
 70
     1
102
RTVSPropertyOp16
 70
     1
102
RTVSPropertyOp17
 70
     1
102
RTVSPropertyOp18
 70
     1
102
RTVSPropertyOp19
 70
     1
102
RTVSPropertyOp20
 70
     1
102
RTVSPropertyOp21
 70
     1
102
RTVSPropertyOp22
 70
     1
102
RTVSPropertyOp23
 70
     1
102
RTVSPropertyOp24
 70
     1
102
RTVSPropertyOp25
 70
     1
102
RTVSPropertyOp26
 70
     1
102
RTVSPropertyOp27
 70
     1
102
RTVSPropertyOp28
 70
     1
102
RTVSPropertyOp29
 70
     1
102
RTVSPropertyOp30
 70
     1
102
RTVSPropertyOp31
 70
     1
102
RTVSPropertyOp32
 70
     1
  0
XRECORD
  5
6137
102
{ACAD_REACTORS
330
6136
102
}
330
6136
100
AcDbXrecord
280
     1
102
RTVSPropertyOp0
 70
     1
102
RTVSPropertyOp1
 70
     1
102
RTVSPropertyOp2
 70
     1
102
RTVSPropertyOp3
 70
     1
102
RTVSPropertyOp4
 70
     1
102
RTVSPropertyOp5
 70
     1
102
RTVSPropertyOp6
 70
     1
102
RTVSPropertyOp7
 70
     1
102
RTVSPropertyOp8
 70
     1
102
RTVSPropertyOp9
 70
     1
102
RTVSPropertyOp10
 70
     1
102
RTVSPropertyOp11
 70
     1
102
RTVSPropertyOp12
 70
     1
102
RTVSPropertyOp13
 70
     1
102
RTVSPropertyOp14
 70
     1
102
RTVSPropertyOp15
 70
     1
102
RTVSPropertyOp16
 70
     1
102
RTVSPropertyOp17
 70
     1
102
RTVSPropertyOp18
 70
     1
102
RTVSPropertyOp19
 70
     1
102
RTVSPropertyOp20
 70
     1
102
RTVSPropertyOp21
 70
     1
102
RTVSPropertyOp22
 70
     1
102
RTVSPropertyOp23
 70
     1
102
RTVSPropertyOp24
 70
     1
102
RTVSPropertyOp25
 70
     1
102
RTVSPropertyOp26
 70
     1
102
RTVSPropertyOp27
 70
     1
102
RTVSPropertyOp28
 70
     1
102
RTVSPropertyOp29
 70
     1
102
RTVSPropertyOp30
 70
     1
102
RTVSPropertyOp31
 70
     1
102
RTVSPropertyOp32
 70
     1
  0
XRECORD
  5
6131
102
{ACAD_REACTORS
330
6130
102
}
330
6130
100
AcDbXrecord
280
     1
102
RTVSPropertyOp0
 70
     1
102
RTVSPropertyOp1
 70
     1
102
RTVSPropertyOp2
 70
     1
102
RTVSPropertyOp3
 70
     1
102
RTVSPropertyOp4
 70
     1
102
RTVSPropertyOp5
 70
     1
102
RTVSPropertyOp6
 70
     1
102
RTVSPropertyOp7
 70
     1
102
RTVSPropertyOp8
 70
     1
102
RTVSPropertyOp9
 70
     1
102
RTVSPropertyOp10
 70
     1
102
RTVSPropertyOp11
 70
     1
102
RTVSPropertyOp12
 70
     1
102
RTVSPropertyOp13
 70
     1
102
RTVSPropertyOp14
 70
     1
102
RTVSPropertyOp15
 70
     1
102
RTVSPropertyOp16
 70
     1
102
RTVSPropertyOp17
 70
     1
102
RTVSPropertyOp18
 70
     1
102
RTVSPropertyOp19
 70
     1
102
RTVSPropertyOp20
 70
     1
102
RTVSPropertyOp21
 70
     1
102
RTVSPropertyOp22
 70
     1
102
RTVSPropertyOp23
 70
     1
102
RTVSPropertyOp24
 70
     1
102
RTVSPropertyOp25
 70
     1
102
RTVSPropertyOp26
 70
     1
102
RTVSPropertyOp27
 70
     1
102
RTVSPropertyOp28
 70
     1
102
RTVSPropertyOp29
 70
     1
102
RTVSPropertyOp30
 70
     1
102
RTVSPropertyOp31
 70
     1
102
RTVSPropertyOp32
 70
     1
  0
XRECORD
  5
6133
102
{ACAD_REACTORS
330
6132
102
}
330
6132
100
AcDbXrecord
280
     1
102
RTVSPropertyOp0
 70
     1
102
RTVSPropertyOp1
 70
     1
102
RTVSPropertyOp2
 70
     1
102
RTVSPropertyOp3
 70
     1
102
RTVSPropertyOp4
 70
     1
102
RTVSPropertyOp5
 70
     1
102
RTVSPropertyOp6
 70
     1
102
RTVSPropertyOp7
 70
     1
102
RTVSPropertyOp8
 70
     1
102
RTVSPropertyOp9
 70
     1
102
RTVSPropertyOp10
 70
     1
102
RTVSPropertyOp11
 70
     1
102
RTVSPropertyOp12
 70
     1
102
RTVSPropertyOp13
 70
     1
102
RTVSPropertyOp14
 70
     1
102
RTVSPropertyOp15
 70
     1
102
RTVSPropertyOp16
 70
     1
102
RTVSPropertyOp17
 70
     1
102
RTVSPropertyOp18
 70
     1
102
RTVSPropertyOp19
 70
     1
102
RTVSPropertyOp20
 70
     1
102
RTVSPropertyOp21
 70
     1
102
RTVSPropertyOp22
 70
     1
102
RTVSPropertyOp23
 70
     1
102
RTVSPropertyOp24
 70
     1
102
RTVSPropertyOp25
 70
     1
102
RTVSPropertyOp26
 70
     1
102
RTVSPropertyOp27
 70
     1
102
RTVSPropertyOp28
 70
     1
102
RTVSPropertyOp29
 70
     1
102
RTVSPropertyOp30
 70
     1
102
RTVSPropertyOp31
 70
     1
102
RTVSPropertyOp32
 70
     1
  0
XRECORD
  5
6129
102
{ACAD_REACTORS
330
6128
102
}
330
6128
100
AcDbXrecord
280
     1
102
RTVSPropertyOp0
 70
     1
102
RTVSPropertyOp1
 70
     1
102
RTVSPropertyOp2
 70
     1
102
RTVSPropertyOp3
 70
     1
102
RTVSPropertyOp4
 70
     1
102
RTVSPropertyOp5
 70
     1
102
RTVSPropertyOp6
 70
     1
102
RTVSPropertyOp7
 70
     1
102
RTVSPropertyOp8
 70
     1
102
RTVSPropertyOp9
 70
     1
102
RTVSPropertyOp10
 70
     1
102
RTVSPropertyOp11
 70
     1
102
RTVSPropertyOp12
 70
     1
102
RTVSPropertyOp13
 70
     1
102
RTVSPropertyOp14
 70
     1
102
RTVSPropertyOp15
 70
     1
102
RTVSPropertyOp16
 70
     1
102
RTVSPropertyOp17
 70
     1
102
RTVSPropertyOp18
 70
     1
102
RTVSPropertyOp19
 70
     1
102
RTVSPropertyOp20
 70
     1
102
RTVSPropertyOp21
 70
     1
102
RTVSPropertyOp22
 70
     1
102
RTVSPropertyOp23
 70
     1
102
RTVSPropertyOp24
 70
     1
102
RTVSPropertyOp25
 70
     1
102
RTVSPropertyOp26
 70
     1
102
RTVSPropertyOp27
 70
     1
102
RTVSPropertyOp28
 70
     1
102
RTVSPropertyOp29
 70
     1
102
RTVSPropertyOp30
 70
     1
102
RTVSPropertyOp31
 70
     1
102
RTVSPropertyOp32
 70
     1
  0
XRECORD
  5
611D
102
{ACAD_REACTORS
330
611C
102
}
330
611C
100
AcDbXrecord
280
     1
102
RTVSPropertyOp0
 70
     1
102
RTVSPropertyOp1
 70
     1
102
RTVSPropertyOp2
 70
     1
102
RTVSPropertyOp3
 70
     1
102
RTVSPropertyOp4
 70
     1
102
RTVSPropertyOp5
 70
     1
102
RTVSPropertyOp6
 70
     1
102
RTVSPropertyOp7
 70
     1
102
RTVSPropertyOp8
 70
     1
102
RTVSPropertyOp9
 70
     1
102
RTVSPropertyOp10
 70
     1
102
RTVSPropertyOp11
 70
     1
102
RTVSPropertyOp12
 70
     1
102
RTVSPropertyOp13
 70
     1
102
RTVSPropertyOp14
 70
     1
102
RTVSPropertyOp15
 70
     1
102
RTVSPropertyOp16
 70
     1
102
RTVSPropertyOp17
 70
     1
102
RTVSPropertyOp18
 70
     1
102
RTVSPropertyOp19
 70
     1
102
RTVSPropertyOp20
 70
     1
102
RTVSPropertyOp21
 70
     1
102
RTVSPropertyOp22
 70
     1
102
RTVSPropertyOp23
 70
     1
102
RTVSPropertyOp24
 70
     1
102
RTVSPropertyOp25
 70
     1
102
RTVSPropertyOp26
 70
     1
102
RTVSPropertyOp27
 70
     1
102
RTVSPropertyOp28
 70
     1
102
RTVSPropertyOp29
 70
     1
102
RTVSPropertyOp30
 70
     1
102
RTVSPropertyOp31
 70
     1
102
RTVSPropertyOp32
 70
     1
  0
XRECORD
  5
6135
102
{ACAD_REACTORS
330
6134
102
}
330
6134
100
AcDbXrecord
280
     1
102
RTVSPropertyOp0
 70
     1
102
RTVSPropertyOp1
 70
     1
102
RTVSPropertyOp2
 70
     1
102
RTVSPropertyOp3
 70
     1
102
RTVSPropertyOp4
 70
     1
102
RTVSPropertyOp5
 70
     1
102
RTVSPropertyOp6
 70
     1
102
RTVSPropertyOp7
 70
     1
102
RTVSPropertyOp8
 70
     1
102
RTVSPropertyOp9
 70
     1
102
RTVSPropertyOp10
 70
     1
102
RTVSPropertyOp11
 70
     1
102
RTVSPropertyOp12
 70
     1
102
RTVSPropertyOp13
 70
     1
102
RTVSPropertyOp14
 70
     1
102
RTVSPropertyOp15
 70
     1
102
RTVSPropertyOp16
 70
     1
102
RTVSPropertyOp17
 70
     1
102
RTVSPropertyOp18
 70
     1
102
RTVSPropertyOp19
 70
     1
102
RTVSPropertyOp20
 70
     1
102
RTVSPropertyOp21
 70
     1
102
RTVSPropertyOp22
 70
     1
102
RTVSPropertyOp23
 70
     1
102
RTVSPropertyOp24
 70
     1
102
RTVSPropertyOp25
 70
     1
102
RTVSPropertyOp26
 70
     1
102
RTVSPropertyOp27
 70
     1
102
RTVSPropertyOp28
 70
     1
102
RTVSPropertyOp29
 70
     1
102
RTVSPropertyOp30
 70
     1
102
RTVSPropertyOp31
 70
     1
102
RTVSPropertyOp32
 70
     1
  0
ENDSEC
  0
EOF
