  0
SECTION
  2
HEADER
  9
$ACADVER
  1
AC1015
  9
$ACADMAINTVER
 70
    20
  9
$DWGCODEPAGE
  3
ANSI_932
  9
$INSBASE
 10
0.0
 20
0.0
 30
0.0
  9
$EXTMIN
 10
82.60787856108981
 20
88.77324353683434
 30
-0.0000000000000058
  9
$EXTMAX
 10
4282.99237657324
 20
3059.045138559715
 30
0.0000000000000104
  9
$LIMMIN
 10
82.80008844952817
 20
88.90916338651733
  9
$LIMMAX
 10
502.8000884495281
 20
385.9091633865173
  9
$ORTHOMODE
 70
     0
  9
$REGENMODE
 70
     1
  9
$FILLMODE
 70
     1
  9
$QTEXTMODE
 70
     0
  9
$MIRRTEXT
 70
     0
  9
$LTSCALE
 40
1.0
  9
$ATTMODE
 70
     1
  9
$TEXTSIZE
 40
2.5
  9
$TRACEWID
 40
1.0
  9
$TEXTSTYLE
  7
Standard
  9
$CLAYER
  8
0
  9
$CELTYPE
  6
ByLayer
  9
$CECOLOR
 62
   256
  9
$CELTSCALE
 40
1.0
  9
$DISPSILH
 70
     0
  9
$DIMSCALE
 40
1.0
  9
$DIMASZ
 40
2.5
  9
$DIMEXO
 40
0.625
  9
$DIMDLI
 40
3.75
  9
$DIMRND
 40
0.0
  9
$DIMDLE
 40
0.0
  9
$DIMEXE
 40
1.25
  9
$DIMTP
 40
0.0
  9
$DIMTM
 40
0.0
  9
$DIMTXT
 40
2.5
  9
$DIMCEN
 40
2.5
  9
$DIMTSZ
 40
0.0
  9
$DIMTOL
 70
     0
  9
$DIMLIM
 70
     0
  9
$DIMTIH
 70
     0
  9
$DIMTOH
 70
     0
  9
$DIMSE1
 70
     0
  9
$DIMSE2
 70
     0
  9
$DIMTAD
 70
     2
  9
$DIMZIN
 70
     8
  9
$DIMBLK
  1

  9
$DIMASO
 70
     1
  9
$DIMSHO
 70
     1
  9
$DIMPOST
  1

  9
$DIMAPOST
  1

  9
$DIMALT
 70
     0
  9
$DIMALTD
 70
     3
  9
$DIMALTF
 40
0.03937007874016
  9
$DIMLFAC
 40
1.0
  9
$DIMTOFL
 70
     1
  9
$DIMTVP
 40
0.0
  9
$DIMTIX
 70
     0
  9
$DIMSOXD
 70
     0
  9
$DIMSAH
 70
     0
  9
$DIMBLK1
  1

  9
$DIMBLK2
  1

  9
$DIMSTYLE
  2
ISO-25
  9
$DIMCLRD
 70
     0
  9
$DIMCLRE
 70
     0
  9
$DIMCLRT
 70
     0
  9
$DIMTFAC
 40
1.0
  9
$DIMGAP
 40
0.625
  9
$DIMJUST
 70
     0
  9
$DIMSD1
 70
     0
  9
$DIMSD2
 70
     0
  9
$DIMTOLJ
 70
     0
  9
$DIMTZIN
 70
     8
  9
$DIMALTZ
 70
     0
  9
$DIMALTTZ
 70
     0
  9
$DIMUPT
 70
     0
  9
$DIMDEC
 70
     2
  9
$DIMTDEC
 70
     2
  9
$DIMALTU
 70
     2
  9
$DIMALTTD
 70
     3
  9
$DIMTXSTY
  7
Standard
  9
$DIMAUNIT
 70
     0
  9
$DIMADEC
 70
     0
  9
$DIMALTRND
 40
0.0
  9
$DIMAZIN
 70
     0
  9
$DIMDSEP
 70
    44
  9
$DIMATFIT
 70
     3
  9
$DIMFRAC
 70
     0
  9
$DIMLDRBLK
  1

  9
$DIMLUNIT
 70
     2
  9
$DIMLWD
 70
    -2
  9
$DIMLWE
 70
    -2
  9
$DIMTMOVE
 70
     0
  9
$LUNITS
 70
     2
  9
$LUPREC
 70
     4
  9
$SKETCHINC
 40
1.0
  9
$FILLETRAD
 40
0.0
  9
$AUNITS
 70
     0
  9
$AUPREC
 70
     0
  9
$MENU
  1
.
  9
$ELEVATION
 40
0.0
  9
$PELEVATION
 40
0.0
  9
$THICKNESS
 40
0.0
  9
$LIMCHECK
 70
     0
  9
$CHAMFERA
 40
0.0
  9
$CHAMFERB
 40
0.0
  9
$CHAMFERC
 40
0.0
  9
$CHAMFERD
 40
0.0
  9
$SKPOLY
 70
     0
  9
$TDCREATE
 40
2454427.395492431
  9
$TDUCREATE
 40
2454427.020492431
  9
$TDUPDATE
 40
2457014.698437037
  9
$TDUUPDATE
 40
2457014.323437037
  9
$TDINDWG
 40
0.2643254398
  9
$TDUSRTIMER
 40
0.2643254398
  9
$USRTIMER
 70
     1
  9
$ANGBASE
 50
0.0
  9
$ANGDIR
 70
     0
  9
$PDMODE
 70
     0
  9
$PDSIZE
 40
0.0
  9
$PLINEWID
 40
0.0
  9
$SPLFRAME
 70
     0
  9
$SPLINETYPE
 70
     6
  9
$SPLINESEGS
 70
     8
  9
$HANDSEED
  5
626B
  9
$SURFTAB1
 70
     6
  9
$SURFTAB2
 70
     6
  9
$SURFTYPE
 70
     6
  9
$SURFU
 70
     6
  9
$SURFV
 70
     6
  9
$UCSBASE
  2

  9
$UCSNAME
  2

  9
$UCSORG
 10
0.0
 20
0.0
 30
0.0
  9
$UCSXDIR
 10
1.0
 20
0.0
 30
0.0
  9
$UCSYDIR
 10
0.0
 20
1.0
 30
0.0
  9
$UCSORTHOREF
  2

  9
$UCSORTHOVIEW
 70
     0
  9
$UCSORGTOP
 10
0.0
 20
0.0
 30
0.0
  9
$UCSORGBOTTOM
 10
0.0
 20
0.0
 30
0.0
  9
$UCSORGLEFT
 10
0.0
 20
0.0
 30
0.0
  9
$UCSORGRIGHT
 10
0.0
 20
0.0
 30
0.0
  9
$UCSORGFRONT
 10
0.0
 20
0.0
 30
0.0
  9
$UCSORGBACK
 10
0.0
 20
0.0
 30
0.0
  9
$PUCSBASE
  2

  9
$PUCSNAME
  2

  9
$PUCSORG
 10
0.0
 20
0.0
 30
0.0
  9
$PUCSXDIR
 10
1.0
 20
0.0
 30
0.0
  9
$PUCSYDIR
 10
0.0
 20
1.0
 30
0.0
  9
$PUCSORTHOREF
  2

  9
$PUCSORTHOVIEW
 70
     0
  9
$PUCSORGTOP
 10
0.0
 20
0.0
 30
0.0
  9
$PUCSORGBOTTOM
 10
0.0
 20
0.0
 30
0.0
  9
$PUCSORGLEFT
 10
0.0
 20
0.0
 30
0.0
  9
$PUCSORGRIGHT
 10
0.0
 20
0.0
 30
0.0
  9
$PUCSORGFRONT
 10
0.0
 20
0.0
 30
0.0
  9
$PUCSORGBACK
 10
0.0
 20
0.0
 30
0.0
  9
$USERI1
 70
     0
  9
$USERI2
 70
     0
  9
$USERI3
 70
     0
  9
$USERI4
 70
     0
  9
$USERI5
 70
     0
  9
$USERR1
 40
0.0
  9
$USERR2
 40
0.0
  9
$USERR3
 40
0.0
  9
$USERR4
 40
0.0
  9
$USERR5
 40
0.0
  9
$WORLDVIEW
 70
     1
  9
$SHADEDGE
 70
     3
  9
$SHADEDIF
 70
    70
  9
$TILEMODE
 70
     1
  9
$MAXACTVP
 70
    64
  9
$PINSBASE
 10
0.0
 20
0.0
 30
0.0
  9
$PLIMCHECK
 70
     0
  9
$PEXTMIN
 10
0.0
 20
0.0
 30
0.0
  9
$PEXTMAX
 10
0.0
 20
0.0
 30
0.0
  9
$PLIMMIN
 10
0.0
 20
0.0
  9
$PLIMMAX
 10
12.0
 20
9.0
  9
$UNITMODE
 70
     0
  9
$VISRETAIN
 70
     1
  9
$PLINEGEN
 70
     0
  9
$PSLTSCALE
 70
     1
  9
$TREEDEPTH
 70
  3020
  9
$CMLSTYLE
  2
Standard
  9
$CMLJUST
 70
     0
  9
$CMLSCALE
 40
20.0
  9
$PROXYGRAPHICS
 70
     1
  9
$MEASUREMENT
 70
     1
  9
$CELWEIGHT
370
    -1
  9
$ENDCAPS
280
     0
  9
$JOINSTYLE
280
     0
  9
$LWDISPLAY
290
     0
  9
$INSUNITS
 70
     4
  9
$HYPERLINKBASE
  1

  9
$STYLESHEET
  1
monochrome.ctb
  9
$XEDIT
290
     1
  9
$CEPSNTYPE
380
     0
  9
$PSTYLEMODE
290
     1
  9
$FINGERPRINTGUID
  2
{4ECE4D8E-F13A-40A1-9A46-5F0BA8809353}
  9
$VERSIONGUID
  2
{D1ABB0A3-C683-455D-BAD5-9A98E772A278}
  9
$EXTNAMES
290
     1
  9
$PSVPSCALE
 40
0.0
  9
$OLESTARTUP
290
     0
  0
ENDSEC
  0
SECTION
  2
CLASSES
  0
CLASS
  1
ACDBDICTIONARYWDFLT
  2
AcDbDictionaryWithDefault
  3
ObjectDBX Classes
 90
        0
280
     0
281
     0
  0
CLASS
  1
DICTIONARYVAR
  2
AcDbDictionaryVar
  3
ObjectDBX Classes
 90
        0
280
     0
281
     0
  0
CLASS
  1
TABLESTYLE
  2
AcDbTableStyle
  3
ObjectDBX Classes
 90
     4095
280
     0
281
     0
  0
CLASS
  1
SORTENTSTABLE
  2
AcDbSortentsTable
  3
ObjectDBX Classes
 90
        0
280
     0
281
     0
  0
CLASS
  1
DIMASSOC
  2
AcDbDimAssoc
  3
"AcDbDimAssoc|Product Desc:     AcDim ARX App For Dimension|Company:          Autodesk, Inc.|WEB Address:      www.autodesk.com"
 90
        0
280
     0
281
     0
  0
CLASS
  1
MATERIAL
  2
AcDbMaterial
  3
ObjectDBX Classes
 90
     1153
280
     0
281
     0
  0
CLASS
  1
VISUALSTYLE
  2
AcDbVisualStyle
  3
ObjectDBX Classes
 90
     4095
280
     0
281
     0
  0
CLASS
  1
SCALE
  2
AcDbScale
  3
ObjectDBX Classes
 90
     1153
280
     0
281
     0
  0
CLASS
  1
MLEADERSTYLE
  2
AcDbMLeaderStyle
  3
ACDB_MLEADERSTYLE_CLASS
 90
     4095
280
     0
281
     0
  0
CLASS
  1
CELLSTYLEMAP
  2
AcDbCellStyleMap
  3
ObjectDBX Classes
 90
     1152
280
     0
281
     0
  0
CLASS
  1
ACDBPLACEHOLDER
  2
AcDbPlaceHolder
  3
ObjectDBX Classes
 90
        0
280
     0
281
     0
  0
CLASS
  1
LAYOUT
  2
AcDbLayout
  3
ObjectDBX Classes
 90
        0
280
     0
281
     0
  0
ENDSEC
  0
SECTION
  2
TABLES
  0
TABLE
  2
VPORT
  5
8
330
0
100
AcDbSymbolTable
 70
     1
  0
VPORT
  5
6190
330
8
100
AcDbSymbolTableRecord
100
AcDbViewportTableRecord
  2
*Active
 70
     0
 10
0.0
 20
0.0
 11
1.0
 21
1.0
 12
2182.800127567166
 22
1573.909191048274
 13
0.0
 23
0.0
 14
10.0
 24
10.0
 15
10.0
 25
10.0
 16
0.0
 26
0.0
 36
1.0
 17
0.0
 27
0.0
 37
0.0
 40
2993.386851404381
 41
1.633766233766233
 42
50.0
 43
0.0
 44
0.0
 50
0.0
 51
0.0
 71
     0
 72
  1000
 73
     1
 74
     3
 75
     0
 76
     0
 77
     0
 78
     0
281
     0
 65
     1
110
0.0
120
0.0
130
0.0
111
1.0
121
0.0
131
0.0
112
0.0
122
1.0
132
0.0
 79
     0
146
0.0
1001
ACAD_NAV_VCDISPLAY
1070
     3
  0
ENDTAB
  0
TABLE
  2
LTYPE
  5
5
330
0
100
AcDbSymbolTable
 70
     4
  0
LTYPE
  5
14
330
5
100
AcDbSymbolTableRecord
100
AcDbLinetypeTableRecord
  2
ByBlock
 70
     0
  3

 72
    65
 73
     0
 40
0.0
  0
LTYPE
  5
15
330
5
100
AcDbSymbolTableRecord
100
AcDbLinetypeTableRecord
  2
ByLayer
 70
     0
  3

 72
    65
 73
     0
 40
0.0
  0
LTYPE
  5
16
330
5
100
AcDbSymbolTableRecord
100
AcDbLinetypeTableRecord
  2
Continuous
 70
     0
  3
Solid line
 72
    65
 73
     0
 40
0.0
  0
LTYPE
  5
14E
330
5
100
AcDbSymbolTableRecord
100
AcDbLinetypeTableRecord
  2
CENTER
 70
     0
  3
Center ____ _ ____ _ ____ _ ____ _ ____ _ ____
 72
    65
 73
     4
 40
50.8
 49
31.75
 74
     0
 49
-6.349999999999999
 74
     0
 49
6.349999999999999
 74
     0
 49
-6.349999999999999
 74
     0
  0
LTYPE
  5
1A6
330
5
100
AcDbSymbolTableRecord
100
AcDbLinetypeTableRecord
  2
DASHED
 70
     0
  3
Dashed __ __ __ __ __ __ __ __ __ __ __ __ __ _
 72
    65
 73
     2
 40
19.05
 49
12.7
 74
     0
 49
-6.349999999999999
 74
     0
  0
LTYPE
  5
1CC
330
5
100
AcDbSymbolTableRecord
100
AcDbLinetypeTableRecord
  2
FENCELINE1
 70
     0
  3
Fenceline circle ----0-----0----0-----0----0---
 72
    65
 73
     4
 40
36.83
 49
6.349999999999999
 74
     0
 49
-2.54
 74
     4
 75
   133
340
14D
 46
2.54
 50
0.0
 44
-2.54
 45
0.0
 49
-2.54
 74
     0
 49
25.4
 74
     0
  0
ENDTAB
  0
TABLE
  2
LAYER
  5
2
102
{ACAD_XDICTIONARY
360
101
102
}
330
0
100
AcDbSymbolTable
 70
    13
  0
LAYER
  5
10
102
{ACAD_XDICTIONARY
360
61E0
102
}
330
2
100
AcDbSymbolTableRecord
100
AcDbLayerTableRecord
  2
0
 70
     0
 62
     6
  6
Continuous
370
    -3
390
F
  0
LAYER
  5
FC
102
{ACAD_XDICTIONARY
360
61E2
102
}
330
2
100
AcDbSymbolTableRecord
100
AcDbLayerTableRecord
  2
題
 70
     0
 62
     7
  6
Continuous
370
    -3
390
F
1001
AcAecLayerStandard
1000

1000

  0
LAYER
  5
FD
330
2
100
AcDbSymbolTableRecord
100
AcDbLayerTableRecord
  2
DEFPOINTS
 70
     0
 62
     1
  6
Continuous
290
     0
370
    -3
390
F
1001
AcAecLayerStandard
1000

1000

  0
LAYER
  5
FE
102
{ACAD_XDICTIONARY
360
61E4
102
}
330
2
100
AcDbSymbolTableRecord
100
AcDbLayerTableRecord
  2
マーク
 70
     0
 62
   160
  6
Continuous
370
    -3
390
F
  0
LAYER
  5
FF
102
{ACAD_XDICTIONARY
360
61E6
102
}
330
2
100
AcDbSymbolTableRecord
100
AcDbLayerTableRecord
  2
図
 70
     0
 62
     7
  6
Continuous
370
    -3
390
F
1001
AcAecLayerStandard
1000

1000

  0
LAYER
  5
14B
102
{ACAD_XDICTIONARY
360
61E8
102
}
330
2
100
AcDbSymbolTableRecord
100
AcDbLayerTableRecord
  2
センター
 70
     0
 62
     4
  6
CENTER
370
    15
390
F
1001
AcAecLayerStandard
1000

1000

  0
LAYER
  5
14F
102
{ACAD_XDICTIONARY
360
61EA
102
}
330
2
100
AcDbSymbolTableRecord
100
AcDbLayerTableRecord
  2
補助
 70
     0
 62
     2
  6
Continuous
370
     9
390
F
1001
AcAecLayerStandard
1000

1000

  0
LAYER
  5
1A4
102
{ACAD_XDICTIONARY
360
61EC
102
}
330
2
100
AcDbSymbolTableRecord
100
AcDbLayerTableRecord
  2
寸法
 70
     0
 62
     7
  6
Continuous
370
    15
390
F
1001
AcAecLayerStandard
1000

1000

  0
LAYER
  5
1A5
102
{ACAD_XDICTIONARY
360
61EE
102
}
330
2
100
AcDbSymbolTableRecord
100
AcDbLayerTableRecord
  2
影
 70
     0
 62
   160
  6
DASHED
370
    15
390
F
1001
AcAecLayerStandard
1000

1000

  0
LAYER
  5
1747
102
{ACAD_XDICTIONARY
360
61F0
102
}
330
2
100
AcDbSymbolTableRecord
100
AcDbLayerTableRecord
  2
図文字
 70
     0
 62
     7
  6
Continuous
370
    -3
390
F
1001
AcAecLayerStandard
1000

1000

  0
LAYER
  5
49BB
102
{ACAD_XDICTIONARY
360
61F2
102
}
330
2
100
AcDbSymbolTableRecord
100
AcDbLayerTableRecord
  2
全体文字
 70
     0
 62
     7
  6
Continuous
370
    -3
390
F
1001
AcAecLayerStandard
1000

1000

  0
LAYER
  5
49BC
102
{ACAD_XDICTIONARY
360
61F4
102
}
330
2
100
AcDbSymbolTableRecord
100
AcDbLayerTableRecord
  2
鉄筋D
 70
     0
 62
     3
  6
FENCELINE1
370
     9
390
F
1001
AcAecLayerStandard
1000

1000

  0
LAYER
  5
49BD
102
{ACAD_XDICTIONARY
360
61F6
102
}
330
2
100
AcDbSymbolTableRecord
100
AcDbLayerTableRecord
  2
鉄筋\U+03C6
 70
     0
 62
     3
  6
Continuous
370
     9
390
F
1001
AcAecLayerStandard
1000

1000

  0
ENDTAB
  0
TABLE
  2
STYLE
  5
3
330
0
100
AcDbSymbolTable
 70
     2
  0
STYLE
  5
11
330
3
100
AcDbSymbolTableRecord
100
AcDbTextStyleTableRecord
  2
Standard
 70
     0
 40
0.0
 41
1.0
 50
0.0
 71
     0
 42
2.5
  3
txt.shx
  4
extfont2.shx
  0
STYLE
  5
14D
330
3
100
AcDbSymbolTableRecord
100
AcDbTextStyleTableRecord
  2

 70
     1
 40
0.0
 41
1.0
 50
0.0
 71
     0
 42
2.5
  3
ltypeshp.shx
  4

  0
ENDTAB
  0
TABLE
  2
VIEW
  5
6
330
0
100
AcDbSymbolTable
 70
     0
  0
ENDTAB
  0
TABLE
  2
UCS
  5
7
330
0
100
AcDbSymbolTable
 70
     0
  0
ENDTAB
  0
TABLE
  2
APPID
  5
9
330
0
100
AcDbSymbolTable
 70
    14
  0
APPID
  5
12
330
9
100
AcDbSymbolTableRecord
100
AcDbRegAppTableRecord
  2
ACAD
 70
     0
  0
APPID
  5
9E
330
9
100
AcDbSymbolTableRecord
100
AcDbRegAppTableRecord
  2
ACAD_PSEXT
 70
     0
  0
APPID
  5
100
330
9
100
AcDbSymbolTableRecord
100
AcDbRegAppTableRecord
  2
AcAecLayerStandard
 70
     0
  0
APPID
  5
1B6
330
9
100
AcDbSymbolTableRecord
100
AcDbRegAppTableRecord
  2
ACAD_EXEMPT_FROM_CAD_STANDARDS
 70
     0
  0
APPID
  5
E2E
330
9
100
AcDbSymbolTableRecord
100
AcDbRegAppTableRecord
  2
ACAD_DSTYLE_DIMTEXT_FILL
 70
     0
  0
APPID
  5
E2F
330
9
100
AcDbSymbolTableRecord
100
AcDbRegAppTableRecord
  2
ACAD_DSTYLE_DIMEXT_LENGTH
 70
     0
  0
APPID
  5
E30
330
9
100
AcDbSymbolTableRecord
100
AcDbRegAppTableRecord
  2
ACAD_DSTYLE_DIMEXT_ENABLED
 70
     0
  0
APPID
  5
E31
330
9
100
AcDbSymbolTableRecord
100
AcDbRegAppTableRecord
  2
ACAD_DSTYLE_DIM_LINETYPE
 70
     0
  0
APPID
  5
E32
330
9
100
AcDbSymbolTableRecord
100
AcDbRegAppTableRecord
  2
ACAD_DSTYLE_DIM_EXT1_LINETYPE
 70
     0
  0
APPID
  5
E33
330
9
100
AcDbSymbolTableRecord
100
AcDbRegAppTableRecord
  2
ACAD_DSTYLE_DIM_EXT2_LINETYPE
 70
     0
  0
APPID
  5
EEF
330
9
100
AcDbSymbolTableRecord
100
AcDbRegAppTableRecord
  2
ACAD_DSTYLE_DIMJOGGED_JOGANGLE_SYMBOL
 70
     0
  0
APPID
  5
F53
330
9
100
AcDbSymbolTableRecord
100
AcDbRegAppTableRecord
  2
ACAD_DSTYLE_DIMARC_LENGTH_SYMBOL
 70
     0
  0
APPID
  5
6201
330
9
100
AcDbSymbolTableRecord
100
AcDbRegAppTableRecord
  2
ACAD_NAV_VCDISPLAY
 70
     0
  0
APPID
  5
626A
330
9
100
AcDbSymbolTableRecord
100
AcDbRegAppTableRecord
  2
ACAD_MLEADERVER
 70
     0
  0
ENDTAB
  0
TABLE
  2
DIMSTYLE
  5
A
330
0
100
AcDbSymbolTable
 70
     1
100
AcDbDimStyleTable
 71
     1
340
27
  0
DIMSTYLE
105
27
102
{ACAD_REACTORS
330
5B48
330
5B4B
330
5B4E
330
5B51
330
5B52
330
5B55
330
5B58
330
5B5B
330
5B5E
330
5B61
330
5B64
330
5B67
330
5B6A
330
5B6D
330
5B6E
330
5B6F
330
5B72
330
5B75
330
5B78
330
5B79
330
5B7C
330
5B7F
330
5B89
330
5B8C
330
5B8F
330
5B92
330
5B93
330
5B94
330
5B97
330
5B9A
330
5B9D
330
5BA0
330
5BA3
330
5BA6
330
5BA9
330
5BAC
330
5BAF
330
5BD4
330
5BDB
330
5BE9
330
5BEC
330
5BED
330
5BEE
330
5BEF
330
5BF0
330
5BF1
330
5BF2
330
5C5D
102
}
330
A
100
AcDbSymbolTableRecord
100
AcDbDimStyleTableRecord
  2
ISO-25
 70
     0
 41
2.5
 42
0.625
 43
3.75
 44
1.25
 73
     0
 74
     0
 77
     2
 78
     8
140
2.5
141
2.5
143
0.03937007874016
147
0.625
171
     3
172
     1
271
     2
272
     2
274
     3
278
    44
283
     0
284
     8
340
11
1001
ACAD_DSTYLE_DIMEXT_LENGTH
1070
   378
1040
1.25
1001
ACAD_DSTYLE_DIMJOGGED_JOGANGLE_SYMBOL
1070
   384
1040
1.570796326794896
  0
ENDTAB
  0
TABLE
  2
BLOCK_RECORD
  5
1
330
0
100
AcDbSymbolTable
 70
    52
  0
BLOCK_RECORD
  5
1F
102
{ACAD_XDICTIONARY
360
C0A
102
}
330
1
100
AcDbSymbolTableRecord
100
AcDbBlockTableRecord
  2
*Model_Space
340
22
  0
BLOCK_RECORD
  5
D2
330
1
100
AcDbSymbolTableRecord
100
AcDbBlockTableRecord
  2
*Paper_Space
340
D3
  0
BLOCK_RECORD
  5
D6
330
1
100
AcDbSymbolTableRecord
100
AcDbBlockTableRecord
  2
*Paper_Space0
340
D7
  0
BLOCK_RECORD
  5
F3
330
1
100
AcDbSymbolTableRecord
100
AcDbBlockTableRecord
  2
AI9-BLK1
340
0
102
{BLKREFS
331
123
102
}
  0
BLOCK_RECORD
  5
F7
330
1
100
AcDbSymbolTableRecord
100
AcDbBlockTableRecord
  2
AI9-BLK2
340
0
102
{BLKREFS
331
F5
102
}
  0
BLOCK_RECORD
  5
10D7
330
1
100
AcDbSymbolTableRecord
100
AcDbBlockTableRecord
  2
_Open30
340
0
  0
BLOCK_RECORD
  5
5C78
330
1
100
AcDbSymbolTableRecord
100
AcDbBlockTableRecord
  2
*D4
340
0
  0
BLOCK_RECORD
  5
5C84
330
1
100
AcDbSymbolTableRecord
100
AcDbBlockTableRecord
  2
*D5
340
0
  0
BLOCK_RECORD
  5
5C92
330
1
100
AcDbSymbolTableRecord
100
AcDbBlockTableRecord
  2
*D6
340
0
  0
BLOCK_RECORD
  5
5C9E
330
1
100
AcDbSymbolTableRecord
100
AcDbBlockTableRecord
  2
*D7
340
0
  0
BLOCK_RECORD
  5
5CAA
330
1
100
AcDbSymbolTableRecord
100
AcDbBlockTableRecord
  2
*D8
340
0
  0
BLOCK_RECORD
  5
5CB6
330
1
100
AcDbSymbolTableRecord
100
AcDbBlockTableRecord
  2
*D9
340
0
  0
BLOCK_RECORD
  5
5CC4
330
1
100
AcDbSymbolTableRecord
100
AcDbBlockTableRecord
  2
*D10
340
0
  0
BLOCK_RECORD
  5
5CD1
330
1
100
AcDbSymbolTableRecord
100
AcDbBlockTableRecord
  2
*D11
340
0
  0
BLOCK_RECORD
  5
5CDD
330
1
100
AcDbSymbolTableRecord
100
AcDbBlockTableRecord
  2
*D12
340
0
  0
BLOCK_RECORD
  5
5CE9
330
1
100
AcDbSymbolTableRecord
100
AcDbBlockTableRecord
  2
*D13
340
0
  0
BLOCK_RECORD
  5
5CF7
330
1
100
AcDbSymbolTableRecord
100
AcDbBlockTableRecord
  2
*D14
340
0
  0
BLOCK_RECORD
  5
5D03
330
1
100
AcDbSymbolTableRecord
100
AcDbBlockTableRecord
  2
*D15
340
0
  0
BLOCK_RECORD
  5
5D0F
330
1
100
AcDbSymbolTableRecord
100
AcDbBlockTableRecord
  2
*D16
340
0
  0
BLOCK_RECORD
  5
5D1D
330
1
100
AcDbSymbolTableRecord
100
AcDbBlockTableRecord
  2
*D17
340
0
  0
BLOCK_RECORD
  5
5DD1
330
1
100
AcDbSymbolTableRecord
100
AcDbBlockTableRecord
  2
*D18
340
0
  0
BLOCK_RECORD
  5
5E01
330
1
100
AcDbSymbolTableRecord
100
AcDbBlockTableRecord
  2
*D19
340
0
  0
BLOCK_RECORD
  5
5E0D
330
1
100
AcDbSymbolTableRecord
100
AcDbBlockTableRecord
  2
*D20
340
0
  0
BLOCK_RECORD
  5
5E19
330
1
100
AcDbSymbolTableRecord
100
AcDbBlockTableRecord
  2
*D21
340
0
  0
BLOCK_RECORD
  5
5E2E
330
1
100
AcDbSymbolTableRecord
100
AcDbBlockTableRecord
  2
*D22
340
0
  0
BLOCK_RECORD
  5
5E3A
330
1
100
AcDbSymbolTableRecord
100
AcDbBlockTableRecord
  2
*D23
340
0
  0
BLOCK_RECORD
  5
5E48
330
1
100
AcDbSymbolTableRecord
100
AcDbBlockTableRecord
  2
*D24
340
0
  0
BLOCK_RECORD
  5
5E54
330
1
100
AcDbSymbolTableRecord
100
AcDbBlockTableRecord
  2
*D25
340
0
  0
BLOCK_RECORD
  5
5E60
330
1
100
AcDbSymbolTableRecord
100
AcDbBlockTableRecord
  2
*D26
340
0
  0
BLOCK_RECORD
  5
5E79
330
1
100
AcDbSymbolTableRecord
100
AcDbBlockTableRecord
  2
*D27
340
0
  0
BLOCK_RECORD
  5
5E85
330
1
100
AcDbSymbolTableRecord
100
AcDbBlockTableRecord
  2
*D28
340
0
  0
BLOCK_RECORD
  5
5E91
330
1
100
AcDbSymbolTableRecord
100
AcDbBlockTableRecord
  2
*D29
340
0
  0
BLOCK_RECORD
  5
5EAF
330
1
100
AcDbSymbolTableRecord
100
AcDbBlockTableRecord
  2
*D30
340
0
  0
BLOCK_RECORD
  5
5EBB
330
1
100
AcDbSymbolTableRecord
100
AcDbBlockTableRecord
  2
*D31
340
0
  0
BLOCK_RECORD
  5
5EC7
330
1
100
AcDbSymbolTableRecord
100
AcDbBlockTableRecord
  2
*D32
340
0
  0
BLOCK_RECORD
  5
5EDC
330
1
100
AcDbSymbolTableRecord
100
AcDbBlockTableRecord
  2
*D33
340
0
  0
BLOCK_RECORD
  5
5EE9
330
1
100
AcDbSymbolTableRecord
100
AcDbBlockTableRecord
  2
*D34
340
0
  0
BLOCK_RECORD
  5
5EF7
330
1
100
AcDbSymbolTableRecord
100
AcDbBlockTableRecord
  2
*D35
340
0
  0
BLOCK_RECORD
  5
5F04
330
1
100
AcDbSymbolTableRecord
100
AcDbBlockTableRecord
  2
*D36
340
0
  0
BLOCK_RECORD
  5
5F10
330
1
100
AcDbSymbolTableRecord
100
AcDbBlockTableRecord
  2
*D37
340
0
  0
BLOCK_RECORD
  5
5F1E
330
1
100
AcDbSymbolTableRecord
100
AcDbBlockTableRecord
  2
*D38
340
0
  0
BLOCK_RECORD
  5
5F40
330
1
100
AcDbSymbolTableRecord
100
AcDbBlockTableRecord
  2
*D39
340
0
  0
BLOCK_RECORD
  5
5F4D
330
1
100
AcDbSymbolTableRecord
100
AcDbBlockTableRecord
  2
*D40
340
0
  0
BLOCK_RECORD
  5
5F59
330
1
100
AcDbSymbolTableRecord
100
AcDbBlockTableRecord
  2
*D41
340
0
  0
BLOCK_RECORD
  5
5F66
330
1
100
AcDbSymbolTableRecord
100
AcDbBlockTableRecord
  2
*D42
340
0
  0
BLOCK_RECORD
  5
5F74
330
1
100
AcDbSymbolTableRecord
100
AcDbBlockTableRecord
  2
*D43
340
0
  0
BLOCK_RECORD
  5
5F81
330
1
100
AcDbSymbolTableRecord
100
AcDbBlockTableRecord
  2
*D44
340
0
  0
BLOCK_RECORD
  5
5F8D
330
1
100
AcDbSymbolTableRecord
100
AcDbBlockTableRecord
  2
*D45
340
0
  0
BLOCK_RECORD
  5
5F9B
330
1
100
AcDbSymbolTableRecord
100
AcDbBlockTableRecord
  2
*D46
340
0
  0
BLOCK_RECORD
  5
5FA7
330
1
100
AcDbSymbolTableRecord
100
AcDbBlockTableRecord
  2
*D47
340
0
  0
BLOCK_RECORD
  5
5FB3
330
1
100
AcDbSymbolTableRecord
100
AcDbBlockTableRecord
  2
*D48
340
0
  0
BLOCK_RECORD
  5
5FBF
330
1
100
AcDbSymbolTableRecord
100
AcDbBlockTableRecord
  2
*D49
340
0
  0
BLOCK_RECORD
  5
5FCB
330
1
100
AcDbSymbolTableRecord
100
AcDbBlockTableRecord
  2
*D50
340
0
  0
BLOCK_RECORD
  5
5FD7
330
1
100
AcDbSymbolTableRecord
100
AcDbBlockTableRecord
  2
*D51
340
0
  0
ENDTAB
  0
ENDSEC
  0
SECTION
  2
BLOCKS
  0
BLOCK
  5
20
330
1F
100
AcDbEntity
  8
0
100
AcDbBlockBegin
  2
*Model_Space
 70
     0
 10
0.0
 20
0.0
 30
0.0
  3
*Model_Space
  1

  0
ENDBLK
  5
21
330
1F
100
AcDbEntity
  8
0
100
AcDbBlockEnd
  0
BLOCK
  5
D4
330
D2
100
AcDbEntity
 67
     1
  8
0
100
AcDbBlockBegin
  2
*Paper_Space
 70
     0
 10
0.0
 20
0.0
 30
0.0
  3
*Paper_Space
  1

  0
ENDBLK
  5
D5
330
D2
100
AcDbEntity
 67
     1
  8
0
100
AcDbBlockEnd
  0
BLOCK
  5
D8
330
D6
100
AcDbEntity
 67
     1
  8
0
100
AcDbBlockBegin
  2
*Paper_Space0
 70
     0
 10
0.0
 20
0.0
 30
0.0
  3
*Paper_Space0
  1

  0
ENDBLK
  5
D9
330
D6
100
AcDbEntity
 67
     1
  8
0
100
AcDbBlockEnd
  0
BLOCK
  5
F4
330
F3
100
AcDbEntity
  8
マーク
 62
     7
100
AcDbBlockBegin
  2
AI9-BLK1
 70
     0
 10
0.0
 20
0.0
 30
0.0
  3
AI9-BLK1
  1

  0
INSERT
  5
F5
330
F3
100
AcDbEntity
  8
マーク
 62
     7
100
AcDbBlockReference
  2
AI9-BLK2
 10
0.0
 20
0.0
 30
0.0
  0
ENDBLK
  5
F6
330
F3
100
AcDbEntity
  8
マーク
100
AcDbBlockEnd
  0
BLOCK
  5
F8
330
F7
100
AcDbEntity
  8
マーク
 62
     7
100
AcDbBlockBegin
  2
AI9-BLK2
 70
     0
 10
0.0
 20
0.0
 30
0.0
  3
AI9-BLK2
  1

  0
HATCH
  5
F9
330
F7
100
AcDbEntity
  8
マーク
 62
     7
100
AcDbHatch
 10
0.0
 20
0.0
 30
0.0
210
0.0
220
0.0
230
1.0
  2
SOLID
 70
     1
 71
     0
 91
        1
 92
        1
 93
        1
 72
     4
 94
        3
 73
     0
 74
     0
 95
       59
 96
       55
 40
0.0
 40
0.0
 40
0.0
 40
0.0
 40
1.0
 40
1.0
 40
1.0
 40
2.0
 40
2.0
 40
2.0
 40
3.0
 40
3.0
 40
3.0
 40
4.0
 40
4.0
 40
4.0
 40
5.0
 40
5.0
 40
5.0
 40
6.0
 40
6.0
 40
6.0
 40
7.0
 40
7.0
 40
7.0
 40
8.0
 40
8.0
 40
8.0
 40
9.0
 40
9.0
 40
9.0
 40
10.0
 40
10.0
 40
10.0
 40
11.0
 40
11.0
 40
11.0
 40
12.0
 40
12.0
 40
12.0
 40
13.0
 40
13.0
 40
13.0
 40
14.0
 40
14.0
 40
14.0
 40
15.0
 40
15.0
 40
15.0
 40
16.0
 40
16.0
 40
16.0
 40
17.0
 40
17.0
 40
17.0
 40
18.0
 40
18.0
 40
18.0
 40
18.0
 10
19.11183946397569
 20
10.62743055555555
 10
19.11183946397569
 20
10.62743055555555
 10
19.13285454644097
 20
10.66274278428819
 10
19.13285454644097
 20
10.66274278428819
 10
19.61275634765625
 20
10.33804253472222
 10
20.1877427842882
 20
10.15114610460069
 10
20.80854899088542
 20
10.15114610460069
 10
22.46667344835069
 20
10.15114610460069
 10
23.81060519748264
 20
11.49525010850694
 10
23.81060519748264
 20
13.1497572157118
 10
23.81060519748264
 20
14.20102810329861
 10
23.26731363932291
 20
15.12879231770833
 10
22.44910346137153
 20
15.66502143012153
 10
22.44910346137153
 20
15.66502143012153
 10
22.45599365234375
 20
15.67914632161458
 10
22.45599365234375
 20
15.67914632161458
 10
22.45599365234375
 20
15.67914632161458
 10
-18.13102077907986
 20
42.28561876085069
 10
-18.13102077907986
 20
42.28561876085069
 10
-12.56770833333333
 20
44.67754855685764
 10
-6.436471896701387
 20
46.0004652235243
 10
0.0017225477430556
 20
46.0004652235243
 10
25.40533989800347
 20
46.0004652235243
 10
46.0004652235243
 20
25.40533989800347
 10
46.0004652235243
 20
0.0017225477430556
 10
46.0004652235243
 20
-14.73036702473958
 10
39.07547878689236
 20
-27.84308946397569
 10
28.30507676866319
 20
-36.26393636067708
 10
28.30507676866319
 20
-36.26393636067708
 10
1.067118326822916
 20
-19.00607503255208
 10
1.067118326822916
 20
-19.00607503255208
 10
1.416451009114583
 20
-18.86482611762152
 10
1.761994086371527
 20
-18.72357720269097
 10
2.107881673177083
 20
-18.57922770182291
 10
5.145077853732638
 20
-17.27732611762152
 10
7.381978352864583
 20
-15.23817409939236
 10
8.923314073350693
 20
-12.3032972547743
 10
10.4367445203993
 20
-9.410450575086803
 10
11.01896565755208
 20
-6.288160536024305
 10
10.21832546657986
 20
-3.092145453559027
 10
9.308131239149304
 20
0.53795166015625
 10
7.399548339843748
 20
3.974089898003471
 10
5.371076117621527
 20
6.95495876736111
 10
4.340992567274304
 20
8.468389214409722
 10
3.278869628906249
 20
10.03470187717014
 10
2.926091851128472
 20
11.85147298177083
 10
2.552298990885416
 20
13.76005588107639
 10
3.416673448350694
 20
16.33888210720486
 10
5.554355197482638
 20
16.90336100260416
 10
7.286549207899304
 20
17.35845811631944
 10
9.106937662760415
 20
16.76228434244791
 10
10.6909925672743
 20
16.05311143663194
 10
10.6909925672743
 20
16.05311143663194
 10
19.11183946397569
 20
10.62743055555555
 10
19.11183946397569
 20
10.62743055555555
 97
        0
 75
     2
 76
     1
 98
        1
 10
0.0
 20
0.0
  0
HATCH
  5
FA
330
F7
100
AcDbEntity
  8
マーク
 62
     7
100
AcDbHatch
 10
0.0
 20
0.0
 30
0.0
210
0.0
220
0.0
230
1.0
  2
SOLID
 70
     1
 71
     0
 91
        1
 92
        1
 93
        1
 72
     4
 94
        3
 73
     0
 74
     0
 95
       68
 96
       64
 40
0.0
 40
0.0
 40
0.0
 40
0.0
 40
1.0
 40
1.0
 40
1.0
 40
2.0
 40
2.0
 40
2.0
 40
3.0
 40
3.0
 40
3.0
 40
4.0
 40
4.0
 40
4.0
 40
5.0
 40
5.0
 40
5.0
 40
6.0
 40
6.0
 40
6.0
 40
7.0
 40
7.0
 40
7.0
 40
8.0
 40
8.0
 40
8.0
 40
9.0
 40
9.0
 40
9.0
 40
10.0
 40
10.0
 40
10.0
 40
11.0
 40
11.0
 40
11.0
 40
12.0
 40
12.0
 40
12.0
 40
13.0
 40
13.0
 40
13.0
 40
14.0
 40
14.0
 40
14.0
 40
15.0
 40
15.0
 40
15.0
 40
16.0
 40
16.0
 40
16.0
 40
17.0
 40
17.0
 40
17.0
 40
18.0
 40
18.0
 40
18.0
 40
19.0
 40
19.0
 40
19.0
 40
20.0
 40
20.0
 40
20.0
 40
21.0
 40
21.0
 40
21.0
 40
21.0
 10
-23.28161078559027
 20
-10.57454833984375
 10
-23.28161078559027
 20
-10.57454833984375
 10
22.7522718641493
 20
-39.98911810980903
 10
22.7522718641493
 20
-39.98911810980903
 10
16.0426038953993
 20
-43.81696370442708
 10
8.278047688802082
 20
-46.0004652235243
 10
0.0017225477430556
 20
-46.0004652235243
 10
-25.40533989800347
 20
-46.0004652235243
 10
-46.0004652235243
 20
-25.40533989800347
 10
-46.0004652235243
 20
0.0017225477430556
 10
-46.0004652235243
 20
16.32820231119791
 10
-37.49504123263888
 20
30.66875678168403
 10
-24.6715345594618
 20
38.8319105360243
 10
-24.6715345594618
 20
38.8319105360243
 10
-0.4709445529513889
 20
23.24268120659722
 10
-0.4709445529513889
 20
23.24268120659722
 10
-0.4709445529513889
 20
23.24268120659722
 10
-0.5345065646701388
 20
23.14397922092014
 10
-0.5345065646701388
 20
23.14397922092014
 10
-2.495971679687499
 20
22.2654798719618
 10
-4.446756998697916
 20
21.18251410590278
 10
-5.77673611111111
 20
19.44325764973958
 10
-7.515992567274304
 20
17.1679443359375
 10
-7.216097005208332
 20
14.03514675564236
 10
-6.394097222222221
 20
11.46700032552083
 10
-5.882672797309027
 20
9.868992784288193
 10
-5.145250108506943
 20
8.344882541232637
 10
-4.309297688802082
 20
6.89139675564236
 10
-3.501422797309027
 20
5.487348090277777
 10
-2.591228569878472
 20
4.15047878689236
 10
-1.677589246961805
 20
2.816882324218749
 10
-0.7250203450520833
 20
1.434020996093749
 10
0.2451185438368055
 20
0.0475423177083333
 10
1.028188747829861
 20
-1.441255696614583
 10
1.811603461371527
 20
-2.926436360677083
 10
2.421729871961805
 20
-4.549076334635416
 10
2.488909233940971
 20
-6.242340766059027
 10
2.555744086371527
 20
-7.847410753038193
 10
2.097201877170138
 20
-9.456270345052082
 10
1.084688313802083
 20
-10.71924235026041
 10
0.0687296549479167
 20
-11.98221435546875
 10
-1.413005913628472
 20
-12.77940945095486
 10
-3.003951009114583
 20
-13.04054768880208
 10
-4.732527669270832
 20
-13.31925591362847
 10
-6.475229220920137
 20
-12.97336832682291
 10
-8.143861219618054
 20
-12.51482611762152
 10
-8.588450792100694
 20
-12.39493679470486
 10
-9.025805664062499
 20
-12.25713297526041
 10
-9.470395236545137
 20
-12.13379855685764
 10
-9.470395236545137
 20
-12.13379855685764
 10
-9.558589680989582
 20
-12.27504747178819
 10
-9.558589680989582
 20
-12.27504747178819
 10
-9.558589680989582
 20
-12.27504747178819
 10
-19.96553412543402
 20
-5.684924316406249
 10
-19.96553412543402
 20
-5.684924316406249
 10
-20.50520833333333
 20
-5.159547254774304
 10
-21.24263102213542
 20
-4.838464355468749
 10
-22.05395100911458
 20
-4.838464355468749
 10
-23.70845811631944
 20
-4.838464355468749
 10
-25.05256212022569
 20
-6.182396104600694
 10
-25.05256212022569
 20
-7.840520562065971
 10
-25.05256212022569
 20
-9.057672797309026
 10
-24.32581922743056
 20
-10.10532633463541
 10
-23.28161078559027
 20
-10.57454833984375
 97
        0
 75
     2
 76
     1
 98
        1
 10
0.0
 20
0.0
  0
ENDBLK
  5
FB
330
F7
100
AcDbEntity
  8
マーク
100
AcDbBlockEnd
  0
BLOCK
  5
10DB
330
10D7
100
AcDbEntity
  8
0
100
AcDbBlockBegin
  2
_Open30
 70
     0
 10
0.0
 20
0.0
 30
0.0
  3
_Open30
  1

  0
LINE
  5
10D8
330
10D7
100
AcDbEntity
  8
0
  6
ByBlock
 62
     0
370
    -2
100
AcDbLine
 10
-1.0
 20
0.26794919
 30
0.0
 11
0.0
 21
0.0
 31
0.0
  0
LINE
  5
10D9
330
10D7
100
AcDbEntity
  8
0
  6
ByBlock
 62
     0
370
    -2
100
AcDbLine
 10
0.0
 20
0.0
 30
0.0
 11
-1.0
 21
-0.26794919
 31
0.0
  0
LINE
  5
10DA
330
10D7
100
AcDbEntity
  8
0
  6
ByBlock
 62
     0
370
    -2
100
AcDbLine
 10
0.0
 20
0.0
 30
0.0
 11
-1.0
 21
0.0
 31
0.0
  0
ENDBLK
  5
10DC
330
10D7
100
AcDbEntity
  8
0
100
AcDbBlockEnd
  0
BLOCK
  5
5C82
330
5C78
100
AcDbEntity
  8
0
100
AcDbBlockBegin
  2
*D4
 70
     1
 10
0.0
 20
0.0
 30
0.0
  3
*D4
  1

  0
LINE
  5
5E25
330
5C78
100
AcDbEntity
  8
寸法
 62
     0
370
    -2
100
AcDbLine
 10
825.8000884495281
 20
2568.909163386517
 30
0.0
 11
825.8000884495281
 21
2594.24438039825
 31
0.0
  0
LINE
  5
5E26
330
5C78
100
AcDbEntity
  8
寸法
 62
     0
370
    -2
100
AcDbLine
 10
782.8000884495281
 20
2568.909163386517
 30
0.0
 11
782.8000884495281
 21
2594.24438039825
 31
0.0
  0
LINE
  5
5E27
330
5C78
100
AcDbEntity
  8
寸法
 62
     0
370
    -2
100
AcDbLine
 10
815.8000884495281
 20
2589.24438039825
 30
0.0
 11
792.8000884495282
 21
2589.24438039825
 31
0.0
  0
SOLID
  5
5E28
330
5C78
100
AcDbEntity
  8
寸法
 62
     0
100
AcDbTrace
 10
815.8000884495281
 20
2590.911047064917
 30
0.0
 11
815.8000884495281
 21
2587.577713731584
 31
0.0
 12
825.8000884495281
 22
2589.24438039825
 32
0.0
 13
825.8000884495281
 23
2589.24438039825
 33
0.0
  0
SOLID
  5
5E29
330
5C78
100
AcDbEntity
  8
寸法
 62
     0
100
AcDbTrace
 10
792.8000884495282
 20
2590.911047064917
 30
0.0
 11
792.8000884495282
 21
2587.577713731584
 31
0.0
 12
782.8000884495281
 22
2589.24438039825
 32
0.0
 13
782.8000884495281
 23
2589.24438039825
 33
0.0
  0
MTEXT
  5
5E2A
330
5C78
100
AcDbEntity
  8
寸法
 62
     0
100
AcDbMText
 10
804.3000884495281
 20
2609.24438039825
 30
0.0
 40
20.0
 41
0.0
 71
     5
 72
     1
  1
43
 73
     1
 44
1.0
1001
ACAD
1000
MTEXTBEGIN
1070
    73
1070
     1
1070
    44
1040
1.0
1070
    74
1070
     0
1000
MTEXTEND
  0
POINT
  5
5E2B
330
5C78
100
AcDbEntity
  8
DEFPOINTS
 62
     0
100
AcDbPoint
 10
825.8000884495281
 20
2538.909163386517
 30
0.0
  0
POINT
  5
5E2C
330
5C78
100
AcDbEntity
  8
DEFPOINTS
 62
     0
100
AcDbPoint
 10
782.8000884495281
 20
2538.909163386517
 30
0.0
  0
POINT
  5
5E2D
330
5C78
100
AcDbEntity
  8
DEFPOINTS
 62
     0
100
AcDbPoint
 10
782.8000884495281
 20
2589.24438039825
 30
0.0
  0
ENDBLK
  5
5C83
330
5C78
100
AcDbEntity
  8
0
100
AcDbBlockEnd
  0
BLOCK
  5
5C90
330
5C84
100
AcDbEntity
  8
0
100
AcDbBlockBegin
  2
*D5
 70
     1
 10
0.0
 20
0.0
 30
0.0
  3
*D5
  1

  0
LINE
  5
5E6E
330
5C84
100
AcDbEntity
  8
寸法
 62
     0
370
    -2
100
AcDbLine
 10
2165.800088449528
 20
2204.909163386517
 30
0.0
 11
2165.800088449528
 21
2078.211708221491
 31
0.0
  0
LINE
  5
5E6F
330
5C84
100
AcDbEntity
  8
寸法
 62
     0
370
    -2
100
AcDbLine
 10
2160.800088449528
 20
2108.909163386517
 30
0.0
 11
2160.800088449528
 21
2078.211708221491
 31
0.0
  0
LINE
  5
5E70
330
5C84
100
AcDbEntity
  8
寸法
 62
     0
370
    -2
100
AcDbLine
 10
2175.800088449528
 20
2083.21170822149
 30
0.0
 11
2185.800088449528
 21
2083.21170822149
 31
0.0
  0
LINE
  5
5E71
330
5C84
100
AcDbEntity
  8
寸法
 62
     0
370
    -2
100
AcDbLine
 10
2150.800088449528
 20
2083.21170822149
 30
0.0
 11
2140.800088449529
 21
2083.21170822149
 31
0.0
  0
LINE
  5
5E72
330
5C84
100
AcDbEntity
  8
寸法
 62
     0
370
    -2
100
AcDbLine
 10
2165.800088449528
 20
2083.21170822149
 30
0.0
 11
2160.800088449528
 21
2083.21170822149
 31
0.0
  0
SOLID
  5
5E73
330
5C84
100
AcDbEntity
  8
寸法
 62
     0
100
AcDbTrace
 10
2175.800088449528
 20
2084.878374888157
 30
0.0
 11
2175.800088449528
 21
2081.545041554824
 31
0.0
 12
2165.800088449528
 22
2083.21170822149
 32
0.0
 13
2165.800088449528
 23
2083.21170822149
 33
0.0
  0
SOLID
  5
5E74
330
5C84
100
AcDbEntity
  8
寸法
 62
     0
100
AcDbTrace
 10
2150.800088449528
 20
2084.878374888157
 30
0.0
 11
2150.800088449528
 21
2081.545041554824
 31
0.0
 12
2160.800088449528
 22
2083.21170822149
 32
0.0
 13
2160.800088449528
 23
2083.21170822149
 33
0.0
  0
MTEXT
  5
5E75
330
5C84
100
AcDbEntity
  8
寸法
 62
     0
100
AcDbMText
 10
2163.300088449528
 20
2063.211708221491
 30
0.0
 40
20.0
 41
0.0
 71
     5
 72
     1
  1
5
 73
     1
 44
1.0
1001
ACAD
1000
MTEXTBEGIN
1070
    73
1070
     1
1070
    44
1040
1.0
1070
    74
1070
     0
1000
MTEXTEND
  0
POINT
  5
5E76
330
5C84
100
AcDbEntity
  8
DEFPOINTS
 62
     0
100
AcDbPoint
 10
2165.800088449528
 20
2234.909163386517
 30
0.0
  0
POINT
  5
5E77
330
5C84
100
AcDbEntity
  8
DEFPOINTS
 62
     0
100
AcDbPoint
 10
2160.800088449528
 20
2138.909163386517
 30
0.0
  0
POINT
  5
5E78
330
5C84
100
AcDbEntity
  8
DEFPOINTS
 62
     0
100
AcDbPoint
 10
2160.800088449528
 20
2083.21170822149
 30
0.0
  0
ENDBLK
  5
5C91
330
5C84
100
AcDbEntity
  8
0
100
AcDbBlockEnd
  0
BLOCK
  5
5C9C
330
5C92
100
AcDbEntity
  8
0
100
AcDbBlockBegin
  2
*D6
 70
     1
 10
0.0
 20
0.0
 30
0.0
  3
*D6
  1

  0
LINE
  5
5E9D
330
5C92
100
AcDbEntity
  8
寸法
 62
     0
370
    -2
100
AcDbLine
 10
2118.800088449528
 20
918.9091633865169
 30
0.0
 11
2118.800088449528
 21
963.7888117376665
 31
0.0
  0
LINE
  5
5E9E
330
5C92
100
AcDbEntity
  8
寸法
 62
     0
370
    -2
100
AcDbLine
 10
2068.800088449528
 20
863.9091633865168
 30
0.0
 11
2068.800088449528
 21
963.7888117376665
 31
0.0
  0
LINE
  5
5E9F
330
5C92
100
AcDbEntity
  8
寸法
 62
     0
370
    -2
100
AcDbLine
 10
2108.800088449529
 20
958.7888117376664
 30
0.0
 11
2078.800088449528
 21
958.7888117376664
 31
0.0
  0
SOLID
  5
5EA0
330
5C92
100
AcDbEntity
  8
寸法
 62
     0
100
AcDbTrace
 10
2108.800088449529
 20
960.4554784043331
 30
0.0
 11
2108.800088449529
 21
957.1221450709998
 31
0.0
 12
2118.800088449528
 22
958.7888117376664
 32
0.0
 13
2118.800088449528
 23
958.7888117376664
 33
0.0
  0
SOLID
  5
5EA1
330
5C92
100
AcDbEntity
  8
寸法
 62
     0
100
AcDbTrace
 10
2078.800088449528
 20
960.4554784043331
 30
0.0
 11
2078.800088449528
 21
957.1221450709998
 31
0.0
 12
2068.800088449528
 22
958.7888117376664
 32
0.0
 13
2068.800088449528
 23
958.7888117376664
 33
0.0
  0
MTEXT
  5
5EA2
330
5C92
100
AcDbEntity
  8
寸法
 62
     0
100
AcDbMText
 10
2093.836826287314
 20
978.7888117376665
 30
0.0
 40
20.0
 41
0.0
 71
     5
 72
     1
  1
50
 73
     1
 44
1.0
1001
ACAD
1000
MTEXTBEGIN
1070
    73
1070
     1
1070
    44
1040
1.0
1070
    74
1070
     0
1000
MTEXTEND
  0
POINT
  5
5EA3
330
5C92
100
AcDbEntity
  8
DEFPOINTS
 62
     0
100
AcDbPoint
 10
2118.800088449528
 20
888.9091633865168
 30
0.0
  0
POINT
  5
5EA4
330
5C92
100
AcDbEntity
  8
DEFPOINTS
 62
     0
100
AcDbPoint
 10
2068.800088449528
 20
833.9091633865168
 30
0.0
  0
POINT
  5
5EA5
330
5C92
100
AcDbEntity
  8
DEFPOINTS
 62
     0
100
AcDbPoint
 10
2068.800088449528
 20
958.7888117376664
 30
0.0
  0
ENDBLK
  5
5C9D
330
5C92
100
AcDbEntity
  8
0
100
AcDbBlockEnd
  0
BLOCK
  5
5CA8
330
5C9E
100
AcDbEntity
  8
0
100
AcDbBlockBegin
  2
*D7
 70
     1
 10
0.0
 20
0.0
 30
0.0
  3
*D7
  1

  0
LINE
  5
5EA6
330
5C9E
100
AcDbEntity
  8
寸法
 62
     0
370
    -2
100
AcDbLine
 10
2208.800088449528
 20
918.9091633865169
 30
0.0
 11
2208.800088449528
 21
963.7888117376665
 31
0.0
  0
LINE
  5
5EA7
330
5C9E
100
AcDbEntity
  8
寸法
 62
     0
370
    -2
100
AcDbLine
 10
2118.800088449528
 20
918.9091633865169
 30
0.0
 11
2118.800088449528
 21
963.7888117376665
 31
0.0
  0
LINE
  5
5EA8
330
5C9E
100
AcDbEntity
  8
寸法
 62
     0
370
    -2
100
AcDbLine
 10
2198.800088449528
 20
958.7888117376664
 30
0.0
 11
2128.800088449528
 21
958.7888117376664
 31
0.0
  0
SOLID
  5
5EA9
330
5C9E
100
AcDbEntity
  8
寸法
 62
     0
100
AcDbTrace
 10
2198.800088449528
 20
960.4554784043331
 30
0.0
 11
2198.800088449528
 21
957.1221450709998
 31
0.0
 12
2208.800088449528
 22
958.7888117376664
 32
0.0
 13
2208.800088449528
 23
958.7888117376664
 33
0.0
  0
SOLID
  5
5EAA
330
5C9E
100
AcDbEntity
  8
寸法
 62
     0
100
AcDbTrace
 10
2128.800088449528
 20
960.4554784043331
 30
0.0
 11
2128.800088449528
 21
957.1221450709998
 31
0.0
 12
2118.800088449528
 22
958.7888117376664
 32
0.0
 13
2118.800088449528
 23
958.7888117376664
 33
0.0
  0
MTEXT
  5
5EAB
330
5C9E
100
AcDbEntity
  8
寸法
 62
     0
100
AcDbMText
 10
2163.800088449528
 20
978.7888117376665
 30
0.0
 40
20.0
 41
0.0
 71
     5
 72
     1
  1
90
 73
     1
 44
1.0
1001
ACAD
1000
MTEXTBEGIN
1070
    73
1070
     1
1070
    44
1040
1.0
1070
    74
1070
     0
1000
MTEXTEND
  0
POINT
  5
5EAC
330
5C9E
100
AcDbEntity
  8
DEFPOINTS
 62
     0
100
AcDbPoint
 10
2208.800088449528
 20
888.9091633865168
 30
0.0
  0
POINT
  5
5EAD
330
5C9E
100
AcDbEntity
  8
DEFPOINTS
 62
     0
100
AcDbPoint
 10
2118.800088449528
 20
888.9091633865168
 30
0.0
  0
POINT
  5
5EAE
330
5C9E
100
AcDbEntity
  8
DEFPOINTS
 62
     0
100
AcDbPoint
 10
2118.800088449528
 20
958.7888117376664
 30
0.0
  0
ENDBLK
  5
5CA9
330
5C9E
100
AcDbEntity
  8
0
100
AcDbBlockEnd
  0
BLOCK
  5
5CB4
330
5CAA
100
AcDbEntity
  8
0
100
AcDbBlockBegin
  2
*D8
 70
     1
 10
0.0
 20
0.0
 30
0.0
  3
*D8
  1

  0
LINE
  5
5ED3
330
5CAA
100
AcDbEntity
  8
寸法
 62
     0
370
    -2
100
AcDbLine
 10
2208.800088449528
 20
808.9091633865168
 30
0.0
 11
2208.800088449528
 21
667.4970047881275
 31
0.0
  0
LINE
  5
5ED4
330
5CAA
100
AcDbEntity
  8
寸法
 62
     0
370
    -2
100
AcDbLine
 10
2165.800088449528
 20
758.9091633865169
 30
0.0
 11
2165.800088449528
 21
667.4970047881275
 31
0.0
  0
LINE
  5
5ED5
330
5CAA
100
AcDbEntity
  8
寸法
 62
     0
370
    -2
100
AcDbLine
 10
2198.800088449528
 20
672.4970047881274
 30
0.0
 11
2175.800088449528
 21
672.4970047881274
 31
0.0
  0
SOLID
  5
5ED6
330
5CAA
100
AcDbEntity
  8
寸法
 62
     0
100
AcDbTrace
 10
2198.800088449528
 20
674.1636714547941
 30
0.0
 11
2198.800088449528
 21
670.8303381214608
 31
0.0
 12
2208.800088449528
 22
672.4970047881274
 32
0.0
 13
2208.800088449528
 23
672.4970047881274
 33
0.0
  0
SOLID
  5
5ED7
330
5CAA
100
AcDbEntity
  8
寸法
 62
     0
100
AcDbTrace
 10
2175.800088449528
 20
674.1636714547941
 30
0.0
 11
2175.800088449528
 21
670.8303381214608
 31
0.0
 12
2165.800088449528
 22
672.4970047881274
 32
0.0
 13
2165.800088449528
 23
672.4970047881274
 33
0.0
  0
MTEXT
  5
5ED8
330
5CAA
100
AcDbEntity
  8
寸法
 62
     0
100
AcDbMText
 10
2187.300088449529
 20
652.4970047881274
 30
0.0
 40
20.0
 41
0.0
 71
     5
 72
     1
  1
43
 73
     1
 44
1.0
1001
ACAD
1000
MTEXTBEGIN
1070
    73
1070
     1
1070
    44
1040
1.0
1070
    74
1070
     0
1000
MTEXTEND
  0
POINT
  5
5ED9
330
5CAA
100
AcDbEntity
  8
DEFPOINTS
 62
     0
100
AcDbPoint
 10
2208.800088449528
 20
838.9091633865168
 30
0.0
  0
POINT
  5
5EDA
330
5CAA
100
AcDbEntity
  8
DEFPOINTS
 62
     0
100
AcDbPoint
 10
2165.800088449528
 20
788.9091633865168
 30
0.0
  0
POINT
  5
5EDB
330
5CAA
100
AcDbEntity
  8
DEFPOINTS
 62
     0
100
AcDbPoint
 10
2165.800088449528
 20
672.4970047881274
 30
0.0
  0
ENDBLK
  5
5CB5
330
5CAA
100
AcDbEntity
  8
0
100
AcDbBlockEnd
  0
BLOCK
  5
5CC2
330
5CB6
100
AcDbEntity
  8
0
100
AcDbBlockBegin
  2
*D9
 70
     1
 10
0.0
 20
0.0
 30
0.0
  3
*D9
  1

  0
LINE
  5
5F2B
330
5CB6
100
AcDbEntity
  8
寸法
 62
     0
370
    -2
100
AcDbLine
 10
2783.800088449528
 20
2208.909163386517
 30
0.0
 11
2863.800088449529
 21
2208.909163386517
 31
0.0
  0
LINE
  5
5F2C
330
5CB6
100
AcDbEntity
  8
寸法
 62
     0
370
    -2
100
AcDbLine
 10
2838.800088449529
 20
2188.909163386517
 30
0.0
 11
2863.800088449529
 21
2188.909163386517
 31
0.0
  0
LINE
  5
5F2D
330
5CB6
100
AcDbEntity
  8
寸法
 62
     0
370
    -2
100
AcDbLine
 10
2858.800088449529
 20
2218.909163386518
 30
0.0
 11
2858.800088449529
 21
2228.909163386517
 31
0.0
  0
LINE
  5
5F2E
330
5CB6
100
AcDbEntity
  8
寸法
 62
     0
370
    -2
100
AcDbLine
 10
2858.800088449529
 20
2178.909163386517
 30
0.0
 11
2858.800088449529
 21
2168.909163386517
 31
0.0
  0
LINE
  5
5F2F
330
5CB6
100
AcDbEntity
  8
寸法
 62
     0
370
    -2
100
AcDbLine
 10
2858.800088449529
 20
2208.909163386517
 30
0.0
 11
2858.800088449529
 21
2188.909163386517
 31
0.0
  0
SOLID
  5
5F30
330
5CB6
100
AcDbEntity
  8
寸法
 62
     0
100
AcDbTrace
 10
2857.133421782862
 20
2218.909163386518
 30
0.0
 11
2860.466755116195
 21
2218.909163386518
 31
0.0
 12
2858.800088449529
 22
2208.909163386517
 32
0.0
 13
2858.800088449529
 23
2208.909163386517
 33
0.0
  0
SOLID
  5
5F31
330
5CB6
100
AcDbEntity
  8
寸法
 62
     0
100
AcDbTrace
 10
2857.133421782862
 20
2178.909163386517
 30
0.0
 11
2860.466755116195
 21
2178.909163386517
 31
0.0
 12
2858.800088449529
 22
2188.909163386517
 32
0.0
 13
2858.800088449529
 23
2188.909163386517
 33
0.0
  0
MTEXT
  5
5F32
330
5CB6
100
AcDbEntity
  8
寸法
 62
     0
100
AcDbMText
 10
2878.800088449528
 20
2198.909163386518
 30
0.0
 40
20.0
 41
0.0
 71
     5
 72
     1
  1
20
 11
0.0000000000000001
 21
1.0
 31
0.0
 73
     1
 44
1.0
1001
ACAD
1000
MTEXTBEGIN
1070
    73
1070
     1
1070
    44
1040
1.0
1070
    74
1070
     0
1000
MTEXTEND
  0
POINT
  5
5F33
330
5CB6
100
AcDbEntity
  8
DEFPOINTS
 62
     0
100
AcDbPoint
 10
2753.800088449529
 20
2208.909163386517
 30
0.0
  0
POINT
  5
5F34
330
5CB6
100
AcDbEntity
  8
DEFPOINTS
 62
     0
100
AcDbPoint
 10
2808.800088449528
 20
2188.909163386517
 30
0.0
  0
POINT
  5
5F35
330
5CB6
100
AcDbEntity
  8
DEFPOINTS
 62
     0
100
AcDbPoint
 10
2858.800088449529
 20
2188.909163386517
 30
0.0
  0
ENDBLK
  5
5CC3
330
5CB6
100
AcDbEntity
  8
0
100
AcDbBlockEnd
  0
BLOCK
  5
5CCF
330
5CC4
100
AcDbEntity
  8
0
100
AcDbBlockBegin
  2
*D10
 70
     1
 10
0.0
 20
0.0
 30
0.0
  3
*D10
  1

  0
LINE
  5
5F36
330
5CC4
100
AcDbEntity
  8
寸法
 62
     0
370
    -2
100
AcDbLine
 10
2838.800088449529
 20
2188.909163386517
 30
0.0
 11
2863.800088449528
 21
2188.909163386517
 31
0.0
  0
LINE
  5
5F37
330
5CC4
100
AcDbEntity
  8
寸法
 62
     0
370
    -2
100
AcDbLine
 10
2838.800088449529
 20
2138.909163386518
 30
0.0
 11
2863.800088449528
 21
2138.909163386518
 31
0.0
  0
LINE
  5
5F38
330
5CC4
100
AcDbEntity
  8
寸法
 62
     0
370
    -2
100
AcDbLine
 10
2858.800088449529
 20
2178.909163386517
 30
0.0
 11
2858.800088449529
 21
2148.909163386517
 31
0.0
  0
LINE
  5
5F39
330
5CC4
100
AcDbEntity
  8
寸法
 62
     0
370
    -2
100
AcDbLine
 10
2858.800088449529
 20
2138.909163386518
 30
0.0
 11
2858.800088449529
 21
2078.909163386517
 31
0.0
  0
SOLID
  5
5F3A
330
5CC4
100
AcDbEntity
  8
寸法
 62
     0
100
AcDbTrace
 10
2857.133421782862
 20
2178.909163386517
 30
0.0
 11
2860.466755116195
 21
2178.909163386517
 31
0.0
 12
2858.800088449529
 22
2188.909163386517
 32
0.0
 13
2858.800088449529
 23
2188.909163386517
 33
0.0
  0
SOLID
  5
5F3B
330
5CC4
100
AcDbEntity
  8
寸法
 62
     0
100
AcDbTrace
 10
2857.133421782862
 20
2148.909163386517
 30
0.0
 11
2860.466755116195
 21
2148.909163386517
 31
0.0
 12
2858.800088449529
 22
2138.909163386518
 32
0.0
 13
2858.800088449529
 23
2138.909163386518
 33
0.0
  0
MTEXT
  5
5F3C
330
5CC4
100
AcDbEntity
  8
寸法
 62
     0
100
AcDbMText
 10
2878.800088449528
 20
2103.909163386518
 30
0.0
 40
20.0
 41
0.0
 71
     5
 72
     1
  1
50
 11
0.0000000000000001
 21
1.0
 31
0.0
 73
     1
 44
1.0
1001
ACAD
1000
MTEXTBEGIN
1070
    73
1070
     1
1070
    44
1040
1.0
1070
    74
1070
     0
1000
MTEXTEND
  0
POINT
  5
5F3D
330
5CC4
100
AcDbEntity
  8
DEFPOINTS
 62
     0
100
AcDbPoint
 10
2808.800088449528
 20
2188.909163386517
 30
0.0
  0
POINT
  5
5F3E
330
5CC4
100
AcDbEntity
  8
DEFPOINTS
 62
     0
100
AcDbPoint
 10
2808.800088449528
 20
2138.909163386518
 30
0.0
  0
POINT
  5
5F3F
330
5CC4
100
AcDbEntity
  8
DEFPOINTS
 62
     0
100
AcDbPoint
 10
2858.800088449529
 20
2138.909163386518
 30
0.0
  0
ENDBLK
  5
5CD0
330
5CC4
100
AcDbEntity
  8
0
100
AcDbBlockEnd
  0
BLOCK
  5
5CDB
330
5CD1
100
AcDbEntity
  8
0
100
AcDbBlockBegin
  2
*D11
 70
     1
 10
0.0
 20
0.0
 30
0.0
  3
*D11
  1

  0
LINE
  5
5FE3
330
5CD1
100
AcDbEntity
  8
寸法
 62
     0
370
    -2
100
AcDbLine
 10
782.8000884495281
 20
1718.909163386516
 30
0.0
 11
782.8000884495281
 21
1793.45085461361
 31
0.0
  0
LINE
  5
5FE4
330
5CD1
100
AcDbEntity
  8
寸法
 62
     0
370
    -2
100
AcDbLine
 10
2208.800088449528
 20
1718.909163386516
 30
0.0
 11
2208.800088449528
 21
1793.45085461361
 31
0.0
  0
LINE
  5
5FE5
330
5CD1
100
AcDbEntity
  8
寸法
 62
     0
370
    -2
100
AcDbLine
 10
792.8000884495282
 20
1788.45085461361
 30
0.0
 11
2198.800088449528
 21
1788.45085461361
 31
0.0
  0
SOLID
  5
5FE6
330
5CD1
100
AcDbEntity
  8
寸法
 62
     0
100
AcDbTrace
 10
792.8000884495282
 20
1790.117521280276
 30
0.0
 11
792.8000884495282
 21
1786.784187946943
 31
0.0
 12
782.8000884495281
 22
1788.45085461361
 32
0.0
 13
782.8000884495281
 23
1788.45085461361
 33
0.0
  0
SOLID
  5
5FE7
330
5CD1
100
AcDbEntity
  8
寸法
 62
     0
100
AcDbTrace
 10
2198.800088449528
 20
1790.117521280276
 30
0.0
 11
2198.800088449528
 21
1786.784187946943
 31
0.0
 12
2208.800088449528
 22
1788.45085461361
 32
0.0
 13
2208.800088449528
 23
1788.45085461361
 33
0.0
  0
MTEXT
  5
5FE8
330
5CD1
100
AcDbEntity
  8
寸法
 62
     0
100
AcDbMText
 10
1495.800088449528
 20
1808.45085461361
 30
0.0
 40
20.0
 41
0.0
 71
     5
 72
     1
  1
1426
 73
     1
 44
1.0
1001
ACAD
1000
MTEXTBEGIN
1070
    73
1070
     1
1070
    44
1040
1.0
1070
    74
1070
     0
1000
MTEXTEND
  0
POINT
  5
5FE9
330
5CD1
100
AcDbEntity
  8
DEFPOINTS
 62
     0
100
AcDbPoint
 10
782.8000884495281
 20
1688.909163386517
 30
0.0
  0
POINT
  5
5FEA
330
5CD1
100
AcDbEntity
  8
DEFPOINTS
 62
     0
100
AcDbPoint
 10
2208.800088449528
 20
1688.909163386517
 30
0.0
  0
POINT
  5
5FEB
330
5CD1
100
AcDbEntity
  8
DEFPOINTS
 62
     0
100
AcDbPoint
 10
2208.800088449528
 20
1788.45085461361
 30
0.0
  0
ENDBLK
  5
5CDC
330
5CD1
100
AcDbEntity
  8
0
100
AcDbBlockEnd
  0
BLOCK
  5
5CE7
330
5CDD
100
AcDbEntity
  8
0
100
AcDbBlockBegin
  2
*D12
 70
     1
 10
0.0
 20
0.0
 30
0.0
  3
*D12
  1

  0
LINE
  5
5FEC
330
5CDD
100
AcDbEntity
  8
寸法
 62
     0
370
    -2
100
AcDbLine
 10
2238.800088449528
 20
1688.909163386517
 30
0.0
 11
2267.854034440014
 21
1688.909163386517
 31
0.0
  0
LINE
  5
5FED
330
5CDD
100
AcDbEntity
  8
寸法
 62
     0
370
    -2
100
AcDbLine
 10
2238.800088449528
 20
1389.909163386517
 30
0.0
 11
2267.854034440014
 21
1389.909163386517
 31
0.0
  0
LINE
  5
5FEE
330
5CDD
100
AcDbEntity
  8
寸法
 62
     0
370
    -2
100
AcDbLine
 10
2262.854034440014
 20
1678.909163386517
 30
0.0
 11
2262.854034440014
 21
1399.909163386517
 31
0.0
  0
SOLID
  5
5FEF
330
5CDD
100
AcDbEntity
  8
寸法
 62
     0
100
AcDbTrace
 10
2261.187367773347
 20
1678.909163386517
 30
0.0
 11
2264.520701106681
 21
1678.909163386517
 31
0.0
 12
2262.854034440014
 22
1688.909163386517
 32
0.0
 13
2262.854034440014
 23
1688.909163386517
 33
0.0
  0
SOLID
  5
5FF0
330
5CDD
100
AcDbEntity
  8
寸法
 62
     0
100
AcDbTrace
 10
2261.187367773347
 20
1399.909163386517
 30
0.0
 11
2264.520701106681
 21
1399.909163386517
 31
0.0
 12
2262.854034440014
 22
1389.909163386517
 32
0.0
 13
2262.854034440014
 23
1389.909163386517
 33
0.0
  0
MTEXT
  5
5FF1
330
5CDD
100
AcDbEntity
  8
寸法
 62
     0
100
AcDbMText
 10
2282.854034440013
 20
1539.409163386517
 30
0.0
 40
20.0
 41
0.0
 71
     5
 72
     1
  1
299
 11
0.0000000000000001
 21
1.0
 31
0.0
 73
     1
 44
1.0
1001
ACAD
1000
MTEXTBEGIN
1070
    73
1070
     1
1070
    44
1040
1.0
1070
    74
1070
     0
1000
MTEXTEND
  0
POINT
  5
5FF2
330
5CDD
100
AcDbEntity
  8
DEFPOINTS
 62
     0
100
AcDbPoint
 10
2208.800088449528
 20
1688.909163386517
 30
0.0
  0
POINT
  5
5FF3
330
5CDD
100
AcDbEntity
  8
DEFPOINTS
 62
     0
100
AcDbPoint
 10
2208.800088449528
 20
1389.909163386517
 30
0.0
  0
POINT
  5
5FF4
330
5CDD
100
AcDbEntity
  8
DEFPOINTS
 62
     0
100
AcDbPoint
 10
2262.854034440014
 20
1389.909163386517
 30
0.0
  0
ENDBLK
  5
5CE8
330
5CDD
100
AcDbEntity
  8
0
100
AcDbBlockEnd
  0
BLOCK
  5
5CF5
330
5CE9
100
AcDbEntity
  8
0
100
AcDbBlockBegin
  2
*D13
 70
     1
 10
0.0
 20
0.0
 30
0.0
  3
*D13
  1

  0
LINE
  5
5FF5
330
5CE9
100
AcDbEntity
  8
寸法
 62
     0
370
    -2
100
AcDbLine
 10
2195.800088449528
 20
1384.909163386517
 30
0.0
 11
2267.854034440015
 21
1384.909163386517
 31
0.0
  0
LINE
  5
5FF6
330
5CE9
100
AcDbEntity
  8
寸法
 62
     0
370
    -2
100
AcDbLine
 10
2238.800088449528
 20
1389.909163386517
 30
0.0
 11
2267.854034440015
 21
1389.909163386517
 31
0.0
  0
LINE
  5
5FF7
330
5CE9
100
AcDbEntity
  8
寸法
 62
     0
370
    -2
100
AcDbLine
 10
2262.854034440014
 20
1374.909163386517
 30
0.0
 11
2262.854034440014
 21
1364.909163386517
 31
0.0
  0
LINE
  5
5FF8
330
5CE9
100
AcDbEntity
  8
寸法
 62
     0
370
    -2
100
AcDbLine
 10
2262.854034440014
 20
1399.909163386517
 30
0.0
 11
2262.854034440014
 21
1409.909163386517
 31
0.0
  0
LINE
  5
5FF9
330
5CE9
100
AcDbEntity
  8
寸法
 62
     0
370
    -2
100
AcDbLine
 10
2262.854034440014
 20
1384.909163386517
 30
0.0
 11
2262.854034440014
 21
1389.909163386517
 31
0.0
  0
SOLID
  5
5FFA
330
5CE9
100
AcDbEntity
  8
寸法
 62
     0
100
AcDbTrace
 10
2261.187367773348
 20
1374.909163386517
 30
0.0
 11
2264.520701106681
 21
1374.909163386517
 31
0.0
 12
2262.854034440014
 22
1384.909163386517
 32
0.0
 13
2262.854034440014
 23
1384.909163386517
 33
0.0
  0
SOLID
  5
5FFB
330
5CE9
100
AcDbEntity
  8
寸法
 62
     0
100
AcDbTrace
 10
2261.187367773348
 20
1399.909163386517
 30
0.0
 11
2264.520701106681
 21
1399.909163386517
 31
0.0
 12
2262.854034440014
 22
1389.909163386517
 32
0.0
 13
2262.854034440014
 23
1389.909163386517
 33
0.0
  0
MTEXT
  5
5FFC
330
5CE9
100
AcDbEntity
  8
寸法
 62
     0
100
AcDbMText
 10
2282.854034440014
 20
1387.409163386517
 30
0.0
 40
20.0
 41
0.0
 71
     5
 72
     1
  1
5
 11
0.0000000000000001
 21
1.0
 31
0.0
 73
     1
 44
1.0
1001
ACAD
1000
MTEXTBEGIN
1070
    73
1070
     1
1070
    44
1040
1.0
1070
    74
1070
     0
1000
MTEXTEND
  0
POINT
  5
5FFD
330
5CE9
100
AcDbEntity
  8
DEFPOINTS
 62
     0
100
AcDbPoint
 10
2165.800088449528
 20
1384.909163386517
 30
0.0
  0
POINT
  5
5FFE
330
5CE9
100
AcDbEntity
  8
DEFPOINTS
 62
     0
100
AcDbPoint
 10
2208.800088449528
 20
1389.909163386517
 30
0.0
  0
POINT
  5
5FFF
330
5CE9
100
AcDbEntity
  8
DEFPOINTS
 62
     0
100
AcDbPoint
 10
2262.854034440014
 20
1389.909163386517
 30
0.0
  0
ENDBLK
  5
5CF6
330
5CE9
100
AcDbEntity
  8
0
100
AcDbBlockEnd
  0
BLOCK
  5
5D01
330
5CF7
100
AcDbEntity
  8
0
100
AcDbBlockBegin
  2
*D14
 70
     1
 10
0.0
 20
0.0
 30
0.0
  3
*D14
  1

  0
LINE
  5
6000
330
5CF7
100
AcDbEntity
  8
寸法
 62
     0
370
    -2
100
AcDbLine
 10
2190.800088449528
 20
1288.909163386517
 30
0.0
 11
2267.854034440015
 21
1288.909163386517
 31
0.0
  0
LINE
  5
6001
330
5CF7
100
AcDbEntity
  8
寸法
 62
     0
370
    -2
100
AcDbLine
 10
2195.800088449528
 20
1384.909163386517
 30
0.0
 11
2267.854034440015
 21
1384.909163386517
 31
0.0
  0
LINE
  5
6002
330
5CF7
100
AcDbEntity
  8
寸法
 62
     0
370
    -2
100
AcDbLine
 10
2262.854034440014
 20
1298.909163386517
 30
0.0
 11
2262.854034440014
 21
1374.909163386517
 31
0.0
  0
SOLID
  5
6003
330
5CF7
100
AcDbEntity
  8
寸法
 62
     0
100
AcDbTrace
 10
2261.187367773348
 20
1298.909163386517
 30
0.0
 11
2264.520701106681
 21
1298.909163386517
 31
0.0
 12
2262.854034440014
 22
1288.909163386517
 32
0.0
 13
2262.854034440014
 23
1288.909163386517
 33
0.0
  0
SOLID
  5
6004
330
5CF7
100
AcDbEntity
  8
寸法
 62
     0
100
AcDbTrace
 10
2261.187367773348
 20
1374.909163386517
 30
0.0
 11
2264.520701106681
 21
1374.909163386517
 31
0.0
 12
2262.854034440014
 22
1384.909163386517
 32
0.0
 13
2262.854034440014
 23
1384.909163386517
 33
0.0
  0
MTEXT
  5
6005
330
5CF7
100
AcDbEntity
  8
寸法
 62
     0
100
AcDbMText
 10
2282.854034440014
 20
1336.909163386517
 30
0.0
 40
20.0
 41
0.0
 71
     5
 72
     1
  1
96
 11
0.0000000000000001
 21
1.0
 31
0.0
 73
     1
 44
1.0
1001
ACAD
1000
MTEXTBEGIN
1070
    73
1070
     1
1070
    44
1040
1.0
1070
    74
1070
     0
1000
MTEXTEND
  0
POINT
  5
6006
330
5CF7
100
AcDbEntity
  8
DEFPOINTS
 62
     0
100
AcDbPoint
 10
2160.800088449528
 20
1288.909163386517
 30
0.0
  0
POINT
  5
6007
330
5CF7
100
AcDbEntity
  8
DEFPOINTS
 62
     0
100
AcDbPoint
 10
2165.800088449528
 20
1384.909163386517
 30
0.0
  0
POINT
  5
6008
330
5CF7
100
AcDbEntity
  8
DEFPOINTS
 62
     0
100
AcDbPoint
 10
2262.854034440014
 20
1384.909163386517
 30
0.0
  0
ENDBLK
  5
5D02
330
5CF7
100
AcDbEntity
  8
0
100
AcDbBlockEnd
  0
BLOCK
  5
5D0D
330
5D03
100
AcDbEntity
  8
0
100
AcDbBlockBegin
  2
*D15
 70
     1
 10
0.0
 20
0.0
 30
0.0
  3
*D15
  1

  0
LINE
  5
6009
330
5D03
100
AcDbEntity
  8
寸法
 62
     0
370
    -2
100
AcDbLine
 10
830.8000884495282
 20
1258.909163386517
 30
0.0
 11
830.8000884495282
 21
1228.21170822149
 31
0.0
  0
LINE
  5
600A
330
5D03
100
AcDbEntity
  8
寸法
 62
     0
370
    -2
100
AcDbLine
 10
2160.800088449528
 20
1258.909163386517
 30
0.0
 11
2160.800088449528
 21
1228.21170822149
 31
0.0
  0
LINE
  5
600B
330
5D03
100
AcDbEntity
  8
寸法
 62
     0
370
    -2
100
AcDbLine
 10
840.8000884495281
 20
1233.21170822149
 30
0.0
 11
2150.800088449528
 21
1233.21170822149
 31
0.0
  0
SOLID
  5
600C
330
5D03
100
AcDbEntity
  8
寸法
 62
     0
100
AcDbTrace
 10
840.8000884495281
 20
1234.878374888157
 30
0.0
 11
840.8000884495281
 21
1231.545041554824
 31
0.0
 12
830.8000884495282
 22
1233.21170822149
 32
0.0
 13
830.8000884495282
 23
1233.21170822149
 33
0.0
  0
SOLID
  5
600D
330
5D03
100
AcDbEntity
  8
寸法
 62
     0
100
AcDbTrace
 10
2150.800088449528
 20
1234.878374888157
 30
0.0
 11
2150.800088449528
 21
1231.545041554824
 31
0.0
 12
2160.800088449528
 22
1233.21170822149
 32
0.0
 13
2160.800088449528
 23
1233.21170822149
 33
0.0
  0
MTEXT
  5
600E
330
5D03
100
AcDbEntity
  8
寸法
 62
     0
100
AcDbMText
 10
1495.800088449528
 20
1213.21170822149
 30
0.0
 40
20.0
 41
0.0
 71
     5
 72
     1
  1
1330
 73
     1
 44
1.0
1001
ACAD
1000
MTEXTBEGIN
1070
    73
1070
     1
1070
    44
1040
1.0
1070
    74
1070
     0
1000
MTEXTEND
  0
POINT
  5
600F
330
5D03
100
AcDbEntity
  8
DEFPOINTS
 62
     0
100
AcDbPoint
 10
830.8000884495282
 20
1288.909163386517
 30
0.0
  0
POINT
  5
6010
330
5D03
100
AcDbEntity
  8
DEFPOINTS
 62
     0
100
AcDbPoint
 10
2160.800088449528
 20
1288.909163386517
 30
0.0
  0
POINT
  5
6011
330
5D03
100
AcDbEntity
  8
DEFPOINTS
 62
     0
100
AcDbPoint
 10
2160.800088449528
 20
1233.21170822149
 30
0.0
  0
ENDBLK
  5
5D0E
330
5D03
100
AcDbEntity
  8
0
100
AcDbBlockEnd
  0
BLOCK
  5
5D1B
330
5D0F
100
AcDbEntity
  8
0
100
AcDbBlockBegin
  2
*D16
 70
     1
 10
0.0
 20
0.0
 30
0.0
  3
*D16
  1

  0
LINE
  5
6012
330
5D0F
100
AcDbEntity
  8
寸法
 62
     0
370
    -2
100
AcDbLine
 10
825.8000884495281
 20
1354.909163386517
 30
0.0
 11
825.8000884495281
 21
1228.21170822149
 31
0.0
  0
LINE
  5
6013
330
5D0F
100
AcDbEntity
  8
寸法
 62
     0
370
    -2
100
AcDbLine
 10
830.8000884495282
 20
1258.909163386517
 30
0.0
 11
830.8000884495282
 21
1228.21170822149
 31
0.0
  0
LINE
  5
6014
330
5D0F
100
AcDbEntity
  8
寸法
 62
     0
370
    -2
100
AcDbLine
 10
815.8000884495281
 20
1233.21170822149
 30
0.0
 11
805.8000884495282
 21
1233.21170822149
 31
0.0
  0
LINE
  5
6015
330
5D0F
100
AcDbEntity
  8
寸法
 62
     0
370
    -2
100
AcDbLine
 10
840.8000884495281
 20
1233.21170822149
 30
0.0
 11
850.8000884495281
 21
1233.21170822149
 31
0.0
  0
LINE
  5
6016
330
5D0F
100
AcDbEntity
  8
寸法
 62
     0
370
    -2
100
AcDbLine
 10
825.8000884495281
 20
1233.21170822149
 30
0.0
 11
830.8000884495282
 21
1233.21170822149
 31
0.0
  0
SOLID
  5
6017
330
5D0F
100
AcDbEntity
  8
寸法
 62
     0
100
AcDbTrace
 10
815.8000884495281
 20
1234.878374888157
 30
0.0
 11
815.8000884495281
 21
1231.545041554824
 31
0.0
 12
825.8000884495281
 22
1233.21170822149
 32
0.0
 13
825.8000884495281
 23
1233.21170822149
 33
0.0
  0
SOLID
  5
6018
330
5D0F
100
AcDbEntity
  8
寸法
 62
     0
100
AcDbTrace
 10
840.8000884495281
 20
1234.878374888157
 30
0.0
 11
840.8000884495281
 21
1231.545041554824
 31
0.0
 12
830.8000884495282
 22
1233.21170822149
 32
0.0
 13
830.8000884495282
 23
1233.21170822149
 33
0.0
  0
MTEXT
  5
6019
330
5D0F
100
AcDbEntity
  8
寸法
 62
     0
100
AcDbMText
 10
828.3000884495281
 20
1213.21170822149
 30
0.0
 40
20.0
 41
0.0
 71
     5
 72
     1
  1
5
 73
     1
 44
1.0
1001
ACAD
1000
MTEXTBEGIN
1070
    73
1070
     1
1070
    44
1040
1.0
1070
    74
1070
     0
1000
MTEXTEND
  0
POINT
  5
601A
330
5D0F
100
AcDbEntity
  8
DEFPOINTS
 62
     0
100
AcDbPoint
 10
825.8000884495281
 20
1384.909163386517
 30
0.0
  0
POINT
  5
601B
330
5D0F
100
AcDbEntity
  8
DEFPOINTS
 62
     0
100
AcDbPoint
 10
830.8000884495282
 20
1288.909163386517
 30
0.0
  0
POINT
  5
601C
330
5D0F
100
AcDbEntity
  8
DEFPOINTS
 62
     0
100
AcDbPoint
 10
830.8000884495282
 20
1233.21170822149
 30
0.0
  0
ENDBLK
  5
5D1C
330
5D0F
100
AcDbEntity
  8
0
100
AcDbBlockEnd
  0
BLOCK
  5
5D29
330
5D1D
100
AcDbEntity
  8
0
100
AcDbBlockBegin
  2
*D17
 70
     1
 10
0.0
 20
0.0
 30
0.0
  3
*D17
  1

  0
LINE
  5
601D
330
5D1D
100
AcDbEntity
  8
寸法
 62
     0
370
    -2
100
AcDbLine
 10
2165.800088449528
 20
1354.909163386517
 30
0.0
 11
2165.800088449528
 21
1228.21170822149
 31
0.0
  0
LINE
  5
601E
330
5D1D
100
AcDbEntity
  8
寸法
 62
     0
370
    -2
100
AcDbLine
 10
2160.800088449528
 20
1258.909163386517
 30
0.0
 11
2160.800088449528
 21
1228.21170822149
 31
0.0
  0
LINE
  5
601F
330
5D1D
100
AcDbEntity
  8
寸法
 62
     0
370
    -2
100
AcDbLine
 10
2175.800088449528
 20
1233.21170822149
 30
0.0
 11
2185.800088449528
 21
1233.21170822149
 31
0.0
  0
LINE
  5
6020
330
5D1D
100
AcDbEntity
  8
寸法
 62
     0
370
    -2
100
AcDbLine
 10
2150.800088449528
 20
1233.21170822149
 30
0.0
 11
2140.800088449529
 21
1233.21170822149
 31
0.0
  0
LINE
  5
6021
330
5D1D
100
AcDbEntity
  8
寸法
 62
     0
370
    -2
100
AcDbLine
 10
2165.800088449528
 20
1233.21170822149
 30
0.0
 11
2160.800088449528
 21
1233.21170822149
 31
0.0
  0
SOLID
  5
6022
330
5D1D
100
AcDbEntity
  8
寸法
 62
     0
100
AcDbTrace
 10
2175.800088449528
 20
1234.878374888157
 30
0.0
 11
2175.800088449528
 21
1231.545041554824
 31
0.0
 12
2165.800088449528
 22
1233.21170822149
 32
0.0
 13
2165.800088449528
 23
1233.21170822149
 33
0.0
  0
SOLID
  5
6023
330
5D1D
100
AcDbEntity
  8
寸法
 62
     0
100
AcDbTrace
 10
2150.800088449528
 20
1234.878374888157
 30
0.0
 11
2150.800088449528
 21
1231.545041554824
 31
0.0
 12
2160.800088449528
 22
1233.21170822149
 32
0.0
 13
2160.800088449528
 23
1233.21170822149
 33
0.0
  0
MTEXT
  5
6024
330
5D1D
100
AcDbEntity
  8
寸法
 62
     0
100
AcDbMText
 10
2163.300088449528
 20
1213.21170822149
 30
0.0
 40
20.0
 41
0.0
 71
     5
 72
     1
  1
5
 73
     1
 44
1.0
1001
ACAD
1000
MTEXTBEGIN
1070
    73
1070
     1
1070
    44
1040
1.0
1070
    74
1070
     0
1000
MTEXTEND
  0
POINT
  5
6025
330
5D1D
100
AcDbEntity
  8
DEFPOINTS
 62
     0
100
AcDbPoint
 10
2165.800088449528
 20
1384.909163386517
 30
0.0
  0
POINT
  5
6026
330
5D1D
100
AcDbEntity
  8
DEFPOINTS
 62
     0
100
AcDbPoint
 10
2160.800088449528
 20
1288.909163386517
 30
0.0
  0
POINT
  5
6027
330
5D1D
100
AcDbEntity
  8
DEFPOINTS
 62
     0
100
AcDbPoint
 10
2160.800088449528
 20
1233.21170822149
 30
0.0
  0
ENDBLK
  5
5D2A
330
5D1D
100
AcDbEntity
  8
0
100
AcDbBlockEnd
  0
BLOCK
  5
5DDB
330
5DD1
100
AcDbEntity
  8
0
100
AcDbBlockBegin
  2
*D18
 70
     1
 10
0.0
 20
0.0
 30
0.0
  3
*D18
  1

  0
LINE
  5
6119
330
5DD1
100
AcDbEntity
  8
寸法
 62
     0
370
    -2
100
AcDbLine
 10
916.1501925295878
 20
782.1943670860621
 30
0.0
 11
819.1984534147048
 21
592.4459633897917
 31
0.0
  0
LINE
  5
611A
330
5DD1
100
AcDbEntity
  8
寸法
 62
     0
370
    -2
100
AcDbLine
 10
782.5762110273138
 20
850.4438466857644
 30
0.0
 11
685.6244719124308
 21
660.695442989494
 31
0.0
  0
LINE
  5
611B
330
5DD1
100
AcDbEntity
  8
寸法
 62
     0
370
    -2
100
AcDbLine
 10
812.5685039678765
 20
601.4483947465143
 30
0.0
 11
696.8043866659058
 21
660.5979437329229
 31
0.0
  0
SOLID
  5
611C
330
5DD1
100
AcDbEntity
  8
寸法
 62
     0
100
AcDbTrace
 10
813.3268315189843
 20
602.9325500965395
 30
0.0
 11
811.8101764167688
 21
599.9642393964891
 31
0.0
 12
821.4734360680282
 22
596.8984294398674
 32
0.0
 13
821.4734360680282
 23
596.8984294398674
 33
0.0
  0
SOLID
  5
611D
330
5DD1
100
AcDbEntity
  8
寸法
 62
     0
100
AcDbTrace
 10
697.5627142170136
 20
662.0820990829481
 30
0.0
 11
696.046059114798
 21
659.1137883828977
 31
0.0
 12
687.8994545657542
 22
665.1479090395697
 32
0.0
 13
687.8994545657542
 23
665.1479090395697
 33
0.0
  0
MTEXT
  5
611E
330
5DD1
100
AcDbEntity
  8
寸法
 62
     0
100
AcDbMText
 10
745.5865147035977
 20
613.2133050394154
 30
0.0
 40
20.0
 41
0.0
 71
     5
 72
     1
  1
150
 11
0.8904932100151597
 21
-0.4549965306646816
 31
0.0
 73
     1
 44
1.0
1001
ACAD
1000
MTEXTBEGIN
1070
    73
1070
     1
1070
    44
1040
1.0
1070
    74
1070
     0
1000
MTEXTEND
  0
POINT
  5
611F
330
5DD1
100
AcDbEntity
  8
DEFPOINTS
 62
     0
100
AcDbPoint
 10
929.8000884495282
 20
808.9091633865168
 30
0.0
  0
POINT
  5
6120
330
5DD1
100
AcDbEntity
  8
DEFPOINTS
 62
     0
100
AcDbPoint
 10
796.2261069472543
 20
877.1586429862191
 30
0.0
  0
POINT
  5
6121
330
5DD1
100
AcDbEntity
  8
DEFPOINTS
 62
     0
100
AcDbPoint
 10
687.8994545657542
 20
665.1479090395697
 30
0.0
  0
ENDBLK
  5
5DDC
330
5DD1
100
AcDbEntity
  8
0
100
AcDbBlockEnd
  0
BLOCK
  5
5E0B
330
5E01
100
AcDbEntity
  8
0
100
AcDbBlockBegin
  2
*D19
 70
     1
 10
0.0
 20
0.0
 30
0.0
  3
*D19
  1

  0
LINE
  5
5E02
330
5E01
100
AcDbEntity
  8
寸法
 62
     0
370
    -2
100
AcDbLine
 10
782.8000884495281
 20
2568.909163386517
 30
0.0
 11
782.8000884495281
 21
2643.45085461361
 31
0.0
  0
LINE
  5
5E03
330
5E01
100
AcDbEntity
  8
寸法
 62
     0
370
    -2
100
AcDbLine
 10
2208.800088449528
 20
2568.909163386517
 30
0.0
 11
2208.800088449528
 21
2643.45085461361
 31
0.0
  0
LINE
  5
5E04
330
5E01
100
AcDbEntity
  8
寸法
 62
     0
370
    -2
100
AcDbLine
 10
792.8000884495282
 20
2638.45085461361
 30
0.0
 11
2198.800088449528
 21
2638.45085461361
 31
0.0
  0
SOLID
  5
5E05
330
5E01
100
AcDbEntity
  8
寸法
 62
     0
100
AcDbTrace
 10
792.8000884495282
 20
2640.117521280277
 30
0.0
 11
792.8000884495282
 21
2636.784187946944
 31
0.0
 12
782.8000884495281
 22
2638.45085461361
 32
0.0
 13
782.8000884495281
 23
2638.45085461361
 33
0.0
  0
SOLID
  5
5E06
330
5E01
100
AcDbEntity
  8
寸法
 62
     0
100
AcDbTrace
 10
2198.800088449528
 20
2640.117521280277
 30
0.0
 11
2198.800088449528
 21
2636.784187946944
 31
0.0
 12
2208.800088449528
 22
2638.45085461361
 32
0.0
 13
2208.800088449528
 23
2638.45085461361
 33
0.0
  0
MTEXT
  5
5E07
330
5E01
100
AcDbEntity
  8
寸法
 62
     0
100
AcDbMText
 10
1495.800088449528
 20
2658.45085461361
 30
0.0
 40
20.0
 41
0.0
 71
     5
 72
     1
  1
1426
 73
     1
 44
1.0
1001
ACAD
1000
MTEXTBEGIN
1070
    73
1070
     1
1070
    44
1040
1.0
1070
    74
1070
     0
1000
MTEXTEND
  0
POINT
  5
5E08
330
5E01
100
AcDbEntity
  8
DEFPOINTS
 62
     0
100
AcDbPoint
 10
782.8000884495281
 20
2538.909163386517
 30
0.0
  0
POINT
  5
5E09
330
5E01
100
AcDbEntity
  8
DEFPOINTS
 62
     0
100
AcDbPoint
 10
2208.800088449528
 20
2538.909163386517
 30
0.0
  0
POINT
  5
5E0A
330
5E01
100
AcDbEntity
  8
DEFPOINTS
 62
     0
100
AcDbPoint
 10
2208.800088449528
 20
2638.45085461361
 30
0.0
  0
ENDBLK
  5
5E0C
330
5E01
100
AcDbEntity
  8
0
100
AcDbBlockEnd
  0
BLOCK
  5
5E17
330
5E0D
100
AcDbEntity
  8
0
100
AcDbBlockBegin
  2
*D20
 70
     1
 10
0.0
 20
0.0
 30
0.0
  3
*D20
  1

  0
LINE
  5
5E0E
330
5E0D
100
AcDbEntity
  8
寸法
 62
     0
370
    -2
100
AcDbLine
 10
825.8000884495281
 20
2568.909163386517
 30
0.0
 11
825.8000884495281
 21
2594.24438039825
 31
0.0
  0
LINE
  5
5E0F
330
5E0D
100
AcDbEntity
  8
寸法
 62
     0
370
    -2
100
AcDbLine
 10
2165.800088449528
 20
2568.909163386517
 30
0.0
 11
2165.800088449528
 21
2594.24438039825
 31
0.0
  0
LINE
  5
5E10
330
5E0D
100
AcDbEntity
  8
寸法
 62
     0
370
    -2
100
AcDbLine
 10
835.8000884495281
 20
2589.24438039825
 30
0.0
 11
2155.800088449528
 21
2589.24438039825
 31
0.0
  0
SOLID
  5
5E11
330
5E0D
100
AcDbEntity
  8
寸法
 62
     0
100
AcDbTrace
 10
835.8000884495281
 20
2590.911047064917
 30
0.0
 11
835.8000884495281
 21
2587.577713731584
 31
0.0
 12
825.8000884495281
 22
2589.24438039825
 32
0.0
 13
825.8000884495281
 23
2589.24438039825
 33
0.0
  0
SOLID
  5
5E12
330
5E0D
100
AcDbEntity
  8
寸法
 62
     0
100
AcDbTrace
 10
2155.800088449528
 20
2590.911047064917
 30
0.0
 11
2155.800088449528
 21
2587.577713731584
 31
0.0
 12
2165.800088449528
 22
2589.24438039825
 32
0.0
 13
2165.800088449528
 23
2589.24438039825
 33
0.0
  0
MTEXT
  5
5E13
330
5E0D
100
AcDbEntity
  8
寸法
 62
     0
100
AcDbMText
 10
1495.800088449528
 20
2609.24438039825
 30
0.0
 40
20.0
 41
0.0
 71
     5
 72
     1
  1
1340
 73
     1
 44
1.0
1001
ACAD
1000
MTEXTBEGIN
1070
    73
1070
     1
1070
    44
1040
1.0
1070
    74
1070
     0
1000
MTEXTEND
  0
POINT
  5
5E14
330
5E0D
100
AcDbEntity
  8
DEFPOINTS
 62
     0
100
AcDbPoint
 10
825.8000884495281
 20
2538.909163386517
 30
0.0
  0
POINT
  5
5E15
330
5E0D
100
AcDbEntity
  8
DEFPOINTS
 62
     0
100
AcDbPoint
 10
2165.800088449528
 20
2538.909163386517
 30
0.0
  0
POINT
  5
5E16
330
5E0D
100
AcDbEntity
  8
DEFPOINTS
 62
     0
100
AcDbPoint
 10
2165.800088449528
 20
2589.24438039825
 30
0.0
  0
ENDBLK
  5
5E18
330
5E0D
100
AcDbEntity
  8
0
100
AcDbBlockEnd
  0
BLOCK
  5
5E23
330
5E19
100
AcDbEntity
  8
0
100
AcDbBlockBegin
  2
*D21
 70
     1
 10
0.0
 20
0.0
 30
0.0
  3
*D21
  1

  0
LINE
  5
5E1A
330
5E19
100
AcDbEntity
  8
寸法
 62
     0
370
    -2
100
AcDbLine
 10
2165.800088449528
 20
2568.909163386517
 30
0.0
 11
2165.800088449528
 21
2594.24438039825
 31
0.0
  0
LINE
  5
5E1B
330
5E19
100
AcDbEntity
  8
寸法
 62
     0
370
    -2
100
AcDbLine
 10
2208.800088449528
 20
2568.909163386517
 30
0.0
 11
2208.800088449528
 21
2594.24438039825
 31
0.0
  0
LINE
  5
5E1C
330
5E19
100
AcDbEntity
  8
寸法
 62
     0
370
    -2
100
AcDbLine
 10
2175.800088449528
 20
2589.24438039825
 30
0.0
 11
2198.800088449528
 21
2589.24438039825
 31
0.0
  0
SOLID
  5
5E1D
330
5E19
100
AcDbEntity
  8
寸法
 62
     0
100
AcDbTrace
 10
2175.800088449528
 20
2590.911047064917
 30
0.0
 11
2175.800088449528
 21
2587.577713731584
 31
0.0
 12
2165.800088449528
 22
2589.24438039825
 32
0.0
 13
2165.800088449528
 23
2589.24438039825
 33
0.0
  0
SOLID
  5
5E1E
330
5E19
100
AcDbEntity
  8
寸法
 62
     0
100
AcDbTrace
 10
2198.800088449528
 20
2590.911047064917
 30
0.0
 11
2198.800088449528
 21
2587.577713731584
 31
0.0
 12
2208.800088449528
 22
2589.24438039825
 32
0.0
 13
2208.800088449528
 23
2589.24438039825
 33
0.0
  0
MTEXT
  5
5E1F
330
5E19
100
AcDbEntity
  8
寸法
 62
     0
100
AcDbMText
 10
2187.300088449529
 20
2609.24438039825
 30
0.0
 40
20.0
 41
0.0
 71
     5
 72
     1
  1
43
 73
     1
 44
1.0
1001
ACAD
1000
MTEXTBEGIN
1070
    73
1070
     1
1070
    44
1040
1.0
1070
    74
1070
     0
1000
MTEXTEND
  0
POINT
  5
5E20
330
5E19
100
AcDbEntity
  8
DEFPOINTS
 62
     0
100
AcDbPoint
 10
2165.800088449528
 20
2538.909163386517
 30
0.0
  0
POINT
  5
5E21
330
5E19
100
AcDbEntity
  8
DEFPOINTS
 62
     0
100
AcDbPoint
 10
2208.800088449528
 20
2538.909163386517
 30
0.0
  0
POINT
  5
5E22
330
5E19
100
AcDbEntity
  8
DEFPOINTS
 62
     0
100
AcDbPoint
 10
2208.800088449528
 20
2589.24438039825
 30
0.0
  0
ENDBLK
  5
5E24
330
5E19
100
AcDbEntity
  8
0
100
AcDbBlockEnd
  0
BLOCK
  5
5E38
330
5E2E
100
AcDbEntity
  8
0
100
AcDbBlockBegin
  2
*D22
 70
     1
 10
0.0
 20
0.0
 30
0.0
  3
*D22
  1

  0
LINE
  5
6158
330
5E2E
100
AcDbEntity
  8
寸法
 62
     0
370
    -2
100
AcDbLine
 10
2238.800088449528
 20
2538.909163386517
 30
0.0
 11
2318.510836372478
 21
2538.909163386517
 31
0.0
  0
LINE
  5
6159
330
5E2E
100
AcDbEntity
  8
寸法
 62
     0
370
    -2
100
AcDbLine
 10
2238.800088449528
 20
2239.909163386517
 30
0.0
 11
2318.510836372478
 21
2239.909163386517
 31
0.0
  0
LINE
  5
615A
330
5E2E
100
AcDbEntity
  8
寸法
 62
     0
370
    -2
100
AcDbLine
 10
2313.510836372477
 20
2528.909163386517
 30
0.0
 11
2313.510836372477
 21
2249.909163386517
 31
0.0
  0
SOLID
  5
615B
330
5E2E
100
AcDbEntity
  8
寸法
 62
     0
100
AcDbTrace
 10
2311.844169705811
 20
2528.909163386517
 30
0.0
 11
2315.177503039144
 21
2528.909163386517
 31
0.0
 12
2313.510836372477
 22
2538.909163386517
 32
0.0
 13
2313.510836372477
 23
2538.909163386517
 33
0.0
  0
SOLID
  5
615C
330
5E2E
100
AcDbEntity
  8
寸法
 62
     0
100
AcDbTrace
 10
2311.844169705811
 20
2249.909163386517
 30
0.0
 11
2315.177503039144
 21
2249.909163386517
 31
0.0
 12
2313.510836372477
 22
2239.909163386517
 32
0.0
 13
2313.510836372477
 23
2239.909163386517
 33
0.0
  0
MTEXT
  5
615D
330
5E2E
100
AcDbEntity
  8
寸法
 62
     0
100
AcDbMText
 10
2333.510836372477
 20
2389.409163386517
 30
0.0
 40
20.0
 41
0.0
 71
     5
 72
     1
  1
299
 11
0.0000000000000001
 21
1.0
 31
0.0
 73
     1
 44
1.0
1001
ACAD
1000
MTEXTBEGIN
1070
    73
1070
     1
1070
    44
1040
1.0
1070
    74
1070
     0
1000
MTEXTEND
  0
POINT
  5
615E
330
5E2E
100
AcDbEntity
  8
DEFPOINTS
 62
     0
100
AcDbPoint
 10
2208.800088449528
 20
2538.909163386517
 30
0.0
  0
POINT
  5
615F
330
5E2E
100
AcDbEntity
  8
DEFPOINTS
 62
     0
100
AcDbPoint
 10
2208.800088449528
 20
2239.909163386517
 30
0.0
  0
POINT
  5
6160
330
5E2E
100
AcDbEntity
  8
DEFPOINTS
 62
     0
100
AcDbPoint
 10
2313.510836372477
 20
2239.909163386517
 30
0.0
  0
ENDBLK
  5
5E39
330
5E2E
100
AcDbEntity
  8
0
100
AcDbBlockEnd
  0
BLOCK
  5
5E46
330
5E3A
100
AcDbEntity
  8
0
100
AcDbBlockBegin
  2
*D23
 70
     1
 10
0.0
 20
0.0
 30
0.0
  3
*D23
  1

  0
LINE
  5
6161
330
5E3A
100
AcDbEntity
  8
寸法
 62
     0
370
    -2
100
AcDbLine
 10
2195.800088449528
 20
2234.909163386517
 30
0.0
 11
2318.510836372478
 21
2234.909163386517
 31
0.0
  0
LINE
  5
6162
330
5E3A
100
AcDbEntity
  8
寸法
 62
     0
370
    -2
100
AcDbLine
 10
2238.800088449528
 20
2239.909163386517
 30
0.0
 11
2318.510836372478
 21
2239.909163386517
 31
0.0
  0
LINE
  5
6163
330
5E3A
100
AcDbEntity
  8
寸法
 62
     0
370
    -2
100
AcDbLine
 10
2313.510836372478
 20
2224.909163386517
 30
0.0
 11
2313.510836372478
 21
2214.909163386517
 31
0.0
  0
LINE
  5
6164
330
5E3A
100
AcDbEntity
  8
寸法
 62
     0
370
    -2
100
AcDbLine
 10
2313.510836372478
 20
2249.909163386517
 30
0.0
 11
2313.510836372478
 21
2259.909163386517
 31
0.0
  0
LINE
  5
6165
330
5E3A
100
AcDbEntity
  8
寸法
 62
     0
370
    -2
100
AcDbLine
 10
2313.510836372478
 20
2234.909163386517
 30
0.0
 11
2313.510836372478
 21
2239.909163386517
 31
0.0
  0
SOLID
  5
6166
330
5E3A
100
AcDbEntity
  8
寸法
 62
     0
100
AcDbTrace
 10
2311.844169705812
 20
2224.909163386517
 30
0.0
 11
2315.177503039144
 21
2224.909163386517
 31
0.0
 12
2313.510836372478
 22
2234.909163386517
 32
0.0
 13
2313.510836372478
 23
2234.909163386517
 33
0.0
  0
SOLID
  5
6167
330
5E3A
100
AcDbEntity
  8
寸法
 62
     0
100
AcDbTrace
 10
2311.844169705812
 20
2249.909163386517
 30
0.0
 11
2315.177503039144
 21
2249.909163386517
 31
0.0
 12
2313.510836372478
 22
2239.909163386517
 32
0.0
 13
2313.510836372478
 23
2239.909163386517
 33
0.0
  0
MTEXT
  5
6168
330
5E3A
100
AcDbEntity
  8
寸法
 62
     0
100
AcDbMText
 10
2333.510836372477
 20
2237.409163386518
 30
0.0
 40
20.0
 41
0.0
 71
     5
 72
     1
  1
5
 11
0.0000000000000001
 21
1.0
 31
0.0
 73
     1
 44
1.0
1001
ACAD
1000
MTEXTBEGIN
1070
    73
1070
     1
1070
    44
1040
1.0
1070
    74
1070
     0
1000
MTEXTEND
  0
POINT
  5
6169
330
5E3A
100
AcDbEntity
  8
DEFPOINTS
 62
     0
100
AcDbPoint
 10
2165.800088449528
 20
2234.909163386517
 30
0.0
  0
POINT
  5
616A
330
5E3A
100
AcDbEntity
  8
DEFPOINTS
 62
     0
100
AcDbPoint
 10
2208.800088449528
 20
2239.909163386517
 30
0.0
  0
POINT
  5
616B
330
5E3A
100
AcDbEntity
  8
DEFPOINTS
 62
     0
100
AcDbPoint
 10
2313.510836372478
 20
2239.909163386517
 30
0.0
  0
ENDBLK
  5
5E47
330
5E3A
100
AcDbEntity
  8
0
100
AcDbBlockEnd
  0
BLOCK
  5
5E52
330
5E48
100
AcDbEntity
  8
0
100
AcDbBlockBegin
  2
*D24
 70
     1
 10
0.0
 20
0.0
 30
0.0
  3
*D24
  1

  0
LINE
  5
616C
330
5E48
100
AcDbEntity
  8
寸法
 62
     0
370
    -2
100
AcDbLine
 10
2190.800088449528
 20
2138.909163386517
 30
0.0
 11
2318.510836372478
 21
2138.909163386517
 31
0.0
  0
LINE
  5
616D
330
5E48
100
AcDbEntity
  8
寸法
 62
     0
370
    -2
100
AcDbLine
 10
2195.800088449528
 20
2234.909163386517
 30
0.0
 11
2318.510836372478
 21
2234.909163386517
 31
0.0
  0
LINE
  5
616E
330
5E48
100
AcDbEntity
  8
寸法
 62
     0
370
    -2
100
AcDbLine
 10
2313.510836372478
 20
2148.909163386517
 30
0.0
 11
2313.510836372478
 21
2224.909163386517
 31
0.0
  0
SOLID
  5
616F
330
5E48
100
AcDbEntity
  8
寸法
 62
     0
100
AcDbTrace
 10
2311.844169705812
 20
2148.909163386517
 30
0.0
 11
2315.177503039144
 21
2148.909163386517
 31
0.0
 12
2313.510836372478
 22
2138.909163386517
 32
0.0
 13
2313.510836372478
 23
2138.909163386517
 33
0.0
  0
SOLID
  5
6170
330
5E48
100
AcDbEntity
  8
寸法
 62
     0
100
AcDbTrace
 10
2311.844169705812
 20
2224.909163386517
 30
0.0
 11
2315.177503039144
 21
2224.909163386517
 31
0.0
 12
2313.510836372478
 22
2234.909163386517
 32
0.0
 13
2313.510836372478
 23
2234.909163386517
 33
0.0
  0
MTEXT
  5
6171
330
5E48
100
AcDbEntity
  8
寸法
 62
     0
100
AcDbMText
 10
2333.510836372477
 20
2186.909163386518
 30
0.0
 40
20.0
 41
0.0
 71
     5
 72
     1
  1
96
 11
0.0000000000000001
 21
1.0
 31
0.0
 73
     1
 44
1.0
1001
ACAD
1000
MTEXTBEGIN
1070
    73
1070
     1
1070
    44
1040
1.0
1070
    74
1070
     0
1000
MTEXTEND
  0
POINT
  5
6172
330
5E48
100
AcDbEntity
  8
DEFPOINTS
 62
     0
100
AcDbPoint
 10
2160.800088449528
 20
2138.909163386517
 30
0.0
  0
POINT
  5
6173
330
5E48
100
AcDbEntity
  8
DEFPOINTS
 62
     0
100
AcDbPoint
 10
2165.800088449528
 20
2234.909163386517
 30
0.0
  0
POINT
  5
6174
330
5E48
100
AcDbEntity
  8
DEFPOINTS
 62
     0
100
AcDbPoint
 10
2313.510836372478
 20
2234.909163386517
 30
0.0
  0
ENDBLK
  5
5E53
330
5E48
100
AcDbEntity
  8
0
100
AcDbBlockEnd
  0
BLOCK
  5
5E5E
330
5E54
100
AcDbEntity
  8
0
100
AcDbBlockBegin
  2
*D25
 70
     1
 10
0.0
 20
0.0
 30
0.0
  3
*D25
  1

  0
LINE
  5
5E55
330
5E54
100
AcDbEntity
  8
寸法
 62
     0
370
    -2
100
AcDbLine
 10
830.8000884495282
 20
2108.909163386517
 30
0.0
 11
830.8000884495282
 21
2078.211708221491
 31
0.0
  0
LINE
  5
5E56
330
5E54
100
AcDbEntity
  8
寸法
 62
     0
370
    -2
100
AcDbLine
 10
2160.800088449528
 20
2108.909163386517
 30
0.0
 11
2160.800088449528
 21
2078.211708221491
 31
0.0
  0
LINE
  5
5E57
330
5E54
100
AcDbEntity
  8
寸法
 62
     0
370
    -2
100
AcDbLine
 10
840.8000884495281
 20
2083.21170822149
 30
0.0
 11
2150.800088449528
 21
2083.21170822149
 31
0.0
  0
SOLID
  5
5E58
330
5E54
100
AcDbEntity
  8
寸法
 62
     0
100
AcDbTrace
 10
840.8000884495281
 20
2084.878374888157
 30
0.0
 11
840.8000884495281
 21
2081.545041554824
 31
0.0
 12
830.8000884495282
 22
2083.21170822149
 32
0.0
 13
830.8000884495282
 23
2083.21170822149
 33
0.0
  0
SOLID
  5
5E59
330
5E54
100
AcDbEntity
  8
寸法
 62
     0
100
AcDbTrace
 10
2150.800088449528
 20
2084.878374888157
 30
0.0
 11
2150.800088449528
 21
2081.545041554824
 31
0.0
 12
2160.800088449528
 22
2083.21170822149
 32
0.0
 13
2160.800088449528
 23
2083.21170822149
 33
0.0
  0
MTEXT
  5
5E5A
330
5E54
100
AcDbEntity
  8
寸法
 62
     0
100
AcDbMText
 10
1495.800088449528
 20
2063.211708221491
 30
0.0
 40
20.0
 41
0.0
 71
     5
 72
     1
  1
1330
 73
     1
 44
1.0
1001
ACAD
1000
MTEXTBEGIN
1070
    73
1070
     1
1070
    44
1040
1.0
1070
    74
1070
     0
1000
MTEXTEND
  0
POINT
  5
5E5B
330
5E54
100
AcDbEntity
  8
DEFPOINTS
 62
     0
100
AcDbPoint
 10
830.8000884495282
 20
2138.909163386517
 30
0.0
  0
POINT
  5
5E5C
330
5E54
100
AcDbEntity
  8
DEFPOINTS
 62
     0
100
AcDbPoint
 10
2160.800088449528
 20
2138.909163386517
 30
0.0
  0
POINT
  5
5E5D
330
5E54
100
AcDbEntity
  8
DEFPOINTS
 62
     0
100
AcDbPoint
 10
2160.800088449528
 20
2083.21170822149
 30
0.0
  0
ENDBLK
  5
5E5F
330
5E54
100
AcDbEntity
  8
0
100
AcDbBlockEnd
  0
BLOCK
  5
5E6C
330
5E60
100
AcDbEntity
  8
0
100
AcDbBlockBegin
  2
*D26
 70
     1
 10
0.0
 20
0.0
 30
0.0
  3
*D26
  1

  0
LINE
  5
5E61
330
5E60
100
AcDbEntity
  8
寸法
 62
     0
370
    -2
100
AcDbLine
 10
825.8000884495281
 20
2204.909163386517
 30
0.0
 11
825.8000884495281
 21
2078.211708221491
 31
0.0
  0
LINE
  5
5E62
330
5E60
100
AcDbEntity
  8
寸法
 62
     0
370
    -2
100
AcDbLine
 10
830.8000884495282
 20
2108.909163386517
 30
0.0
 11
830.8000884495282
 21
2078.211708221491
 31
0.0
  0
LINE
  5
5E63
330
5E60
100
AcDbEntity
  8
寸法
 62
     0
370
    -2
100
AcDbLine
 10
815.8000884495281
 20
2083.21170822149
 30
0.0
 11
805.8000884495282
 21
2083.21170822149
 31
0.0
  0
LINE
  5
5E64
330
5E60
100
AcDbEntity
  8
寸法
 62
     0
370
    -2
100
AcDbLine
 10
840.8000884495281
 20
2083.21170822149
 30
0.0
 11
850.8000884495281
 21
2083.21170822149
 31
0.0
  0
LINE
  5
5E65
330
5E60
100
AcDbEntity
  8
寸法
 62
     0
370
    -2
100
AcDbLine
 10
825.8000884495281
 20
2083.21170822149
 30
0.0
 11
830.8000884495282
 21
2083.21170822149
 31
0.0
  0
SOLID
  5
5E66
330
5E60
100
AcDbEntity
  8
寸法
 62
     0
100
AcDbTrace
 10
815.8000884495281
 20
2084.878374888157
 30
0.0
 11
815.8000884495281
 21
2081.545041554824
 31
0.0
 12
825.8000884495281
 22
2083.21170822149
 32
0.0
 13
825.8000884495281
 23
2083.21170822149
 33
0.0
  0
SOLID
  5
5E67
330
5E60
100
AcDbEntity
  8
寸法
 62
     0
100
AcDbTrace
 10
840.8000884495281
 20
2084.878374888157
 30
0.0
 11
840.8000884495281
 21
2081.545041554824
 31
0.0
 12
830.8000884495282
 22
2083.21170822149
 32
0.0
 13
830.8000884495282
 23
2083.21170822149
 33
0.0
  0
MTEXT
  5
5E68
330
5E60
100
AcDbEntity
  8
寸法
 62
     0
100
AcDbMText
 10
828.3000884495281
 20
2063.211708221491
 30
0.0
 40
20.0
 41
0.0
 71
     5
 72
     1
  1
5
 73
     1
 44
1.0
1001
ACAD
1000
MTEXTBEGIN
1070
    73
1070
     1
1070
    44
1040
1.0
1070
    74
1070
     0
1000
MTEXTEND
  0
POINT
  5
5E69
330
5E60
100
AcDbEntity
  8
DEFPOINTS
 62
     0
100
AcDbPoint
 10
825.8000884495281
 20
2234.909163386517
 30
0.0
  0
POINT
  5
5E6A
330
5E60
100
AcDbEntity
  8
DEFPOINTS
 62
     0
100
AcDbPoint
 10
830.8000884495282
 20
2138.909163386517
 30
0.0
  0
POINT
  5
5E6B
330
5E60
100
AcDbEntity
  8
DEFPOINTS
 62
     0
100
AcDbPoint
 10
830.8000884495282
 20
2083.21170822149
 30
0.0
  0
ENDBLK
  5
5E6D
330
5E60
100
AcDbEntity
  8
0
100
AcDbBlockEnd
  0
BLOCK
  5
5E83
330
5E79
100
AcDbEntity
  8
0
100
AcDbBlockBegin
  2
*D27
 70
     1
 10
0.0
 20
0.0
 30
0.0
  3
*D27
  1

  0
LINE
  5
5E7A
330
5E79
100
AcDbEntity
  8
寸法
 62
     0
370
    -2
100
AcDbLine
 10
922.8000884495282
 20
863.9091633865168
 30
0.0
 11
922.8000884495282
 21
963.7888117376665
 31
0.0
  0
LINE
  5
5E7B
330
5E79
100
AcDbEntity
  8
寸法
 62
     0
370
    -2
100
AcDbLine
 10
2068.800088449528
 20
863.9091633865168
 30
0.0
 11
2068.800088449528
 21
963.7888117376665
 31
0.0
  0
LINE
  5
5E7C
330
5E79
100
AcDbEntity
  8
寸法
 62
     0
370
    -2
100
AcDbLine
 10
932.8000884495281
 20
958.7888117376664
 30
0.0
 11
2058.800088449528
 21
958.7888117376664
 31
0.0
  0
SOLID
  5
5E7D
330
5E79
100
AcDbEntity
  8
寸法
 62
     0
100
AcDbTrace
 10
932.8000884495281
 20
960.4554784043331
 30
0.0
 11
932.8000884495281
 21
957.1221450709998
 31
0.0
 12
922.8000884495282
 22
958.7888117376664
 32
0.0
 13
922.8000884495282
 23
958.7888117376664
 33
0.0
  0
SOLID
  5
5E7E
330
5E79
100
AcDbEntity
  8
寸法
 62
     0
100
AcDbTrace
 10
2058.800088449528
 20
960.4554784043331
 30
0.0
 11
2058.800088449528
 21
957.1221450709998
 31
0.0
 12
2068.800088449528
 22
958.7888117376664
 32
0.0
 13
2068.800088449528
 23
958.7888117376664
 33
0.0
  0
MTEXT
  5
5E7F
330
5E79
100
AcDbEntity
  8
寸法
 62
     0
100
AcDbMText
 10
1495.800088449528
 20
978.7888117376665
 30
0.0
 40
20.0
 41
0.0
 71
     5
 72
     1
  1
1146
 73
     1
 44
1.0
1001
ACAD
1000
MTEXTBEGIN
1070
    73
1070
     1
1070
    44
1040
1.0
1070
    74
1070
     0
1000
MTEXTEND
  0
POINT
  5
5E80
330
5E79
100
AcDbEntity
  8
DEFPOINTS
 62
     0
100
AcDbPoint
 10
922.8000884495282
 20
833.9091633865168
 30
0.0
  0
POINT
  5
5E81
330
5E79
100
AcDbEntity
  8
DEFPOINTS
 62
     0
100
AcDbPoint
 10
2068.800088449528
 20
833.9091633865168
 30
0.0
  0
POINT
  5
5E82
330
5E79
100
AcDbEntity
  8
DEFPOINTS
 62
     0
100
AcDbPoint
 10
2068.800088449528
 20
958.7888117376664
 30
0.0
  0
ENDBLK
  5
5E84
330
5E79
100
AcDbEntity
  8
0
100
AcDbBlockEnd
  0
BLOCK
  5
5E8F
330
5E85
100
AcDbEntity
  8
0
100
AcDbBlockBegin
  2
*D28
 70
     1
 10
0.0
 20
0.0
 30
0.0
  3
*D28
  1

  0
LINE
  5
5E86
330
5E85
100
AcDbEntity
  8
寸法
 62
     0
370
    -2
100
AcDbLine
 10
872.8000884495282
 20
918.9091633865169
 30
0.0
 11
872.8000884495282
 21
963.7888117376665
 31
0.0
  0
LINE
  5
5E87
330
5E85
100
AcDbEntity
  8
寸法
 62
     0
370
    -2
100
AcDbLine
 10
922.8000884495282
 20
863.9091633865168
 30
0.0
 11
922.8000884495282
 21
963.7888117376665
 31
0.0
  0
LINE
  5
5E88
330
5E85
100
AcDbEntity
  8
寸法
 62
     0
370
    -2
100
AcDbLine
 10
882.8000884495281
 20
958.7888117376664
 30
0.0
 11
912.8000884495282
 21
958.7888117376664
 31
0.0
  0
SOLID
  5
5E89
330
5E85
100
AcDbEntity
  8
寸法
 62
     0
100
AcDbTrace
 10
882.8000884495281
 20
960.4554784043331
 30
0.0
 11
882.8000884495281
 21
957.1221450709998
 31
0.0
 12
872.8000884495282
 22
958.7888117376664
 32
0.0
 13
872.8000884495282
 23
958.7888117376664
 33
0.0
  0
SOLID
  5
5E8A
330
5E85
100
AcDbEntity
  8
寸法
 62
     0
100
AcDbTrace
 10
912.8000884495282
 20
960.4554784043331
 30
0.0
 11
912.8000884495282
 21
957.1221450709998
 31
0.0
 12
922.8000884495282
 22
958.7888117376664
 32
0.0
 13
922.8000884495282
 23
958.7888117376664
 33
0.0
  0
MTEXT
  5
5E8B
330
5E85
100
AcDbEntity
  8
寸法
 62
     0
100
AcDbMText
 10
897.7633506117422
 20
978.7888117376665
 30
0.0
 40
20.0
 41
0.0
 71
     5
 72
     1
  1
50
 73
     1
 44
1.0
1001
ACAD
1000
MTEXTBEGIN
1070
    73
1070
     1
1070
    44
1040
1.0
1070
    74
1070
     0
1000
MTEXTEND
  0
POINT
  5
5E8C
330
5E85
100
AcDbEntity
  8
DEFPOINTS
 62
     0
100
AcDbPoint
 10
872.8000884495282
 20
888.9091633865168
 30
0.0
  0
POINT
  5
5E8D
330
5E85
100
AcDbEntity
  8
DEFPOINTS
 62
     0
100
AcDbPoint
 10
922.8000884495282
 20
833.9091633865168
 30
0.0
  0
POINT
  5
5E8E
330
5E85
100
AcDbEntity
  8
DEFPOINTS
 62
     0
100
AcDbPoint
 10
922.8000884495282
 20
958.7888117376664
 30
0.0
  0
ENDBLK
  5
5E90
330
5E85
100
AcDbEntity
  8
0
100
AcDbBlockEnd
  0
BLOCK
  5
5E9B
330
5E91
100
AcDbEntity
  8
0
100
AcDbBlockBegin
  2
*D29
 70
     1
 10
0.0
 20
0.0
 30
0.0
  3
*D29
  1

  0
LINE
  5
5E92
330
5E91
100
AcDbEntity
  8
寸法
 62
     0
370
    -2
100
AcDbLine
 10
782.8000884495281
 20
918.9091633865169
 30
0.0
 11
782.8000884495281
 21
963.7888117376665
 31
0.0
  0
LINE
  5
5E93
330
5E91
100
AcDbEntity
  8
寸法
 62
     0
370
    -2
100
AcDbLine
 10
872.8000884495282
 20
918.9091633865169
 30
0.0
 11
872.8000884495282
 21
963.7888117376665
 31
0.0
  0
LINE
  5
5E94
330
5E91
100
AcDbEntity
  8
寸法
 62
     0
370
    -2
100
AcDbLine
 10
792.8000884495282
 20
958.7888117376664
 30
0.0
 11
862.8000884495282
 21
958.7888117376664
 31
0.0
  0
SOLID
  5
5E95
330
5E91
100
AcDbEntity
  8
寸法
 62
     0
100
AcDbTrace
 10
792.8000884495282
 20
960.4554784043331
 30
0.0
 11
792.8000884495282
 21
957.1221450709998
 31
0.0
 12
782.8000884495281
 22
958.7888117376664
 32
0.0
 13
782.8000884495281
 23
958.7888117376664
 33
0.0
  0
SOLID
  5
5E96
330
5E91
100
AcDbEntity
  8
寸法
 62
     0
100
AcDbTrace
 10
862.8000884495282
 20
960.4554784043331
 30
0.0
 11
862.8000884495282
 21
957.1221450709998
 31
0.0
 12
872.8000884495282
 22
958.7888117376664
 32
0.0
 13
872.8000884495282
 23
958.7888117376664
 33
0.0
  0
MTEXT
  5
5E97
330
5E91
100
AcDbEntity
  8
寸法
 62
     0
100
AcDbMText
 10
827.8000884495281
 20
978.7888117376665
 30
0.0
 40
20.0
 41
0.0
 71
     5
 72
     1
  1
90
 73
     1
 44
1.0
1001
ACAD
1000
MTEXTBEGIN
1070
    73
1070
     1
1070
    44
1040
1.0
1070
    74
1070
     0
1000
MTEXTEND
  0
POINT
  5
5E98
330
5E91
100
AcDbEntity
  8
DEFPOINTS
 62
     0
100
AcDbPoint
 10
782.8000884495281
 20
888.9091633865168
 30
0.0
  0
POINT
  5
5E99
330
5E91
100
AcDbEntity
  8
DEFPOINTS
 62
     0
100
AcDbPoint
 10
872.8000884495282
 20
888.9091633865168
 30
0.0
  0
POINT
  5
5E9A
330
5E91
100
AcDbEntity
  8
DEFPOINTS
 62
     0
100
AcDbPoint
 10
872.8000884495282
 20
958.7888117376664
 30
0.0
  0
ENDBLK
  5
5E9C
330
5E91
100
AcDbEntity
  8
0
100
AcDbBlockEnd
  0
BLOCK
  5
5EB9
330
5EAF
100
AcDbEntity
  8
0
100
AcDbBlockBegin
  2
*D30
 70
     1
 10
0.0
 20
0.0
 30
0.0
  3
*D30
  1

  0
LINE
  5
5EB0
330
5EAF
100
AcDbEntity
  8
寸法
 62
     0
370
    -2
100
AcDbLine
 10
782.8000884495281
 20
918.9091633865169
 30
0.0
 11
782.8000884495281
 21
1010.430697582415
 31
0.0
  0
LINE
  5
5EB1
330
5EAF
100
AcDbEntity
  8
寸法
 62
     0
370
    -2
100
AcDbLine
 10
2208.800088449528
 20
918.9091633865169
 30
0.0
 11
2208.800088449528
 21
1010.430697582415
 31
0.0
  0
LINE
  5
5EB2
330
5EAF
100
AcDbEntity
  8
寸法
 62
     0
370
    -2
100
AcDbLine
 10
792.8000884495282
 20
1005.430697582415
 30
0.0
 11
2198.800088449528
 21
1005.430697582415
 31
0.0
  0
SOLID
  5
5EB3
330
5EAF
100
AcDbEntity
  8
寸法
 62
     0
100
AcDbTrace
 10
792.8000884495282
 20
1007.097364249082
 30
0.0
 11
792.8000884495282
 21
1003.764030915748
 31
0.0
 12
782.8000884495281
 22
1005.430697582415
 32
0.0
 13
782.8000884495281
 23
1005.430697582415
 33
0.0
  0
SOLID
  5
5EB4
330
5EAF
100
AcDbEntity
  8
寸法
 62
     0
100
AcDbTrace
 10
2198.800088449528
 20
1007.097364249082
 30
0.0
 11
2198.800088449528
 21
1003.764030915748
 31
0.0
 12
2208.800088449528
 22
1005.430697582415
 32
0.0
 13
2208.800088449528
 23
1005.430697582415
 33
0.0
  0
MTEXT
  5
5EB5
330
5EAF
100
AcDbEntity
  8
寸法
 62
     0
100
AcDbMText
 10
1495.800088449528
 20
1025.430697582415
 30
0.0
 40
20.0
 41
0.0
 71
     5
 72
     1
  1
1426
 73
     1
 44
1.0
1001
ACAD
1000
MTEXTBEGIN
1070
    73
1070
     1
1070
    44
1040
1.0
1070
    74
1070
     0
1000
MTEXTEND
  0
POINT
  5
5EB6
330
5EAF
100
AcDbEntity
  8
DEFPOINTS
 62
     0
100
AcDbPoint
 10
782.8000884495281
 20
888.9091633865168
 30
0.0
  0
POINT
  5
5EB7
330
5EAF
100
AcDbEntity
  8
DEFPOINTS
 62
     0
100
AcDbPoint
 10
2208.800088449528
 20
888.9091633865168
 30
0.0
  0
POINT
  5
5EB8
330
5EAF
100
AcDbEntity
  8
DEFPOINTS
 62
     0
100
AcDbPoint
 10
2208.800088449528
 20
1005.430697582415
 30
0.0
  0
ENDBLK
  5
5EBA
330
5EAF
100
AcDbEntity
  8
0
100
AcDbBlockEnd
  0
BLOCK
  5
5EC5
330
5EBB
100
AcDbEntity
  8
0
100
AcDbBlockBegin
  2
*D31
 70
     1
 10
0.0
 20
0.0
 30
0.0
  3
*D31
  1

  0
LINE
  5
5EBC
330
5EBB
100
AcDbEntity
  8
寸法
 62
     0
370
    -2
100
AcDbLine
 10
825.8000884495281
 20
758.9091633865169
 30
0.0
 11
825.8000884495281
 21
667.4970047881275
 31
0.0
  0
LINE
  5
5EBD
330
5EBB
100
AcDbEntity
  8
寸法
 62
     0
370
    -2
100
AcDbLine
 10
2165.800088449528
 20
758.9091633865169
 30
0.0
 11
2165.800088449528
 21
667.4970047881275
 31
0.0
  0
LINE
  5
5EBE
330
5EBB
100
AcDbEntity
  8
寸法
 62
     0
370
    -2
100
AcDbLine
 10
835.8000884495281
 20
672.4970047881274
 30
0.0
 11
2155.800088449528
 21
672.4970047881274
 31
0.0
  0
SOLID
  5
5EBF
330
5EBB
100
AcDbEntity
  8
寸法
 62
     0
100
AcDbTrace
 10
835.8000884495281
 20
674.1636714547941
 30
0.0
 11
835.8000884495281
 21
670.8303381214608
 31
0.0
 12
825.8000884495281
 22
672.4970047881274
 32
0.0
 13
825.8000884495281
 23
672.4970047881274
 33
0.0
  0
SOLID
  5
5EC0
330
5EBB
100
AcDbEntity
  8
寸法
 62
     0
100
AcDbTrace
 10
2155.800088449528
 20
674.1636714547941
 30
0.0
 11
2155.800088449528
 21
670.8303381214608
 31
0.0
 12
2165.800088449528
 22
672.4970047881274
 32
0.0
 13
2165.800088449528
 23
672.4970047881274
 33
0.0
  0
MTEXT
  5
5EC1
330
5EBB
100
AcDbEntity
  8
寸法
 62
     0
100
AcDbMText
 10
1495.800088449528
 20
652.4970047881274
 30
0.0
 40
20.0
 41
0.0
 71
     5
 72
     1
  1
1340
 73
     1
 44
1.0
1001
ACAD
1000
MTEXTBEGIN
1070
    73
1070
     1
1070
    44
1040
1.0
1070
    74
1070
     0
1000
MTEXTEND
  0
POINT
  5
5EC2
330
5EBB
100
AcDbEntity
  8
DEFPOINTS
 62
     0
100
AcDbPoint
 10
825.8000884495281
 20
788.9091633865168
 30
0.0
  0
POINT
  5
5EC3
330
5EBB
100
AcDbEntity
  8
DEFPOINTS
 62
     0
100
AcDbPoint
 10
2165.800088449528
 20
788.9091633865168
 30
0.0
  0
POINT
  5
5EC4
330
5EBB
100
AcDbEntity
  8
DEFPOINTS
 62
     0
100
AcDbPoint
 10
2165.800088449528
 20
672.4970047881274
 30
0.0
  0
ENDBLK
  5
5EC6
330
5EBB
100
AcDbEntity
  8
0
100
AcDbBlockEnd
  0
BLOCK
  5
5ED1
330
5EC7
100
AcDbEntity
  8
0
100
AcDbBlockBegin
  2
*D32
 70
     1
 10
0.0
 20
0.0
 30
0.0
  3
*D32
  1

  0
LINE
  5
5EC8
330
5EC7
100
AcDbEntity
  8
寸法
 62
     0
370
    -2
100
AcDbLine
 10
782.8000884495281
 20
808.9091633865168
 30
0.0
 11
782.8000884495281
 21
667.4970047881275
 31
0.0
  0
LINE
  5
5EC9
330
5EC7
100
AcDbEntity
  8
寸法
 62
     0
370
    -2
100
AcDbLine
 10
825.8000884495281
 20
758.9091633865169
 30
0.0
 11
825.8000884495281
 21
667.4970047881275
 31
0.0
  0
LINE
  5
5ECA
330
5EC7
100
AcDbEntity
  8
寸法
 62
     0
370
    -2
100
AcDbLine
 10
792.8000884495282
 20
672.4970047881274
 30
0.0
 11
815.8000884495281
 21
672.4970047881274
 31
0.0
  0
SOLID
  5
5ECB
330
5EC7
100
AcDbEntity
  8
寸法
 62
     0
100
AcDbTrace
 10
792.8000884495282
 20
674.1636714547941
 30
0.0
 11
792.8000884495282
 21
670.8303381214608
 31
0.0
 12
782.8000884495281
 22
672.4970047881274
 32
0.0
 13
782.8000884495281
 23
672.4970047881274
 33
0.0
  0
SOLID
  5
5ECC
330
5EC7
100
AcDbEntity
  8
寸法
 62
     0
100
AcDbTrace
 10
815.8000884495281
 20
674.1636714547941
 30
0.0
 11
815.8000884495281
 21
670.8303381214608
 31
0.0
 12
825.8000884495281
 22
672.4970047881274
 32
0.0
 13
825.8000884495281
 23
672.4970047881274
 33
0.0
  0
MTEXT
  5
5ECD
330
5EC7
100
AcDbEntity
  8
寸法
 62
     0
100
AcDbMText
 10
804.3000884495281
 20
652.4970047881274
 30
0.0
 40
20.0
 41
0.0
 71
     5
 72
     1
  1
43
 73
     1
 44
1.0
1001
ACAD
1000
MTEXTBEGIN
1070
    73
1070
     1
1070
    44
1040
1.0
1070
    74
1070
     0
1000
MTEXTEND
  0
POINT
  5
5ECE
330
5EC7
100
AcDbEntity
  8
DEFPOINTS
 62
     0
100
AcDbPoint
 10
782.8000884495281
 20
838.9091633865168
 30
0.0
  0
POINT
  5
5ECF
330
5EC7
100
AcDbEntity
  8
DEFPOINTS
 62
     0
100
AcDbPoint
 10
825.8000884495281
 20
788.9091633865168
 30
0.0
  0
POINT
  5
5ED0
330
5EC7
100
AcDbEntity
  8
DEFPOINTS
 62
     0
100
AcDbPoint
 10
825.8000884495281
 20
672.4970047881274
 30
0.0
  0
ENDBLK
  5
5ED2
330
5EC7
100
AcDbEntity
  8
0
100
AcDbBlockEnd
  0
BLOCK
  5
5EE7
330
5EDC
100
AcDbEntity
  8
0
100
AcDbBlockBegin
  2
*D33
 70
     1
 10
0.0
 20
0.0
 30
0.0
  3
*D33
  1

  0
LINE
  5
5EDD
330
5EDC
100
AcDbEntity
  8
寸法
 62
     0
370
    -2
100
AcDbLine
 10
2195.800088449528
 20
788.9091633865168
 30
0.0
 11
2267.800379246352
 21
788.9091633865168
 31
0.0
  0
LINE
  5
5EDE
330
5EDC
100
AcDbEntity
  8
寸法
 62
     0
370
    -2
100
AcDbLine
 10
2238.800088449528
 20
833.9091633865168
 30
0.0
 11
2267.800379246352
 21
833.9091633865168
 31
0.0
  0
LINE
  5
5EDF
330
5EDC
100
AcDbEntity
  8
寸法
 62
     0
370
    -2
100
AcDbLine
 10
2262.800379246352
 20
823.9091633865168
 30
0.0
 11
2262.800379246352
 21
798.9091633865168
 31
0.0
  0
LINE
  5
5EE0
330
5EDC
100
AcDbEntity
  8
寸法
 62
     0
370
    -2
100
AcDbLine
 10
2262.800379246352
 20
788.9091633865168
 30
0.0
 11
2262.800379246352
 21
725.5758300531835
 31
0.0
  0
SOLID
  5
5EE1
330
5EDC
100
AcDbEntity
  8
寸法
 62
     0
100
AcDbTrace
 10
2261.133712579685
 20
823.9091633865168
 30
0.0
 11
2264.467045913018
 21
823.9091633865168
 31
0.0
 12
2262.800379246352
 22
833.9091633865168
 32
0.0
 13
2262.800379246352
 23
833.9091633865168
 33
0.0
  0
SOLID
  5
5EE2
330
5EDC
100
AcDbEntity
  8
寸法
 62
     0
100
AcDbTrace
 10
2261.133712579685
 20
798.9091633865168
 30
0.0
 11
2264.467045913018
 21
798.9091633865168
 31
0.0
 12
2262.800379246352
 22
788.9091633865168
 32
0.0
 13
2262.800379246352
 23
788.9091633865168
 33
0.0
  0
MTEXT
  5
5EE3
330
5EDC
100
AcDbEntity
  8
寸法
 62
     0
100
AcDbMText
 10
2282.800379246352
 20
752.2424967198506
 30
0.0
 40
20.0
 41
0.0
 71
     5
 72
     1
  1
45
 11
0.0000000000000001
 21
1.0
 31
0.0
 73
     1
 44
1.0
1001
ACAD
1000
MTEXTBEGIN
1070
    73
1070
     1
1070
    44
1040
1.0
1070
    74
1070
     0
1000
MTEXTEND
  0
POINT
  5
5EE4
330
5EDC
100
AcDbEntity
  8
DEFPOINTS
 62
     0
100
AcDbPoint
 10
2165.800088449528
 20
788.9091633865168
 30
0.0
  0
POINT
  5
5EE5
330
5EDC
100
AcDbEntity
  8
DEFPOINTS
 62
     0
100
AcDbPoint
 10
2208.800088449528
 20
833.9091633865168
 30
0.0
  0
POINT
  5
5EE6
330
5EDC
100
AcDbEntity
  8
DEFPOINTS
 62
     0
100
AcDbPoint
 10
2262.800379246352
 20
833.9091633865168
 30
0.0
  0
ENDBLK
  5
5EE8
330
5EDC
100
AcDbEntity
  8
0
100
AcDbBlockEnd
  0
BLOCK
  5
5EF5
330
5EE9
100
AcDbEntity
  8
0
100
AcDbBlockBegin
  2
*D34
 70
     1
 10
0.0
 20
0.0
 30
0.0
  3
*D34
  1

  0
LINE
  5
5EEA
330
5EE9
100
AcDbEntity
  8
寸法
 62
     0
370
    -2
100
AcDbLine
 10
2195.800088449528
 20
833.9091633865168
 30
0.0
 11
2267.800379246352
 21
833.9091633865168
 31
0.0
  0
LINE
  5
5EEB
330
5EE9
100
AcDbEntity
  8
寸法
 62
     0
370
    -2
100
AcDbLine
 10
2238.800088449528
 20
838.9091633865168
 30
0.0
 11
2267.800379246352
 21
838.9091633865168
 31
0.0
  0
LINE
  5
5EEC
330
5EE9
100
AcDbEntity
  8
寸法
 62
     0
370
    -2
100
AcDbLine
 10
2262.800379246352
 20
823.9091633865168
 30
0.0
 11
2262.800379246352
 21
813.9091633865168
 31
0.0
  0
LINE
  5
5EED
330
5EE9
100
AcDbEntity
  8
寸法
 62
     0
370
    -2
100
AcDbLine
 10
2262.800379246352
 20
848.9091633865168
 30
0.0
 11
2262.800379246352
 21
858.9091633865168
 31
0.0
  0
LINE
  5
5EEE
330
5EE9
100
AcDbEntity
  8
寸法
 62
     0
370
    -2
100
AcDbLine
 10
2262.800379246352
 20
833.9091633865168
 30
0.0
 11
2262.800379246352
 21
838.9091633865168
 31
0.0
  0
SOLID
  5
5EEF
330
5EE9
100
AcDbEntity
  8
寸法
 62
     0
100
AcDbTrace
 10
2261.133712579685
 20
823.9091633865168
 30
0.0
 11
2264.467045913018
 21
823.9091633865168
 31
0.0
 12
2262.800379246352
 22
833.9091633865168
 32
0.0
 13
2262.800379246352
 23
833.9091633865168
 33
0.0
  0
SOLID
  5
5EF0
330
5EE9
100
AcDbEntity
  8
寸法
 62
     0
100
AcDbTrace
 10
2261.133712579685
 20
848.9091633865168
 30
0.0
 11
2264.467045913018
 21
848.9091633865168
 31
0.0
 12
2262.800379246352
 22
838.9091633865168
 32
0.0
 13
2262.800379246352
 23
838.9091633865168
 33
0.0
  0
MTEXT
  5
5EF1
330
5EE9
100
AcDbEntity
  8
寸法
 62
     0
100
AcDbMText
 10
2282.800379246352
 20
836.4091633865172
 30
0.0
 40
20.0
 41
0.0
 71
     5
 72
     1
  1
5
 11
0.0000000000000001
 21
1.0
 31
0.0
 73
     1
 44
1.0
1001
ACAD
1000
MTEXTBEGIN
1070
    73
1070
     1
1070
    44
1040
1.0
1070
    74
1070
     0
1000
MTEXTEND
  0
POINT
  5
5EF2
330
5EE9
100
AcDbEntity
  8
DEFPOINTS
 62
     0
100
AcDbPoint
 10
2165.800088449528
 20
833.9091633865168
 30
0.0
  0
POINT
  5
5EF3
330
5EE9
100
AcDbEntity
  8
DEFPOINTS
 62
     0
100
AcDbPoint
 10
2208.800088449528
 20
838.9091633865168
 30
0.0
  0
POINT
  5
5EF4
330
5EE9
100
AcDbEntity
  8
DEFPOINTS
 62
     0
100
AcDbPoint
 10
2262.800379246352
 20
838.9091633865168
 30
0.0
  0
ENDBLK
  5
5EF6
330
5EE9
100
AcDbEntity
  8
0
100
AcDbBlockEnd
  0
BLOCK
  5
5F02
330
5EF7
100
AcDbEntity
  8
0
100
AcDbBlockBegin
  2
*D35
 70
     1
 10
0.0
 20
0.0
 30
0.0
  3
*D35
  1

  0
LINE
  5
5EF8
330
5EF7
100
AcDbEntity
  8
寸法
 62
     0
370
    -2
100
AcDbLine
 10
2238.800088449528
 20
838.9091633865168
 30
0.0
 11
2267.800379246352
 21
838.9091633865168
 31
0.0
  0
LINE
  5
5EF9
330
5EF7
100
AcDbEntity
  8
寸法
 62
     0
370
    -2
100
AcDbLine
 10
2238.800088449528
 20
888.9091633865168
 30
0.0
 11
2267.800379246352
 21
888.9091633865168
 31
0.0
  0
LINE
  5
5EFA
330
5EF7
100
AcDbEntity
  8
寸法
 62
     0
370
    -2
100
AcDbLine
 10
2262.800379246352
 20
848.9091633865168
 30
0.0
 11
2262.800379246352
 21
878.9091633865169
 31
0.0
  0
LINE
  5
5EFB
330
5EF7
100
AcDbEntity
  8
寸法
 62
     0
370
    -2
100
AcDbLine
 10
2262.800379246352
 20
888.9091633865168
 30
0.0
 11
2262.800379246352
 21
948.9091633865168
 31
0.0
  0
SOLID
  5
5EFC
330
5EF7
100
AcDbEntity
  8
寸法
 62
     0
100
AcDbTrace
 10
2261.133712579685
 20
848.9091633865168
 30
0.0
 11
2264.467045913018
 21
848.9091633865168
 31
0.0
 12
2262.800379246352
 22
838.9091633865168
 32
0.0
 13
2262.800379246352
 23
838.9091633865168
 33
0.0
  0
SOLID
  5
5EFD
330
5EF7
100
AcDbEntity
  8
寸法
 62
     0
100
AcDbTrace
 10
2261.133712579685
 20
878.9091633865169
 30
0.0
 11
2264.467045913018
 21
878.9091633865169
 31
0.0
 12
2262.800379246352
 22
888.9091633865168
 32
0.0
 13
2262.800379246352
 23
888.9091633865168
 33
0.0
  0
MTEXT
  5
5EFE
330
5EF7
100
AcDbEntity
  8
寸法
 62
     0
100
AcDbMText
 10
2282.800379246352
 20
923.9091633865172
 30
0.0
 40
20.0
 41
0.0
 71
     5
 72
     1
  1
50
 11
0.0000000000000001
 21
1.0
 31
0.0
 73
     1
 44
1.0
1001
ACAD
1000
MTEXTBEGIN
1070
    73
1070
     1
1070
    44
1040
1.0
1070
    74
1070
     0
1000
MTEXTEND
  0
POINT
  5
5EFF
330
5EF7
100
AcDbEntity
  8
DEFPOINTS
 62
     0
100
AcDbPoint
 10
2208.800088449528
 20
838.9091633865168
 30
0.0
  0
POINT
  5
5F00
330
5EF7
100
AcDbEntity
  8
DEFPOINTS
 62
     0
100
AcDbPoint
 10
2208.800088449528
 20
888.9091633865168
 30
0.0
  0
POINT
  5
5F01
330
5EF7
100
AcDbEntity
  8
DEFPOINTS
 62
     0
100
AcDbPoint
 10
2262.800379246352
 20
888.9091633865168
 30
0.0
  0
ENDBLK
  5
5F03
330
5EF7
100
AcDbEntity
  8
0
100
AcDbBlockEnd
  0
BLOCK
  5
5F0E
330
5F04
100
AcDbEntity
  8
0
100
AcDbBlockBegin
  2
*D36
 70
     1
 10
0.0
 20
0.0
 30
0.0
  3
*D36
  1

  0
LINE
  5
5F05
330
5F04
100
AcDbEntity
  8
寸法
 62
     0
370
    -2
100
AcDbLine
 10
2783.800088449528
 20
2208.909163386517
 30
0.0
 11
2863.800088449528
 21
2208.909163386517
 31
0.0
  0
LINE
  5
5F06
330
5F04
100
AcDbEntity
  8
寸法
 62
     0
370
    -2
100
AcDbLine
 10
2783.800088449528
 20
2468.909163386517
 30
0.0
 11
2863.800088449528
 21
2468.909163386517
 31
0.0
  0
LINE
  5
5F07
330
5F04
100
AcDbEntity
  8
寸法
 62
     0
370
    -2
100
AcDbLine
 10
2858.800088449529
 20
2218.909163386517
 30
0.0
 11
2858.800088449529
 21
2458.909163386517
 31
0.0
  0
SOLID
  5
5F08
330
5F04
100
AcDbEntity
  8
寸法
 62
     0
100
AcDbTrace
 10
2857.133421782862
 20
2218.909163386517
 30
0.0
 11
2860.466755116195
 21
2218.909163386517
 31
0.0
 12
2858.800088449529
 22
2208.909163386517
 32
0.0
 13
2858.800088449529
 23
2208.909163386517
 33
0.0
  0
SOLID
  5
5F09
330
5F04
100
AcDbEntity
  8
寸法
 62
     0
100
AcDbTrace
 10
2857.133421782862
 20
2458.909163386517
 30
0.0
 11
2860.466755116195
 21
2458.909163386517
 31
0.0
 12
2858.800088449529
 22
2468.909163386517
 32
0.0
 13
2858.800088449529
 23
2468.909163386517
 33
0.0
  0
MTEXT
  5
5F0A
330
5F04
100
AcDbEntity
  8
寸法
 62
     0
100
AcDbMText
 10
2878.800088449528
 20
2338.909163386517
 30
0.0
 40
20.0
 41
0.0
 71
     5
 72
     1
  1
260
 11
0.0000000000000001
 21
1.0
 31
0.0
 73
     1
 44
1.0
1001
ACAD
1000
MTEXTBEGIN
1070
    73
1070
     1
1070
    44
1040
1.0
1070
    74
1070
     0
1000
MTEXTEND
  0
POINT
  5
5F0B
330
5F04
100
AcDbEntity
  8
DEFPOINTS
 62
     0
100
AcDbPoint
 10
2753.800088449529
 20
2208.909163386517
 30
0.0
  0
POINT
  5
5F0C
330
5F04
100
AcDbEntity
  8
DEFPOINTS
 62
     0
100
AcDbPoint
 10
2753.800088449529
 20
2468.909163386517
 30
0.0
  0
POINT
  5
5F0D
330
5F04
100
AcDbEntity
  8
DEFPOINTS
 62
     0
100
AcDbPoint
 10
2858.800088449529
 20
2468.909163386517
 30
0.0
  0
ENDBLK
  5
5F0F
330
5F04
100
AcDbEntity
  8
0
100
AcDbBlockEnd
  0
BLOCK
  5
5F1C
330
5F10
100
AcDbEntity
  8
0
100
AcDbBlockBegin
  2
*D37
 70
     1
 10
0.0
 20
0.0
 30
0.0
  3
*D37
  1

  0
LINE
  5
5F11
330
5F10
100
AcDbEntity
  8
寸法
 62
     0
370
    -2
100
AcDbLine
 10
2783.800088449528
 20
2468.909163386517
 30
0.0
 11
2863.800088449529
 21
2468.909163386517
 31
0.0
  0
LINE
  5
5F12
330
5F10
100
AcDbEntity
  8
寸法
 62
     0
370
    -2
100
AcDbLine
 10
2838.800088449529
 20
2488.909163386517
 30
0.0
 11
2863.800088449529
 21
2488.909163386517
 31
0.0
  0
LINE
  5
5F13
330
5F10
100
AcDbEntity
  8
寸法
 62
     0
370
    -2
100
AcDbLine
 10
2858.800088449529
 20
2458.909163386517
 30
0.0
 11
2858.800088449529
 21
2448.909163386517
 31
0.0
  0
LINE
  5
5F14
330
5F10
100
AcDbEntity
  8
寸法
 62
     0
370
    -2
100
AcDbLine
 10
2858.800088449529
 20
2498.909163386517
 30
0.0
 11
2858.800088449529
 21
2508.909163386517
 31
0.0
  0
LINE
  5
5F15
330
5F10
100
AcDbEntity
  8
寸法
 62
     0
370
    -2
100
AcDbLine
 10
2858.800088449529
 20
2468.909163386517
 30
0.0
 11
2858.800088449529
 21
2488.909163386517
 31
0.0
  0
SOLID
  5
5F16
330
5F10
100
AcDbEntity
  8
寸法
 62
     0
100
AcDbTrace
 10
2857.133421782862
 20
2458.909163386517
 30
0.0
 11
2860.466755116195
 21
2458.909163386517
 31
0.0
 12
2858.800088449529
 22
2468.909163386517
 32
0.0
 13
2858.800088449529
 23
2468.909163386517
 33
0.0
  0
SOLID
  5
5F17
330
5F10
100
AcDbEntity
  8
寸法
 62
     0
100
AcDbTrace
 10
2857.133421782862
 20
2498.909163386517
 30
0.0
 11
2860.466755116195
 21
2498.909163386517
 31
0.0
 12
2858.800088449529
 22
2488.909163386517
 32
0.0
 13
2858.800088449529
 23
2488.909163386517
 33
0.0
  0
MTEXT
  5
5F18
330
5F10
100
AcDbEntity
  8
寸法
 62
     0
100
AcDbMText
 10
2878.800088449528
 20
2478.909163386517
 30
0.0
 40
20.0
 41
0.0
 71
     5
 72
     1
  1
20
 11
0.0000000000000001
 21
1.0
 31
0.0
 73
     1
 44
1.0
1001
ACAD
1000
MTEXTBEGIN
1070
    73
1070
     1
1070
    44
1040
1.0
1070
    74
1070
     0
1000
MTEXTEND
  0
POINT
  5
5F19
330
5F10
100
AcDbEntity
  8
DEFPOINTS
 62
     0
100
AcDbPoint
 10
2753.800088449529
 20
2468.909163386517
 30
0.0
  0
POINT
  5
5F1A
330
5F10
100
AcDbEntity
  8
DEFPOINTS
 62
     0
100
AcDbPoint
 10
2808.800088449528
 20
2488.909163386517
 30
0.0
  0
POINT
  5
5F1B
330
5F10
100
AcDbEntity
  8
DEFPOINTS
 62
     0
100
AcDbPoint
 10
2858.800088449529
 20
2488.909163386517
 30
0.0
  0
ENDBLK
  5
5F1D
330
5F10
100
AcDbEntity
  8
0
100
AcDbBlockEnd
  0
BLOCK
  5
5F29
330
5F1E
100
AcDbEntity
  8
0
100
AcDbBlockBegin
  2
*D38
 70
     1
 10
0.0
 20
0.0
 30
0.0
  3
*D38
  1

  0
LINE
  5
5F1F
330
5F1E
100
AcDbEntity
  8
寸法
 62
     0
370
    -2
100
AcDbLine
 10
2838.800088449529
 20
2488.909163386517
 30
0.0
 11
2863.800088449528
 21
2488.909163386517
 31
0.0
  0
LINE
  5
5F20
330
5F1E
100
AcDbEntity
  8
寸法
 62
     0
370
    -2
100
AcDbLine
 10
2838.800088449529
 20
2538.909163386517
 30
0.0
 11
2863.800088449528
 21
2538.909163386517
 31
0.0
  0
LINE
  5
5F21
330
5F1E
100
AcDbEntity
  8
寸法
 62
     0
370
    -2
100
AcDbLine
 10
2858.800088449529
 20
2498.909163386517
 30
0.0
 11
2858.800088449529
 21
2528.909163386517
 31
0.0
  0
LINE
  5
5F22
330
5F1E
100
AcDbEntity
  8
寸法
 62
     0
370
    -2
100
AcDbLine
 10
2858.800088449529
 20
2538.909163386517
 30
0.0
 11
2858.800088449529
 21
2598.909163386517
 31
0.0
  0
SOLID
  5
5F23
330
5F1E
100
AcDbEntity
  8
寸法
 62
     0
100
AcDbTrace
 10
2857.133421782862
 20
2498.909163386517
 30
0.0
 11
2860.466755116195
 21
2498.909163386517
 31
0.0
 12
2858.800088449529
 22
2488.909163386517
 32
0.0
 13
2858.800088449529
 23
2488.909163386517
 33
0.0
  0
SOLID
  5
5F24
330
5F1E
100
AcDbEntity
  8
寸法
 62
     0
100
AcDbTrace
 10
2857.133421782862
 20
2528.909163386517
 30
0.0
 11
2860.466755116195
 21
2528.909163386517
 31
0.0
 12
2858.800088449529
 22
2538.909163386517
 32
0.0
 13
2858.800088449529
 23
2538.909163386517
 33
0.0
  0
MTEXT
  5
5F25
330
5F1E
100
AcDbEntity
  8
寸法
 62
     0
100
AcDbMText
 10
2878.800088449528
 20
2573.909163386517
 30
0.0
 40
20.0
 41
0.0
 71
     5
 72
     1
  1
50
 11
0.0000000000000001
 21
1.0
 31
0.0
 73
     1
 44
1.0
1001
ACAD
1000
MTEXTBEGIN
1070
    73
1070
     1
1070
    44
1040
1.0
1070
    74
1070
     0
1000
MTEXTEND
  0
POINT
  5
5F26
330
5F1E
100
AcDbEntity
  8
DEFPOINTS
 62
     0
100
AcDbPoint
 10
2808.800088449528
 20
2488.909163386517
 30
0.0
  0
POINT
  5
5F27
330
5F1E
100
AcDbEntity
  8
DEFPOINTS
 62
     0
100
AcDbPoint
 10
2808.800088449528
 20
2538.909163386517
 30
0.0
  0
POINT
  5
5F28
330
5F1E
100
AcDbEntity
  8
DEFPOINTS
 62
     0
100
AcDbPoint
 10
2858.800088449529
 20
2538.909163386517
 30
0.0
  0
ENDBLK
  5
5F2A
330
5F1E
100
AcDbEntity
  8
0
100
AcDbBlockEnd
  0
BLOCK
  5
5F4B
330
5F40
100
AcDbEntity
  8
0
100
AcDbBlockBegin
  2
*D39
 70
     1
 10
0.0
 20
0.0
 30
0.0
  3
*D39
  1

  0
LINE
  5
5F41
330
5F40
100
AcDbEntity
  8
寸法
 62
     0
370
    -2
100
AcDbLine
 10
2708.800088449529
 20
2108.909163386517
 30
0.0
 11
2708.800088449529
 21
2074.2633250841
 31
0.0
  0
LINE
  5
5F42
330
5F40
100
AcDbEntity
  8
寸法
 62
     0
370
    -2
100
AcDbLine
 10
2753.800088449529
 20
2108.909163386517
 30
0.0
 11
2753.800088449529
 21
2074.2633250841
 31
0.0
  0
LINE
  5
5F43
330
5F40
100
AcDbEntity
  8
寸法
 62
     0
370
    -2
100
AcDbLine
 10
2743.800088449528
 20
2079.2633250841
 30
0.0
 11
2718.800088449528
 21
2079.2633250841
 31
0.0
  0
LINE
  5
5F44
330
5F40
100
AcDbEntity
  8
寸法
 62
     0
370
    -2
100
AcDbLine
 10
2708.800088449529
 20
2079.2633250841
 30
0.0
 11
2645.466755116195
 21
2079.2633250841
 31
0.0
  0
SOLID
  5
5F45
330
5F40
100
AcDbEntity
  8
寸法
 62
     0
100
AcDbTrace
 10
2743.800088449528
 20
2080.929991750766
 30
0.0
 11
2743.800088449528
 21
2077.596658417433
 31
0.0
 12
2753.800088449529
 22
2079.2633250841
 32
0.0
 13
2753.800088449529
 23
2079.2633250841
 33
0.0
  0
SOLID
  5
5F46
330
5F40
100
AcDbEntity
  8
寸法
 62
     0
100
AcDbTrace
 10
2718.800088449528
 20
2080.929991750766
 30
0.0
 11
2718.800088449528
 21
2077.596658417433
 31
0.0
 12
2708.800088449529
 22
2079.2633250841
 32
0.0
 13
2708.800088449529
 23
2079.2633250841
 33
0.0
  0
MTEXT
  5
5F47
330
5F40
100
AcDbEntity
  8
寸法
 62
     0
100
AcDbMText
 10
2672.133421782862
 20
2059.2633250841
 30
0.0
 40
20.0
 41
0.0
 71
     5
 72
     1
  1
45
 73
     1
 44
1.0
1001
ACAD
1000
MTEXTBEGIN
1070
    73
1070
     1
1070
    44
1040
1.0
1070
    74
1070
     0
1000
MTEXTEND
  0
POINT
  5
5F48
330
5F40
100
AcDbEntity
  8
DEFPOINTS
 62
     0
100
AcDbPoint
 10
2708.800088449529
 20
2138.909163386517
 30
0.0
  0
POINT
  5
5F49
330
5F40
100
AcDbEntity
  8
DEFPOINTS
 62
     0
100
AcDbPoint
 10
2753.800088449529
 20
2138.909163386517
 30
0.0
  0
POINT
  5
5F4A
330
5F40
100
AcDbEntity
  8
DEFPOINTS
 62
     0
100
AcDbPoint
 10
2753.800088449529
 20
2079.2633250841
 30
0.0
  0
ENDBLK
  5
5F4C
330
5F40
100
AcDbEntity
  8
0
100
AcDbBlockEnd
  0
BLOCK
  5
5F57
330
5F4D
100
AcDbEntity
  8
0
100
AcDbBlockBegin
  2
*D40
 70
     1
 10
0.0
 20
0.0
 30
0.0
  3
*D40
  1

  0
LINE
  5
5F4E
330
5F4D
100
AcDbEntity
  8
寸法
 62
     0
370
    -2
100
AcDbLine
 10
2753.800088449529
 20
2108.909163386517
 30
0.0
 11
2753.800088449529
 21
2074.2633250841
 31
0.0
  0
LINE
  5
5F4F
330
5F4D
100
AcDbEntity
  8
寸法
 62
     0
370
    -2
100
AcDbLine
 10
2808.800088449528
 20
2108.909163386517
 30
0.0
 11
2808.800088449528
 21
2074.2633250841
 31
0.0
  0
LINE
  5
5F50
330
5F4D
100
AcDbEntity
  8
寸法
 62
     0
370
    -2
100
AcDbLine
 10
2763.800088449528
 20
2079.2633250841
 30
0.0
 11
2798.800088449528
 21
2079.2633250841
 31
0.0
  0
SOLID
  5
5F51
330
5F4D
100
AcDbEntity
  8
寸法
 62
     0
100
AcDbTrace
 10
2763.800088449528
 20
2080.929991750766
 30
0.0
 11
2763.800088449528
 21
2077.596658417433
 31
0.0
 12
2753.800088449529
 22
2079.2633250841
 32
0.0
 13
2753.800088449529
 23
2079.2633250841
 33
0.0
  0
SOLID
  5
5F52
330
5F4D
100
AcDbEntity
  8
寸法
 62
     0
100
AcDbTrace
 10
2798.800088449528
 20
2080.929991750766
 30
0.0
 11
2798.800088449528
 21
2077.596658417433
 31
0.0
 12
2808.800088449528
 22
2079.2633250841
 32
0.0
 13
2808.800088449528
 23
2079.2633250841
 33
0.0
  0
MTEXT
  5
5F53
330
5F4D
100
AcDbEntity
  8
寸法
 62
     0
100
AcDbMText
 10
2781.300088449528
 20
2059.2633250841
 30
0.0
 40
20.0
 41
0.0
 71
     5
 72
     1
  1
55
 73
     1
 44
1.0
1001
ACAD
1000
MTEXTBEGIN
1070
    73
1070
     1
1070
    44
1040
1.0
1070
    74
1070
     0
1000
MTEXTEND
  0
POINT
  5
5F54
330
5F4D
100
AcDbEntity
  8
DEFPOINTS
 62
     0
100
AcDbPoint
 10
2753.800088449529
 20
2138.909163386517
 30
0.0
  0
POINT
  5
5F55
330
5F4D
100
AcDbEntity
  8
DEFPOINTS
 62
     0
100
AcDbPoint
 10
2808.800088449528
 20
2138.909163386517
 30
0.0
  0
POINT
  5
5F56
330
5F4D
100
AcDbEntity
  8
DEFPOINTS
 62
     0
100
AcDbPoint
 10
2808.800088449528
 20
2079.2633250841
 30
0.0
  0
ENDBLK
  5
5F58
330
5F4D
100
AcDbEntity
  8
0
100
AcDbBlockEnd
  0
BLOCK
  5
5F64
330
5F59
100
AcDbEntity
  8
0
100
AcDbBlockBegin
  2
*D41
 70
     1
 10
0.0
 20
0.0
 30
0.0
  3
*D41
  1

  0
LINE
  5
5F5A
330
5F59
100
AcDbEntity
  8
寸法
 62
     0
370
    -2
100
AcDbLine
 10
3108.800088449529
 20
2568.909163386517
 30
0.0
 11
3108.800088449529
 21
2594.5183862411
 31
0.0
  0
LINE
  5
5F5B
330
5F59
100
AcDbEntity
  8
寸法
 62
     0
370
    -2
100
AcDbLine
 10
3153.800088449528
 20
2568.909163386517
 30
0.0
 11
3153.800088449528
 21
2594.5183862411
 31
0.0
  0
LINE
  5
5F5C
330
5F59
100
AcDbEntity
  8
寸法
 62
     0
370
    -2
100
AcDbLine
 10
3143.800088449528
 20
2589.518386241099
 30
0.0
 11
3118.800088449528
 21
2589.518386241099
 31
0.0
  0
LINE
  5
5F5D
330
5F59
100
AcDbEntity
  8
寸法
 62
     0
370
    -2
100
AcDbLine
 10
3108.800088449529
 20
2589.518386241099
 30
0.0
 11
3045.466755116195
 21
2589.518386241099
 31
0.0
  0
SOLID
  5
5F5E
330
5F59
100
AcDbEntity
  8
寸法
 62
     0
100
AcDbTrace
 10
3143.800088449528
 20
2591.185052907766
 30
0.0
 11
3143.800088449528
 21
2587.851719574433
 31
0.0
 12
3153.800088449528
 22
2589.518386241099
 32
0.0
 13
3153.800088449528
 23
2589.518386241099
 33
0.0
  0
SOLID
  5
5F5F
330
5F59
100
AcDbEntity
  8
寸法
 62
     0
100
AcDbTrace
 10
3118.800088449528
 20
2591.185052907766
 30
0.0
 11
3118.800088449528
 21
2587.851719574433
 31
0.0
 12
3108.800088449529
 22
2589.518386241099
 32
0.0
 13
3108.800088449529
 23
2589.518386241099
 33
0.0
  0
MTEXT
  5
5F60
330
5F59
100
AcDbEntity
  8
寸法
 62
     0
100
AcDbMText
 10
3072.133421782862
 20
2609.518386241099
 30
0.0
 40
20.0
 41
0.0
 71
     5
 72
     1
  1
45
 73
     1
 44
1.0
1001
ACAD
1000
MTEXTBEGIN
1070
    73
1070
     1
1070
    44
1040
1.0
1070
    74
1070
     0
1000
MTEXTEND
  0
POINT
  5
5F61
330
5F59
100
AcDbEntity
  8
DEFPOINTS
 62
     0
100
AcDbPoint
 10
3108.800088449529
 20
2538.909163386517
 30
0.0
  0
POINT
  5
5F62
330
5F59
100
AcDbEntity
  8
DEFPOINTS
 62
     0
100
AcDbPoint
 10
3153.800088449528
 20
2538.909163386517
 30
0.0
  0
POINT
  5
5F63
330
5F59
100
AcDbEntity
  8
DEFPOINTS
 62
     0
100
AcDbPoint
 10
3153.800088449528
 20
2589.518386241099
 30
0.0
  0
ENDBLK
  5
5F65
330
5F59
100
AcDbEntity
  8
0
100
AcDbBlockEnd
  0
BLOCK
  5
5F72
330
5F66
100
AcDbEntity
  8
0
100
AcDbBlockBegin
  2
*D42
 70
     1
 10
0.0
 20
0.0
 30
0.0
  3
*D42
  1

  0
LINE
  5
5F67
330
5F66
100
AcDbEntity
  8
寸法
 62
     0
370
    -2
100
AcDbLine
 10
3153.800088449528
 20
2568.909163386517
 30
0.0
 11
3153.800088449528
 21
2594.5183862411
 31
0.0
  0
LINE
  5
5F68
330
5F66
100
AcDbEntity
  8
寸法
 62
     0
370
    -2
100
AcDbLine
 10
3158.800088449528
 20
2568.909163386517
 30
0.0
 11
3158.800088449528
 21
2594.5183862411
 31
0.0
  0
LINE
  5
5F69
330
5F66
100
AcDbEntity
  8
寸法
 62
     0
370
    -2
100
AcDbLine
 10
3143.800088449528
 20
2589.518386241099
 30
0.0
 11
3133.800088449528
 21
2589.518386241099
 31
0.0
  0
LINE
  5
5F6A
330
5F66
100
AcDbEntity
  8
寸法
 62
     0
370
    -2
100
AcDbLine
 10
3168.800088449528
 20
2589.518386241099
 30
0.0
 11
3178.800088449528
 21
2589.518386241099
 31
0.0
  0
LINE
  5
5F6B
330
5F66
100
AcDbEntity
  8
寸法
 62
     0
370
    -2
100
AcDbLine
 10
3153.800088449528
 20
2589.518386241099
 30
0.0
 11
3158.800088449528
 21
2589.518386241099
 31
0.0
  0
SOLID
  5
5F6C
330
5F66
100
AcDbEntity
  8
寸法
 62
     0
100
AcDbTrace
 10
3143.800088449528
 20
2591.185052907766
 30
0.0
 11
3143.800088449528
 21
2587.851719574433
 31
0.0
 12
3153.800088449528
 22
2589.518386241099
 32
0.0
 13
3153.800088449528
 23
2589.518386241099
 33
0.0
  0
SOLID
  5
5F6D
330
5F66
100
AcDbEntity
  8
寸法
 62
     0
100
AcDbTrace
 10
3168.800088449528
 20
2591.185052907766
 30
0.0
 11
3168.800088449528
 21
2587.851719574433
 31
0.0
 12
3158.800088449528
 22
2589.518386241099
 32
0.0
 13
3158.800088449528
 23
2589.518386241099
 33
0.0
  0
MTEXT
  5
5F6E
330
5F66
100
AcDbEntity
  8
寸法
 62
     0
100
AcDbMText
 10
3156.300088449528
 20
2609.518386241099
 30
0.0
 40
20.0
 41
0.0
 71
     5
 72
     1
  1
5
 73
     1
 44
1.0
1001
ACAD
1000
MTEXTBEGIN
1070
    73
1070
     1
1070
    44
1040
1.0
1070
    74
1070
     0
1000
MTEXTEND
  0
POINT
  5
5F6F
330
5F66
100
AcDbEntity
  8
DEFPOINTS
 62
     0
100
AcDbPoint
 10
3153.800088449528
 20
2538.909163386517
 30
0.0
  0
POINT
  5
5F70
330
5F66
100
AcDbEntity
  8
DEFPOINTS
 62
     0
100
AcDbPoint
 10
3158.800088449528
 20
2538.909163386517
 30
0.0
  0
POINT
  5
5F71
330
5F66
100
AcDbEntity
  8
DEFPOINTS
 62
     0
100
AcDbPoint
 10
3158.800088449528
 20
2589.518386241099
 30
0.0
  0
ENDBLK
  5
5F73
330
5F66
100
AcDbEntity
  8
0
100
AcDbBlockEnd
  0
BLOCK
  5
5F7F
330
5F74
100
AcDbEntity
  8
0
100
AcDbBlockBegin
  2
*D43
 70
     1
 10
0.0
 20
0.0
 30
0.0
  3
*D43
  1

  0
LINE
  5
5F75
330
5F74
100
AcDbEntity
  8
寸法
 62
     0
370
    -2
100
AcDbLine
 10
3158.800088449528
 20
2568.909163386517
 30
0.0
 11
3158.800088449528
 21
2594.5183862411
 31
0.0
  0
LINE
  5
5F76
330
5F74
100
AcDbEntity
  8
寸法
 62
     0
370
    -2
100
AcDbLine
 10
3208.800088449528
 20
2568.909163386517
 30
0.0
 11
3208.800088449528
 21
2594.5183862411
 31
0.0
  0
LINE
  5
5F77
330
5F74
100
AcDbEntity
  8
寸法
 62
     0
370
    -2
100
AcDbLine
 10
3168.800088449528
 20
2589.518386241099
 30
0.0
 11
3198.800088449528
 21
2589.518386241099
 31
0.0
  0
LINE
  5
5F78
330
5F74
100
AcDbEntity
  8
寸法
 62
     0
370
    -2
100
AcDbLine
 10
3208.800088449528
 20
2589.518386241099
 30
0.0
 11
3268.800088449528
 21
2589.518386241099
 31
0.0
  0
SOLID
  5
5F79
330
5F74
100
AcDbEntity
  8
寸法
 62
     0
100
AcDbTrace
 10
3168.800088449528
 20
2591.185052907766
 30
0.0
 11
3168.800088449528
 21
2587.851719574433
 31
0.0
 12
3158.800088449528
 22
2589.518386241099
 32
0.0
 13
3158.800088449528
 23
2589.518386241099
 33
0.0
  0
SOLID
  5
5F7A
330
5F74
100
AcDbEntity
  8
寸法
 62
     0
100
AcDbTrace
 10
3198.800088449528
 20
2591.185052907766
 30
0.0
 11
3198.800088449528
 21
2587.851719574433
 31
0.0
 12
3208.800088449528
 22
2589.518386241099
 32
0.0
 13
3208.800088449528
 23
2589.518386241099
 33
0.0
  0
MTEXT
  5
5F7B
330
5F74
100
AcDbEntity
  8
寸法
 62
     0
100
AcDbMText
 10
3243.800088449528
 20
2609.518386241099
 30
0.0
 40
20.0
 41
0.0
 71
     5
 72
     1
  1
50
 73
     1
 44
1.0
1001
ACAD
1000
MTEXTBEGIN
1070
    73
1070
     1
1070
    44
1040
1.0
1070
    74
1070
     0
1000
MTEXTEND
  0
POINT
  5
5F7C
330
5F74
100
AcDbEntity
  8
DEFPOINTS
 62
     0
100
AcDbPoint
 10
3158.800088449528
 20
2538.909163386517
 30
0.0
  0
POINT
  5
5F7D
330
5F74
100
AcDbEntity
  8
DEFPOINTS
 62
     0
100
AcDbPoint
 10
3208.800088449528
 20
2538.909163386517
 30
0.0
  0
POINT
  5
5F7E
330
5F74
100
AcDbEntity
  8
DEFPOINTS
 62
     0
100
AcDbPoint
 10
3208.800088449528
 20
2589.518386241099
 30
0.0
  0
ENDBLK
  5
5F80
330
5F74
100
AcDbEntity
  8
0
100
AcDbBlockEnd
  0
BLOCK
  5
5F8B
330
5F81
100
AcDbEntity
  8
0
100
AcDbBlockBegin
  2
*D44
 70
     1
 10
0.0
 20
0.0
 30
0.0
  3
*D44
  1

  0
LINE
  5
5F82
330
5F81
100
AcDbEntity
  8
寸法
 62
     0
370
    -2
100
AcDbLine
 10
3238.800088449528
 20
2239.909163386517
 30
0.0
 11
3261.485621563927
 21
2239.909163386517
 31
0.0
  0
LINE
  5
5F83
330
5F81
100
AcDbEntity
  8
寸法
 62
     0
370
    -2
100
AcDbLine
 10
3238.800088449528
 20
2538.909163386517
 30
0.0
 11
3261.485621563927
 21
2538.909163386517
 31
0.0
  0
LINE
  5
5F84
330
5F81
100
AcDbEntity
  8
寸法
 62
     0
370
    -2
100
AcDbLine
 10
3256.485621563927
 20
2249.909163386517
 30
0.0
 11
3256.485621563927
 21
2528.909163386517
 31
0.0
  0
SOLID
  5
5F85
330
5F81
100
AcDbEntity
  8
寸法
 62
     0
100
AcDbTrace
 10
3254.818954897261
 20
2249.909163386517
 30
0.0
 11
3258.152288230593
 21
2249.909163386517
 31
0.0
 12
3256.485621563927
 22
2239.909163386517
 32
0.0
 13
3256.485621563927
 23
2239.909163386517
 33
0.0
  0
SOLID
  5
5F86
330
5F81
100
AcDbEntity
  8
寸法
 62
     0
100
AcDbTrace
 10
3254.818954897261
 20
2528.909163386517
 30
0.0
 11
3258.152288230593
 21
2528.909163386517
 31
0.0
 12
3256.485621563927
 22
2538.909163386517
 32
0.0
 13
3256.485621563927
 23
2538.909163386517
 33
0.0
  0
MTEXT
  5
5F87
330
5F81
100
AcDbEntity
  8
寸法
 62
     0
100
AcDbMText
 10
3276.485621563927
 20
2389.409163386518
 30
0.0
 40
20.0
 41
0.0
 71
     5
 72
     1
  1
299
 11
0.0000000000000001
 21
1.0
 31
0.0
 73
     1
 44
1.0
1001
ACAD
1000
MTEXTBEGIN
1070
    73
1070
     1
1070
    44
1040
1.0
1070
    74
1070
     0
1000
MTEXTEND
  0
POINT
  5
5F88
330
5F81
100
AcDbEntity
  8
DEFPOINTS
 62
     0
100
AcDbPoint
 10
3208.800088449528
 20
2239.909163386517
 30
0.0
  0
POINT
  5
5F89
330
5F81
100
AcDbEntity
  8
DEFPOINTS
 62
     0
100
AcDbPoint
 10
3208.800088449528
 20
2538.909163386517
 30
0.0
  0
POINT
  5
5F8A
330
5F81
100
AcDbEntity
  8
DEFPOINTS
 62
     0
100
AcDbPoint
 10
3256.485621563927
 20
2538.909163386517
 30
0.0
  0
ENDBLK
  5
5F8C
330
5F81
100
AcDbEntity
  8
0
100
AcDbBlockEnd
  0
BLOCK
  5
5F99
330
5F8D
100
AcDbEntity
  8
0
100
AcDbBlockBegin
  2
*D45
 70
     1
 10
0.0
 20
0.0
 30
0.0
  3
*D45
  1

  0
LINE
  5
5F8E
330
5F8D
100
AcDbEntity
  8
寸法
 62
     0
370
    -2
100
AcDbLine
 10
3238.800088449528
 20
2234.909163386517
 30
0.0
 11
3261.485621563928
 21
2234.909163386517
 31
0.0
  0
LINE
  5
5F8F
330
5F8D
100
AcDbEntity
  8
寸法
 62
     0
370
    -2
100
AcDbLine
 10
3238.800088449528
 20
2239.909163386517
 30
0.0
 11
3261.485621563928
 21
2239.909163386517
 31
0.0
  0
LINE
  5
5F90
330
5F8D
100
AcDbEntity
  8
寸法
 62
     0
370
    -2
100
AcDbLine
 10
3256.485621563927
 20
2224.909163386517
 30
0.0
 11
3256.485621563927
 21
2214.909163386517
 31
0.0
  0
LINE
  5
5F91
330
5F8D
100
AcDbEntity
  8
寸法
 62
     0
370
    -2
100
AcDbLine
 10
3256.485621563927
 20
2249.909163386517
 30
0.0
 11
3256.485621563927
 21
2259.909163386517
 31
0.0
  0
LINE
  5
5F92
330
5F8D
100
AcDbEntity
  8
寸法
 62
     0
370
    -2
100
AcDbLine
 10
3256.485621563927
 20
2234.909163386517
 30
0.0
 11
3256.485621563927
 21
2239.909163386517
 31
0.0
  0
SOLID
  5
5F93
330
5F8D
100
AcDbEntity
  8
寸法
 62
     0
100
AcDbTrace
 10
3254.818954897261
 20
2224.909163386517
 30
0.0
 11
3258.152288230594
 21
2224.909163386517
 31
0.0
 12
3256.485621563927
 22
2234.909163386517
 32
0.0
 13
3256.485621563927
 23
2234.909163386517
 33
0.0
  0
SOLID
  5
5F94
330
5F8D
100
AcDbEntity
  8
寸法
 62
     0
100
AcDbTrace
 10
3254.818954897261
 20
2249.909163386517
 30
0.0
 11
3258.152288230594
 21
2249.909163386517
 31
0.0
 12
3256.485621563927
 22
2239.909163386517
 32
0.0
 13
3256.485621563927
 23
2239.909163386517
 33
0.0
  0
MTEXT
  5
5F95
330
5F8D
100
AcDbEntity
  8
寸法
 62
     0
100
AcDbMText
 10
3276.485621563927
 20
2237.409163386518
 30
0.0
 40
20.0
 41
0.0
 71
     5
 72
     1
  1
5
 11
0.0000000000000001
 21
1.0
 31
0.0
 73
     1
 44
1.0
1001
ACAD
1000
MTEXTBEGIN
1070
    73
1070
     1
1070
    44
1040
1.0
1070
    74
1070
     0
1000
MTEXTEND
  0
POINT
  5
5F96
330
5F8D
100
AcDbEntity
  8
DEFPOINTS
 62
     0
100
AcDbPoint
 10
3208.800088449528
 20
2234.909163386517
 30
0.0
  0
POINT
  5
5F97
330
5F8D
100
AcDbEntity
  8
DEFPOINTS
 62
     0
100
AcDbPoint
 10
3208.800088449528
 20
2239.909163386517
 30
0.0
  0
POINT
  5
5F98
330
5F8D
100
AcDbEntity
  8
DEFPOINTS
 62
     0
100
AcDbPoint
 10
3256.485621563927
 20
2239.909163386517
 30
0.0
  0
ENDBLK
  5
5F9A
330
5F8D
100
AcDbEntity
  8
0
100
AcDbBlockEnd
  0
BLOCK
  5
5FA5
330
5F9B
100
AcDbEntity
  8
0
100
AcDbBlockBegin
  2
*D46
 70
     1
 10
0.0
 20
0.0
 30
0.0
  3
*D46
  1

  0
LINE
  5
5F9C
330
5F9B
100
AcDbEntity
  8
寸法
 62
     0
370
    -2
100
AcDbLine
 10
3238.800088449528
 20
2234.909163386517
 30
0.0
 11
3261.485621563927
 21
2234.909163386517
 31
0.0
  0
LINE
  5
5F9D
330
5F9B
100
AcDbEntity
  8
寸法
 62
     0
370
    -2
100
AcDbLine
 10
3238.800088449528
 20
2138.909163386517
 30
0.0
 11
3261.485621563927
 21
2138.909163386517
 31
0.0
  0
LINE
  5
5F9E
330
5F9B
100
AcDbEntity
  8
寸法
 62
     0
370
    -2
100
AcDbLine
 10
3256.485621563927
 20
2224.909163386517
 30
0.0
 11
3256.485621563927
 21
2148.909163386517
 31
0.0
  0
SOLID
  5
5F9F
330
5F9B
100
AcDbEntity
  8
寸法
 62
     0
100
AcDbTrace
 10
3254.818954897261
 20
2224.909163386517
 30
0.0
 11
3258.152288230593
 21
2224.909163386517
 31
0.0
 12
3256.485621563927
 22
2234.909163386517
 32
0.0
 13
3256.485621563927
 23
2234.909163386517
 33
0.0
  0
SOLID
  5
5FA0
330
5F9B
100
AcDbEntity
  8
寸法
 62
     0
100
AcDbTrace
 10
3254.818954897261
 20
2148.909163386517
 30
0.0
 11
3258.152288230593
 21
2148.909163386517
 31
0.0
 12
3256.485621563927
 22
2138.909163386517
 32
0.0
 13
3256.485621563927
 23
2138.909163386517
 33
0.0
  0
MTEXT
  5
5FA1
330
5F9B
100
AcDbEntity
  8
寸法
 62
     0
100
AcDbMText
 10
3276.485621563927
 20
2186.909163386518
 30
0.0
 40
20.0
 41
0.0
 71
     5
 72
     1
  1
96
 11
0.0000000000000001
 21
1.0
 31
0.0
 73
     1
 44
1.0
1001
ACAD
1000
MTEXTBEGIN
1070
    73
1070
     1
1070
    44
1040
1.0
1070
    74
1070
     0
1000
MTEXTEND
  0
POINT
  5
5FA2
330
5F9B
100
AcDbEntity
  8
DEFPOINTS
 62
     0
100
AcDbPoint
 10
3208.800088449528
 20
2234.909163386517
 30
0.0
  0
POINT
  5
5FA3
330
5F9B
100
AcDbEntity
  8
DEFPOINTS
 62
     0
100
AcDbPoint
 10
3208.800088449528
 20
2138.909163386517
 30
0.0
  0
POINT
  5
5FA4
330
5F9B
100
AcDbEntity
  8
DEFPOINTS
 62
     0
100
AcDbPoint
 10
3256.485621563927
 20
2138.909163386517
 30
0.0
  0
ENDBLK
  5
5FA6
330
5F9B
100
AcDbEntity
  8
0
100
AcDbBlockEnd
  0
BLOCK
  5
5FB1
330
5FA7
100
AcDbEntity
  8
0
100
AcDbBlockBegin
  2
*D47
 70
     1
 10
0.0
 20
0.0
 30
0.0
  3
*D47
  1

  0
LINE
  5
5FA8
330
5FA7
100
AcDbEntity
  8
寸法
 62
     0
370
    -2
100
AcDbLine
 10
3108.800088449529
 20
2108.909163386517
 30
0.0
 11
3108.800088449529
 21
2028.110308324755
 31
0.0
  0
LINE
  5
5FA9
330
5FA7
100
AcDbEntity
  8
寸法
 62
     0
370
    -2
100
AcDbLine
 10
3208.800088449528
 20
2108.909163386517
 30
0.0
 11
3208.800088449528
 21
2028.110308324755
 31
0.0
  0
LINE
  5
5FAA
330
5FA7
100
AcDbEntity
  8
寸法
 62
     0
370
    -2
100
AcDbLine
 10
3118.800088449528
 20
2033.110308324755
 30
0.0
 11
3198.800088449528
 21
2033.110308324755
 31
0.0
  0
SOLID
  5
5FAB
330
5FA7
100
AcDbEntity
  8
寸法
 62
     0
100
AcDbTrace
 10
3118.800088449528
 20
2034.776974991422
 30
0.0
 11
3118.800088449528
 21
2031.443641658088
 31
0.0
 12
3108.800088449529
 22
2033.110308324755
 32
0.0
 13
3108.800088449529
 23
2033.110308324755
 33
0.0
  0
SOLID
  5
5FAC
330
5FA7
100
AcDbEntity
  8
寸法
 62
     0
100
AcDbTrace
 10
3198.800088449528
 20
2034.776974991422
 30
0.0
 11
3198.800088449528
 21
2031.443641658088
 31
0.0
 12
3208.800088449528
 22
2033.110308324755
 32
0.0
 13
3208.800088449528
 23
2033.110308324755
 33
0.0
  0
MTEXT
  5
5FAD
330
5FA7
100
AcDbEntity
  8
寸法
 62
     0
100
AcDbMText
 10
3158.800088449528
 20
2013.110308324755
 30
0.0
 40
20.0
 41
0.0
 71
     5
 72
     1
  1
100
 73
     1
 44
1.0
1001
ACAD
1000
MTEXTBEGIN
1070
    73
1070
     1
1070
    44
1040
1.0
1070
    74
1070
     0
1000
MTEXTEND
  0
POINT
  5
5FAE
330
5FA7
100
AcDbEntity
  8
DEFPOINTS
 62
     0
100
AcDbPoint
 10
3108.800088449529
 20
2138.909163386517
 30
0.0
  0
POINT
  5
5FAF
330
5FA7
100
AcDbEntity
  8
DEFPOINTS
 62
     0
100
AcDbPoint
 10
3208.800088449528
 20
2138.909163386517
 30
0.0
  0
POINT
  5
5FB0
330
5FA7
100
AcDbEntity
  8
DEFPOINTS
 62
     0
100
AcDbPoint
 10
3208.800088449528
 20
2033.110308324755
 30
0.0
  0
ENDBLK
  5
5FB2
330
5FA7
100
AcDbEntity
  8
0
100
AcDbBlockEnd
  0
BLOCK
  5
5FBD
330
5FB3
100
AcDbEntity
  8
0
100
AcDbBlockBegin
  2
*D48
 70
     1
 10
0.0
 20
0.0
 30
0.0
  3
*D48
  1

  0
LINE
  5
5FB4
330
5FB3
100
AcDbEntity
  8
寸法
 62
     0
370
    -2
100
AcDbLine
 10
2238.800088449528
 20
888.9091633865168
 30
0.0
 11
2316.7622978401
 21
888.9091633865167
 31
0.0
  0
LINE
  5
5FB5
330
5FB3
100
AcDbEntity
  8
寸法
 62
     0
370
    -2
100
AcDbLine
 10
2238.800088449528
 20
788.9091633865168
 30
0.0
 11
2316.7622978401
 21
788.9091633865167
 31
0.0
  0
LINE
  5
5FB6
330
5FB3
100
AcDbEntity
  8
寸法
 62
     0
370
    -2
100
AcDbLine
 10
2311.7622978401
 20
878.9091633865167
 30
0.0
 11
2311.7622978401
 21
798.9091633865167
 31
0.0
  0
SOLID
  5
5FB7
330
5FB3
100
AcDbEntity
  8
寸法
 62
     0
100
AcDbTrace
 10
2310.095631173433
 20
878.9091633865167
 30
0.0
 11
2313.428964506766
 21
878.9091633865167
 31
0.0
 12
2311.7622978401
 22
888.9091633865167
 32
0.0
 13
2311.7622978401
 23
888.9091633865167
 33
0.0
  0
SOLID
  5
5FB8
330
5FB3
100
AcDbEntity
  8
寸法
 62
     0
100
AcDbTrace
 10
2310.095631173433
 20
798.9091633865167
 30
0.0
 11
2313.428964506766
 21
798.9091633865167
 31
0.0
 12
2311.7622978401
 22
788.9091633865167
 32
0.0
 13
2311.7622978401
 23
788.9091633865167
 33
0.0
  0
MTEXT
  5
5FB9
330
5FB3
100
AcDbEntity
  8
寸法
 62
     0
100
AcDbMText
 10
2331.7622978401
 20
838.9091633865172
 30
0.0
 40
20.0
 41
0.0
 71
     5
 72
     1
  1
100
 11
0.0000000000000001
 21
1.0
 31
0.0
 73
     1
 44
1.0
1001
ACAD
1000
MTEXTBEGIN
1070
    73
1070
     1
1070
    44
1040
1.0
1070
    74
1070
     0
1000
MTEXTEND
  0
POINT
  5
5FBA
330
5FB3
100
AcDbEntity
  8
DEFPOINTS
 62
     0
100
AcDbPoint
 10
2208.800088449528
 20
888.9091633865168
 30
0.0
  0
POINT
  5
5FBB
330
5FB3
100
AcDbEntity
  8
DEFPOINTS
 62
     0
100
AcDbPoint
 10
2208.800088449528
 20
788.9091633865168
 30
0.0
  0
POINT
  5
5FBC
330
5FB3
100
AcDbEntity
  8
DEFPOINTS
 62
     0
100
AcDbPoint
 10
2311.7622978401
 20
788.9091633865167
 30
0.0
  0
ENDBLK
  5
5FBE
330
5FB3
100
AcDbEntity
  8
0
100
AcDbBlockEnd
  0
BLOCK
  5
5FC9
330
5FBF
100
AcDbEntity
  8
0
100
AcDbBlockBegin
  2
*D49
 70
     1
 10
0.0
 20
0.0
 30
0.0
  3
*D49
  1

  0
LINE
  5
5FC0
330
5FBF
100
AcDbEntity
  8
寸法
 62
     0
370
    -2
100
AcDbLine
 10
2708.800088449529
 20
2108.909163386517
 30
0.0
 11
2708.800088449529
 21
2028.110308324755
 31
0.0
  0
LINE
  5
5FC1
330
5FBF
100
AcDbEntity
  8
寸法
 62
     0
370
    -2
100
AcDbLine
 10
2808.800088449528
 20
2108.909163386517
 30
0.0
 11
2808.800088449528
 21
2028.110308324755
 31
0.0
  0
LINE
  5
5FC2
330
5FBF
100
AcDbEntity
  8
寸法
 62
     0
370
    -2
100
AcDbLine
 10
2718.800088449528
 20
2033.110308324755
 30
0.0
 11
2798.800088449528
 21
2033.110308324755
 31
0.0
  0
SOLID
  5
5FC3
330
5FBF
100
AcDbEntity
  8
寸法
 62
     0
100
AcDbTrace
 10
2718.800088449528
 20
2034.776974991422
 30
0.0
 11
2718.800088449528
 21
2031.443641658088
 31
0.0
 12
2708.800088449529
 22
2033.110308324755
 32
0.0
 13
2708.800088449529
 23
2033.110308324755
 33
0.0
  0
SOLID
  5
5FC4
330
5FBF
100
AcDbEntity
  8
寸法
 62
     0
100
AcDbTrace
 10
2798.800088449528
 20
2034.776974991422
 30
0.0
 11
2798.800088449528
 21
2031.443641658088
 31
0.0
 12
2808.800088449528
 22
2033.110308324755
 32
0.0
 13
2808.800088449528
 23
2033.110308324755
 33
0.0
  0
MTEXT
  5
5FC5
330
5FBF
100
AcDbEntity
  8
寸法
 62
     0
100
AcDbMText
 10
2758.800088449528
 20
2013.110308324755
 30
0.0
 40
20.0
 41
0.0
 71
     5
 72
     1
  1
100
 73
     1
 44
1.0
1001
ACAD
1000
MTEXTBEGIN
1070
    73
1070
     1
1070
    44
1040
1.0
1070
    74
1070
     0
1000
MTEXTEND
  0
POINT
  5
5FC6
330
5FBF
100
AcDbEntity
  8
DEFPOINTS
 62
     0
100
AcDbPoint
 10
2708.800088449529
 20
2138.909163386517
 30
0.0
  0
POINT
  5
5FC7
330
5FBF
100
AcDbEntity
  8
DEFPOINTS
 62
     0
100
AcDbPoint
 10
2808.800088449528
 20
2138.909163386517
 30
0.0
  0
POINT
  5
5FC8
330
5FBF
100
AcDbEntity
  8
DEFPOINTS
 62
     0
100
AcDbPoint
 10
2808.800088449528
 20
2033.110308324755
 30
0.0
  0
ENDBLK
  5
5FCA
330
5FBF
100
AcDbEntity
  8
0
100
AcDbBlockEnd
  0
BLOCK
  5
5FD5
330
5FCB
100
AcDbEntity
  8
0
100
AcDbBlockBegin
  2
*D50
 70
     1
 10
0.0
 20
0.0
 30
0.0
  3
*D50
  1

  0
LINE
  5
621C
330
5FCB
100
AcDbEntity
  8
寸法
 62
     0
370
    -2
100
AcDbLine
 10
2075.449984369469
 20
782.1943670860621
 30
0.0
 11
2172.401723484352
 21
592.4459633897915
 31
0.0
  0
LINE
  5
621D
330
5FCB
100
AcDbEntity
  8
寸法
 62
     0
370
    -2
100
AcDbLine
 10
2209.023965871743
 20
850.4438466857644
 30
0.0
 11
2305.975704986626
 21
660.6954429894937
 31
0.0
  0
LINE
  5
621E
330
5FCB
100
AcDbEntity
  8
寸法
 62
     0
370
    -2
100
AcDbLine
 10
2179.03167293118
 20
601.4483947465139
 30
0.0
 11
2294.795790233151
 21
660.5979437329226
 31
0.0
  0
SOLID
  5
621F
330
5FCB
100
AcDbEntity
  8
寸法
 62
     0
100
AcDbTrace
 10
2178.273345380072
 20
602.9325500965391
 30
0.0
 11
2179.790000482288
 21
599.9642393964887
 31
0.0
 12
2170.126740831029
 22
596.8984294398672
 32
0.0
 13
2170.126740831029
 23
596.8984294398672
 33
0.0
  0
SOLID
  5
6220
330
5FCB
100
AcDbEntity
  8
寸法
 62
     0
100
AcDbTrace
 10
2294.037462682043
 20
662.0820990829479
 30
0.0
 11
2295.554117784259
 21
659.1137883828974
 31
0.0
 12
2303.700722333303
 22
665.1479090395694
 32
0.0
 13
2303.700722333303
 23
665.1479090395694
 33
0.0
  0
MTEXT
  5
6221
330
5FCB
100
AcDbEntity
  8
寸法
 62
     0
100
AcDbMText
 10
2246.013662195459
 20
613.2133050394152
 30
0.0
 40
20.0
 41
0.0
 71
     5
 72
     1
  1
150
 11
0.8904932100151597
 21
0.4549965306646818
 31
0.0
 73
     1
 44
1.0
1001
ACAD
1000
MTEXTBEGIN
1070
    73
1070
     1
1070
    44
1040
1.0
1070
    74
1070
     0
1000
MTEXTEND
  0
POINT
  5
6222
330
5FCB
100
AcDbEntity
  8
DEFPOINTS
 62
     0
100
AcDbPoint
 10
2061.800088449528
 20
808.9091633865169
 30
0.0
  0
POINT
  5
6223
330
5FCB
100
AcDbEntity
  8
DEFPOINTS
 62
     0
100
AcDbPoint
 10
2195.374069951802
 20
877.1586429862193
 30
0.0
  0
POINT
  5
6224
330
5FCB
100
AcDbEntity
  8
DEFPOINTS
 62
     0
100
AcDbPoint
 10
2303.700722333303
 20
665.1479090395694
 30
0.0
  0
ENDBLK
  5
5FD6
330
5FCB
100
AcDbEntity
  8
0
100
AcDbBlockEnd
  0
BLOCK
  5
5FE1
330
5FD7
100
AcDbEntity
  8
0
100
AcDbBlockBegin
  2
*D51
 70
     1
 10
0.0
 20
0.0
 30
0.0
  3
*D51
  1

  0
LINE
  5
6213
330
5FD7
100
AcDbEntity
  8
寸法
 62
     0
370
    -2
100
AcDbLine
 10
929.8000884495282
 20
778.9091633865169
 30
0.0
 11
929.8000884495282
 21
732.3216160724964
 31
0.0
  0
LINE
  5
6214
330
5FD7
100
AcDbEntity
  8
寸法
 62
     0
370
    -2
100
AcDbLine
 10
2061.800088449528
 20
778.9091633865169
 30
0.0
 11
2061.800088449528
 21
732.3216160724964
 31
0.0
  0
LINE
  5
6215
330
5FD7
100
AcDbEntity
  8
寸法
 62
     0
370
    -2
100
AcDbLine
 10
939.8000884495282
 20
737.3216160724965
 30
0.0
 11
2051.800088449528
 21
737.3216160724965
 31
0.0
  0
SOLID
  5
6216
330
5FD7
100
AcDbEntity
  8
寸法
 62
     0
100
AcDbTrace
 10
939.8000884495282
 20
738.988282739163
 30
0.0
 11
939.8000884495282
 21
735.6549494058298
 31
0.0
 12
929.8000884495282
 22
737.3216160724965
 32
0.0
 13
929.8000884495282
 23
737.3216160724965
 33
0.0
  0
SOLID
  5
6217
330
5FD7
100
AcDbEntity
  8
寸法
 62
     0
100
AcDbTrace
 10
2051.800088449528
 20
738.988282739163
 30
0.0
 11
2051.800088449528
 21
735.6549494058298
 31
0.0
 12
2061.800088449528
 22
737.3216160724965
 32
0.0
 13
2061.800088449528
 23
737.3216160724965
 33
0.0
  0
MTEXT
  5
6218
330
5FD7
100
AcDbEntity
  8
寸法
 62
     0
100
AcDbMText
 10
1495.800088449528
 20
717.3216160724964
 30
0.0
 40
20.0
 41
0.0
 71
     5
 72
     1
  1
1132
 73
     1
 44
1.0
1001
ACAD
1000
MTEXTBEGIN
1070
    73
1070
     1
1070
    44
1040
1.0
1070
    74
1070
     0
1000
MTEXTEND
  0
POINT
  5
6219
330
5FD7
100
AcDbEntity
  8
DEFPOINTS
 62
     0
100
AcDbPoint
 10
929.8000884495282
 20
808.9091633865168
 30
0.0
  0
POINT
  5
621A
330
5FD7
100
AcDbEntity
  8
DEFPOINTS
 62
     0
100
AcDbPoint
 10
2061.800088449528
 20
808.9091633865168
 30
0.0
  0
POINT
  5
621B
330
5FD7
100
AcDbEntity
  8
DEFPOINTS
 62
     0
100
AcDbPoint
 10
2061.800088449528
 20
737.3216160724965
 30
0.0
  0
ENDBLK
  5
5FE2
330
5FD7
100
AcDbEntity
  8
0
100
AcDbBlockEnd
  0
ENDSEC
  0
SECTION
  2
ENTITIES
  0
INSERT
  5
123
330
1F
100
AcDbEntity
  8
題
 62
     7
100
AcDbBlockReference
  2
AI9-BLK1
 10
3257.800088449528
 20
263.9091633865173
 30
0.0
 41
1.152000000001862
 42
1.152000000000157
 43
1.152
  0
MTEXT
  5
124
330
1F
100
AcDbEntity
  8
題
100
AcDbMText
 10
3332.800088449528
 20
288.9091633865173
 30
0.0
 40
60.0
 41
850.0
 71
     4
 72
     5
  1
{\fHGMaruGothicMPRO|b0|i0|c128|p50; 新生興産株式会社}
 73
     1
 44
1.0
1001
ACAD
1000
MTEXTBEGIN
1070
    73
1070
     1
1070
    44
1040
1.0
1070
    74
1070
     0
1000
MTEXTEND
1000
ACAD_MTEXT_DEFINED_HEIGHT_BEGIN
1070
    46
1040
10.0
1000
ACAD_MTEXT_DEFINED_HEIGHT_END
  0
MTEXT
  5
125
330
1F
100
AcDbEntity
  8
題
100
AcDbMText
 10
3332.800088449528
 20
213.9091633865173
 30
0.0
 40
60.0
 41
850.0
 71
     4
 72
     5
  1
{\fCentury Gothic|b0|i0|c0|p34;\H0.5x;                              SHINSEI KOSAN CO.,LTD}
 73
     1
 44
1.0
1001
ACAD
1000
MTEXTBEGIN
1070
    73
1070
     1
1070
    44
1040
1.0
1070
    74
1070
     0
1000
MTEXTEND
1000
ACAD_MTEXT_DEFINED_HEIGHT_BEGIN
1070
    46
1040
5.0
1000
ACAD_MTEXT_DEFINED_HEIGHT_END
  0
LWPOLYLINE
  5
126
330
1F
100
AcDbEntity
  8
DEFPOINTS
100
AcDbPolyline
 90
        4
 70
     1
 43
0.0
 10
82.80008844952817
 20
88.90916338651733
 10
4282.800088449529
 20
88.90916338651733
 10
4282.800088449529
 20
3058.909163386517
 10
82.80008844952817
 20
3058.909163386517
  0
LWPOLYLINE
  5
127
330
1F
100
AcDbEntity
  8
題
100
AcDbPolyline
 90
        4
 70
     1
 43
0.0
 10
4182.800088449528
 20
188.9091633865173
 10
3182.800088449528
 20
188.9091633865173
 10
3182.800088449528
 20
338.9091633865173
 10
4182.800088449528
 20
338.9091633865173
  0
LWPOLYLINE
  5
128
330
1F
100
AcDbEntity
  8
題
100
AcDbPolyline
 90
        4
 70
     1
 43
0.0
 10
3182.800088449528
 20
338.9091633865173
 10
3332.800088449528
 20
338.9091633865173
 10
3332.800088449528
 20
438.9091633865173
 10
3182.800088449528
 20
438.9091633865173
  0
LWPOLYLINE
  5
129
330
1F
100
AcDbEntity
  8
題
100
AcDbPolyline
 90
        4
 70
     1
 43
0.0
 10
3182.800088449528
 20
438.9091633865173
 10
3332.800088449528
 20
438.9091633865173
 10
3332.800088449528
 20
538.9091633865173
 10
3182.800088449528
 20
538.9091633865173
  0
LWPOLYLINE
  5
132
330
1F
100
AcDbEntity
  8
題
100
AcDbPolyline
 90
        4
 70
     1
 43
0.0
 10
3932.800088449528
 20
438.9091633865173
 10
4032.800088449528
 20
438.9091633865173
 10
4032.800088449528
 20
538.9091633865173
 10
3932.800088449528
 20
538.9091633865173
  0
LWPOLYLINE
  5
133
330
1F
100
AcDbEntity
  8
題
100
AcDbPolyline
 90
        4
 70
     1
 43
0.0
 10
3932.800088449528
 20
338.9091633865173
 10
3332.800088449528
 20
338.9091633865173
 10
3332.800088449528
 20
438.9091633865173
 10
3932.800088449528
 20
438.9091633865173
  0
LWPOLYLINE
  5
134
330
1F
100
AcDbEntity
  8
題
100
AcDbPolyline
 90
        4
 70
     1
 43
0.0
 10
3932.800088449528
 20
438.9091633865173
 10
3332.800088449528
 20
438.9091633865173
 10
3332.800088449528
 20
538.9091633865173
 10
3932.800088449528
 20
538.9091633865173
  0
MTEXT
  5
135
330
1F
100
AcDbEntity
  8
題
100
AcDbMText
 10
3982.800088449528
 20
488.9091633865173
 30
0.0
 40
25.0
 41
100.0
 71
     5
 72
     5
  1
{\fHGSeikaishotaiPRO|b0|i0|c128|p66;縮尺}
 73
     1
 44
1.0
1001
ACAD
1000
MTEXTBEGIN
1070
    73
1070
     1
1070
    44
1040
1.0
1070
    74
1070
     0
1000
MTEXTEND
  0
LWPOLYLINE
  5
136
330
1F
100
AcDbEntity
  8
題
100
AcDbPolyline
 90
        4
 70
     1
 43
0.0
 10
4032.800088449528
 20
438.9091633865173
 10
4182.800088449528
 20
438.9091633865173
 10
4182.800088449528
 20
538.9091633865173
 10
4032.800088449528
 20
538.9091633865173
  0
MTEXT
  5
137
330
1F
100
AcDbEntity
  8
題
100
AcDbMText
 10
4107.800088449528
 20
488.9091633865173
 30
0.0
 40
25.0
 41
150.0
 71
     5
 72
     5
  1
1：10
 73
     1
 44
1.0
1001
ACAD
1000
MTEXTBEGIN
1070
    73
1070
     1
1070
    44
1040
1.0
1070
    74
1070
     0
1000
MTEXTEND
  0
MTEXT
  5
138
330
1F
100
AcDbEntity
  8
題
100
AcDbMText
 10
3257.800088449528
 20
488.9091633865173
 30
0.0
 40
25.0
 41
150.0
 71
     5
 72
     5
  1
{\fHGSeikaishotaiPRO|b0|i0|c128|p66;製品名}
 73
     1
 44
1.0
1001
ACAD
1000
MTEXTBEGIN
1070
    73
1070
     1
1070
    44
1040
1.0
1070
    74
1070
     0
1000
MTEXTEND
  0
MTEXT
  5
139
330
1F
100
AcDbEntity
  8
題
100
AcDbMText
 10
3257.800088449528
 20
388.9091633865173
 30
0.0
 40
25.0
 41
150.0
 71
     5
 72
     5
  1
{\fHGSeikaishotaiPRO|b0|i0|c128|p66;規格}
 73
     1
 44
1.0
1001
ACAD
1000
MTEXTBEGIN
1070
    73
1070
     1
1070
    44
1040
1.0
1070
    74
1070
     0
1000
MTEXTEND
  0
LWPOLYLINE
  5
163
330
1F
100
AcDbEntity
  8
題
100
AcDbPolyline
 90
        4
 70
     1
 43
0.0
 10
282.8000884495282
 20
188.9091633865173
 10
4182.800088449528
 20
188.9091633865173
 10
4182.800088449528
 20
2958.909163386517
 10
282.8000884495282
 20
2958.909163386517
  0
MTEXT
  5
4B91
330
1F
100
AcDbEntity
  8
全体文字
100
AcDbMText
 10
3632.800088449528
 20
488.9091633865173
 30
0.0
 40
35.0
 41
600.0000000000002
 71
     5
 72
     5
  1
U形柵渠 側板
 73
     1
 44
1.0
1001
ACAD
1000
MTEXTBEGIN
1070
    73
1070
     1
1070
    44
1040
1.0
1070
    74
1070
     0
1000
MTEXTEND
1000
ACAD_MTEXT_DEFINED_HEIGHT_BEGIN
1070
    46
1040
100.0
1000
ACAD_MTEXT_DEFINED_HEIGHT_END
  0
MTEXT
  5
4B92
330
1F
100
AcDbEntity
  8
全体文字
100
AcDbMText
 10
3632.800088449528
 20
388.9091633865173
 30
0.0
 40
35.0
 41
600.0000000000002
 71
     5
 72
     5
  1
400 （6-2型）
 73
     1
 44
1.0
1001
ACAD
1000
MTEXTBEGIN
1070
    73
1070
     1
1070
    44
1040
1.0
1070
    74
1070
     0
1000
MTEXTEND
1000
ACAD_MTEXT_DEFINED_HEIGHT_BEGIN
1070
    46
1040
100.0
1000
ACAD_MTEXT_DEFINED_HEIGHT_END
  0
LWPOLYLINE
  5
5AED
102
{ACAD_REACTORS
330
5B9C
330
5BA2
330
5BA5
330
5BAB
330
5BAE
102
}
330
1F
100
AcDbEntity
  8
図
100
AcDbPolyline
 90
        4
 70
     1
 43
0.0
 10
3108.800088449529
 20
2138.909163386517
 10
3208.800088449528
 20
2138.909163386517
 10
3208.800088449528
 20
2538.909163386517
 10
3108.800088449529
 20
2538.909163386517
  0
LINE
  5
5AF0
330
1F
100
AcDbEntity
  8
センター
100
AcDbLine
 10
1495.800088449528
 20
2568.909163386517
 30
0.0
 11
1495.800088449528
 21
2108.909163386517
 31
0.0
  0
LINE
  5
5AF1
330
1F
100
AcDbEntity
  8
センター
100
AcDbLine
 10
1495.800088449528
 20
1718.909163386516
 30
0.0
 11
1495.800088449528
 21
1258.909163386517
 31
0.0
  0
LINE
  5
5AF2
330
1F
100
AcDbEntity
  8
センター
100
AcDbLine
 10
1495.800088449528
 20
918.9091633865169
 30
0.0
 11
1495.800088449528
 21
758.9091633865169
 31
0.0
  0
LINE
  5
5AF5
102
{ACAD_REACTORS
330
5B9C
330
5B9F
102
}
330
1F
100
AcDbEntity
  8
図
100
AcDbLine
 10
3153.800088449528
 20
2538.909163386517
 30
0.0
 11
3153.800088449528
 21
2234.909163386517
 31
0.0
  0
LINE
  5
5AF6
102
{ACAD_REACTORS
330
5BA8
330
5BAB
102
}
330
1F
100
AcDbEntity
  8
図
100
AcDbLine
 10
3108.800088449529
 20
2234.909163386517
 30
0.0
 11
3208.800088449528
 21
2234.909163386517
 31
0.0
  0
LINE
  5
5AF7
102
{ACAD_REACTORS
330
5B9F
330
5BA2
102
}
330
1F
100
AcDbEntity
  8
図
100
AcDbLine
 10
3158.800088449528
 20
2538.909163386517
 30
0.0
 11
3158.800088449528
 21
2239.909163386517
 31
0.0
  0
LINE
  5
5AF8
102
{ACAD_REACTORS
330
5BA5
330
5BA8
102
}
330
1F
100
AcDbEntity
  8
図
100
AcDbLine
 10
3208.800088449528
 20
2239.909163386517
 30
0.0
 11
3158.800088449528
 21
2239.909163386517
 31
0.0
  0
LINE
  5
5AFF
330
1F
100
AcDbEntity
  8
図
100
AcDbLine
 10
2708.800088449529
 20
2538.909163386517
 30
0.0
 11
2808.800088449528
 21
2538.909163386517
 31
0.0
  0
LINE
  5
5B00
102
{ACAD_REACTORS
330
5B91
102
}
330
1F
100
AcDbEntity
  8
図
100
AcDbLine
 10
2808.800088449528
 20
2538.909163386517
 30
0.0
 11
2808.800088449528
 21
2488.909163386517
 31
0.0
  0
LINE
  5
5B01
102
{ACAD_REACTORS
330
5B8E
330
5B91
102
}
330
1F
100
AcDbEntity
  8
図
100
AcDbLine
 10
2808.800088449528
 20
2488.909163386517
 30
0.0
 11
2753.800088449529
 21
2468.909163386517
 31
0.0
  0
LINE
  5
5B02
102
{ACAD_REACTORS
330
5B8B
330
5B8E
102
}
330
1F
100
AcDbEntity
  8
図
100
AcDbLine
 10
2753.800088449529
 20
2468.909163386517
 30
0.0
 11
2753.800088449529
 21
2208.909163386517
 31
0.0
  0
LINE
  5
5B03
102
{ACAD_REACTORS
330
5B8B
102
}
330
1F
100
AcDbEntity
  8
図
100
AcDbLine
 10
2753.800088449529
 20
2208.909163386517
 30
0.0
 11
2808.800088449528
 21
2188.909163386517
 31
0.0
  0
LINE
  5
5B04
330
1F
100
AcDbEntity
  8
図
100
AcDbLine
 10
2808.800088449528
 20
2188.909163386517
 30
0.0
 11
2808.800088449528
 21
2138.909163386517
 31
0.0
  0
LINE
  5
5B05
102
{ACAD_REACTORS
330
5B99
330
5BD6
102
}
330
1F
100
AcDbEntity
  8
図
100
AcDbLine
 10
2808.800088449528
 20
2138.909163386517
 30
0.0
 11
2708.800088449529
 21
2138.909163386517
 31
0.0
  0
LINE
  5
5B06
102
{ACAD_REACTORS
330
5B96
330
5BD6
102
}
330
1F
100
AcDbEntity
  8
図
100
AcDbLine
 10
2708.800088449529
 20
2138.909163386517
 30
0.0
 11
2708.800088449529
 21
2538.909163386517
 31
0.0
  0
LINE
  5
5B09
330
1F
100
AcDbEntity
  8
図
100
AcDbLine
 10
1495.800088449528
 20
2538.909163386517
 30
0.0
 11
782.8000884495281
 21
2538.909163386517
 31
0.0
  0
LINE
  5
5B0A
102
{ACAD_REACTORS
330
5B4A
102
}
330
1F
100
AcDbEntity
  8
図
100
AcDbLine
 10
782.8000884495281
 20
2538.909163386517
 30
0.0
 11
782.8000884495281
 21
2239.909163386517
 31
0.0
  0
LINE
  5
5B0B
330
1F
100
AcDbEntity
  8
図
100
AcDbLine
 10
782.8000884495281
 20
2239.909163386517
 30
0.0
 11
825.8000884495281
 21
2234.909163386517
 31
0.0
  0
LINE
  5
5B0C
330
1F
100
AcDbEntity
  8
図
100
AcDbLine
 10
825.8000884495281
 20
2234.909163386517
 30
0.0
 11
830.8000884495282
 21
2138.909163386517
 31
0.0
  0
LINE
  5
5B0D
102
{ACAD_REACTORS
330
5B5D
330
5B60
102
}
330
1F
100
AcDbEntity
  8
図
100
AcDbLine
 10
830.8000884495282
 20
2138.909163386517
 30
0.0
 11
1495.800088449528
 21
2138.909163386517
 31
0.0
  0
LINE
  5
5B0E
330
1F
100
AcDbEntity
  8
図
100
AcDbLine
 10
1495.800088449528
 20
2538.909163386517
 30
0.0
 11
2208.800088449528
 21
2538.909163386517
 31
0.0
  0
LINE
  5
5B0F
102
{ACAD_REACTORS
330
5B4A
330
5B50
330
5B54
102
}
330
1F
100
AcDbEntity
  8
図
100
AcDbLine
 10
2208.800088449528
 20
2538.909163386517
 30
0.0
 11
2208.800088449528
 21
2239.909163386517
 31
0.0
  0
LINE
  5
5B10
102
{ACAD_REACTORS
330
5B54
330
5B57
102
}
330
1F
100
AcDbEntity
  8
図
100
AcDbLine
 10
2208.800088449528
 20
2239.909163386517
 30
0.0
 11
2165.800088449528
 21
2234.909163386517
 31
0.0
  0
LINE
  5
5B11
330
1F
100
AcDbEntity
  8
図
100
AcDbLine
 10
2165.800088449528
 20
2234.909163386517
 30
0.0
 11
2160.800088449528
 21
2138.909163386517
 31
0.0
  0
LINE
  5
5B12
102
{ACAD_REACTORS
330
5B5A
330
5B5D
102
}
330
1F
100
AcDbEntity
  8
図
100
AcDbLine
 10
2160.800088449528
 20
2138.909163386517
 30
0.0
 11
1495.800088449528
 21
2138.909163386517
 31
0.0
  0
LINE
  5
5B13
330
1F
100
AcDbEntity
  8
図
100
AcDbLine
 10
1495.800088449528
 20
1688.909163386517
 30
0.0
 11
782.8000884495281
 21
1688.909163386517
 31
0.0
  0
LINE
  5
5B14
330
1F
100
AcDbEntity
  8
図
100
AcDbLine
 10
782.8000884495281
 20
1688.909163386517
 30
0.0
 11
782.8000884495281
 21
1389.909163386517
 31
0.0
  0
LINE
  5
5B15
330
1F
100
AcDbEntity
  8
図
100
AcDbLine
 10
782.8000884495281
 20
1389.909163386517
 30
0.0
 11
825.8000884495281
 21
1384.909163386517
 31
0.0
  0
LINE
  5
5B16
330
1F
100
AcDbEntity
  8
図
100
AcDbLine
 10
825.8000884495281
 20
1384.909163386517
 30
0.0
 11
830.8000884495282
 21
1288.909163386517
 31
0.0
  0
LINE
  5
5B17
330
1F
100
AcDbEntity
  8
図
100
AcDbLine
 10
830.8000884495282
 20
1288.909163386517
 30
0.0
 11
1495.800088449528
 21
1288.909163386517
 31
0.0
  0
LINE
  5
5B18
330
1F
100
AcDbEntity
  8
図
100
AcDbLine
 10
1495.800088449528
 20
1688.909163386517
 30
0.0
 11
2208.800088449528
 21
1688.909163386517
 31
0.0
  0
LINE
  5
5B19
330
1F
100
AcDbEntity
  8
図
100
AcDbLine
 10
2208.800088449528
 20
1688.909163386517
 30
0.0
 11
2208.800088449528
 21
1389.909163386517
 31
0.0
  0
LINE
  5
5B1A
330
1F
100
AcDbEntity
  8
図
100
AcDbLine
 10
2208.800088449528
 20
1389.909163386517
 30
0.0
 11
2165.800088449528
 21
1384.909163386517
 31
0.0
  0
LINE
  5
5B1B
330
1F
100
AcDbEntity
  8
図
100
AcDbLine
 10
2165.800088449528
 20
1384.909163386517
 30
0.0
 11
2160.800088449528
 21
1288.909163386517
 31
0.0
  0
LINE
  5
5B1C
330
1F
100
AcDbEntity
  8
図
100
AcDbLine
 10
2160.800088449528
 20
1288.909163386517
 30
0.0
 11
1495.800088449528
 21
1288.909163386517
 31
0.0
  0
LINE
  5
5B1D
102
{ACAD_REACTORS
330
5B4D
330
5B60
102
}
330
1F
100
AcDbEntity
  8
図
100
AcDbLine
 10
825.8000884495281
 20
2234.909163386517
 30
0.0
 11
825.8000884495281
 21
2538.909163386517
 31
0.0
  0
LINE
  5
5B1E
330
1F
100
AcDbEntity
  8
影
100
AcDbLine
 10
825.8000884495281
 20
1384.909163386517
 30
0.0
 11
825.8000884495281
 21
1688.909163386517
 31
0.0
  0
LINE
  5
5B1F
330
1F
100
AcDbEntity
  8
図
100
AcDbLine
 10
872.8000884495282
 20
1638.909163386517
 30
0.0
 11
1495.800088449528
 21
1638.909163386517
 31
0.0
  0
LINE
  5
5B20
330
1F
100
AcDbEntity
  8
図
100
AcDbLine
 10
872.8000884495282
 20
1338.909163386517
 30
0.0
 11
1495.800088449528
 21
1338.909163386517
 31
0.0
  0
LINE
  5
5B21
330
1F
100
AcDbEntity
  8
図
100
AcDbLine
 10
872.8000884495282
 20
1638.909163386517
 30
0.0
 11
872.8000884495282
 21
1338.909163386517
 31
0.0
  0
LINE
  5
5B22
330
1F
100
AcDbEntity
  8
図
100
AcDbLine
 10
1495.800088449528
 20
1618.909163386517
 30
0.0
 11
927.8000884495282
 21
1618.909163386517
 31
0.0
  0
LINE
  5
5B23
330
1F
100
AcDbEntity
  8
図
100
AcDbLine
 10
927.8000884495282
 20
1618.909163386517
 30
0.0
 11
927.8000884495282
 21
1358.909163386517
 31
0.0
  0
LINE
  5
5B24
330
1F
100
AcDbEntity
  8
図
100
AcDbLine
 10
927.8000884495282
 20
1358.909163386517
 30
0.0
 11
1495.800088449528
 21
1358.909163386517
 31
0.0
  0
LINE
  5
5B25
330
1F
100
AcDbEntity
  8
図
100
AcDbLine
 10
872.8000884495282
 20
1638.909163386517
 30
0.0
 11
927.8000884495282
 21
1618.909163386517
 31
0.0
  0
LINE
  5
5B26
330
1F
100
AcDbEntity
  8
図
100
AcDbLine
 10
872.8000884495282
 20
1338.909163386517
 30
0.0
 11
927.8000884495282
 21
1358.909163386517
 31
0.0
  0
LINE
  5
5B27
330
1F
100
AcDbEntity
  8
図
100
AcDbLine
 10
1495.800088449528
 20
1688.909163386517
 30
0.0
 11
2208.800088449528
 21
1688.909163386517
 31
0.0
  0
LINE
  5
5B28
330
1F
100
AcDbEntity
  8
図
100
AcDbLine
 10
2208.800088449528
 20
1688.909163386517
 30
0.0
 11
2208.800088449528
 21
1389.909163386517
 31
0.0
  0
LINE
  5
5B29
330
1F
100
AcDbEntity
  8
図
100
AcDbLine
 10
2208.800088449528
 20
1389.909163386517
 30
0.0
 11
2165.800088449528
 21
1384.909163386517
 31
0.0
  0
LINE
  5
5B2A
330
1F
100
AcDbEntity
  8
図
100
AcDbLine
 10
2165.800088449528
 20
1384.909163386517
 30
0.0
 11
2160.800088449528
 21
1288.909163386517
 31
0.0
  0
LINE
  5
5B2B
330
1F
100
AcDbEntity
  8
図
100
AcDbLine
 10
2160.800088449528
 20
1288.909163386517
 30
0.0
 11
1495.800088449528
 21
1288.909163386517
 31
0.0
  0
LINE
  5
5B2C
330
1F
100
AcDbEntity
  8
影
100
AcDbLine
 10
2165.800088449528
 20
1384.909163386517
 30
0.0
 11
2165.800088449528
 21
1688.909163386517
 31
0.0
  0
LINE
  5
5B2D
330
1F
100
AcDbEntity
  8
図
100
AcDbLine
 10
2118.800088449528
 20
1638.909163386517
 30
0.0
 11
1495.800088449528
 21
1638.909163386517
 31
0.0
  0
LINE
  5
5B2E
330
1F
100
AcDbEntity
  8
図
100
AcDbLine
 10
2118.800088449528
 20
1338.909163386517
 30
0.0
 11
1495.800088449528
 21
1338.909163386517
 31
0.0
  0
LINE
  5
5B2F
330
1F
100
AcDbEntity
  8
図
100
AcDbLine
 10
2118.800088449528
 20
1638.909163386517
 30
0.0
 11
2118.800088449528
 21
1338.909163386517
 31
0.0
  0
LINE
  5
5B30
330
1F
100
AcDbEntity
  8
図
100
AcDbLine
 10
1495.800088449528
 20
1618.909163386517
 30
0.0
 11
2063.800088449528
 21
1618.909163386517
 31
0.0
  0
LINE
  5
5B31
330
1F
100
AcDbEntity
  8
図
100
AcDbLine
 10
2063.800088449528
 20
1618.909163386517
 30
0.0
 11
2063.800088449528
 21
1358.909163386517
 31
0.0
  0
LINE
  5
5B32
330
1F
100
AcDbEntity
  8
図
100
AcDbLine
 10
2063.800088449528
 20
1358.909163386517
 30
0.0
 11
1495.800088449528
 21
1358.909163386517
 31
0.0
  0
LINE
  5
5B33
330
1F
100
AcDbEntity
  8
図
100
AcDbLine
 10
2118.800088449528
 20
1638.909163386517
 30
0.0
 11
2063.800088449528
 21
1618.909163386517
 31
0.0
  0
LINE
  5
5B34
330
1F
100
AcDbEntity
  8
図
100
AcDbLine
 10
2118.800088449528
 20
1338.909163386517
 30
0.0
 11
2063.800088449528
 21
1358.909163386517
 31
0.0
  0
LINE
  5
5B37
330
1F
100
AcDbEntity
  8
図
100
AcDbLine
 10
1495.800088449528
 20
888.9091633865168
 30
0.0
 11
2208.800088449528
 21
888.9091633865168
 31
0.0
  0
LINE
  5
5B38
102
{ACAD_REACTORS
330
5B71
330
5B81
330
5BB1
102
}
330
1F
100
AcDbEntity
  8
図
100
AcDbLine
 10
2208.800088449528
 20
888.9091633865168
 30
0.0
 11
2208.800088449528
 21
838.9091633865168
 31
0.0
  0
LINE
  5
5B39
102
{ACAD_REACTORS
330
5B7E
330
5B81
102
}
330
1F
100
AcDbEntity
  8
図
100
AcDbLine
 10
2208.800088449528
 20
838.9091633865168
 30
0.0
 11
2165.800088449528
 21
833.9091633865168
 31
0.0
  0
LINE
  5
5B3A
102
{ACAD_REACTORS
330
5B7E
102
}
330
1F
100
AcDbEntity
  8
図
100
AcDbLine
 10
2165.800088449528
 20
833.9091633865168
 30
0.0
 11
2165.800088449528
 21
788.9091633865168
 31
0.0
  0
LINE
  5
5B3B
102
{ACAD_REACTORS
330
5B74
330
5B7B
102
}
330
1F
100
AcDbEntity
  8
図
100
AcDbLine
 10
2165.800088449528
 20
788.9091633865168
 30
0.0
 11
1495.800088449528
 21
788.9091633865168
 31
0.0
  0
LINE
  5
5B3C
330
1F
100
AcDbEntity
  8
図
100
AcDbLine
 10
1495.800088449528
 20
888.9091633865168
 30
0.0
 11
782.8000884495281
 21
888.9091633865168
 31
0.0
  0
LINE
  5
5B3D
102
{ACAD_REACTORS
330
5B6C
330
5B71
102
}
330
1F
100
AcDbEntity
  8
図
100
AcDbLine
 10
782.8000884495281
 20
888.9091633865168
 30
0.0
 11
782.8000884495281
 21
838.9091633865168
 31
0.0
  0
LINE
  5
5B3E
102
{ACAD_REACTORS
330
5B77
102
}
330
1F
100
AcDbEntity
  8
図
100
AcDbLine
 10
782.8000884495281
 20
838.9091633865168
 30
0.0
 11
825.8000884495281
 21
833.9091633865168
 31
0.0
  0
LINE
  5
5B3F
330
1F
100
AcDbEntity
  8
図
100
AcDbLine
 10
825.8000884495281
 20
833.9091633865168
 30
0.0
 11
825.8000884495281
 21
788.9091633865168
 31
0.0
  0
LINE
  5
5B40
102
{ACAD_REACTORS
330
5B74
330
5B77
102
}
330
1F
100
AcDbEntity
  8
図
100
AcDbLine
 10
825.8000884495281
 20
788.9091633865168
 30
0.0
 11
1495.800088449528
 21
788.9091633865168
 31
0.0
  0
LINE
  5
5B41
330
1F
100
AcDbEntity
  8
影
100
AcDbLine
 10
2118.800088449528
 20
888.9091633865168
 30
0.0
 11
2068.800088449528
 21
833.9091633865168
 31
0.0
  0
LINE
  5
5B42
102
{ACAD_REACTORS
330
5B66
102
}
330
1F
100
AcDbEntity
  8
影
100
AcDbLine
 10
2068.800088449528
 20
833.9091633865168
 30
0.0
 11
1495.800088449528
 21
833.9091633865168
 31
0.0
  0
LINE
  5
5B43
102
{ACAD_REACTORS
330
5B69
330
5B6C
102
}
330
1F
100
AcDbEntity
  8
影
100
AcDbLine
 10
872.8000884495282
 20
888.9091633865168
 30
0.0
 11
922.8000884495282
 21
833.9091633865168
 31
0.0
  0
LINE
  5
5B44
102
{ACAD_REACTORS
330
5B66
330
5B69
102
}
330
1F
100
AcDbEntity
  8
影
100
AcDbLine
 10
922.8000884495282
 20
833.9091633865168
 30
0.0
 11
1495.800088449528
 21
833.9091633865168
 31
0.0
  0
MTEXT
  5
5B46
330
1F
100
AcDbEntity
  8
図文字
100
AcDbMText
 10
3957.800088449527
 20
688.9091633865173
 30
0.0
 40
30.0
 41
450.0000000000004
 71
     5
 72
     5
  1
参考重量86kg
 73
     1
 44
1.0
1001
ACAD
1000
MTEXTBEGIN
1070
    73
1070
     1
1070
    44
1040
1.0
1070
    74
1070
     0
1000
MTEXTEND
  0
LINE
  5
5B47
102
{ACAD_REACTORS
330
5B4D
330
5B50
330
5B57
330
5B5A
102
}
330
1F
100
AcDbEntity
  8
影
100
AcDbLine
 10
2165.800088449528
 20
2234.909163386517
 30
0.0
 11
2165.800088449528
 21
2538.909163386517
 31
0.0
  0
DIMENSION
  5
5B48
102
{ACAD_XDICTIONARY
360
5B49
102
}
102
{ACAD_REACTORS
330
5B4A
102
}
330
1F
100
AcDbEntity
  8
寸法
100
AcDbDimension
  2
*D19
 10
2208.800088449528
 20
2638.45085461361
 30
0.0
 11
1495.800088449528
 21
2658.45085461361
 31
0.0
 70
    32
 71
     5
 42
1426.0
  3
ISO-25
100
AcDbAlignedDimension
 13
782.8000884495281
 23
2538.909163386517
 33
0.0
 14
2208.800088449528
 24
2538.909163386517
 34
0.0
100
AcDbRotatedDimension
1001
ACAD
1000
DSTYLE
1002
{
1070
    41
1040
10.0
1070
    42
1040
30.0
1070
    44
1040
5.0
1070
   140
1040
20.0
1070
   147
1040
10.0
1002
}
  0
DIMENSION
  5
5B4B
102
{ACAD_XDICTIONARY
360
5B4C
102
}
102
{ACAD_REACTORS
330
5B4D
102
}
330
1F
100
AcDbEntity
  8
寸法
100
AcDbDimension
  2
*D20
 10
2165.800088449528
 20
2589.24438039825
 30
0.0
 11
1495.800088449528
 21
2609.24438039825
 31
0.0
 70
    32
 71
     5
 42
1340.0
  3
ISO-25
100
AcDbAlignedDimension
 13
825.8000884495281
 23
2538.909163386517
 33
0.0
 14
2165.800088449528
 24
2538.909163386517
 34
0.0
100
AcDbRotatedDimension
1001
ACAD
1000
DSTYLE
1002
{
1070
    41
1040
10.0
1070
    42
1040
30.0
1070
    44
1040
5.0
1070
   140
1040
20.0
1070
   147
1040
10.0
1002
}
  0
DIMENSION
  5
5B4E
102
{ACAD_XDICTIONARY
360
5B4F
102
}
102
{ACAD_REACTORS
330
5B50
102
}
330
1F
100
AcDbEntity
  8
寸法
100
AcDbDimension
  2
*D21
 10
2208.800088449528
 20
2589.24438039825
 30
0.0
 11
2187.300088449529
 21
2589.24438039825
 31
0.0
 70
   160
 71
     5
 42
43.0
  3
ISO-25
100
AcDbAlignedDimension
 13
2165.800088449528
 23
2538.909163386517
 33
0.0
 14
2208.800088449528
 24
2538.909163386517
 34
0.0
100
AcDbRotatedDimension
1001
ACAD
1000
DSTYLE
1002
{
1070
    41
1040
10.0
1070
    42
1040
30.0
1070
    44
1040
5.0
1070
   140
1040
20.0
1070
   147
1040
10.0
1002
}
  0
DIMENSION
  5
5B51
330
1F
100
AcDbEntity
  8
寸法
100
AcDbDimension
  2
*D4
 10
782.8000884495281
 20
2589.24438039825
 30
0.0
 11
804.3000884495281
 21
2589.24438039825
 31
0.0
 70
   160
 71
     5
 42
43.0
  3
ISO-25
100
AcDbAlignedDimension
 13
825.8000884495281
 23
2538.909163386517
 33
0.0
 14
782.8000884495281
 24
2538.909163386517
 34
0.0
 50
180.0
100
AcDbRotatedDimension
1001
ACAD
1000
DSTYLE
1002
{
1070
    41
1040
10.0
1070
    42
1040
30.0
1070
    44
1040
5.0
1070
   140
1040
20.0
1070
   147
1040
10.0
1002
}
  0
DIMENSION
  5
5B52
102
{ACAD_XDICTIONARY
360
5B53
102
}
102
{ACAD_REACTORS
330
5B54
102
}
330
1F
100
AcDbEntity
  8
寸法
100
AcDbDimension
  2
*D22
 10
2313.510836372477
 20
2239.909163386517
 30
0.0
 11
2333.510836372477
 21
2389.409163386517
 31
0.0
 70
    32
 71
     5
 42
299.0
  3
ISO-25
100
AcDbAlignedDimension
 13
2208.800088449528
 23
2538.909163386517
 33
0.0
 14
2208.800088449528
 24
2239.909163386517
 34
0.0
 50
90.0
100
AcDbRotatedDimension
1001
ACAD
1000
DSTYLE
1002
{
1070
    41
1040
10.0
1070
    42
1040
30.0
1070
    44
1040
5.0
1070
   140
1040
20.0
1070
   147
1040
10.0
1002
}
  0
DIMENSION
  5
5B55
102
{ACAD_XDICTIONARY
360
5B56
102
}
102
{ACAD_REACTORS
330
5B57
102
}
330
1F
100
AcDbEntity
  8
寸法
100
AcDbDimension
  2
*D23
 10
2313.510836372478
 20
2239.909163386517
 30
0.0
 11
2313.510836372477
 21
2237.409163386518
 31
0.0
 70
   160
 71
     5
 42
5.0
  3
ISO-25
100
AcDbAlignedDimension
 13
2165.800088449528
 23
2234.909163386517
 33
0.0
 14
2208.800088449528
 24
2239.909163386517
 34
0.0
 50
90.0
100
AcDbRotatedDimension
1001
ACAD
1000
DSTYLE
1002
{
1070
    41
1040
10.0
1070
    42
1040
30.0
1070
    44
1040
5.0
1070
   140
1040
20.0
1070
   147
1040
10.0
1002
}
  0
DIMENSION
  5
5B58
102
{ACAD_XDICTIONARY
360
5B59
102
}
102
{ACAD_REACTORS
330
5B5A
102
}
330
1F
100
AcDbEntity
  8
寸法
100
AcDbDimension
  2
*D24
 10
2313.510836372478
 20
2234.909163386517
 30
0.0
 11
2333.510836372477
 21
2186.909163386518
 31
0.0
 70
    32
 71
     5
 42
96.0
  3
ISO-25
100
AcDbAlignedDimension
 13
2160.800088449528
 23
2138.909163386517
 33
0.0
 14
2165.800088449528
 24
2234.909163386517
 34
0.0
 50
90.0
100
AcDbRotatedDimension
1001
ACAD
1000
DSTYLE
1002
{
1070
    41
1040
10.0
1070
    42
1040
30.0
1070
    44
1040
5.0
1070
   140
1040
20.0
1070
   147
1040
10.0
1002
}
  0
DIMENSION
  5
5B5B
102
{ACAD_XDICTIONARY
360
5B5C
102
}
102
{ACAD_REACTORS
330
5B5D
102
}
330
1F
100
AcDbEntity
  8
寸法
100
AcDbDimension
  2
*D25
 10
2160.800088449528
 20
2083.21170822149
 30
0.0
 11
1495.800088449528
 21
2063.211708221491
 31
0.0
 70
    32
 71
     5
 42
1330.0
  3
ISO-25
100
AcDbAlignedDimension
 13
830.8000884495282
 23
2138.909163386517
 33
0.0
 14
2160.800088449528
 24
2138.909163386517
 34
0.0
100
AcDbRotatedDimension
1001
ACAD
1000
DSTYLE
1002
{
1070
    41
1040
10.0
1070
    42
1040
30.0
1070
    44
1040
5.0
1070
   140
1040
20.0
1070
   147
1040
10.0
1002
}
  0
DIMENSION
  5
5B5E
102
{ACAD_XDICTIONARY
360
5B5F
102
}
102
{ACAD_REACTORS
330
5B60
102
}
330
1F
100
AcDbEntity
  8
寸法
100
AcDbDimension
  2
*D26
 10
830.8000884495282
 20
2083.21170822149
 30
0.0
 11
828.3000884495281
 21
2083.21170822149
 31
0.0
 70
   160
 71
     5
 42
5.0
  3
ISO-25
100
AcDbAlignedDimension
 13
825.8000884495281
 23
2234.909163386517
 33
0.0
 14
830.8000884495282
 24
2138.909163386517
 34
0.0
100
AcDbRotatedDimension
1001
ACAD
1000
DSTYLE
1002
{
1070
    41
1040
10.0
1070
    42
1040
30.0
1070
    44
1040
5.0
1070
   140
1040
20.0
1070
   147
1040
10.0
1002
}
  0
DIMENSION
  5
5B61
330
1F
100
AcDbEntity
  8
寸法
100
AcDbDimension
  2
*D5
 10
2160.800088449528
 20
2083.21170822149
 30
0.0
 11
2163.300088449528
 21
2083.21170822149
 31
0.0
 70
   160
 71
     5
 42
5.0
  3
ISO-25
100
AcDbAlignedDimension
 13
2165.800088449528
 23
2234.909163386517
 33
0.0
 14
2160.800088449528
 24
2138.909163386517
 34
0.0
 50
180.0
100
AcDbRotatedDimension
1001
ACAD
1000
DSTYLE
1002
{
1070
    41
1040
10.0
1070
    42
1040
30.0
1070
    44
1040
5.0
1070
   140
1040
20.0
1070
   147
1040
10.0
1002
}
  0
MTEXT
  5
5B62
330
1F
100
AcDbEntity
  8
図文字
100
AcDbMText
 10
1495.800088449528
 20
2738.909163386517
 30
0.0
 40
30.0
 41
1426.0
 71
     5
 72
     5
  1
正面図
 73
     1
 44
1.0
1001
ACAD
1000
MTEXTBEGIN
1070
    73
1070
     1
1070
    44
1040
1.0
1070
    74
1070
     0
1000
MTEXTEND
  0
MTEXT
  5
5B63
330
1F
100
AcDbEntity
  8
図文字
100
AcDbMText
 10
1495.800088449528
 20
1888.909163386517
 30
0.0
 40
30.0
 41
1426.0
 71
     5
 72
     5
  1
背面図
 73
     1
 44
1.0
1001
ACAD
1000
MTEXTBEGIN
1070
    73
1070
     1
1070
    44
1040
1.0
1070
    74
1070
     0
1000
MTEXTEND
1000
ACAD_MTEXT_DEFINED_HEIGHT_BEGIN
1070
    46
1040
100.0
1000
ACAD_MTEXT_DEFINED_HEIGHT_END
  0
DIMENSION
  5
5B64
102
{ACAD_XDICTIONARY
360
5B65
102
}
102
{ACAD_REACTORS
330
5B66
102
}
330
1F
100
AcDbEntity
  8
寸法
100
AcDbDimension
  2
*D27
 10
2068.800088449528
 20
958.7888117376664
 30
0.0
 11
1495.800088449528
 21
978.7888117376665
 31
0.0
 70
    32
 71
     5
 42
1146.0
  3
ISO-25
100
AcDbAlignedDimension
 13
922.8000884495282
 23
833.9091633865168
 33
0.0
 14
2068.800088449528
 24
833.9091633865168
 34
0.0
100
AcDbRotatedDimension
1001
ACAD
1000
DSTYLE
1002
{
1070
    41
1040
10.0
1070
    42
1040
30.0
1070
    44
1040
5.0
1070
   140
1040
20.0
1070
   147
1040
10.0
1002
}
  0
DIMENSION
  5
5B67
102
{ACAD_XDICTIONARY
360
5B68
102
}
102
{ACAD_REACTORS
330
5B69
102
}
330
1F
100
AcDbEntity
  8
寸法
100
AcDbDimension
  2
*D28
 10
922.8000884495282
 20
958.7888117376664
 30
0.0
 11
897.7633506117422
 21
958.7888117376664
 31
0.0
 70
   160
 71
     5
 42
50.0
  3
ISO-25
100
AcDbAlignedDimension
 13
872.8000884495282
 23
888.9091633865168
 33
0.0
 14
922.8000884495282
 24
833.9091633865168
 34
0.0
100
AcDbRotatedDimension
1001
ACAD
1000
DSTYLE
1002
{
1070
    41
1040
10.0
1070
    42
1040
30.0
1070
    44
1040
5.0
1070
   140
1040
20.0
1070
   147
1040
10.0
1002
}
  0
DIMENSION
  5
5B6A
102
{ACAD_XDICTIONARY
360
5B6B
102
}
102
{ACAD_REACTORS
330
5B6C
102
}
330
1F
100
AcDbEntity
  8
寸法
100
AcDbDimension
  2
*D29
 10
872.8000884495282
 20
958.7888117376664
 30
0.0
 11
827.8000884495281
 21
978.7888117376665
 31
0.0
 70
    32
 71
     5
 42
90.0
  3
ISO-25
100
AcDbAlignedDimension
 13
782.8000884495281
 23
888.9091633865168
 33
0.0
 14
872.8000884495282
 24
888.9091633865168
 34
0.0
100
AcDbRotatedDimension
1001
ACAD
1000
DSTYLE
1002
{
1070
    41
1040
10.0
1070
    42
1040
30.0
1070
    44
1040
5.0
1070
   140
1040
20.0
1070
   147
1040
10.0
1002
}
  0
DIMENSION
  5
5B6D
330
1F
100
AcDbEntity
  8
寸法
100
AcDbDimension
  2
*D6
 10
2068.800088449528
 20
958.7888117376664
 30
0.0
 11
2093.836826287314
 21
958.7888117376664
 31
0.0
 70
   160
 71
     5
 42
50.0
  3
ISO-25
100
AcDbAlignedDimension
 13
2118.800088449528
 23
888.9091633865168
 33
0.0
 14
2068.800088449528
 24
833.9091633865168
 34
0.0
 50
180.0
100
AcDbRotatedDimension
1001
ACAD
1000
DSTYLE
1002
{
1070
    41
1040
10.0
1070
    42
1040
30.0
1070
    44
1040
5.0
1070
   140
1040
20.0
1070
   147
1040
10.0
1002
}
  0
DIMENSION
  5
5B6E
330
1F
100
AcDbEntity
  8
寸法
100
AcDbDimension
  2
*D7
 10
2118.800088449528
 20
958.7888117376664
 30
0.0
 11
2163.800088449528
 21
978.7888117376665
 31
0.0
 70
    32
 71
     5
 42
90.0
  3
ISO-25
100
AcDbAlignedDimension
 13
2208.800088449528
 23
888.9091633865168
 33
0.0
 14
2118.800088449528
 24
888.9091633865168
 34
0.0
 50
180.0
100
AcDbRotatedDimension
1001
ACAD
1000
DSTYLE
1002
{
1070
    41
1040
10.0
1070
    42
1040
30.0
1070
    44
1040
5.0
1070
   140
1040
20.0
1070
   147
1040
10.0
1002
}
  0
DIMENSION
  5
5B6F
102
{ACAD_XDICTIONARY
360
5B70
102
}
102
{ACAD_REACTORS
330
5B71
102
}
330
1F
100
AcDbEntity
  8
寸法
100
AcDbDimension
  2
*D30
 10
2208.800088449528
 20
1005.430697582415
 30
0.0
 11
1495.800088449528
 21
1025.430697582415
 31
0.0
 70
    32
 71
     5
 42
1426.0
  3
ISO-25
100
AcDbAlignedDimension
 13
782.8000884495281
 23
888.9091633865168
 33
0.0
 14
2208.800088449528
 24
888.9091633865168
 34
0.0
100
AcDbRotatedDimension
1001
ACAD
1000
DSTYLE
1002
{
1070
    41
1040
10.0
1070
    42
1040
30.0
1070
    44
1040
5.0
1070
   140
1040
20.0
1070
   147
1040
10.0
1002
}
  0
DIMENSION
  5
5B72
102
{ACAD_XDICTIONARY
360
5B73
102
}
102
{ACAD_REACTORS
330
5B74
102
}
330
1F
100
AcDbEntity
  8
寸法
100
AcDbDimension
  2
*D31
 10
2165.800088449528
 20
672.4970047881274
 30
0.0
 11
1495.800088449528
 21
652.4970047881274
 31
0.0
 70
    32
 71
     5
 42
1340.0
  3
ISO-25
100
AcDbAlignedDimension
 13
825.8000884495281
 23
788.9091633865168
 33
0.0
 14
2165.800088449528
 24
788.9091633865168
 34
0.0
100
AcDbRotatedDimension
1001
ACAD
1000
DSTYLE
1002
{
1070
    41
1040
10.0
1070
    42
1040
30.0
1070
    44
1040
5.0
1070
   140
1040
20.0
1070
   147
1040
10.0
1002
}
  0
DIMENSION
  5
5B75
102
{ACAD_XDICTIONARY
360
5B76
102
}
102
{ACAD_REACTORS
330
5B77
102
}
330
1F
100
AcDbEntity
  8
寸法
100
AcDbDimension
  2
*D32
 10
825.8000884495281
 20
672.4970047881274
 30
0.0
 11
804.3000884495281
 21
672.4970047881274
 31
0.0
 70
   160
 71
     5
 42
43.0
  3
ISO-25
100
AcDbAlignedDimension
 13
782.8000884495281
 23
838.9091633865168
 33
0.0
 14
825.8000884495281
 24
788.9091633865168
 34
0.0
100
AcDbRotatedDimension
1001
ACAD
1000
DSTYLE
1002
{
1070
    41
1040
10.0
1070
    42
1040
30.0
1070
    44
1040
5.0
1070
   140
1040
20.0
1070
   147
1040
10.0
1002
}
  0
DIMENSION
  5
5B78
330
1F
100
AcDbEntity
  8
寸法
100
AcDbDimension
  2
*D8
 10
2165.800088449528
 20
672.4970047881274
 30
0.0
 11
2187.300088449529
 21
672.4970047881274
 31
0.0
 70
   160
 71
     5
 42
43.0
  3
ISO-25
100
AcDbAlignedDimension
 13
2208.800088449528
 23
838.9091633865168
 33
0.0
 14
2165.800088449528
 24
788.9091633865168
 34
0.0
 50
180.0
100
AcDbRotatedDimension
1001
ACAD
1000
DSTYLE
1002
{
1070
    41
1040
10.0
1070
    42
1040
30.0
1070
    44
1040
5.0
1070
   140
1040
20.0
1070
   147
1040
10.0
1002
}
  0
DIMENSION
  5
5B79
102
{ACAD_XDICTIONARY
360
5B7A
102
}
102
{ACAD_REACTORS
330
5B7B
102
}
330
1F
100
AcDbEntity
  8
寸法
100
AcDbDimension
  2
*D33
 10
2262.800379246352
 20
833.9091633865168
 30
0.0
 11
2262.800379246352
 21
752.2424967198506
 31
0.0
 70
   160
 71
     5
 42
45.0
  3
ISO-25
100
AcDbAlignedDimension
 13
2165.800088449528
 23
788.9091633865168
 33
0.0
 14
2208.800088449528
 24
833.9091633865168
 34
0.0
 50
90.0
100
AcDbRotatedDimension
1001
ACAD
1000
DSTYLE
1002
{
1070
    41
1040
10.0
1070
    42
1040
30.0
1070
    44
1040
5.0
1070
   140
1040
20.0
1070
   147
1040
10.0
1002
}
  0
DIMENSION
  5
5B7C
102
{ACAD_XDICTIONARY
360
5B7D
102
}
102
{ACAD_REACTORS
330
5B7E
102
}
330
1F
100
AcDbEntity
  8
寸法
100
AcDbDimension
  2
*D34
 10
2262.800379246352
 20
838.9091633865168
 30
0.0
 11
2262.800379246352
 21
836.4091633865172
 31
0.0
 70
   160
 71
     5
 42
5.0
  3
ISO-25
100
AcDbAlignedDimension
 13
2165.800088449528
 23
833.9091633865168
 33
0.0
 14
2208.800088449528
 24
838.9091633865168
 34
0.0
 50
90.0
100
AcDbRotatedDimension
1001
ACAD
1000
DSTYLE
1002
{
1070
    41
1040
10.0
1070
    42
1040
30.0
1070
    44
1040
5.0
1070
   140
1040
20.0
1070
   147
1040
10.0
1002
}
  0
DIMENSION
  5
5B7F
102
{ACAD_XDICTIONARY
360
5B80
102
}
102
{ACAD_REACTORS
330
5B81
102
}
330
1F
100
AcDbEntity
  8
寸法
100
AcDbDimension
  2
*D35
 10
2262.800379246352
 20
888.9091633865168
 30
0.0
 11
2262.800379246352
 21
923.9091633865172
 31
0.0
 70
   160
 71
     5
 42
50.0
  3
ISO-25
100
AcDbAlignedDimension
 13
2208.800088449528
 23
838.9091633865168
 33
0.0
 14
2208.800088449528
 24
888.9091633865168
 34
0.0
 50
90.0
100
AcDbRotatedDimension
1001
ACAD
1000
DSTYLE
1002
{
1070
    41
1040
10.0
1070
    42
1040
30.0
1070
    44
1040
5.0
1070
   140
1040
20.0
1070
   147
1040
10.0
1002
}
  0
MTEXT
  5
5B82
330
1F
100
AcDbEntity
  8
図文字
100
AcDbMText
 10
1495.800088449528
 20
1088.909163386517
 30
0.0
 40
30.0
 41
1426.0
 71
     5
 72
     5
  1
a-a'断面図
 73
     1
 44
1.0
1001
ACAD
1000
MTEXTBEGIN
1070
    73
1070
     1
1070
    44
1040
1.0
1070
    74
1070
     0
1000
MTEXTEND
1000
ACAD_MTEXT_DEFINED_HEIGHT_BEGIN
1070
    46
1040
100.0
1000
ACAD_MTEXT_DEFINED_HEIGHT_END
  0
MTEXT
  5
5B87
330
1F
100
AcDbEntity
  8
図文字
100
AcDbMText
 10
2753.800088449529
 20
2738.909163386517
 30
0.0
 40
30.0
 41
400.0
 71
     5
 72
     5
  1
b-b'断面
 73
     1
 44
1.0
1001
ACAD
1000
MTEXTBEGIN
1070
    73
1070
     1
1070
    44
1040
1.0
1070
    74
1070
     0
1000
MTEXTEND
  0
MTEXT
  5
5B88
330
1F
100
AcDbEntity
  8
図文字
100
AcDbMText
 10
3158.800088449528
 20
2738.909163386517
 30
0.0
 40
30.0
 41
400.0
 71
     5
 72
     5
  1
側面図
 73
     1
 44
1.0
1001
ACAD
1000
MTEXTBEGIN
1070
    73
1070
     1
1070
    44
1040
1.0
1070
    74
1070
     0
1000
MTEXTEND
  0
DIMENSION
  5
5B89
102
{ACAD_XDICTIONARY
360
5B8A
102
}
102
{ACAD_REACTORS
330
5B8B
102
}
330
1F
100
AcDbEntity
  8
寸法
100
AcDbDimension
  2
*D36
 10
2858.800088449529
 20
2468.909163386517
 30
0.0
 11
2878.800088449528
 21
2338.909163386517
 31
0.0
 70
    32
 71
     5
 42
260.0
  3
ISO-25
100
AcDbAlignedDimension
 13
2753.800088449529
 23
2208.909163386517
 33
0.0
 14
2753.800088449529
 24
2468.909163386517
 34
0.0
 50
90.0
100
AcDbRotatedDimension
1001
ACAD
1000
DSTYLE
1002
{
1070
    41
1040
10.0
1070
    42
1040
30.0
1070
    44
1040
5.0
1070
   140
1040
20.0
1070
   147
1040
10.0
1002
}
  0
DIMENSION
  5
5B8C
102
{ACAD_XDICTIONARY
360
5B8D
102
}
102
{ACAD_REACTORS
330
5B8E
102
}
330
1F
100
AcDbEntity
  8
寸法
100
AcDbDimension
  2
*D37
 10
2858.800088449529
 20
2488.909163386517
 30
0.0
 11
2858.800088449529
 21
2478.909163386517
 31
0.0
 70
   160
 71
     5
 42
20.0
  3
ISO-25
100
AcDbAlignedDimension
 13
2753.800088449529
 23
2468.909163386517
 33
0.0
 14
2808.800088449528
 24
2488.909163386517
 34
0.0
 50
90.0
100
AcDbRotatedDimension
1001
ACAD
1000
DSTYLE
1002
{
1070
    41
1040
10.0
1070
    42
1040
30.0
1070
    44
1040
5.0
1070
   140
1040
20.0
1070
   147
1040
10.0
1002
}
  0
DIMENSION
  5
5B8F
102
{ACAD_XDICTIONARY
360
5B90
102
}
102
{ACAD_REACTORS
330
5B91
102
}
330
1F
100
AcDbEntity
  8
寸法
100
AcDbDimension
  2
*D38
 10
2858.800088449529
 20
2538.909163386517
 30
0.0
 11
2878.800088449528
 21
2573.909163386517
 31
0.0
 70
    32
 71
     5
 42
50.0
  3
ISO-25
100
AcDbAlignedDimension
 13
2808.800088449528
 23
2488.909163386517
 33
0.0
 14
2808.800088449528
 24
2538.909163386517
 34
0.0
 50
90.0
100
AcDbRotatedDimension
1001
ACAD
1000
DSTYLE
1002
{
1070
    41
1040
10.0
1070
    42
1040
30.0
1070
    44
1040
5.0
1070
   140
1040
20.0
1070
   147
1040
10.0
1002
}
  0
DIMENSION
  5
5B92
330
1F
100
AcDbEntity
  8
寸法
100
AcDbDimension
  2
*D9
 10
2858.800088449529
 20
2188.909163386517
 30
0.0
 11
2858.800088449529
 21
2198.909163386518
 31
0.0
 70
   160
 71
     5
 42
20.0
  3
ISO-25
100
AcDbAlignedDimension
 13
2753.800088449529
 23
2208.909163386517
 33
0.0
 14
2808.800088449528
 24
2188.909163386517
 34
0.0
 50
270.0
100
AcDbRotatedDimension
1001
ACAD
1000
DSTYLE
1002
{
1070
    41
1040
10.0
1070
    42
1040
30.0
1070
    44
1040
5.0
1070
   140
1040
20.0
1070
   147
1040
10.0
1002
}
  0
DIMENSION
  5
5B93
330
1F
100
AcDbEntity
  8
寸法
100
AcDbDimension
  2
*D10
 10
2858.800088449529
 20
2138.909163386518
 30
0.0
 11
2878.800088449528
 21
2103.909163386518
 31
0.0
 70
    32
 71
     5
 42
50.0
  3
ISO-25
100
AcDbAlignedDimension
 13
2808.800088449528
 23
2188.909163386517
 33
0.0
 14
2808.800088449528
 24
2138.909163386518
 34
0.0
 50
270.0
100
AcDbRotatedDimension
1001
ACAD
1000
DSTYLE
1002
{
1070
    41
1040
10.0
1070
    42
1040
30.0
1070
    44
1040
5.0
1070
   140
1040
20.0
1070
   147
1040
10.0
1002
}
  0
DIMENSION
  5
5B94
102
{ACAD_XDICTIONARY
360
5B95
102
}
102
{ACAD_REACTORS
330
5B96
102
}
330
1F
100
AcDbEntity
  8
寸法
100
AcDbDimension
  2
*D39
 10
2753.800088449529
 20
2079.2633250841
 30
0.0
 11
2672.133421782862
 21
2079.2633250841
 31
0.0
 70
   160
 71
     5
 42
45.0
  3
ISO-25
100
AcDbAlignedDimension
 13
2708.800088449529
 23
2138.909163386517
 33
0.0
 14
2753.800088449529
 24
2138.909163386517
 34
0.0
100
AcDbRotatedDimension
1001
ACAD
1000
DSTYLE
1002
{
1070
    41
1040
10.0
1070
    42
1040
30.0
1070
    44
1040
5.0
1070
   140
1040
20.0
1070
   147
1040
10.0
1002
}
  0
DIMENSION
  5
5B97
102
{ACAD_XDICTIONARY
360
5B98
102
}
102
{ACAD_REACTORS
330
5B99
102
}
330
1F
100
AcDbEntity
  8
寸法
100
AcDbDimension
  2
*D40
 10
2808.800088449528
 20
2079.2633250841
 30
0.0
 11
2781.300088449528
 21
2059.2633250841
 31
0.0
 70
    32
 71
     5
 42
55.0
  3
ISO-25
100
AcDbAlignedDimension
 13
2753.800088449529
 23
2138.909163386517
 33
0.0
 14
2808.800088449528
 24
2138.909163386517
 34
0.0
100
AcDbRotatedDimension
1001
ACAD
1000
DSTYLE
1002
{
1070
    41
1040
10.0
1070
    42
1040
30.0
1070
    44
1040
5.0
1070
   140
1040
20.0
1070
   147
1040
10.0
1002
}
  0
DIMENSION
  5
5B9A
102
{ACAD_XDICTIONARY
360
5B9B
102
}
102
{ACAD_REACTORS
330
5B9C
102
}
330
1F
100
AcDbEntity
  8
寸法
100
AcDbDimension
  2
*D41
 10
3153.800088449528
 20
2589.518386241099
 30
0.0
 11
3072.133421782862
 21
2589.518386241099
 31
0.0
 70
   160
 71
     5
 42
45.0
  3
ISO-25
100
AcDbAlignedDimension
 13
3108.800088449529
 23
2538.909163386517
 33
0.0
 14
3153.800088449528
 24
2538.909163386517
 34
0.0
100
AcDbRotatedDimension
1001
ACAD
1000
DSTYLE
1002
{
1070
    41
1040
10.0
1070
    42
1040
30.0
1070
    44
1040
5.0
1070
   140
1040
20.0
1070
   147
1040
10.0
1002
}
  0
DIMENSION
  5
5B9D
102
{ACAD_XDICTIONARY
360
5B9E
102
}
102
{ACAD_REACTORS
330
5B9F
102
}
330
1F
100
AcDbEntity
  8
寸法
100
AcDbDimension
  2
*D42
 10
3158.800088449528
 20
2589.518386241099
 30
0.0
 11
3156.300088449528
 21
2589.518386241099
 31
0.0
 70
   160
 71
     5
 42
5.0
  3
ISO-25
100
AcDbAlignedDimension
 13
3153.800088449528
 23
2538.909163386517
 33
0.0
 14
3158.800088449528
 24
2538.909163386517
 34
0.0
100
AcDbRotatedDimension
1001
ACAD
1000
DSTYLE
1002
{
1070
    41
1040
10.0
1070
    42
1040
30.0
1070
    44
1040
5.0
1070
   140
1040
20.0
1070
   147
1040
10.0
1002
}
  0
DIMENSION
  5
5BA0
102
{ACAD_XDICTIONARY
360
5BA1
102
}
102
{ACAD_REACTORS
330
5BA2
102
}
330
1F
100
AcDbEntity
  8
寸法
100
AcDbDimension
  2
*D43
 10
3208.800088449528
 20
2589.518386241099
 30
0.0
 11
3243.800088449528
 21
2609.518386241099
 31
0.0
 70
    32
 71
     5
 42
50.0
  3
ISO-25
100
AcDbAlignedDimension
 13
3158.800088449528
 23
2538.909163386517
 33
0.0
 14
3208.800088449528
 24
2538.909163386517
 34
0.0
100
AcDbRotatedDimension
1001
ACAD
1000
DSTYLE
1002
{
1070
    41
1040
10.0
1070
    42
1040
30.0
1070
    44
1040
5.0
1070
   140
1040
20.0
1070
   147
1040
10.0
1002
}
  0
DIMENSION
  5
5BA3
102
{ACAD_XDICTIONARY
360
5BA4
102
}
102
{ACAD_REACTORS
330
5BA5
102
}
330
1F
100
AcDbEntity
  8
寸法
100
AcDbDimension
  2
*D44
 10
3256.485621563927
 20
2538.909163386517
 30
0.0
 11
3276.485621563927
 21
2389.409163386518
 31
0.0
 70
    32
 71
     5
 42
299.0
  3
ISO-25
100
AcDbAlignedDimension
 13
3208.800088449528
 23
2239.909163386517
 33
0.0
 14
3208.800088449528
 24
2538.909163386517
 34
0.0
 50
90.0
100
AcDbRotatedDimension
1001
ACAD
1000
DSTYLE
1002
{
1070
    41
1040
10.0
1070
    42
1040
30.0
1070
    44
1040
5.0
1070
   140
1040
20.0
1070
   147
1040
10.0
1002
}
  0
DIMENSION
  5
5BA6
102
{ACAD_XDICTIONARY
360
5BA7
102
}
102
{ACAD_REACTORS
330
5BA8
102
}
330
1F
100
AcDbEntity
  8
寸法
100
AcDbDimension
  2
*D45
 10
3256.485621563927
 20
2239.909163386517
 30
0.0
 11
3256.485621563927
 21
2237.409163386518
 31
0.0
 70
   160
 71
     5
 42
5.0
  3
ISO-25
100
AcDbAlignedDimension
 13
3208.800088449528
 23
2234.909163386517
 33
0.0
 14
3208.800088449528
 24
2239.909163386517
 34
0.0
 50
90.0
100
AcDbRotatedDimension
1001
ACAD
1000
DSTYLE
1002
{
1070
    41
1040
10.0
1070
    42
1040
30.0
1070
    44
1040
5.0
1070
   140
1040
20.0
1070
   147
1040
10.0
1002
}
  0
DIMENSION
  5
5BA9
102
{ACAD_XDICTIONARY
360
5BAA
102
}
102
{ACAD_REACTORS
330
5BAB
102
}
330
1F
100
AcDbEntity
  8
寸法
100
AcDbDimension
  2
*D46
 10
3256.485621563927
 20
2138.909163386517
 30
0.0
 11
3276.485621563927
 21
2186.909163386518
 31
0.0
 70
    32
 71
     5
 42
96.0
  3
ISO-25
100
AcDbAlignedDimension
 13
3208.800088449528
 23
2234.909163386517
 33
0.0
 14
3208.800088449528
 24
2138.909163386517
 34
0.0
 50
90.0
100
AcDbRotatedDimension
1001
ACAD
1000
DSTYLE
1002
{
1070
    41
1040
10.0
1070
    42
1040
30.0
1070
    44
1040
5.0
1070
   140
1040
20.0
1070
   147
1040
10.0
1002
}
  0
DIMENSION
  5
5BAC
102
{ACAD_XDICTIONARY
360
5BAD
102
}
102
{ACAD_REACTORS
330
5BAE
102
}
330
1F
100
AcDbEntity
  8
寸法
100
AcDbDimension
  2
*D47
 10
3208.800088449528
 20
2033.110308324755
 30
0.0
 11
3158.800088449528
 21
2013.110308324755
 31
0.0
 70
    32
 71
     5
 42
100.0
  3
ISO-25
100
AcDbAlignedDimension
 13
3108.800088449529
 23
2138.909163386517
 33
0.0
 14
3208.800088449528
 24
2138.909163386517
 34
0.0
100
AcDbRotatedDimension
1001
ACAD
1000
DSTYLE
1002
{
1070
    41
1040
10.0
1070
    42
1040
30.0
1070
    44
1040
5.0
1070
   140
1040
20.0
1070
   147
1040
10.0
1002
}
  0
DIMENSION
  5
5BAF
102
{ACAD_XDICTIONARY
360
5BB0
102
}
102
{ACAD_REACTORS
330
5BB1
102
}
330
1F
100
AcDbEntity
  8
寸法
100
AcDbDimension
  2
*D48
 10
2311.7622978401
 20
788.9091633865167
 30
0.0
 11
2331.7622978401
 21
838.9091633865172
 31
0.0
 70
    32
 71
     5
 42
100.0
  3
ISO-25
100
AcDbAlignedDimension
 13
2208.800088449528
 23
888.9091633865168
 33
0.0
 14
2208.800088449528
 24
788.9091633865168
 34
0.0
 50
90.0
100
AcDbRotatedDimension
1001
ACAD
1000
DSTYLE
1002
{
1070
    41
1040
10.0
1070
    42
1040
30.0
1070
    44
1040
5.0
1070
   140
1040
20.0
1070
   147
1040
10.0
1002
}
  0
LEADER
  5
5BC4
330
1F
100
AcDbEntity
  8
寸法
100
AcDbLeader
  3
ISO-25
 76
     3
 10
766.0969419765311
 20
2388.909163386517
 30
0.0
 10
740.4373033006363
 20
2388.909163386517
 30
0.0
 10
740.4373033006363
 20
2357.287954469986
 30
0.0
1001
ACAD
1000
DSTYLE
1002
{
1070
   341
1005
10D7
1070
    41
1040
10.0
1070
   147
1040
0.625
1070
    77
1070
     0
1002
}
  0
MTEXT
  5
5BC5
330
1F
100
AcDbEntity
  8
寸法
100
AcDbMText
 10
728.5611594485031
 20
2373.098558928251
 30
0.0
 40
20.0
 41
23.75228770426657
 71
     5
 72
     5
  1
a
 73
     1
 44
1.0
1001
ACAD
1000
MTEXTBEGIN
1070
    73
1070
     1
1070
    44
1040
1.0
1070
    74
1070
     0
1000
MTEXTEND
1000
ACAD_MTEXT_DEFINED_HEIGHT_BEGIN
1070
    46
1040
31.62120891653103
1000
ACAD_MTEXT_DEFINED_HEIGHT_END
  0
LEADER
  5
5BC6
330
1F
100
AcDbEntity
  8
寸法
100
AcDbLeader
  3
ISO-25
 76
     3
 10
2211.654076190676
 20
2389.632807726206
 30
0.0
 10
2232.460743982291
 20
2389.632807726206
 30
0.0
 10
2232.460743982291
 20
2358.082675818938
 30
0.0
211
-1.0
221
0.0
231
0.0
1001
ACAD
1000
DSTYLE
1002
{
1070
   341
1005
10D7
1070
    41
1040
10.0
1070
   147
1040
0.625
1070
    77
1070
     0
1002
}
  0
MTEXT
  5
5BC7
330
1F
100
AcDbEntity
  8
寸法
100
AcDbMText
 10
2247.305181448964
 20
2373.857741772571
 30
0.0
 40
19.99999999999999
 41
29.68887493334658
 71
     5
 72
     5
  1
a'
 73
     1
 44
1.0
1001
ACAD
1000
MTEXTBEGIN
1070
    73
1070
     1
1070
    44
1040
1.0
1070
    74
1070
     0
1000
MTEXTEND
1000
ACAD_MTEXT_DEFINED_HEIGHT_BEGIN
1070
    46
1040
31.55013190726822
1000
ACAD_MTEXT_DEFINED_HEIGHT_END
  0
LEADER
  5
5BC8
330
1F
100
AcDbEntity
  8
寸法
100
AcDbLeader
  3
ISO-25
 76
     3
 10
1498.498945484617
 20
2540.987729739428
 30
0.0
 10
1498.498945484617
 20
2563.936520095432
 30
0.0
 10
1528.470022477744
 20
2563.936520095433
 30
0.0
1001
ACAD
1000
DSTYLE
1002
{
1070
   341
1005
10D7
1070
    41
1040
10.0
1070
   147
1040
0.625
1070
    77
1070
     0
1002
}
  0
MTEXT
  5
5BC9
330
1F
100
AcDbEntity
  8
寸法
100
AcDbMText
 10
1513.48448398118
 20
2570.968952673268
 30
0.0
 40
10.0
 41
29.9710769931271
 71
     5
 72
     5
  1
b
 73
     1
 44
1.0
1001
ACAD
1000
MTEXTBEGIN
1070
    73
1070
     1
1070
    44
1040
1.0
1070
    74
1070
     0
1000
MTEXTEND
1000
ACAD_MTEXT_DEFINED_HEIGHT_BEGIN
1070
    46
1040
14.06486515567212
1000
ACAD_MTEXT_DEFINED_HEIGHT_END
  0
LEADER
  5
5BCA
330
1F
100
AcDbEntity
  8
寸法
100
AcDbLeader
  3
ISO-25
 76
     3
 10
1498.498945484617
 20
2137.613010940754
 30
0.0
 10
1498.498945484617
 20
2114.664220584751
 30
0.0
 10
1528.470022477744
 20
2114.66422058475
 30
0.0
1001
ACAD
1000
DSTYLE
1002
{
1070
   341
1005
10D7
1070
    41
1040
10.0
1070
   147
1040
0.625
1070
    77
1070
     0
1002
}
  0
MTEXT
  5
5BCB
330
1F
100
AcDbEntity
  8
寸法
100
AcDbMText
 10
1513.48448398118
 20
2107.631788006915
 30
0.0
 40
10.0
 41
29.9710769931271
 71
     5
 72
     5
  1
b
 73
     1
 44
1.0
1001
ACAD
1000
MTEXTBEGIN
1070
    73
1070
     1
1070
    44
1040
1.0
1070
    74
1070
     0
1000
MTEXTEND
1000
ACAD_MTEXT_DEFINED_HEIGHT_BEGIN
1070
    46
1040
14.06486515567212
1000
ACAD_MTEXT_DEFINED_HEIGHT_END
  0
DIMENSION
  5
5BD4
102
{ACAD_XDICTIONARY
360
5BD5
102
}
102
{ACAD_REACTORS
330
5BD6
102
}
330
1F
100
AcDbEntity
  8
寸法
100
AcDbDimension
  2
*D49
 10
2808.800088449528
 20
2033.110308324755
 30
0.0
 11
2758.800088449528
 21
2013.110308324755
 31
0.0
 70
    32
 71
     5
 42
100.0
  3
ISO-25
100
AcDbAlignedDimension
 13
2708.800088449529
 23
2138.909163386517
 33
0.0
 14
2808.800088449528
 24
2138.909163386517
 34
0.0
100
AcDbRotatedDimension
1001
ACAD
1000
DSTYLE
1002
{
1070
    41
1040
10.0
1070
    42
1040
30.0
1070
    44
1040
5.0
1070
   140
1040
20.0
1070
   147
1040
10.0
1002
}
  0
LINE
  5
5BD7
330
1F
100
AcDbEntity
  8
図
100
AcDbLine
 10
3153.800088449528
 20
2234.909163386517
 30
0.0
 11
3158.800088449528
 21
2239.909163386517
 31
0.0
  0
DIMENSION
  5
5BDB
330
1F
100
AcDbEntity
  8
寸法
100
AcDbDimension
  2
*D50
 10
2303.700722333303
 20
665.1479090395694
 30
0.0
 11
2246.013662195459
 21
613.2133050394152
 31
0.0
 70
    33
 71
     5
 42
150.0
  3
ISO-25
100
AcDbAlignedDimension
 13
2061.800088449528
 23
808.9091633865168
 33
0.0
 14
2195.374069951802
 24
877.1586429862191
 34
0.0
1001
ACAD
1000
DSTYLE
1002
{
1070
    41
1040
10.0
1070
    42
1040
30.0
1070
    44
1040
5.0
1070
   140
1040
20.0
1070
   147
1040
10.0
1002
}
  0
DIMENSION
  5
5BE9
330
1F
100
AcDbEntity
  8
寸法
100
AcDbDimension
  2
*D51
 10
2061.800088449528
 20
737.3216160724965
 30
0.0
 11
1495.800088449528
 21
717.3216160724964
 31
0.0
 70
    32
 71
     5
 42
1132.0
  3
ISO-25
100
AcDbAlignedDimension
 13
929.8000884495282
 23
808.9091633865168
 33
0.0
 14
2061.800088449528
 24
808.9091633865168
 34
0.0
100
AcDbRotatedDimension
1001
ACAD
1000
DSTYLE
1002
{
1070
    41
1040
10.0
1070
    42
1040
30.0
1070
    44
1040
5.0
1070
   140
1040
20.0
1070
   147
1040
10.0
1002
}
  0
DIMENSION
  5
5BEC
330
1F
100
AcDbEntity
  8
寸法
100
AcDbDimension
  2
*D11
 10
2208.800088449528
 20
1788.45085461361
 30
0.0
 11
1495.800088449528
 21
1808.45085461361
 31
0.0
 70
    32
 71
     5
 42
1426.0
  3
ISO-25
100
AcDbAlignedDimension
 13
782.8000884495281
 23
1688.909163386517
 33
0.0
 14
2208.800088449528
 24
1688.909163386517
 34
0.0
100
AcDbRotatedDimension
1001
ACAD
1000
DSTYLE
1002
{
1070
    41
1040
10.0
1070
    42
1040
30.0
1070
    44
1040
5.0
1070
   140
1040
20.0
1070
   147
1040
10.0
1002
}
  0
DIMENSION
  5
5BED
330
1F
100
AcDbEntity
  8
寸法
100
AcDbDimension
  2
*D12
 10
2262.854034440014
 20
1389.909163386517
 30
0.0
 11
2282.854034440013
 21
1539.409163386517
 31
0.0
 70
    32
 71
     5
 42
299.0
  3
ISO-25
100
AcDbAlignedDimension
 13
2208.800088449528
 23
1688.909163386517
 33
0.0
 14
2208.800088449528
 24
1389.909163386517
 34
0.0
 50
90.0
100
AcDbRotatedDimension
1001
ACAD
1000
DSTYLE
1002
{
1070
    41
1040
10.0
1070
    42
1040
30.0
1070
    44
1040
5.0
1070
   140
1040
20.0
1070
   147
1040
10.0
1002
}
  0
DIMENSION
  5
5BEE
330
1F
100
AcDbEntity
  8
寸法
100
AcDbDimension
  2
*D13
 10
2262.854034440014
 20
1389.909163386517
 30
0.0
 11
2262.854034440014
 21
1387.409163386517
 31
0.0
 70
   160
 71
     5
 42
5.0
  3
ISO-25
100
AcDbAlignedDimension
 13
2165.800088449528
 23
1384.909163386517
 33
0.0
 14
2208.800088449528
 24
1389.909163386517
 34
0.0
 50
90.0
100
AcDbRotatedDimension
1001
ACAD
1000
DSTYLE
1002
{
1070
    41
1040
10.0
1070
    42
1040
30.0
1070
    44
1040
5.0
1070
   140
1040
20.0
1070
   147
1040
10.0
1002
}
  0
DIMENSION
  5
5BEF
330
1F
100
AcDbEntity
  8
寸法
100
AcDbDimension
  2
*D14
 10
2262.854034440014
 20
1384.909163386517
 30
0.0
 11
2282.854034440014
 21
1336.909163386517
 31
0.0
 70
    32
 71
     5
 42
96.0
  3
ISO-25
100
AcDbAlignedDimension
 13
2160.800088449528
 23
1288.909163386517
 33
0.0
 14
2165.800088449528
 24
1384.909163386517
 34
0.0
 50
90.0
100
AcDbRotatedDimension
1001
ACAD
1000
DSTYLE
1002
{
1070
    41
1040
10.0
1070
    42
1040
30.0
1070
    44
1040
5.0
1070
   140
1040
20.0
1070
   147
1040
10.0
1002
}
  0
DIMENSION
  5
5BF0
330
1F
100
AcDbEntity
  8
寸法
100
AcDbDimension
  2
*D15
 10
2160.800088449528
 20
1233.21170822149
 30
0.0
 11
1495.800088449528
 21
1213.21170822149
 31
0.0
 70
    32
 71
     5
 42
1330.0
  3
ISO-25
100
AcDbAlignedDimension
 13
830.8000884495282
 23
1288.909163386517
 33
0.0
 14
2160.800088449528
 24
1288.909163386517
 34
0.0
100
AcDbRotatedDimension
1001
ACAD
1000
DSTYLE
1002
{
1070
    41
1040
10.0
1070
    42
1040
30.0
1070
    44
1040
5.0
1070
   140
1040
20.0
1070
   147
1040
10.0
1002
}
  0
DIMENSION
  5
5BF1
330
1F
100
AcDbEntity
  8
寸法
100
AcDbDimension
  2
*D16
 10
830.8000884495282
 20
1233.21170822149
 30
0.0
 11
828.3000884495281
 21
1233.21170822149
 31
0.0
 70
   160
 71
     5
 42
5.0
  3
ISO-25
100
AcDbAlignedDimension
 13
825.8000884495281
 23
1384.909163386517
 33
0.0
 14
830.8000884495282
 24
1288.909163386517
 34
0.0
100
AcDbRotatedDimension
1001
ACAD
1000
DSTYLE
1002
{
1070
    41
1040
10.0
1070
    42
1040
30.0
1070
    44
1040
5.0
1070
   140
1040
20.0
1070
   147
1040
10.0
1002
}
  0
DIMENSION
  5
5BF2
330
1F
100
AcDbEntity
  8
寸法
100
AcDbDimension
  2
*D17
 10
2160.800088449528
 20
1233.21170822149
 30
0.0
 11
2163.300088449528
 21
1233.21170822149
 31
0.0
 70
   160
 71
     5
 42
5.0
  3
ISO-25
100
AcDbAlignedDimension
 13
2165.800088449528
 23
1384.909163386517
 33
0.0
 14
2160.800088449528
 24
1288.909163386517
 34
0.0
 50
180.0
100
AcDbRotatedDimension
1001
ACAD
1000
DSTYLE
1002
{
1070
    41
1040
10.0
1070
    42
1040
30.0
1070
    44
1040
5.0
1070
   140
1040
20.0
1070
   147
1040
10.0
1002
}
  0
DIMENSION
  5
5C5D
330
1F
100
AcDbEntity
  8
寸法
100
AcDbDimension
  2
*D18
 10
687.8994545657542
 20
665.1479090395697
 30
0.0
 11
745.5865147035977
 21
613.2133050394154
 31
0.0
 70
    33
 71
     5
 42
150.0
  3
ISO-25
100
AcDbAlignedDimension
 13
929.8000884495282
 23
808.9091633865168
 33
0.0
 14
796.2261069472543
 24
877.1586429862191
 34
0.0
1001
ACAD
1000
DSTYLE
1002
{
1070
    41
1040
10.0
1070
    42
1040
30.0
1070
    44
1040
5.0
1070
   140
1040
20.0
1070
   147
1040
10.0
1002
}
  0
ENDSEC
  0
SECTION
  2
OBJECTS
  0
DICTIONARY
  5
C
330
0
100
AcDbDictionary
281
     1
  3
ACAD_2007HEADERVARS_RT
350
622E
  3
ACAD_CIP_PREVIOUS_PRODUCT_INFO
350
61DC
  3
ACAD_COLOR
350
6B
  3
ACAD_GROUP
350
D
  3
ACAD_LAYOUT
350
1A
  3
ACAD_MATERIAL
350
6A
  3
ACAD_MLEADERSTYLE
350
61D5
  3
ACAD_MLINESTYLE
350
17
  3
ACAD_PLOTSETTINGS
350
19
  3
ACAD_PLOTSTYLENAME
350
E
  3
ACAD_SCALELIST
350
61C3
  3
ACAD_TABLESTYLE
350
7E
  3
ACAD_VISUALSTYLE
350
61AA
  3
ACDB_RECOMPOSE_DATA
350
622C
  3
AcDbVariableDictionary
350
5E
  3
DWGPROPS
350
622D
  0
DICTIONARY
  5
101
330
2
100
AcDbDictionary
280
     1
281
     1
  3
ACAD_LAYERFILTERS
360
51A4
  3
ACAD_LAYERSTATES
360
102
  3
ACLYDICTIONARY
360
51A3
  0
DICTIONARY
  5
61E0
330
10
100
AcDbDictionary
280
     1
281
     1
  3
ADSK_XREC_LAYER_RECONCILED
360
61E1
  0
DICTIONARY
  5
61E2
330
FC
100
AcDbDictionary
280
     1
281
     1
  3
ADSK_XREC_LAYER_RECONCILED
360
61E3
  0
DICTIONARY
  5
61E4
330
FE
100
AcDbDictionary
280
     1
281
     1
  3
ADSK_XREC_LAYER_RECONCILED
360
61E5
  0
DICTIONARY
  5
61E6
330
FF
100
AcDbDictionary
280
     1
281
     1
  3
ADSK_XREC_LAYER_RECONCILED
360
61E7
  0
DICTIONARY
  5
61E8
330
14B
100
AcDbDictionary
280
     1
281
     1
  3
ADSK_XREC_LAYER_RECONCILED
360
61E9
  0
DICTIONARY
  5
61EA
330
14F
100
AcDbDictionary
280
     1
281
     1
  3
ADSK_XREC_LAYER_RECONCILED
360
61EB
  0
DICTIONARY
  5
61EC
330
1A4
100
AcDbDictionary
280
     1
281
     1
  3
ADSK_XREC_LAYER_RECONCILED
360
61ED
  0
DICTIONARY
  5
61EE
330
1A5
100
AcDbDictionary
280
     1
281
     1
  3
ADSK_XREC_LAYER_RECONCILED
360
61EF
  0
DICTIONARY
  5
61F0
330
1747
100
AcDbDictionary
280
     1
281
     1
  3
ADSK_XREC_LAYER_RECONCILED
360
61F1
  0
DICTIONARY
  5
61F2
330
49BB
100
AcDbDictionary
280
     1
281
     1
  3
ADSK_XREC_LAYER_RECONCILED
360
61F3
  0
DICTIONARY
  5
61F4
330
49BC
100
AcDbDictionary
280
     1
281
     1
  3
ADSK_XREC_LAYER_RECONCILED
360
61F5
  0
DICTIONARY
  5
61F6
330
49BD
100
AcDbDictionary
280
     1
281
     1
  3
ADSK_XREC_LAYER_RECONCILED
360
61F7
  0
DICTIONARY
  5
C0A
330
1F
100
AcDbDictionary
280
     1
281
     1
  3
ACAD_SORTENTS
360
C0B
  0
DICTIONARY
  5
5B49
330
5B48
100
AcDbDictionary
280
     1
281
     1
  3
ACAD_DIMASSOC
360
5B4A
  0
DICTIONARY
  5
5B4C
330
5B4B
100
AcDbDictionary
280
     1
281
     1
  3
ACAD_DIMASSOC
360
5B4D
  0
DICTIONARY
  5
5B4F
330
5B4E
100
AcDbDictionary
280
     1
281
     1
  3
ACAD_DIMASSOC
360
5B50
  0
DICTIONARY
  5
5B53
330
5B52
100
AcDbDictionary
280
     1
281
     1
  3
ACAD_DIMASSOC
360
5B54
  0
DICTIONARY
  5
5B56
330
5B55
100
AcDbDictionary
280
     1
281
     1
  3
ACAD_DIMASSOC
360
5B57
  0
DICTIONARY
  5
5B59
330
5B58
100
AcDbDictionary
280
     1
281
     1
  3
ACAD_DIMASSOC
360
5B5A
  0
DICTIONARY
  5
5B5C
330
5B5B
100
AcDbDictionary
280
     1
281
     1
  3
ACAD_DIMASSOC
360
5B5D
  0
DICTIONARY
  5
5B5F
330
5B5E
100
AcDbDictionary
280
     1
281
     1
  3
ACAD_DIMASSOC
360
5B60
  0
DICTIONARY
  5
5B65
330
5B64
100
AcDbDictionary
280
     1
281
     1
  3
ACAD_DIMASSOC
360
5B66
  0
DICTIONARY
  5
5B68
330
5B67
100
AcDbDictionary
280
     1
281
     1
  3
ACAD_DIMASSOC
360
5B69
  0
DICTIONARY
  5
5B6B
330
5B6A
100
AcDbDictionary
280
     1
281
     1
  3
ACAD_DIMASSOC
360
5B6C
  0
DICTIONARY
  5
5B70
330
5B6F
100
AcDbDictionary
280
     1
281
     1
  3
ACAD_DIMASSOC
360
5B71
  0
DICTIONARY
  5
5B73
330
5B72
100
AcDbDictionary
280
     1
281
     1
  3
ACAD_DIMASSOC
360
5B74
  0
DICTIONARY
  5
5B76
330
5B75
100
AcDbDictionary
280
     1
281
     1
  3
ACAD_DIMASSOC
360
5B77
  0
DICTIONARY
  5
5B7A
330
5B79
100
AcDbDictionary
280
     1
281
     1
  3
ACAD_DIMASSOC
360
5B7B
  0
DICTIONARY
  5
5B7D
330
5B7C
100
AcDbDictionary
280
     1
281
     1
  3
ACAD_DIMASSOC
360
5B7E
  0
DICTIONARY
  5
5B80
330
5B7F
100
AcDbDictionary
280
     1
281
     1
  3
ACAD_DIMASSOC
360
5B81
  0
DICTIONARY
  5
5B8A
330
5B89
100
AcDbDictionary
280
     1
281
     1
  3
ACAD_DIMASSOC
360
5B8B
  0
DICTIONARY
  5
5B8D
330
5B8C
100
AcDbDictionary
280
     1
281
     1
  3
ACAD_DIMASSOC
360
5B8E
  0
DICTIONARY
  5
5B90
330
5B8F
100
AcDbDictionary
280
     1
281
     1
  3
ACAD_DIMASSOC
360
5B91
  0
DICTIONARY
  5
5B95
330
5B94
100
AcDbDictionary
280
     1
281
     1
  3
ACAD_DIMASSOC
360
5B96
  0
DICTIONARY
  5
5B98
330
5B97
100
AcDbDictionary
280
     1
281
     1
  3
ACAD_DIMASSOC
360
5B99
  0
DICTIONARY
  5
5B9B
330
5B9A
100
AcDbDictionary
280
     1
281
     1
  3
ACAD_DIMASSOC
360
5B9C
  0
DICTIONARY
  5
5B9E
330
5B9D
100
AcDbDictionary
280
     1
281
     1
  3
ACAD_DIMASSOC
360
5B9F
  0
DICTIONARY
  5
5BA1
330
5BA0
100
AcDbDictionary
280
     1
281
     1
  3
ACAD_DIMASSOC
360
5BA2
  0
DICTIONARY
  5
5BA4
330
5BA3
100
AcDbDictionary
280
     1
281
     1
  3
ACAD_DIMASSOC
360
5BA5
  0
DICTIONARY
  5
5BA7
330
5BA6
100
AcDbDictionary
280
     1
281
     1
  3
ACAD_DIMASSOC
360
5BA8
  0
DICTIONARY
  5
5BAA
330
5BA9
100
AcDbDictionary
280
     1
281
     1
  3
ACAD_DIMASSOC
360
5BAB
  0
DICTIONARY
  5
5BAD
330
5BAC
100
AcDbDictionary
280
     1
281
     1
  3
ACAD_DIMASSOC
360
5BAE
  0
DICTIONARY
  5
5BB0
330
5BAF
100
AcDbDictionary
280
     1
281
     1
  3
ACAD_DIMASSOC
360
5BB1
  0
DICTIONARY
  5
5BD5
330
5BD4
100
AcDbDictionary
280
     1
281
     1
  3
ACAD_DIMASSOC
360
5BD6
  0
DICTIONARY
  5
622E
102
{ACAD_REACTORS
330
C
102
}
330
C
100
AcDbDictionary
281
     1
  3
DIMFXL
350
622F
  3
DIMJOGANG
350
6230
  0
XRECORD
  5
61DC
102
{ACAD_REACTORS
330
C
102
}
330
C
100
AcDbXrecord
280
     1
300
ACD
300
2012
300
ACD_F_S
  0
DICTIONARY
  5
6B
102
{ACAD_REACTORS
330
C
102
}
330
C
100
AcDbDictionary
281
     1
  0
DICTIONARY
  5
D
102
{ACAD_REACTORS
330
C
102
}
330
C
100
AcDbDictionary
281
     1
  0
DICTIONARY
  5
1A
102
{ACAD_REACTORS
330
C
102
}
330
C
100
AcDbDictionary
281
     1
  3
Model
350
22
  3
レイアウト1
350
D3
  3
レイアウト2
350
D7
  0
DICTIONARY
  5
6A
102
{ACAD_REACTORS
330
C
102
}
330
C
100
AcDbDictionary
281
     1
  3
ByBlock
350
619A
  3
ByLayer
350
6192
  3
Global
350
61A2
  0
DICTIONARY
  5
61D5
102
{ACAD_REACTORS
330
C
102
}
330
C
100
AcDbDictionary
281
     1
  3
Standard
350
61D6
  0
DICTIONARY
  5
17
102
{ACAD_REACTORS
330
C
102
}
330
C
100
AcDbDictionary
281
     1
  3
Standard
350
18
  0
DICTIONARY
  5
19
102
{ACAD_REACTORS
330
C
102
}
330
C
100
AcDbDictionary
281
     1
  0
ACDBDICTIONARYWDFLT
  5
E
102
{ACAD_REACTORS
330
C
102
}
330
C
100
AcDbDictionary
281
     1
  3
Normal
350
F
100
AcDbDictionaryWithDefault
340
F
  0
DICTIONARY
  5
61C3
102
{ACAD_REACTORS
330
C
102
}
330
C
100
AcDbDictionary
281
     1
  3
A0
350
61C4
  3
A1
350
61C5
  3
A2
350
61C6
  3
A3
350
61C7
  3
A4
350
61C8
  3
A5
350
61C9
  3
A6
350
61CA
  3
A7
350
61CB
  3
A8
350
61CC
  3
A9
350
61CD
  3
B0
350
61CE
  3
B1
350
61CF
  3
B2
350
61D0
  3
B3
350
61D1
  3
B4
350
61D2
  3
B5
350
61D3
  3
B6
350
61D4
  0
DICTIONARY
  5
7E
102
{ACAD_REACTORS
330
C
102
}
330
C
100
AcDbDictionary
281
     1
  3
Standard
350
7F
  0
DICTIONARY
  5
61AA
102
{ACAD_REACTORS
330
C
102
}
330
C
100
AcDbDictionary
281
     1
  3
2dWireframe
350
61B0
  3
Basic
350
61AF
  3
Brighten
350
61B6
  3
ColorChange
350
61BA
  3
Conceptual
350
61B3
  3
Dim
350
61B5
  3
EdgeColorOff
350
61C2
  3
Facepattern
350
61B9
  3
Flat
350
61AB
  3
FlatWithEdges
350
61AC
  3
Gouraud
350
61AD
  3
GouraudWithEdges
350
61AE
  3
Hidden
350
61B2
  3
JitterOff
350
61C0
  3
Linepattern
350
61B8
  3
OverhangOff
350
61C1
  3
Realistic
350
61B4
  3
Shaded
350
61BF
  3
Shaded with edges
350
61BE
  3
Shades of Gray
350
61BB
  3
Sketchy
350
61BC
  3
Thicken
350
61B7
  3
Wireframe
350
61B1
  3
X-Ray
350
61BD
  0
XRECORD
  5
622C
102
{ACAD_REACTORS
330
C
102
}
330
C
100
AcDbXrecord
280
     1
 90
        1
330
7F
  0
DICTIONARY
  5
5E
102
{ACAD_REACTORS
330
C
102
}
330
C
100
AcDbDictionary
281
     1
  3
CANNOSCALE
350
6206
  3
CMLEADERSTYLE
350
6204
  3
CTABLESTYLE
350
84
  3
DIMASSOC
350
5F
  3
HIDETEXT
350
63
  3
INDEXCTL
350
6226
  3
LAYEREVAL
350
6208
  3
LAYERNOTIFY
350
6209
  3
LIGHTINGUNITS
350
6207
  3
MSLTSCALE
350
6205
  3
SORTENTS
350
6225
  3
XCLIPFRAME
350
6227
  0
XRECORD
  5
622D
102
{ACAD_REACTORS
330
C
102
}
330
C
100
AcDbXrecord
280
     1
  1
DWGPROPS COOKIE
  2

  3

  4

  6

  7

  8
tom
  9

300
=
301
=
302
=
303
=
304
=
305
=
306
=
307
=
308
=
309
=
 40
0.2643252662037037
 41
2454427.395492431
 42
2457014.698437037
  1

 90
        0
  0
DICTIONARY
  5
51A4
102
{ACAD_REACTORS
330
101
102
}
330
101
100
AcDbDictionary
281
     1
  0
DICTIONARY
  5
102
102
{ACAD_REACTORS
330
101
102
}
330
101
100
AcDbDictionary
281
     1
  0
DICTIONARY
  5
51A3
102
{ACAD_REACTORS
330
101
102
}
330
101
100
AcDbDictionary
281
     1
1001
ACAD
1000
<All
  0
XRECORD
  5
61E1
102
{ACAD_REACTORS
330
61E0
102
}
330
61E0
100
AcDbXrecord
280
     1
290
     1
  0
XRECORD
  5
61E3
102
{ACAD_REACTORS
330
61E2
102
}
330
61E2
100
AcDbXrecord
280
     1
290
     1
  0
XRECORD
  5
61E5
102
{ACAD_REACTORS
330
61E4
102
}
330
61E4
100
AcDbXrecord
280
     1
290
     1
  0
XRECORD
  5
61E7
102
{ACAD_REACTORS
330
61E6
102
}
330
61E6
100
AcDbXrecord
280
     1
290
     1
  0
XRECORD
  5
61E9
102
{ACAD_REACTORS
330
61E8
102
}
330
61E8
100
AcDbXrecord
280
     1
290
     1
  0
XRECORD
  5
61EB
102
{ACAD_REACTORS
330
61EA
102
}
330
61EA
100
AcDbXrecord
280
     1
290
     1
  0
XRECORD
  5
61ED
102
{ACAD_REACTORS
330
61EC
102
}
330
61EC
100
AcDbXrecord
280
     1
290
     1
  0
XRECORD
  5
61EF
102
{ACAD_REACTORS
330
61EE
102
}
330
61EE
100
AcDbXrecord
280
     1
290
     1
  0
XRECORD
  5
61F1
102
{ACAD_REACTORS
330
61F0
102
}
330
61F0
100
AcDbXrecord
280
     1
290
     1
  0
XRECORD
  5
61F3
102
{ACAD_REACTORS
330
61F2
102
}
330
61F2
100
AcDbXrecord
280
     1
290
     1
  0
XRECORD
  5
61F5
102
{ACAD_REACTORS
330
61F4
102
}
330
61F4
100
AcDbXrecord
280
     1
290
     1
  0
XRECORD
  5
61F7
102
{ACAD_REACTORS
330
61F6
102
}
330
61F6
100
AcDbXrecord
280
     1
290
     1
  0
SORTENTSTABLE
  5
C0B
102
{ACAD_REACTORS
330
C0A
102
}
330
C0A
100
AcDbSortentsTable
330
1F
331
137
  5
2267
331
126
  5
225E
331
124
  5
225C
331
135
  5
2265
331
133
  5
2263
331
129
  5
2261
331
163
  5
43E1
331
127
  5
225F
331
138
  5
43D7
331
125
  5
225D
331
136
  5
2266
331
123
  5
225B
331
134
  5
2264
331
132
  5
2262
331
128
  5
2260
331
139
  5
43E0
  0
DIMASSOC
  5
5B4A
102
{ACAD_REACTORS
330
5B49
102
}
330
5B49
100
AcDbDimAssoc
330
5B48
 90
        3
 70
     0
 71
     0
  1
AcDbOsnapPointRef
 72
    13
331
5B0A
 73
     2
 91
        0
 40
0.0
 10
0.0
 20
0.0
 30
2.000000000000000E+50
 75
     0
  1
AcDbOsnapPointRef
 72
    13
331
5B0F
 73
     2
 91
        0
 40
0.0
 10
0.0
 20
0.0
 30
2.000000000000000E+50
 75
     0
  0
DIMASSOC
  5
5B4D
102
{ACAD_REACTORS
330
5B4C
102
}
330
5B4C
100
AcDbDimAssoc
330
5B4B
 90
        3
 70
     0
 71
     0
  1
AcDbOsnapPointRef
 72
     1
331
5B1D
 73
     2
 91
        0
 40
1.0
 10
0.0
 20
0.0
 30
2.000000000000000E+50
 75
     0
  1
AcDbOsnapPointRef
 72
     1
331
5B47
 73
     2
 91
        0
 40
1.0
 10
0.0
 20
0.0
 30
2.000000000000000E+50
 75
     0
  0
DIMASSOC
  5
5B50
102
{ACAD_REACTORS
330
5B4F
102
}
330
5B4F
100
AcDbDimAssoc
330
5B4E
 90
        3
 70
     0
 71
     0
  1
AcDbOsnapPointRef
 72
     1
331
5B47
 73
     2
 91
        0
 40
1.0
 10
0.0
 20
0.0
 30
2.000000000000000E+50
 75
     0
  1
AcDbOsnapPointRef
 72
    13
331
5B0F
 73
     2
 91
        0
 40
0.0
 10
0.0
 20
0.0
 30
2.000000000000000E+50
 75
     0
  0
DIMASSOC
  5
5B54
102
{ACAD_REACTORS
330
5B53
102
}
330
5B53
100
AcDbDimAssoc
330
5B52
 90
        3
 70
     0
 71
     0
  1
AcDbOsnapPointRef
 72
    13
331
5B0F
 73
     2
 91
        0
 40
0.0
 10
0.0
 20
0.0
 30
2.000000000000000E+50
 75
     0
  1
AcDbOsnapPointRef
 72
    13
331
5B10
 73
     2
 91
        0
 40
0.0
 10
0.0
 20
0.0
 30
2.000000000000000E+50
 75
     0
  0
DIMASSOC
  5
5B57
102
{ACAD_REACTORS
330
5B56
102
}
330
5B56
100
AcDbDimAssoc
330
5B55
 90
        3
 70
     0
 71
     0
  1
AcDbOsnapPointRef
 72
    13
331
5B47
 73
     2
 91
        0
 40
0.0
 10
0.0
 20
0.0
 30
2.000000000000000E+50
 75
     0
  1
AcDbOsnapPointRef
 72
    13
331
5B10
 73
     2
 91
        0
 40
0.0
 10
0.0
 20
0.0
 30
2.000000000000000E+50
 75
     0
  0
DIMASSOC
  5
5B5A
102
{ACAD_REACTORS
330
5B59
102
}
330
5B59
100
AcDbDimAssoc
330
5B58
 90
        3
 70
     0
 71
     0
  1
AcDbOsnapPointRef
 72
    13
331
5B12
 73
     2
 91
        0
 40
0.0
 10
0.0
 20
0.0
 30
2.000000000000000E+50
 75
     0
  1
AcDbOsnapPointRef
 72
    13
331
5B47
 73
     2
 91
        0
 40
0.0
 10
0.0
 20
0.0
 30
2.000000000000000E+50
 75
     0
  0
DIMASSOC
  5
5B5D
102
{ACAD_REACTORS
330
5B5C
102
}
330
5B5C
100
AcDbDimAssoc
330
5B5B
 90
        3
 70
     0
 71
     0
  1
AcDbOsnapPointRef
 72
    13
331
5B0D
 73
     2
 91
        0
 40
0.0
 10
0.0
 20
0.0
 30
2.000000000000000E+50
 75
     0
  1
AcDbOsnapPointRef
 72
    13
331
5B12
 73
     2
 91
        0
 40
0.0
 10
0.0
 20
0.0
 30
2.000000000000000E+50
 75
     0
  0
DIMASSOC
  5
5B60
102
{ACAD_REACTORS
330
5B5F
102
}
330
5B5F
100
AcDbDimAssoc
330
5B5E
 90
        3
 70
     0
 71
     0
  1
AcDbOsnapPointRef
 72
    13
331
5B1D
 73
     2
 91
        0
 40
0.0
 10
0.0
 20
0.0
 30
2.000000000000000E+50
 75
     0
  1
AcDbOsnapPointRef
 72
    13
331
5B0D
 73
     2
 91
        0
 40
0.0
 10
0.0
 20
0.0
 30
2.000000000000000E+50
 75
     0
  0
DIMASSOC
  5
5B66
102
{ACAD_REACTORS
330
5B65
102
}
330
5B65
100
AcDbDimAssoc
330
5B64
 90
        3
 70
     0
 71
     0
  1
AcDbOsnapPointRef
 72
    13
331
5B44
 73
     2
 91
        0
 40
0.0
 10
0.0
 20
0.0
 30
2.000000000000000E+50
 75
     0
  1
AcDbOsnapPointRef
 72
    13
331
5B42
 73
     2
 91
        0
 40
0.0
 10
0.0
 20
0.0
 30
2.000000000000000E+50
 75
     0
  0
DIMASSOC
  5
5B69
102
{ACAD_REACTORS
330
5B68
102
}
330
5B68
100
AcDbDimAssoc
330
5B67
 90
        3
 70
     0
 71
     0
  1
AcDbOsnapPointRef
 72
    13
331
5B43
 73
     2
 91
        0
 40
0.0
 10
0.0
 20
0.0
 30
2.000000000000000E+50
 75
     0
  1
AcDbOsnapPointRef
 72
    13
331
5B44
 73
     2
 91
        0
 40
0.0
 10
0.0
 20
0.0
 30
2.000000000000000E+50
 75
     0
  0
DIMASSOC
  5
5B6C
102
{ACAD_REACTORS
330
5B6B
102
}
330
5B6B
100
AcDbDimAssoc
330
5B6A
 90
        3
 70
     0
 71
     0
  1
AcDbOsnapPointRef
 72
    13
331
5B3D
 73
     2
 91
        0
 40
0.0
 10
0.0
 20
0.0
 30
2.000000000000000E+50
 75
     0
  1
AcDbOsnapPointRef
 72
    13
331
5B43
 73
     2
 91
        0
 40
0.0
 10
0.0
 20
0.0
 30
2.000000000000000E+50
 75
     0
  0
DIMASSOC
  5
5B71
102
{ACAD_REACTORS
330
5B70
102
}
330
5B70
100
AcDbDimAssoc
330
5B6F
 90
        3
 70
     0
 71
     0
  1
AcDbOsnapPointRef
 72
    13
331
5B3D
 73
     2
 91
        0
 40
0.0
 10
0.0
 20
0.0
 30
2.000000000000000E+50
 75
     0
  1
AcDbOsnapPointRef
 72
    13
331
5B38
 73
     2
 91
        0
 40
0.0
 10
0.0
 20
0.0
 30
2.000000000000000E+50
 75
     0
  0
DIMASSOC
  5
5B74
102
{ACAD_REACTORS
330
5B73
102
}
330
5B73
100
AcDbDimAssoc
330
5B72
 90
        3
 70
     0
 71
     0
  1
AcDbOsnapPointRef
 72
    13
331
5B40
 73
     2
 91
        0
 40
0.0
 10
0.0
 20
0.0
 30
2.000000000000000E+50
 75
     0
  1
AcDbOsnapPointRef
 72
    13
331
5B3B
 73
     2
 91
        0
 40
0.0
 10
0.0
 20
0.0
 30
2.000000000000000E+50
 75
     0
  0
DIMASSOC
  5
5B77
102
{ACAD_REACTORS
330
5B76
102
}
330
5B76
100
AcDbDimAssoc
330
5B75
 90
        3
 70
     0
 71
     0
  1
AcDbOsnapPointRef
 72
    13
331
5B3E
 73
     2
 91
        0
 40
0.0
 10
0.0
 20
0.0
 30
2.000000000000000E+50
 75
     0
  1
AcDbOsnapPointRef
 72
    13
331
5B40
 73
     2
 91
        0
 40
0.0
 10
0.0
 20
0.0
 30
2.000000000000000E+50
 75
     0
  0
DIMASSOC
  5
5B7B
102
{ACAD_REACTORS
330
5B7A
102
}
330
5B7A
100
AcDbDimAssoc
330
5B79
 90
        1
 70
     0
 71
     0
  1
AcDbOsnapPointRef
 72
    13
331
5B3B
 73
     2
 91
        0
 40
0.0
 10
0.0
 20
0.0
 30
2.000000000000000E+50
 75
     0
  0
DIMASSOC
  5
5B7E
102
{ACAD_REACTORS
330
5B7D
102
}
330
5B7D
100
AcDbDimAssoc
330
5B7C
 90
        3
 70
     0
 71
     0
  1
AcDbOsnapPointRef
 72
    13
331
5B3A
 73
     2
 91
        0
 40
0.0
 10
0.0
 20
0.0
 30
2.000000000000000E+50
 75
     0
  1
AcDbOsnapPointRef
 72
    13
331
5B39
 73
     2
 91
        0
 40
0.0
 10
0.0
 20
0.0
 30
2.000000000000000E+50
 75
     0
  0
DIMASSOC
  5
5B81
102
{ACAD_REACTORS
330
5B80
102
}
330
5B80
100
AcDbDimAssoc
330
5B7F
 90
        3
 70
     0
 71
     0
  1
AcDbOsnapPointRef
 72
    13
331
5B39
 73
     2
 91
        0
 40
0.0
 10
0.0
 20
0.0
 30
2.000000000000000E+50
 75
     0
  1
AcDbOsnapPointRef
 72
    13
331
5B38
 73
     2
 91
        0
 40
0.0
 10
0.0
 20
0.0
 30
2.000000000000000E+50
 75
     0
  0
DIMASSOC
  5
5B8B
102
{ACAD_REACTORS
330
5B8A
102
}
330
5B8A
100
AcDbDimAssoc
330
5B89
 90
        3
 70
     0
 71
     0
  1
AcDbOsnapPointRef
 72
    13
331
5B03
 73
     2
 91
        0
 40
0.0
 10
0.0
 20
0.0
 30
2.000000000000000E+50
 75
     0
  1
AcDbOsnapPointRef
 72
    13
331
5B02
 73
     2
 91
        0
 40
0.0
 10
0.0
 20
0.0
 30
2.000000000000000E+50
 75
     0
  0
DIMASSOC
  5
5B8E
102
{ACAD_REACTORS
330
5B8D
102
}
330
5B8D
100
AcDbDimAssoc
330
5B8C
 90
        3
 70
     0
 71
     0
  1
AcDbOsnapPointRef
 72
    13
331
5B02
 73
     2
 91
        0
 40
0.0
 10
0.0
 20
0.0
 30
2.000000000000000E+50
 75
     0
  1
AcDbOsnapPointRef
 72
    13
331
5B01
 73
     2
 91
        0
 40
0.0
 10
0.0
 20
0.0
 30
2.000000000000000E+50
 75
     0
  0
DIMASSOC
  5
5B91
102
{ACAD_REACTORS
330
5B90
102
}
330
5B90
100
AcDbDimAssoc
330
5B8F
 90
        3
 70
     0
 71
     0
  1
AcDbOsnapPointRef
 72
    13
331
5B01
 73
     2
 91
        0
 40
0.0
 10
0.0
 20
0.0
 30
2.000000000000000E+50
 75
     0
  1
AcDbOsnapPointRef
 72
    13
331
5B00
 73
     2
 91
        0
 40
0.0
 10
0.0
 20
0.0
 30
2.000000000000000E+50
 75
     0
  0
DIMASSOC
  5
5B96
102
{ACAD_REACTORS
330
5B95
102
}
330
5B95
100
AcDbDimAssoc
330
5B94
 90
        1
 70
     0
 71
     0
  1
AcDbOsnapPointRef
 72
    13
331
5B06
 73
     2
 91
        0
 40
0.0
 10
0.0
 20
0.0
 30
2.000000000000000E+50
 75
     0
  0
DIMASSOC
  5
5B99
102
{ACAD_REACTORS
330
5B98
102
}
330
5B98
100
AcDbDimAssoc
330
5B97
 90
        2
 70
     0
 71
     0
  1
AcDbOsnapPointRef
 72
    13
331
5B05
 73
     2
 91
        0
 40
0.0
 10
0.0
 20
0.0
 30
2.000000000000000E+50
 75
     0
  0
DIMASSOC
  5
5B9C
102
{ACAD_REACTORS
330
5B9B
102
}
330
5B9B
100
AcDbDimAssoc
330
5B9A
 90
        3
 70
     0
 71
     0
  1
AcDbOsnapPointRef
 72
     1
331
5AED
 73
     2
 91
        3
 40
1.0
 10
0.0
 20
0.0
 30
2.000000000000000E+50
 75
     0
  1
AcDbOsnapPointRef
 72
    13
331
5AF5
 73
     2
 91
        0
 40
0.0
 10
0.0
 20
0.0
 30
2.000000000000000E+50
 75
     0
  0
DIMASSOC
  5
5B9F
102
{ACAD_REACTORS
330
5B9E
102
}
330
5B9E
100
AcDbDimAssoc
330
5B9D
 90
        3
 70
     0
 71
     0
  1
AcDbOsnapPointRef
 72
    13
331
5AF5
 73
     2
 91
        0
 40
0.0
 10
0.0
 20
0.0
 30
2.000000000000000E+50
 75
     0
  1
AcDbOsnapPointRef
 72
    13
331
5AF7
 73
     2
 91
        0
 40
0.0
 10
0.0
 20
0.0
 30
2.000000000000000E+50
 75
     0
  0
DIMASSOC
  5
5BA2
102
{ACAD_REACTORS
330
5BA1
102
}
330
5BA1
100
AcDbDimAssoc
330
5BA0
 90
        3
 70
     0
 71
     0
  1
AcDbOsnapPointRef
 72
    13
331
5AF7
 73
     2
 91
        0
 40
0.0
 10
0.0
 20
0.0
 30
2.000000000000000E+50
 75
     0
  1
AcDbOsnapPointRef
 72
     1
331
5AED
 73
     2
 91
        2
 40
1.0
 10
0.0
 20
0.0
 30
2.000000000000000E+50
 75
     0
  0
DIMASSOC
  5
5BA5
102
{ACAD_REACTORS
330
5BA4
102
}
330
5BA4
100
AcDbDimAssoc
330
5BA3
 90
        3
 70
     0
 71
     0
  1
AcDbOsnapPointRef
 72
    13
331
5AF8
 73
     2
 91
        0
 40
0.0
 10
0.0
 20
0.0
 30
2.000000000000000E+50
 75
     0
  1
AcDbOsnapPointRef
 72
     1
331
5AED
 73
     2
 91
        2
 40
1.0
 10
0.0
 20
0.0
 30
2.000000000000000E+50
 75
     0
  0
DIMASSOC
  5
5BA8
102
{ACAD_REACTORS
330
5BA7
102
}
330
5BA7
100
AcDbDimAssoc
330
5BA6
 90
        3
 70
     0
 71
     0
  1
AcDbOsnapPointRef
 72
     1
331
5AF6
 73
     2
 91
        0
 40
1.0
 10
0.0
 20
0.0
 30
2.000000000000000E+50
 75
     0
  1
AcDbOsnapPointRef
 72
    13
331
5AF8
 73
     2
 91
        0
 40
0.0
 10
0.0
 20
0.0
 30
2.000000000000000E+50
 75
     0
  0
DIMASSOC
  5
5BAB
102
{ACAD_REACTORS
330
5BAA
102
}
330
5BAA
100
AcDbDimAssoc
330
5BA9
 90
        3
 70
     0
 71
     0
  1
AcDbOsnapPointRef
 72
     1
331
5AF6
 73
     2
 91
        0
 40
1.0
 10
0.0
 20
0.0
 30
2.000000000000000E+50
 75
     0
  1
AcDbOsnapPointRef
 72
     1
331
5AED
 73
     2
 91
        1
 40
1.0
 10
0.0
 20
0.0
 30
2.000000000000000E+50
 75
     0
  0
DIMASSOC
  5
5BAE
102
{ACAD_REACTORS
330
5BAD
102
}
330
5BAD
100
AcDbDimAssoc
330
5BAC
 90
        3
 70
     0
 71
     0
  1
AcDbOsnapPointRef
 72
    13
331
5AED
 73
     2
 91
        1
 40
0.0
 10
0.0
 20
0.0
 30
2.000000000000000E+50
 75
     0
  1
AcDbOsnapPointRef
 72
     1
331
5AED
 73
     2
 91
        1
 40
1.0
 10
0.0
 20
0.0
 30
2.000000000000000E+50
 75
     0
  0
DIMASSOC
  5
5BB1
102
{ACAD_REACTORS
330
5BB0
102
}
330
5BB0
100
AcDbDimAssoc
330
5BAF
 90
        1
 70
     0
 71
     0
  1
AcDbOsnapPointRef
 72
    13
331
5B38
 73
     2
 91
        0
 40
0.0
 10
0.0
 20
0.0
 30
2.000000000000000E+50
 75
     0
  0
DIMASSOC
  5
5BD6
102
{ACAD_REACTORS
330
5BD5
102
}
330
5BD5
100
AcDbDimAssoc
330
5BD4
 90
        3
 70
     0
 71
     0
  1
AcDbOsnapPointRef
 72
    13
331
5B06
 73
     2
 91
        0
 40
0.0
 10
0.0
 20
0.0
 30
2.000000000000000E+50
 75
     0
  1
AcDbOsnapPointRef
 72
    13
331
5B05
 73
     2
 91
        0
 40
0.0
 10
0.0
 20
0.0
 30
2.000000000000000E+50
 75
     0
  0
XRECORD
  5
622F
102
{ACAD_REACTORS
330
622E
102
}
330
622E
100
AcDbXrecord
280
     1
 40
1.25
  0
XRECORD
  5
6230
102
{ACAD_REACTORS
330
622E
102
}
330
622E
100
AcDbXrecord
280
     1
 40
1.570796326794896
  0
LAYOUT
  5
22
102
{ACAD_XDICTIONARY
360
61FF
102
}
102
{ACAD_REACTORS
330
1A
102
}
330
1A
100
AcDbPlotSettings
  1

  2
RICOH imagio Neo 353D RPCS
  4
A3
  6

 40
5.873749732971191
 41
5.873747825622558
 42
5.873748779296875
 43
5.873748779296875
 44
296.9259948730469
 45
419.9466552734374
 46
-5.910751819610595
 47
-5.900420665740966
 48
82.80008844952817
 49
88.90916338651733
140
4282.800088449529
141
3058.909163386517
142
1.0
143
10.0
 70
 11956
 72
     1
 73
     1
 74
     4
  7
monochrome.ctb
 75
    20
147
0.1
148
-82.80008844952817
149
-88.90916338651733
100
AcDbLayout
  1
Model
 70
     1
 71
     0
 10
0.0
 20
0.0
 11
12.0
 21
9.0
 12
0.0
 22
0.0
 32
0.0
 14
0.0
 24
0.0
 34
0.0
 15
0.0
 25
0.0
 35
0.0
146
0.0
 13
0.0
 23
0.0
 33
0.0
 16
1.0
 26
0.0
 36
0.0
 17
0.0
 27
1.0
 37
0.0
 76
     0
330
1F
331
6190
1001
ACAD_PSEXT
1000
RICOH imagio Neo 353D RPCS
1000
RICOH imagio Neo 353D RPCS
1000
IP_200.100.10.111
1000
RPCS Driver (Windows 2000/XP/Server 2003/2008/Vista/7)
1070
     0
  0
LAYOUT
  5
D3
102
{ACAD_XDICTIONARY
360
6233
102
}
102
{ACAD_REACTORS
330
1A
102
}
330
1A
100
AcDbPlotSettings
  1

  2
C:\Documents and Settings\basas\Application Data\Autodesk\AutoCAD 2005\R16.1\enu\plotters\Default Windows System Printer.pc3
  4

  6

 40
0.0
 41
0.0
 42
0.0
 43
0.0
 44
0.0
 45
0.0
 46
0.0
 47
0.0
 48
0.0
 49
0.0
140
0.0
141
0.0
142
1.0
143
1.0
 70
   688
 72
     0
 73
     0
 74
     5
  7
monochrome.ctb
 75
    16
147
1.0
148
0.0
149
0.0
100
AcDbLayout
  1
レイアウト1
 70
     1
 71
     1
 10
0.0
 20
0.0
 11
12.0
 21
9.0
 12
0.0
 22
0.0
 32
0.0
 14
0.0
 24
0.0
 34
0.0
 15
0.0
 25
0.0
 35
0.0
146
0.0
 13
0.0
 23
0.0
 33
0.0
 16
1.0
 26
0.0
 36
0.0
 17
0.0
 27
1.0
 37
0.0
 76
     0
330
D2
  0
LAYOUT
  5
D7
102
{ACAD_XDICTIONARY
360
6235
102
}
102
{ACAD_REACTORS
330
1A
102
}
330
1A
100
AcDbPlotSettings
  1

  2
C:\Documents and Settings\basas\Application Data\Autodesk\AutoCAD 2005\R16.1\enu\plotters\Default Windows System Printer.pc3
  4

  6

 40
0.0
 41
0.0
 42
0.0
 43
0.0
 44
0.0
 45
0.0
 46
0.0
 47
0.0
 48
0.0
 49
0.0
140
0.0
141
0.0
142
1.0
143
1.0
 70
   688
 72
     0
 73
     0
 74
     5
  7
monochrome.ctb
 75
    16
147
1.0
148
0.0
149
0.0
100
AcDbLayout
  1
レイアウト2
 70
     1
 71
     2
 10
0.0
 20
0.0
 11
12.0
 21
9.0
 12
0.0
 22
0.0
 32
0.0
 14
0.0
 24
0.0
 34
0.0
 15
0.0
 25
0.0
 35
0.0
146
0.0
 13
0.0
 23
0.0
 33
0.0
 16
1.0
 26
0.0
 36
0.0
 17
0.0
 27
1.0
 37
0.0
 76
     0
330
D6
  0
MATERIAL
  5
619A
102
{ACAD_XDICTIONARY
360
619B
102
}
102
{ACAD_REACTORS
330
6A
102
}
330
6A
100
AcDbMaterial
  1
ByBlock
 72
     0
 43
0.0008202099737533
 43
0.0
 43
0.0
 43
0.0
 43
0.0
 43
0.0008202099737533
 43
0.0
 43
0.0
 43
0.0
 43
0.0
 43
1.0
 43
0.0
 43
0.0
 43
0.0
 43
0.0
 43
1.0
 77
     0
 47
0.0008202099737533
 47
0.0
 47
0.0
 47
0.0
 47
0.0
 47
0.0008202099737533
 47
0.0
 47
0.0
 47
0.0
 47
0.0
 47
1.0
 47
0.0
 47
0.0
 47
0.0
 47
0.0
 47
1.0
171
     0
 49
0.0008202099737533
 49
0.0
 49
0.0
 49
0.0
 49
0.0
 49
0.0008202099737533
 49
0.0
 49
0.0
 49
0.0
 49
0.0
 49
1.0
 49
0.0
 49
0.0
 49
0.0
 49
0.0
 49
1.0
175
     0
142
0.0008202099737533
142
0.0
142
0.0
142
0.0
142
0.0
142
0.0008202099737533
142
0.0
142
0.0
142
0.0
142
0.0
142
1.0
142
0.0
142
0.0
142
0.0
142
0.0
142
1.0
179
     0
144
0.0008202099737533
144
0.0
144
0.0
144
0.0
144
0.0
144
0.0008202099737533
144
0.0
144
0.0
144
0.0
144
0.0
144
1.0
144
0.0
144
0.0
144
0.0
144
0.0
144
1.0
147
0.0008202099737533
147
0.0
147
0.0
147
0.0
147
0.0
147
0.0008202099737533
147
0.0
147
0.0
147
0.0
147
0.0
147
1.0
147
0.0
147
0.0
147
0.0
147
0.0
147
1.0
  0
MATERIAL
  5
6192
102
{ACAD_XDICTIONARY
360
6193
102
}
102
{ACAD_REACTORS
330
6A
102
}
330
6A
100
AcDbMaterial
  1
ByLayer
 72
     0
 43
0.0008202099737533
 43
0.0
 43
0.0
 43
0.0
 43
0.0
 43
0.0008202099737533
 43
0.0
 43
0.0
 43
0.0
 43
0.0
 43
1.0
 43
0.0
 43
0.0
 43
0.0
 43
0.0
 43
1.0
 77
     0
 47
0.0008202099737533
 47
0.0
 47
0.0
 47
0.0
 47
0.0
 47
0.0008202099737533
 47
0.0
 47
0.0
 47
0.0
 47
0.0
 47
1.0
 47
0.0
 47
0.0
 47
0.0
 47
0.0
 47
1.0
171
     0
 49
0.0008202099737533
 49
0.0
 49
0.0
 49
0.0
 49
0.0
 49
0.0008202099737533
 49
0.0
 49
0.0
 49
0.0
 49
0.0
 49
1.0
 49
0.0
 49
0.0
 49
0.0
 49
0.0
 49
1.0
175
     0
142
0.0008202099737533
142
0.0
142
0.0
142
0.0
142
0.0
142
0.0008202099737533
142
0.0
142
0.0
142
0.0
142
0.0
142
1.0
142
0.0
142
0.0
142
0.0
142
0.0
142
1.0
179
     0
144
0.0008202099737533
144
0.0
144
0.0
144
0.0
144
0.0
144
0.0008202099737533
144
0.0
144
0.0
144
0.0
144
0.0
144
1.0
144
0.0
144
0.0
144
0.0
144
0.0
144
1.0
147
0.0008202099737533
147
0.0
147
0.0
147
0.0
147
0.0
147
0.0008202099737533
147
0.0
147
0.0
147
0.0
147
0.0
147
1.0
147
0.0
147
0.0
147
0.0
147
0.0
147
1.0
  0
MATERIAL
  5
61A2
102
{ACAD_XDICTIONARY
360
61A3
102
}
102
{ACAD_REACTORS
330
6A
102
}
330
6A
100
AcDbMaterial
  1
Global
 72
     0
 43
0.0008202099737533
 43
0.0
 43
0.0
 43
0.0
 43
0.0
 43
0.0008202099737533
 43
0.0
 43
0.0
 43
0.0
 43
0.0
 43
1.0
 43
0.0
 43
0.0
 43
0.0
 43
0.0
 43
1.0
 77
     0
 47
0.0008202099737533
 47
0.0
 47
0.0
 47
0.0
 47
0.0
 47
0.0008202099737533
 47
0.0
 47
0.0
 47
0.0
 47
0.0
 47
1.0
 47
0.0
 47
0.0
 47
0.0
 47
0.0
 47
1.0
171
     0
 49
0.0008202099737533
 49
0.0
 49
0.0
 49
0.0
 49
0.0
 49
0.0008202099737533
 49
0.0
 49
0.0
 49
0.0
 49
0.0
 49
1.0
 49
0.0
 49
0.0
 49
0.0
 49
0.0
 49
1.0
175
     0
142
0.0008202099737533
142
0.0
142
0.0
142
0.0
142
0.0
142
0.0008202099737533
142
0.0
142
0.0
142
0.0
142
0.0
142
1.0
142
0.0
142
0.0
142
0.0
142
0.0
142
1.0
179
     0
144
0.0008202099737533
144
0.0
144
0.0
144
0.0
144
0.0
144
0.0008202099737533
144
0.0
144
0.0
144
0.0
144
0.0
144
1.0
144
0.0
144
0.0
144
0.0
144
0.0
144
1.0
147
0.0008202099737533
147
0.0
147
0.0
147
0.0
147
0.0
147
0.0008202099737533
147
0.0
147
0.0
147
0.0
147
0.0
147
1.0
147
0.0
147
0.0
147
0.0
147
0.0
147
1.0
  0
MLEADERSTYLE
  5
61D6
102
{ACAD_XDICTIONARY
360
622A
102
}
102
{ACAD_REACTORS
330
61D5
102
}
330
61D5
100
AcDbMLeaderStyle
170
     2
171
     1
172
     0
 90
        2
 40
0.0
 41
0.0
173
     1
 91
-1056964608
340
14
 92
       -2
290
     1
 42
2.0
291
     1
 43
0.36
  3
Standard
 44
4.0
300

342
11
174
     1
178
     6
175
     1
176
     0
 93
-1056964608
 45
4.0
292
     0
297
     0
 46
4.0
 94
-1056964608
 47
1.0
 49
1.0
140
1.0
293
     1
141
0.0
294
     1
177
     0
142
1.0
295
     0
296
     0
143
0.125
1001
ACAD_MLEADERVER
1070
     2
  0
MLINESTYLE
  5
18
102
{ACAD_REACTORS
330
17
102
}
330
17
100
AcDbMlineStyle
  2
STANDARD
 70
     0
  3

 62
   256
 51
90.0
 52
90.0
 71
     2
 49
0.5
 62
   256
  6
BYLAYER
 49
-0.5
 62
   256
  6
BYLAYER
  0
ACDBPLACEHOLDER
  5
F
102
{ACAD_REACTORS
330
E
102
}
330
E
  0
SCALE
  5
61C4
102
{ACAD_REACTORS
330
61C3
102
}
330
61C3
100
AcDbScale
 70
     0
300
1:1
140
1.0
141
1.0
290
     1
  0
SCALE
  5
61C5
102
{ACAD_REACTORS
330
61C3
102
}
330
61C3
100
AcDbScale
 70
     0
300
1:2
140
1.0
141
2.0
290
     0
  0
SCALE
  5
61C6
102
{ACAD_REACTORS
330
61C3
102
}
330
61C3
100
AcDbScale
 70
     0
300
1:4
140
1.0
141
4.0
290
     0
  0
SCALE
  5
61C7
102
{ACAD_REACTORS
330
61C3
102
}
330
61C3
100
AcDbScale
 70
     0
300
1:5
140
1.0
141
5.0
290
     0
  0
SCALE
  5
61C8
102
{ACAD_REACTORS
330
61C3
102
}
330
61C3
100
AcDbScale
 70
     0
300
1:8
140
1.0
141
8.0
290
     0
  0
SCALE
  5
61C9
102
{ACAD_REACTORS
330
61C3
102
}
330
61C3
100
AcDbScale
 70
     0
300
1:10
140
1.0
141
10.0
290
     0
  0
SCALE
  5
61CA
102
{ACAD_REACTORS
330
61C3
102
}
330
61C3
100
AcDbScale
 70
     0
300
1:16
140
1.0
141
16.0
290
     0
  0
SCALE
  5
61CB
102
{ACAD_REACTORS
330
61C3
102
}
330
61C3
100
AcDbScale
 70
     0
300
1:20
140
1.0
141
20.0
290
     0
  0
SCALE
  5
61CC
102
{ACAD_REACTORS
330
61C3
102
}
330
61C3
100
AcDbScale
 70
     0
300
1:30
140
1.0
141
30.0
290
     0
  0
SCALE
  5
61CD
102
{ACAD_REACTORS
330
61C3
102
}
330
61C3
100
AcDbScale
 70
     0
300
1:40
140
1.0
141
40.0
290
     0
  0
SCALE
  5
61CE
102
{ACAD_REACTORS
330
61C3
102
}
330
61C3
100
AcDbScale
 70
     0
300
1:50
140
1.0
141
50.0
290
     0
  0
SCALE
  5
61CF
102
{ACAD_REACTORS
330
61C3
102
}
330
61C3
100
AcDbScale
 70
     0
300
1:100
140
1.0
141
100.0
290
     0
  0
SCALE
  5
61D0
102
{ACAD_REACTORS
330
61C3
102
}
330
61C3
100
AcDbScale
 70
     0
300
2:1
140
2.0
141
1.0
290
     0
  0
SCALE
  5
61D1
102
{ACAD_REACTORS
330
61C3
102
}
330
61C3
100
AcDbScale
 70
     0
300
4:1
140
4.0
141
1.0
290
     0
  0
SCALE
  5
61D2
102
{ACAD_REACTORS
330
61C3
102
}
330
61C3
100
AcDbScale
 70
     0
300
8:1
140
8.0
141
1.0
290
     0
  0
SCALE
  5
61D3
102
{ACAD_REACTORS
330
61C3
102
}
330
61C3
100
AcDbScale
 70
     0
300
10:1
140
10.0
141
1.0
290
     0
  0
SCALE
  5
61D4
102
{ACAD_REACTORS
330
61C3
102
}
330
61C3
100
AcDbScale
 70
     0
300
100:1
140
100.0
141
1.0
290
     0
  0
TABLESTYLE
  5
7F
102
{ACAD_XDICTIONARY
360
6228
102
}
102
{ACAD_REACTORS
330
7E
102
}
330
7E
100
AcDbTableStyle
  3
Standard
 70
     0
 71
     0
 40
1.5
 41
1.5
280
     0
281
     0
  7
Standard
140
4.5
170
     2
 62
     0
 63
     7
283
     0
274
    -2
284
     1
 64
     0
275
    -2
285
     1
 65
     0
276
    -2
286
     1
 66
     0
277
    -2
287
     1
 67
     0
278
    -2
288
     1
 68
     0
279
    -2
289
     1
 69
     0
  7
Standard
140
6.0
170
     5
 62
     0
 63
     7
283
     0
274
    -2
284
     1
 64
     0
275
    -2
285
     1
 65
     0
276
    -2
286
     1
 66
     0
277
    -2
287
     1
 67
     0
278
    -2
288
     1
 68
     0
279
    -2
289
     1
 69
     0
  7
Standard
140
4.5
170
     5
 62
     0
 63
     7
283
     0
274
    -2
284
     1
 64
     0
275
    -2
285
     1
 65
     0
276
    -2
286
     1
 66
     0
277
    -2
287
     1
 67
     0
278
    -2
288
     1
 68
     0
279
    -2
289
     1
 69
     0
  0
VISUALSTYLE
  5
61B0
102
{ACAD_XDICTIONARY
360
6244
102
}
102
{ACAD_REACTORS
330
61AA
102
}
330
61AA
100
AcDbVisualStyle
  2
2dWireframe
 70
     4
 71
     0
 72
     2
 73
     0
 90
        0
 40
-0.6
 41
-30.0
 62
     5
 63
     7
 74
     1
 91
        4
 64
     7
 65
   257
 75
     1
175
     1
 42
1.0
 92
        0
 66
   257
 43
1.0
 76
     1
 77
     6
 78
     2
 67
     7
 79
     5
170
     0
171
     0
290
     0
174
     0
 93
        1
 44
0.0
173
     0
291
     0
 45
0.0
1001
ACAD
1000
AcDbSavedByObjectVersion
1070
     0
  0
VISUALSTYLE
  5
61AF
102
{ACAD_XDICTIONARY
360
6242
102
}
102
{ACAD_REACTORS
330
61AA
102
}
330
61AA
100
AcDbVisualStyle
  2
Basic
 70
     7
 71
     1
 72
     0
 73
     1
 90
        0
 40
-0.6
 41
-30.0
 62
     5
 63
     7
 74
     0
 91
        4
 64
     7
 65
   257
 75
     1
175
     1
 42
1.0
 92
        8
 66
     7
 43
1.0
 76
     1
 77
     6
 78
     2
 67
     7
 79
     5
170
     0
171
     0
290
     0
174
     0
 93
        1
 44
0.0
173
     0
291
     1
 45
0.0
1001
ACAD
1000
AcDbSavedByObjectVersion
1070
     0
  0
VISUALSTYLE
  5
61B6
102
{ACAD_XDICTIONARY
360
6250
102
}
102
{ACAD_REACTORS
330
61AA
102
}
330
61AA
100
AcDbVisualStyle
  2
Brighten
 70
    12
 71
     2
 72
     2
 73
     0
 90
        0
 40
-0.6
 41
-30.0
 62
     5
 63
     7
 74
     1
 91
        4
 64
     7
 65
   257
 75
     1
175
     1
 42
1.0
 92
        8
 66
     7
 43
1.0
 76
     1
 77
     6
 78
     2
 67
     7
 79
     5
170
     0
171
     0
290
     0
174
     0
 93
        1
 44
50.0
173
     0
291
     1
 45
0.0
1001
ACAD
1000
AcDbSavedByObjectVersion
1070
     0
  0
VISUALSTYLE
  5
61BA
102
{ACAD_XDICTIONARY
360
6258
102
}
102
{ACAD_REACTORS
330
61AA
102
}
330
61AA
100
AcDbVisualStyle
  2
ColorChange
 70
    16
 71
     2
 72
     2
 73
     3
 90
        0
 40
-0.6
 41
-30.0
 62
     5
 63
     8
 74
     1
 91
        4
 64
     7
 65
   257
 75
     1
175
     1
 42
1.0
 92
        8
 66
     8
 43
1.0
 76
     1
 77
     6
 78
     2
 67
     7
 79
     5
170
     0
171
     0
290
     0
174
     0
 93
        1
 44
0.0
173
     0
291
     1
 45
0.0
1001
ACAD
1000
AcDbSavedByObjectVersion
1070
     0
  0
VISUALSTYLE
  5
61B3
102
{ACAD_XDICTIONARY
360
624A
102
}
102
{ACAD_REACTORS
330
61AA
102
}
330
61AA
100
AcDbVisualStyle
  2
Conceptual
 70
     9
 71
     3
 72
     2
 73
     0
 90
        0
 40
-0.6
 41
-30.0
 62
     5
 63
     7
 74
     2
 91
        2
 64
     7
 65
   257
 75
     1
175
     1
 42
179.0
 92
        8
 66
     7
 43
1.0
 76
     1
 77
     6
 78
     2
 67
     7
 79
     3
170
     0
171
     0
290
     0
174
     0
 93
        1
 44
0.0
173
     0
291
     0
 45
0.0
1001
ACAD
1000
AcDbSavedByObjectVersion
1070
     0
  0
VISUALSTYLE
  5
61B5
102
{ACAD_XDICTIONARY
360
624E
102
}
102
{ACAD_REACTORS
330
61AA
102
}
330
61AA
100
AcDbVisualStyle
  2
Dim
 70
    11
 71
     2
 72
     2
 73
     0
 90
        0
 40
-0.6
 41
-30.0
 62
     5
 63
     7
 74
     1
 91
        4
 64
     7
 65
   257
 75
     1
175
     1
 42
1.0
 92
        8
 66
     7
 43
1.0
 76
     1
 77
     6
 78
     2
 67
     7
 79
     5
170
     0
171
     0
290
     0
174
     0
 93
        1
 44
-50.0
173
     0
291
     1
 45
0.0
1001
ACAD
1000
AcDbSavedByObjectVersion
1070
     0
  0
VISUALSTYLE
  5
61C2
102
{ACAD_XDICTIONARY
360
6268
102
}
102
{ACAD_REACTORS
330
61AA
102
}
330
61AA
100
AcDbVisualStyle
  2
EdgeColorOff
 70
    22
 71
     2
 72
     2
 73
     0
 90
        0
 40
-0.6
 41
-30.0
 62
     5
 63
     7
 74
     1
 91
        4
 64
     7
 65
   257
 75
     1
175
     1
 42
1.0
 92
        8
 66
     7
 43
1.0
 76
     1
 77
     6
 78
     2
 67
     7
 79
     5
170
     0
171
     0
290
     0
174
     0
 93
        1
 44
0.0
173
     0
291
     1
 45
0.0
1001
ACAD
1000
AcDbSavedByObjectVersion
1070
     0
  0
VISUALSTYLE
  5
61B9
102
{ACAD_XDICTIONARY
360
6256
102
}
102
{ACAD_REACTORS
330
61AA
102
}
330
61AA
100
AcDbVisualStyle
  2
Facepattern
 70
    15
 71
     2
 72
     2
 73
     0
 90
        0
 40
-0.6
 41
-30.0
 62
     5
 63
     7
 74
     1
 91
        4
 64
     7
 65
   257
 75
     1
175
     1
 42
1.0
 92
        8
 66
     7
 43
1.0
 76
     1
 77
     6
 78
     2
 67
     7
 79
     5
170
     0
171
     0
290
     0
174
     0
 93
        1
 44
0.0
173
     0
291
     1
 45
0.0
1001
ACAD
1000
AcDbSavedByObjectVersion
1070
     0
  0
VISUALSTYLE
  5
61AB
102
{ACAD_XDICTIONARY
360
623A
102
}
102
{ACAD_REACTORS
330
61AA
102
}
330
61AA
100
AcDbVisualStyle
  2
Flat
 70
     0
 71
     2
 72
     1
 73
     1
 90
        2
 40
-0.6
 41
30.0
 62
     5
 63
     7
 74
     0
 91
        0
 64
     7
 65
   257
 75
     1
175
     1
 42
1.0
 92
        8
 66
     7
 43
1.0
 76
     1
 77
     6
 78
     2
 67
     7
 79
     5
170
     0
171
     0
290
     0
174
     0
 93
       13
 44
0.0
173
     0
291
     1
 45
0.0
1001
ACAD
1000
AcDbSavedByObjectVersion
1070
     0
  0
VISUALSTYLE
  5
61AC
102
{ACAD_XDICTIONARY
360
623C
102
}
102
{ACAD_REACTORS
330
61AA
102
}
330
61AA
100
AcDbVisualStyle
  2
FlatWithEdges
 70
     1
 71
     2
 72
     1
 73
     1
 90
        2
 40
-0.6
 41
30.0
 62
     5
 63
     7
 74
     1
 91
        0
 64
     7
 65
   257
 75
     1
175
     1
 42
1.0
 92
        0
 66
   257
 43
1.0
 76
     1
 77
     6
 78
     2
 67
     7
 79
     5
170
     0
171
     0
290
     0
174
     0
 93
       13
 44
0.0
173
     0
291
     1
 45
0.0
1001
ACAD
1000
AcDbSavedByObjectVersion
1070
     0
  0
VISUALSTYLE
  5
61AD
102
{ACAD_XDICTIONARY
360
623E
102
}
102
{ACAD_REACTORS
330
61AA
102
}
330
61AA
100
AcDbVisualStyle
  2
Gouraud
 70
     2
 71
     2
 72
     2
 73
     1
 90
        2
 40
-0.6
 41
30.0
 62
     5
 63
     7
 74
     0
 91
        0
 64
     7
 65
   257
 75
     1
175
     1
 42
1.0
 92
        0
 66
     7
 43
1.0
 76
     1
 77
     6
 78
     2
 67
     7
 79
     5
170
     0
171
     0
290
     0
174
     0
 93
       13
 44
0.0
173
     0
291
     1
 45
0.0
1001
ACAD
1000
AcDbSavedByObjectVersion
1070
     0
  0
VISUALSTYLE
  5
61AE
102
{ACAD_XDICTIONARY
360
6240
102
}
102
{ACAD_REACTORS
330
61AA
102
}
330
61AA
100
AcDbVisualStyle
  2
GouraudWithEdges
 70
     3
 71
     2
 72
     2
 73
     1
 90
        2
 40
-0.6
 41
30.0
 62
     5
 63
     7
 74
     1
 91
        0
 64
     7
 65
   257
 75
     1
175
     1
 42
1.0
 92
        0
 66
   257
 43
1.0
 76
     1
 77
     6
 78
     2
 67
     7
 79
     5
170
     0
171
     0
290
     0
174
     0
 93
       13
 44
0.0
173
     0
291
     1
 45
0.0
1001
ACAD
1000
AcDbSavedByObjectVersion
1070
     0
  0
VISUALSTYLE
  5
61B2
102
{ACAD_XDICTIONARY
360
6248
102
}
102
{ACAD_REACTORS
330
61AA
102
}
330
61AA
100
AcDbVisualStyle
  2
Hidden
 70
     6
 71
     1
 72
     2
 73
     2
 90
        0
 40
-0.6
 41
-30.0
 62
     5
 63
     7
 74
     2
 91
        2
 64
     7
 65
   257
 75
     2
175
     1
 42
40.0
 92
        0
 66
   257
 43
1.0
 76
     1
 77
     6
 78
     2
 67
     7
 79
     3
170
     0
171
     0
290
     0
174
     0
 93
        1
 44
0.0
173
     0
291
     0
 45
0.0
1001
ACAD
1000
AcDbSavedByObjectVersion
1070
     0
  0
VISUALSTYLE
  5
61C0
102
{ACAD_XDICTIONARY
360
6264
102
}
102
{ACAD_REACTORS
330
61AA
102
}
330
61AA
100
AcDbVisualStyle
  2
JitterOff
 70
    20
 71
     2
 72
     2
 73
     0
 90
        0
 40
-0.6
 41
-30.0
 62
     5
 63
     7
 74
     1
 91
        4
 64
     7
 65
   257
 75
     1
175
     1
 42
1.0
 92
       10
 66
     7
 43
1.0
 76
     1
 77
     6
 78
     2
 67
     7
 79
     5
170
     0
171
     0
290
     0
174
     0
 93
        1
 44
0.0
173
     0
291
     1
 45
0.0
1001
ACAD
1000
AcDbSavedByObjectVersion
1070
     0
  0
VISUALSTYLE
  5
61B8
102
{ACAD_XDICTIONARY
360
6254
102
}
102
{ACAD_REACTORS
330
61AA
102
}
330
61AA
100
AcDbVisualStyle
  2
Linepattern
 70
    14
 71
     2
 72
     2
 73
     0
 90
        0
 40
-0.6
 41
-30.0
 62
     5
 63
     7
 74
     1
 91
        4
 64
     7
 65
   257
 75
     7
175
     7
 42
1.0
 92
        8
 66
     7
 43
1.0
 76
     1
 77
     6
 78
     2
 67
     7
 79
     5
170
     0
171
     0
290
     0
174
     0
 93
        1
 44
0.0
173
     0
291
     1
 45
0.0
1001
ACAD
1000
AcDbSavedByObjectVersion
1070
     0
  0
VISUALSTYLE
  5
61C1
102
{ACAD_XDICTIONARY
360
6266
102
}
102
{ACAD_REACTORS
330
61AA
102
}
330
61AA
100
AcDbVisualStyle
  2
OverhangOff
 70
    21
 71
     2
 72
     2
 73
     0
 90
        0
 40
-0.6
 41
-30.0
 62
     5
 63
     7
 74
     1
 91
        4
 64
     7
 65
   257
 75
     1
175
     1
 42
1.0
 92
        9
 66
     7
 43
1.0
 76
     1
 77
     6
 78
     2
 67
     7
 79
     5
170
     0
171
     0
290
     0
174
     0
 93
        1
 44
0.0
173
     0
291
     1
 45
0.0
1001
ACAD
1000
AcDbSavedByObjectVersion
1070
     0
  0
VISUALSTYLE
  5
61B4
102
{ACAD_XDICTIONARY
360
624C
102
}
102
{ACAD_REACTORS
330
61AA
102
}
330
61AA
100
AcDbVisualStyle
  2
Realistic
 70
     8
 71
     2
 72
     3
 73
     0
 90
        2
 40
-0.6
 41
30.0
 62
     5
 63
     7
 74
     0
 91
        0
 64
     7
 65
   257
 75
     1
175
     1
 42
1.0
 92
        8
 66
   257
 43
1.0
 76
     1
 77
     6
 78
     2
 67
     7
 79
     3
170
     0
171
     0
290
     0
174
     0
 93
       13
 44
0.0
173
     0
291
     0
 45
0.0
1001
ACAD
1000
AcDbSavedByObjectVersion
1070
     0
  0
VISUALSTYLE
  5
61BF
102
{ACAD_XDICTIONARY
360
6262
102
}
102
{ACAD_REACTORS
330
61AA
102
}
330
61AA
100
AcDbVisualStyle
  2
Shaded
 70
    27
 71
     2
 72
     2
 73
     1
 90
        2
 40
-0.6
 41
30.0
 62
     5
 63
     7
 74
     0
 91
        4
 64
     7
 65
   257
 75
     1
175
     1
 42
1.0
 92
        8
 66
   257
 43
1.0
 76
     1
 77
     6
 78
     2
 67
     8
 79
     3
170
     0
171
     0
290
     0
174
     0
 93
        5
 44
0.0
173
     0
291
     0
 45
0.0
1001
ACAD
1000
AcDbSavedByObjectVersion
1070
     0
  0
VISUALSTYLE
  5
61BE
102
{ACAD_XDICTIONARY
360
6260
102
}
102
{ACAD_REACTORS
330
61AA
102
}
330
61AA
100
AcDbVisualStyle
  2
Shaded with edges
 70
    26
 71
     2
 72
     2
 73
     1
 90
        2
 40
-0.6
 41
30.0
 62
     5
 63
     7
 74
     1
 91
       10
 64
     7
 65
   257
 75
     2
175
     1
 42
1.0
 92
        8
 66
   257
 43
1.0
 76
     1
 77
     6
 78
     2
 67
     7
 79
     3
170
     0
171
     0
290
     0
174
     0
 93
        5
 44
0.0
173
     0
291
     0
 45
0.0
1001
ACAD
1000
AcDbSavedByObjectVersion
1070
     0
  0
VISUALSTYLE
  5
61BB
102
{ACAD_XDICTIONARY
360
625A
102
}
102
{ACAD_REACTORS
330
61AA
102
}
330
61AA
100
AcDbVisualStyle
  2
Shades of Gray
 70
    23
 71
     2
 72
     2
 73
     3
 90
        0
 40
-0.6
 41
-30.0
 62
     5
 63
     7
 74
     2
 91
        2
 64
     7
 65
     7
 75
     1
175
     1
 42
40.0
 92
        8
 66
     7
 43
1.0
 76
     1
 77
     6
 78
     2
 67
     7
 79
     3
170
     0
171
     0
290
     0
174
     0
 93
        1
 44
0.0
173
     0
291
     0
 45
0.0
1001
ACAD
1000
AcDbSavedByObjectVersion
1070
     0
  0
VISUALSTYLE
  5
61BC
102
{ACAD_XDICTIONARY
360
625C
102
}
102
{ACAD_REACTORS
330
61AA
102
}
330
61AA
100
AcDbVisualStyle
  2
Sketchy
 70
    24
 71
     1
 72
     2
 73
     2
 90
        0
 40
-0.6
 41
-30.0
 62
     5
 63
     7
 74
     2
 91
        2
 64
     7
 65
     7
 75
     1
175
     1
 42
40.0
 92
       11
 66
     7
 43
1.0
 76
     1
 77
     6
 78
     2
 67
     7
 79
     6
170
     0
171
     0
290
     0
174
     0
 93
        1
 44
0.0
173
     0
291
     0
 45
0.0
1001
ACAD
1000
AcDbSavedByObjectVersion
1070
     0
  0
VISUALSTYLE
  5
61B7
102
{ACAD_XDICTIONARY
360
6252
102
}
102
{ACAD_REACTORS
330
61AA
102
}
330
61AA
100
AcDbVisualStyle
  2
Thicken
 70
    13
 71
     2
 72
     2
 73
     0
 90
        0
 40
-0.6
 41
-30.0
 62
     5
 63
     7
 74
     1
 91
        4
 64
     7
 65
   257
 75
     1
175
     1
 42
1.0
 92
       12
 66
     7
 43
1.0
 76
     1
 77
     6
 78
     2
 67
     7
 79
     5
170
     0
171
     0
290
     0
174
     0
 93
        1
 44
0.0
173
     0
291
     1
 45
0.0
1001
ACAD
1000
AcDbSavedByObjectVersion
1070
     0
  0
VISUALSTYLE
  5
61B1
102
{ACAD_XDICTIONARY
360
6246
102
}
102
{ACAD_REACTORS
330
61AA
102
}
330
61AA
100
AcDbVisualStyle
  2
Wireframe
 70
     5
 71
     0
 72
     2
 73
     0
 90
        0
 40
-0.6
 41
-30.0
 62
     5
 63
     7
 74
     1
 91
        4
 64
     7
 65
   257
 75
     1
175
     1
 42
1.0
 92
        0
 66
   257
 43
1.0
 76
     1
 77
     6
 78
     2
 67
     7
 79
     3
170
     0
171
     0
290
     0
174
     0
 93
        1
 44
0.0
173
     0
291
     0
 45
0.0
1001
ACAD
1000
AcDbSavedByObjectVersion
1070
     0
  0
VISUALSTYLE
  5
61BD
102
{ACAD_XDICTIONARY
360
625E
102
}
102
{ACAD_REACTORS
330
61AA
102
}
330
61AA
100
AcDbVisualStyle
  2
X-Ray
 70
    25
 71
     2
 72
     2
 73
     1
 90
        1
 40
0.5
 41
-30.0
 62
     5
 63
     7
 74
     1
 91
        0
 64
     7
 65
   257
 75
     1
175
     1
 42
1.0
 92
        8
 66
     7
 43
1.0
 76
     1
 77
     6
 78
     2
 67
     7
 79
     3
170
     0
171
     0
290
     0
174
     0
 93
       13
 44
0.0
173
     0
291
     0
 45
0.0
1001
ACAD
1000
AcDbSavedByObjectVersion
1070
     0
  0
DICTIONARYVAR
  5
6206
102
{ACAD_REACTORS
330
5E
102
}
330
5E
100
DictionaryVariables
280
     0
  1
1:1
  0
DICTIONARYVAR
  5
6204
102
{ACAD_REACTORS
330
5E
102
}
330
5E
100
DictionaryVariables
280
     0
  1
STANDARD
  0
DICTIONARYVAR
  5
84
102
{ACAD_REACTORS
330
5E
102
}
330
5E
100
DictionaryVariables
280
     0
  1
STANDARD
  0
DICTIONARYVAR
  5
5F
102
{ACAD_REACTORS
330
5E
102
}
330
5E
100
DictionaryVariables
280
     0
  1
2
  0
DICTIONARYVAR
  5
63
102
{ACAD_REACTORS
330
5E
102
}
330
5E
100
DictionaryVariables
280
     0
  1
1
  0
DICTIONARYVAR
  5
6226
102
{ACAD_REACTORS
330
5E
102
}
330
5E
100
DictionaryVariables
280
     0
  1
0
  0
DICTIONARYVAR
  5
6208
102
{ACAD_REACTORS
330
5E
102
}
330
5E
100
DictionaryVariables
280
     0
  1
1
  0
DICTIONARYVAR
  5
6209
102
{ACAD_REACTORS
330
5E
102
}
330
5E
100
DictionaryVariables
280
     0
  1
15
  0
DICTIONARYVAR
  5
6207
102
{ACAD_REACTORS
330
5E
102
}
330
5E
100
DictionaryVariables
280
     0
  1
0
  0
DICTIONARYVAR
  5
6205
102
{ACAD_REACTORS
330
5E
102
}
330
5E
100
DictionaryVariables
280
     0
  1
0
  0
DICTIONARYVAR
  5
6225
102
{ACAD_REACTORS
330
5E
102
}
330
5E
100
DictionaryVariables
280
     0
  1
127
  0
DICTIONARYVAR
  5
6227
102
{ACAD_REACTORS
330
5E
102
}
330
5E
100
DictionaryVariables
280
     0
  1
0
  0
DICTIONARY
  5
61FF
330
22
100
AcDbDictionary
280
     1
281
     1
  3
ACAD_XREC_ROUNDTRIP
360
6231
  3
ADSK_XREC_LAYOUTTHUMBNAIL
360
6200
  0
DICTIONARY
  5
6233
330
D3
100
AcDbDictionary
280
     1
281
     1
  3
ACAD_XREC_ROUNDTRIP
360
6234
  0
DICTIONARY
  5
6235
330
D7
100
AcDbDictionary
280
     1
281
     1
  3
ACAD_XREC_ROUNDTRIP
360
6236
  0
DICTIONARY
  5
619B
330
619A
100
AcDbDictionary
280
     1
281
     1
  3
ACAD_XREC_ROUNDTRIP
360
6238
  3
BUMPTILE
360
619D
  3
DIFFUSETILE
360
619C
  3
OPACITYTILE
360
61A0
  3
REFLECTIONTILE
360
619F
  3
REFRACTIONTILE
360
61A1
  3
SPECULARTILE
360
619E
  0
DICTIONARY
  5
6193
330
6192
100
AcDbDictionary
280
     1
281
     1
  3
ACAD_XREC_ROUNDTRIP
360
6237
  3
BUMPTILE
360
6195
  3
DIFFUSETILE
360
6194
  3
OPACITYTILE
360
6198
  3
REFLECTIONTILE
360
6197
  3
REFRACTIONTILE
360
6199
  3
SPECULARTILE
360
6196
  0
DICTIONARY
  5
61A3
330
61A2
100
AcDbDictionary
280
     1
281
     1
  3
ACAD_XREC_ROUNDTRIP
360
6239
  3
BUMPTILE
360
61A5
  3
DIFFUSETILE
360
61A4
  3
OPACITYTILE
360
61A8
  3
REFLECTIONTILE
360
61A7
  3
REFRACTIONTILE
360
61A9
  3
SPECULARTILE
360
61A6
  0
DICTIONARY
  5
622A
330
61D6
100
AcDbDictionary
280
     1
281
     1
  3
ACAD_XREC_ROUNDTRIP
360
622B
  0
DICTIONARY
  5
6228
330
7F
100
AcDbDictionary
280
     1
281
     1
  3
ACAD_ROUNDTRIP_2008_TABLESTYLE_CELLSTYLEMAP
360
6229
  3
ACAD_XREC_ROUNDTRIP
360
6232
  0
DICTIONARY
  5
6244
330
61B0
100
AcDbDictionary
280
     1
281
     1
  3
ACAD_XREC_ROUNDTRIP
360
6245
  0
DICTIONARY
  5
6242
330
61AF
100
AcDbDictionary
280
     1
281
     1
  3
ACAD_XREC_ROUNDTRIP
360
6243
  0
DICTIONARY
  5
6250
330
61B6
100
AcDbDictionary
280
     1
281
     1
  3
ACAD_XREC_ROUNDTRIP
360
6251
  0
DICTIONARY
  5
6258
330
61BA
100
AcDbDictionary
280
     1
281
     1
  3
ACAD_XREC_ROUNDTRIP
360
6259
  0
DICTIONARY
  5
624A
330
61B3
100
AcDbDictionary
280
     1
281
     1
  3
ACAD_XREC_ROUNDTRIP
360
624B
  0
DICTIONARY
  5
624E
330
61B5
100
AcDbDictionary
280
     1
281
     1
  3
ACAD_XREC_ROUNDTRIP
360
624F
  0
DICTIONARY
  5
6268
330
61C2
100
AcDbDictionary
280
     1
281
     1
  3
ACAD_XREC_ROUNDTRIP
360
6269
  0
DICTIONARY
  5
6256
330
61B9
100
AcDbDictionary
280
     1
281
     1
  3
ACAD_XREC_ROUNDTRIP
360
6257
  0
DICTIONARY
  5
623A
330
61AB
100
AcDbDictionary
280
     1
281
     1
  3
ACAD_XREC_ROUNDTRIP
360
623B
  0
DICTIONARY
  5
623C
330
61AC
100
AcDbDictionary
280
     1
281
     1
  3
ACAD_XREC_ROUNDTRIP
360
623D
  0
DICTIONARY
  5
623E
330
61AD
100
AcDbDictionary
280
     1
281
     1
  3
ACAD_XREC_ROUNDTRIP
360
623F
  0
DICTIONARY
  5
6240
330
61AE
100
AcDbDictionary
280
     1
281
     1
  3
ACAD_XREC_ROUNDTRIP
360
6241
  0
DICTIONARY
  5
6248
330
61B2
100
AcDbDictionary
280
     1
281
     1
  3
ACAD_XREC_ROUNDTRIP
360
6249
  0
DICTIONARY
  5
6264
330
61C0
100
AcDbDictionary
280
     1
281
     1
  3
ACAD_XREC_ROUNDTRIP
360
6265
  0
DICTIONARY
  5
6254
330
61B8
100
AcDbDictionary
280
     1
281
     1
  3
ACAD_XREC_ROUNDTRIP
360
6255
  0
DICTIONARY
  5
6266
330
61C1
100
AcDbDictionary
280
     1
281
     1
  3
ACAD_XREC_ROUNDTRIP
360
6267
  0
DICTIONARY
  5
624C
330
61B4
100
AcDbDictionary
280
     1
281
     1
  3
ACAD_XREC_ROUNDTRIP
360
624D
  0
DICTIONARY
  5
6262
330
61BF
100
AcDbDictionary
280
     1
281
     1
  3
ACAD_XREC_ROUNDTRIP
360
6263
  0
DICTIONARY
  5
6260
330
61BE
100
AcDbDictionary
280
     1
281
     1
  3
ACAD_XREC_ROUNDTRIP
360
6261
  0
DICTIONARY
  5
625A
330
61BB
100
AcDbDictionary
280
     1
281
     1
  3
ACAD_XREC_ROUNDTRIP
360
625B
  0
DICTIONARY
  5
625C
330
61BC
100
AcDbDictionary
280
     1
281
     1
  3
ACAD_XREC_ROUNDTRIP
360
625D
  0
DICTIONARY
  5
6252
330
61B7
100
AcDbDictionary
280
     1
281
     1
  3
ACAD_XREC_ROUNDTRIP
360
6253
  0
DICTIONARY
  5
6246
330
61B1
100
AcDbDictionary
280
     1
281
     1
  3
ACAD_XREC_ROUNDTRIP
360
6247
  0
DICTIONARY
  5
625E
330
61BD
100
AcDbDictionary
280
     1
281
     1
  3
ACAD_XREC_ROUNDTRIP
360
625F
  0
XRECORD
  5
6231
102
{ACAD_REACTORS
330
61FF
102
}
330
61FF
100
AcDbXrecord
280
     1
102
SHADEPLOT
 70
     0
102
SHADEPLOTRESLEVEL
 70
     2
102
SHADEPLOTCUSTOMDPI
 70
   300
  0
XRECORD
  5
6200
102
{ACAD_REACTORS
330
61FF
102
}
330
61FF
100
AcDbXrecord
280
     1
310
28000000000100009E0000000100080000000000009E0000000000000000000000010000000000003028210000000000C8C8C8000000000000000000000000000000000000000000000000000000000000000000330000006600000099000000CC000000FF00000000330000333300006633000099330000CC330000FF3300
310
0000660000336600006666000099660000CC660000FF66000000990000339900006699000099990000CC990000FF99000000CC000033CC000066CC000099CC0000CCCC0000FFCC000000FF000033FF000066FF000099FF0000CCFF0000FFFF000000003300330033006600330099003300CC003300FF003300003333003333
310
33006633330099333300CC333300FF33330000663300336633006666330099663300CC663300FF66330000993300339933006699330099993300CC993300FF99330000CC330033CC330066CC330099CC3300CCCC3300FFCC330000FF330033FF330066FF330099FF3300CCFF3300FFFF330000006600330066006600660099
310
006600CC006600FF00660000336600333366006633660099336600CC336600FF33660000666600336666006666660099666600CC666600FF66660000996600339966006699660099996600CC996600FF99660000CC660033CC660066CC660099CC6600CCCC6600FFCC660000FF660033FF660066FF660099FF6600CCFF6600
310
FFFF660000009900330099006600990099009900CC009900FF00990000339900333399006633990099339900CC339900FF33990000669900336699006666990099669900CC669900FF66990000999900339999006699990099999900CC999900FF99990000CC990033CC990066CC990099CC9900CCCC9900FFCC990000FF99
310
0033FF990066FF990099FF9900CCFF9900FFFF99000000CC003300CC006600CC009900CC00CC00CC00FF00CC000033CC003333CC006633CC009933CC00CC33CC00FF33CC000066CC003366CC006666CC009966CC00CC66CC00FF66CC000099CC003399CC006699CC009999CC00CC99CC00FF99CC0000CCCC0033CCCC0066CC
310
CC0099CCCC00CCCCCC00FFCCCC0000FFCC0033FFCC0066FFCC0099FFCC00CCFFCC00FFFFCC000000FF003300FF006600FF009900FF00CC00FF00FF00FF000033FF003333FF006633FF009933FF00CC33FF00FF33FF000066FF003366FF006666FF009966FF00CC66FF00FF66FF000099FF003399FF006699FF009999FF00CC
310
99FF00FF99FF0000CCFF0033CCFF0066CCFF0099CCFF00CCCCFF00FFCCFF0000FFFF0033FFFF0066FFFF0099FFFF00CCFFFF00FFFFFF00000000000D0D0D001A1A1A00282828003535350043434300505050005D5D5D006B6B6B00787878008686860093939300A1A1A100AEAEAE00BBBBBB00C9C9C900D6D6D600E4E4E400
310
F1F1F100FFFFFF000000000000000000000000000000000000000000000000000000000000000000000000000000000000000000000000000000000000000000000000000000000000000000000000000000000000000000000000000000000000000000000000000000000000000000000000000000000000000000000000
310
00000000000000000000000000000000000000000000000000000000000000000000000000000000000000000000000000000000000000000000000000000000000000000000000000000000000000000000000000000000000000000000000000000000000000000000000000000000000000000000000000000000000000
310
00000000000000000000000000000000000000000000000000000000000000000000000000000000000000000000000000000000000000000000000000000000000000BEBEBEBEBEBEBEBEBEBEBEBEBEBEBEBEBEBEBEBEBEBEBEBEBEBEBEBEBEBEBEBEBEBEBEBEBEBEBEBEBEBEBEBEBEBEBEBEBEBEBEBEBEBEBEBEBEBEBEBE
310
BEBEBEBEBEBEBEBEBEBEBEBEBEBEBEBEBEBEBEBEBEBEBEBEBEBEBEBEBEBEBEBEBEBEBEBEBEBEBEBEBEBEBEBEBEBEBEBEBEBEBEBEBEBEBEBEBEBEBEBEBEBEBEBEBEBEBEBEBEBEBEBEBEBEBEBEBEBEBEBEBEBEBEBEBEBEBEBEBEBEBEBEBEBEBEBEBEBEBEBEBEBEBEBEBEBEBEBEBEBEBEBEBEBEBEBEBEBEBEBEBEBEBEBEBEBEBE
310
BEBEBEBEBEBEBEBEBEBEBEBEBEBEBEBEBEBEBEBEBEBEBEBEBEBEBEBEBEBEBEBEBEBEBE00000000000000000000000000000000000000000000000000000000000000000000BE000000000000000000000000000000000000000000000000000000000000000000000000000000000000000000000000000000000000000000
310
00000000000000000000000000000000000000000000000000000000000000000000000000000000000000000000000000000000000000000000000000000000000000000000000000000000000000000000000000000000000000000000000000000000000000000000000000000000000000000000000000000000000000
310
000000000000000000000000000000000000000000000000000000000000000000000000BE00000000000000000000000000000000000000000000000000000000000000000000BE00000000000000000000000000000000000000000000000000000000000000000000000000000000000000000000000000000000000000
310
00000000000000000000000000000000000000000000000000000000000000000000000000000000000000000000000000000000000000000000000000000000000000000000000000000000000000000000000000000000000000000000000000000000000000000000000000000000000000000000000000000000000000
310
0000000000000000000000000000000000000000000000000000000000000000000000000000BE00000000000000000000000000000000000000000000000000000000000000000000BE0000000000000000000000000000000000000000000000000000000000000000000000000000000000000000000000000000000000
310
00000000000000000000000000000000000000000000000000000000000000000000000000000000000000000000000000000000000000000000000000000000000000000000000000000000000000000000000000000000000000000000000000000000000000000000000000000000000000000000000000000000000000
310
00000000000000000000000000000000000000000000000000000000000000000000000000000000BE00000000000000000000000000000000000000000000000000000000000000000000BE000000000000000000000000000000000000000000000000000000000000000000000000000000000000000000000000000000
310
00000000000000000000000000000000000000000000000000000000000000000000000000000000000000000000000000000000000000000000000000000000000000000000000000000000000000000000000000000000000000000000000000000000000000000000000000000000000000000000000000000000000000
310
000000000000000000000000000000000000000000000000000000000000000000000000000000000000BE00000000000000000000000000000000000000000000000000000000000000000000BE000000000000000000F5F5F5F5F5F5F5F5F5F5F5F5F5F5F5F5F5F5F5F5F5F5F5F5F5F5F5F5F5F5F5F5F5F5F5F5F5F5F5F5
310
F5F5F5F5F5F5F5F5F5F5F5F5F5F5F5F5F5F5F5F5F5F5F5F5F5F5F5F5F5F5F5F5F5F5F5F5F5F5F5F5F5F5F5F5F5F5F5F5F5F5F5F5F5F5F5F5F5F5F5F5F5F5F5F5F5F5F5F5F5F5F5F5F5F5F5F5F5F5F5F5F5F5F5F5F5F5F5F5F5F5F5F5F5F5F5F5F5F5F5F5F5F5F5F5F5F5F5F5F5F5F5F5F5F5F5F5F5F5F5F5F5F5F5F5F5F5F5
310
F5F5F5F5F5F5F5F5F5F5F5F5F5F5F5F5F5F5F5F5F5F5F5F5F5F5F5F5F5F5F5F5F5F5F5F5F5F5F5F500000000BE00000000000000000000000000000000000000000000000000000000000000000000BE000000000000000000F500000000000000000000000000000000000000000000000000000000000000000000000000
310
00000000000000000000000000000000000000000000000000000000000000000000000000000000000000000000000000000000000000000000000000000000000000000000000000000000000000000000000000000000000000000000000000000000000000000000000000000000000000F50000F5F5F50000F5F5F5F5
310
F5F5F5F5F5F5F5F5F5F5F5F5F5F5F5F5F5F5F5F5F5F5F5F5F5F5F5F5F5F5F5F5F5F5F5F5F5F5F50000F500000000BE00000000000000000000000000000000000000000000000000000000000000000000BE000000000000000000F50000000000000000000000000000000000000000000000000000000000000000000000
310
000000000000000000000000000000000000000000000000000000000000000000000000000000000000000000000000000000000000000000000000000000000000000000000000000000000000000000000000000000000000000000000000000000000000000000000000000000000000000000F500F5F5F5F5F5F5F5F5
310
F5F5F5F5F5F5F5F5F5F5F5F5F5F5F5F5F5F5F5F5F5F5F5F5F5F5F5F5F5F5F5F5F5F5F5F5F5F5F5F5F50000F500000000BE00000000000000000000000000000000000000000000000000000000000000000000BE000000000000000000F5000000000000000000000000000000000000000000000000000000000000000000
310
0000000000000000000000000000000000000000000000000000000000000000000000000000000000000000000000000000000000000000000000000000000000000000000000000000000000000000000000000000000000000000000000000000000000000000000000000000000000000000000000F5F5F5F5F5F5F5F5
310
F5F5F5F5F5F5F5F5F5F5F5F5F5F5F5F5F5F5F5F5F5F5F5F5F5F5F5F5F5F5F5F5F5F5F500000000000000000000F500000000BE00000000000000000000000000000000000000000000000000000000000000000000BE000000000000000000F500000000000000000000000000000000000000000000000000000000000000
310
00000000000000000000000000000000000000000000000000000000000000000000000000000000000000000000000000000000000000000000000000000000000000000000000000000000000000000000000000000000000000000000000000000000000000000000000000000000000000000000000000F5F5F5F5F5F5
310
F5F5F5F5F5F5F5F5F5F5F5F5F5F5F5F5F5F5F5F5F5F5F5F5F5F5F5F5F5F5F5F5F5F5F5F5F500000000000000000000F500000000BE00000000000000000000000000000000000000000000000000000000000000000000BE000000000000000000F50000000000000000000000000000000000000000000000000000000000
310
000000000000000000000000000000000000000000000000000000000000000000000000000000000000000000000000000000000000000000000000000000000000000000000000000000000000000000000000000000000000000000000000000000000000000000000000000000000000000000000000000000F5F5F5F5
310
F5F5F5F5F5F5F5F5F5F5F5F5F5F5F5F5F5F5F5F5F5F5F5F5F5F5F5F5F5F5F5F5F5F5F5F5F5F5F500000000000000000000F500000000BE00000000000000000000000000000000000000000000000000000000000000000000BE000000000000000000F5000000000000000000000000000000000000000000000000000000
310
0000000000000000000000000000000000000000000000000000000000000000000000000000000000000000000000000000000000000000000000000000000000000000000000000000000000000000000000000000000000000000000000000000000000000000000000000000000000000000000000000000000000F500
310
F5F5F5F5F500F5F5F5F5F5F5F5F5F5F5F5F5F5F5F5F5F5F5F5F5F5F5F5F5F5F5F5F5F5F5F5F5F5F5F500000000000000000000F500000000BE00000000000000000000000000000000000000000000000000000000000000000000BE000000000000000000F500000000000000000000000000000000000000000000000000
310
00000000000000000000000000000000000000000000000000000000000000000000000000000000000000000000000000000000000000000000000000000000000000000000000000000000000000000000000000000000000000000000000000000000000000000000000000000000000000000000000000000000000000
310
F5000000F5F50000000000000000000000000000000000000000000000000000000000000000000000000000000000000000000000F500000000BE00000000000000000000000000000000000000000000000000000000000000000000BE000000000000000000F50000000000000000000000000000000000000000000000
310
00000000000000000000000000000000000000000000000000000000000000000000000000000000000000000000000000000000000000000000000000000000000000000000000000000000000000000000000000000000000000000000000000000000000000000000000000000000000000000000000000000000000000
310
0000F5F5F5F5F5F5F5F5F5F5F5F5F5F5F5F5F5F5F5F5F5F5F5F5F5F5F5F5F5F5F5F5F5F5F5F5F5F5F5F5F5F5F5F5F5F5F5F5F5F5F5F5F5F500000000BE00000000000000000000000000000000000000000000000000000000000000000000BE000000000000000000F5000000000000000000000000000000000000000000
310
00000000000000000000000000000000000000000000000000000000000000000000000000000000000000000000000000000000000000000000000000000000000000000000000000000000000000000000000000000000000000000000000000000000000000000000000000000000000000000000000000000000000000
310
00000000F500F5F5F5F50000F5000000000000F500F5F5F500000000F5F500F5F5F5F5F50000000000000000F5000000000000000000000000F500000000BE00000000000000000000000000000000000000000000000000000000000000000000BE000000000000000000F500000000000000000000000000000000000000
310
00000000000000000000000000000000000000000000000000000000000000000000000000000000000000000000000000000000000000000000000000000000000000000000000000000000000000000000000000000000000000000000000000000000000000000000000000000000000000000000000000000000000000
310
000000000000F500F5F5F5F50000F5000000000000F5F5F5F5F50000F5F5F5F5F5F5F5F5F5F5F500000000000000F5000000000000000000000000F500000000BE00000000000000000000000000000000000000000000000000000000000000000000BE000000000000000000F50000000000000000000000000000000000
310
00000000000000000000000000000000000000000000000000000000000000000000000000000000000000000000000000000000000000000000000000000000000000000000000000000000000000000000000000000000000000000000000000000000000000000000000000000000000000000000000000000000000000
310
0000000000000000F500000000000000F5000000000000F5F5F5F5F50000F5F5F5F500F5F5F5F5F5F500000000000000F5000000000000000000000000F500000000BE00000000000000000000000000000000000000000000000000000000000000000000BE000000000000000000F5000000000000000000000000000000
310
00000000000000000000000000000000000000000000000000000000000000000000000000000000000000000000000000000000000000000000000000000000000000000000000000000000000000000000000000000000000000000000000000000000000000000000000000000000000000000000000000000000000000
310
00000000000000000000F500000000000000F500000000000000000000000000000000000000000000000000000000000000F5000000000000000000000000F500000000BE00000000000000000000000000000000000000000000000000000000000000000000BE000000000000000000F500000000000000000000000000
310
00000000000000000000000000000000000000000000000000000000000000000000000000000000000000000000000000000000000000000000000000000000000000000000000000000000000000000000000000000000000000000000000000000000000000000000000000000000000000000000000000000000000000
310
000000000000000000000000F5F5F5F5F5F5F5F5F5F5F5F5F5F5F5F5F5F5F5F5F5F5F5F5F5F5F5F5F5F5F5F5F5F5F5F5F5F5F5F5F5F5F5F5F5F5F5F5F5F5F5F5F5F500000000BE00000000000000000000000000000000000000000000000000000000000000000000BE000000000000000000F50000000000000000000000
310
00000000000000000000000000000000000000000000000000000000000000000000000000000000000000000000000000000000000000000000000000000000000000000000000000000000000000000000000000000000000000000000000000000000000000000000000000000000000000000000000000000000000000
310
0000000000000000000000000000F500000000000000F500000000000000000000000000000000000000000000000000000000000000F500000000F500000000000000F500000000BE00000000000000000000000000000000000000000000000000000000000000000000BE000000000000000000F5000000000000000000
310
00000000000000000000000000000000000000000000000000000000000000000000000000000000000000000000000000000000000000000000000000000000000000000000000000000000000000000000000000000000000000000000000000000000000000000000000000000000000000000000000000000000000000
310
00000000000000000000000000000000F5F5F5F5F5F5F500F50000000000000000F5F5F5F5F5F5F5F5F500F5F5F5F5F50000000000000000F5F5F5F500F500F5F5F5F5F500F500000000BE00000000000000000000000000000000000000000000000000000000000000000000BE000000000000000000F500000000000000
310
00000000000000000000000000000000000000000000000000000000000000000000000000000000000000000000000000000000000000000000000000000000000000000000000000000000000000000000000000000000000000000000000000000000000000000000000000000000000000000000000000000000000000
310
000000000000000000000000000000000000F5F5F5F5F5F5F500F50000000000000000F5F5F5F5F5F5F5F5F500F5F5F5F5F50000000000000000F5F5F5F500F500F5F5F5F5F500F500000000BE00000000000000000000000000000000000000000000000000000000000000000000BE000000000000000000F50000000000
310
00000000000000000000000000000000000000000000000000000000000000000000000000000000000000000000000000000000000000000000000000000000000000000000000000000000000000000000000000000000000000000000000000000000000000000000000000000000000000000000000000000000000000
310
0000000000000000000000000000000000000000F500000000000000F50000000000000000F5F500F5F500F500000000F5F5F5000000000000000000F500000000F500000000000000F500000000BE00000000000000000000000000000000000000000000000000000000000000000000BE000000000000000000F5000000
310
00000000000000000000000000000000000000000000000000000000000000000000000000000000000000000000000000000000000000000000000000000000000000000000000000000000000000000000000000000000000000000000000000000000000000000000000000000000000000000000000000000000000000
310
00000000000000000000000000000000000000000000F5F5F5F5F5F5F5F5F5F5F5F5F5F5F5F5F5F5F5F5F5F5F5F5F5F5F5F5F5F5F5F5F5F5F5F5F5F5F5F5F5F5F5F5F5F5F5F5F5F5F5F5F5F500000000BE00000000000000000000000000000000000000000000000000000000000000000000BE000000000000000000F500
310
00000000000000000000000000000000000000000000000000000000000000000000000000000000000000000000000000000000000000000000000000000000000000000000000000000000000000000000000000000000000000000000000000000000000000000000000000000000000000000000000000000000000000
310
0000000000000000000000000000000000000000000000000000000000000000000000000000000000000000000000000000000000000000000000000000000000000000000000000000000000F500000000BE00000000000000000000000000000000000000000000000000000000000000000000BE000000000000000000
310
F5000000000000000000000000000000000000000000000000000000000000000000000000000000000000000000000000000000000000000000000000000000000000000000000000000000000000000000000000000000000000000000000000000000000000000000000000000000000000000000000000000000000000
310
00000000000000000000000000000000000000000000000000000000000000000000000000000000000000000000000000000000000000000000000000000000000000000000000000000000000000F500000000BE00000000000000000000000000000000000000000000000000000000000000000000BE00000000000000
310
0000F5000000000000000000000000000000000000000000000000F5F500F5F500000000000000000000000000000000000000000000000000000000000000000000000000000000000000000000000000000000000000000000000000000000000000000000F50000F5000000000000000000000000000000000000000000
310
000000000000000000000000000000000000000000000000000000000000000000000000000000000000000000000000000000000000000000000000000000000000000000000000000000000000000000F500000000BE00000000000000000000000000000000000000000000000000000000000000000000BE0000000000
310
00000000F50000000000000000000000000000000000000000000000F5F5F5F5F500F5000000000000000000000000000000000000000000000000000000000000000000000000000000000000000000000000000000000000000000000000000000000000000000F5F5F5F5F5F50000000000000000000000000000000000
310
0000000000000000000000000000000000000000000000000000000000000000000000000000000000000000000000000000000000000000000000000000000000000000000000000000000000000000000000F500000000BE00000000000000000000000000000000000000000000000000000000000000000000BE000000
310
000000000000F50000000000000000000000000000000000000000000000F5F500000000F50000000000000000000000000000000000000000000000000000000000000000000000000000000000000000000000000000000000000000000000000000000000000000F5000000F5F5F5000000000000000000000000000000
310
00000000000000000000000000000000000000000000000000000000000000000000000000000000000000000000000000000000000000000000000000000000000000000000000000000000000000000000000000F500000000BE00000000000000000000000000000000000000000000000000000000000000000000BE00
310
0000000000000000F500000000000000000000000000000000000000000000F5F50000F5F5F500F500000000000000000000000000000000000000000000000000000000000000F5F5F5F50000000000000000000000000000000000000000000000000000000000000000F5F5F5F500F5F500000000000000000000000000
310
000000000000000000000000000000000000000000000000000000000000000000000000000000000000000000000000000000000000000000000000000000000000000000000000000000000000000000000000000000F500000000BE00000000000000000000000000000000000000000000000000000000000000000000
310
BE000000000000000000F5000000000000000000000000000000000000000000F500000000F5F5F5F5F5F5F5F5F5F5F5F5F5F5F5F5F5F5F5F5F5F5F5F5F5F5F5F5F5F5F5F5F5F5F5F5F5F5F5F5F5F5F5F5F5F5F5F5F5F5F5F5F5F5F5F5F5F5F5F5F5F5F5F5F5F5F5F5F5F5F5F5F5F5F5F5000000F5F5000000000000000000
310
0000000000000000000000000000000000000000000000000000000000000000000000000000000000000000000000000000000000000000000000000000000000000000000000000000000000000000000000F5F500000000F500000000BE0000000000000000000000000000000000000000000000000000000000000000
310
0000BE000000000000000000F500000000000000000000000000000000000000000000F5000000F500F50000F50000000000000000000000000000000000000000000000000000000000000000000000000000000000000000000000000000000000000000000000000000000000F500F500F500000000F500000000000000
310
000000000000000000000000000000000000000000000000000000000000000000000000000000000000000000000000000000000000000000000000000000000000000000000000F5F5F5F5F5F5F5F5F5F5F5F5F5F5F500000000F500000000BE000000000000000000000000000000000000000000000000000000000000
310
00000000BE000000000000000000F500000000000000000000000000000000000000000000F5000000F500F50000F5000000000000000000000000000000000000000000000000000000000000F5F5F5F5000000000000000000000000000000000000000000000000000000000000F50000F500F5000000F5000000000000
310
0000000000000000000000000000000000000000000000000000000000000000000000000000000000000000000000000000000000000000000000000000000000000000000000000000F5F5F5F5F5F5F5F5F5F5F5F5F5F50000000000F500000000BE00000000000000000000000000000000000000000000000000000000
310
000000000000BE000000000000000000F50000000000000000000000000000000000000000000000F50000F500F5000000F500F5000000000000000000000000000000000000000000000000000000F5F5F5F5000000000000000000000000000000000000000000000000000000F50000F50000F500F50000F5F500000000
310
0000000000000000000000000000000000000000000000000000000000000000000000000000000000000000000000000000000000000000000000000000000000000000000000000000000000000000000000000000000000000000000000F500000000BE0000000000000000000000000000000000000000000000000000
310
0000000000000000BE000000000000000000F50000000000000000000000000000000000000000000000F50000F500F5000000F500F5F5F5F5F5F5F5F5F5F5F5F5F5F5F5F5F5F5F5F5F5F5F5F5F5F5F5F5F5F5F5F5F5F5F5F5F5F5F5F5F5F5F5F5F5F5F5F5F5F5F5F5F5F5F5F5F5F5F5F500F5000000F500F50000F5F50000
310
00000000000000000000000000000000000000000000000000000000000000000000000000000000000000000000000000000000000000000000000000000000000000000000000000000000000000000000000000000000000000000000000000F500000000BE000000000000000000000000000000000000000000000000
310
00000000000000000000BE000000000000000000F5000000000000000000000000000000000000000000000000F500F500F500000000F5F5000000000000000000000000000000000000000000000000000000002D0000000000000000000000000000000000000000000000000000000000F500F5000000F500F50000F5F5
310
000000000000000000000000000000000000000000000000000000000000000000000000000000000000000000000000000000000000000000000000000000000000000000000000000000000000000000000000000000000000000000000000000000F500000000BE00000000000000000000000000000000000000000000
310
000000000000000000000000BE000000000000000000F5000000000000000000000000000000000000000000000000F500F500F5F5F5F5F5F5F5F5F5F5F5F5F5F5F5F5F5F5F5F5F5F5F5F5F5F5F5F5F5F5F5F5F5F5F5F5F5F5F5F5F5F5F5F5F5F5F5F5F5F5F5F5F5F5F5F5F5F5F5F5F5F5F5F5F5F5F5F5F5F5F5F5F5F5F5F5
310
F5F5F5F500000000000000000000000000000000000000000000000000000000000000000000000000000000000000000000000000000000000000000000000000000000000000000000000000000000000000000000000000000000000000000000000000F500000000BE0000000000000000000000000000000000000000
310
0000000000000000000000000000BE000000000000000000F500000000000000000000000000000000000000000000000000F5F500F50000000000F5000000000000000000000000000000000000000000000000000000002D0000000000000000000000000000000000000000000000000000000000F50000000000F500F5
310
00F5F500F50000000000000000000000000000000000000000000000000000000000000000000000000000000000000000000000000000000000000000000000000000000000000000000000000000000000000000000000000000000000000000000000000000F500000000BE000000000000000000000000000000000000
310
00000000000000000000000000000000BE000000000000000000F500000000000000000000000000000000000000000000000000F50000F5000000000000000000000000000000000000000000000000000000000000000000002D0000000000000000000000000000000000000000000000000000000000000000000000F5
310
0000F500F5F5F5F5F5000000000000000000000000000000000000000000000000000000000000000000000000000000000000000000000000000000000000000000000000000000000000000000000000000000000000000000000000000000000000000000000000F500000000BE00000000000000000000000000000000
310
000000000000000000000000000000000000BE000000000000000000F50000000000000000000000000000000000000000000000000000F5F5F500000000F51515151515151515151515151515151515151515151515151515151515151515151515151515151515151515151515151515151515151515151515F515000000
310
00F5F5F5F5F5F5F5F5F5F5000000000000000000000000000000000000000000000000000000000000000000000000000000000000000000000000000000000000000000000000000000000000000000000000000000000000000000000000000000000000000000000000F500000000BE0000000000000000000000000000
310
0000000000000000000000000000000000000000BE000000000000000000F50000000000000000000000000000000000000000000000000000F5000000000015F500000000000000000000000000000000000000000000000000000000002D0000000000000000000000000000000000000000000000000000000000F51515
310
0000000000F50000F500F5F5F5000000000000000000000000000000000000000000000000000000000000000000000000000000000000000000000000000000000000000000000000000000000000000000000000000000000000000000000000000000000000000000000000F500000000BE000000000000000000000000
310
00000000000000000000000000000000000000000000BE000000000000000000F50000000000000000000000000000000000000000000000000000F5000000001500F500000000000000000000000000000000000000000000000000000000002D0000000000000000000000000000000000000000000000000000000000F5
310
001515000000F5F50000F500F50000000000000000000000000000000000000000000000000000000000000000000000000000000000000000000000000000000000000000000000000000000000000000000000000000000000000000000000000000000000000000000000000000F500000000BE00000000000000000000
310
000000000000000000000000000000000000000000000000BE000000000000000000F50000000000000000000000000000000000000000000000000000F5F5F5F5F5F5F5F5F5F5F5F5F5F5F5F5F5F5F5F5F5F5F5F5F5F5F5F5F5F5F5F5F5F5F5F5F5F5F5F5F5F5F5F5F5F5F5F5F5F5F5F5F5F5F5F5F5F5F5F5F5F5F5F5F5F5
310
F5F5F5F5F5F5F5F5F5F5F5F5F5F5F5F500000000000000000000000000000000000000000000000000000000000000000000000000000000000000000000000000000000000000000000000000000000000000000000000000000000000000000000000000000000000000000000000000F500000000BE0000000000000000
310
0000000000000000000000000000000000000000000000000000BE000000000000000000F50000000000000000000000000000000000000000000000000000F500000000F500F500000000000000000000000000000000000000000000000000000000002D0000000000000000000000000000000000000000000000000000
310
000000F50000F500000000F50000F5F5000000000000000000000000000000000000000000000000000000000000000000000000000000000000000000000000000000000000000000000000000000000000000000000000000000000000000000000000000000000000000000000000000000F500000000BE000000000000
310
00000000000000000000000000000000000000000000000000000000BE000000000000000000F50000000000000000000000000000000000000000000000000000F500000000F500F5000000000000000000000000000000000000000000000000000000000000000000000000000000000000000000000000000000000000
310
0000000000F50000F500000000F50000F5F5000000000000000000000000000000000000000000000000000000000000000000000000000000000000000000000000000000000000000000000000000000000000000000000000000000000000000000000000000000000000000000000000000000F500000000BE00000000
310
000000000000000000000000000000000000000000000000000000000000BE000000000000000000F50000000000000000000000000000000000000000000000000000F5F5F5F5F5F5F5F5F5F5F5F5F5F5F5F5F5F5F5F5F5F5F5F5F5F5F5F5F5F5F5F5F5F5F5F5F5F5F5F5F5F5F5F5F5F5F5F5F5F5F5F5F5F5F5F5F5F5F5F5
310
F5F5F5F5F5F5F5F5F5F5F5F5F5F5F5F50000F500000000000000000000000000000000000000000000000000000000000000000000000000000000000000000000000000000000000000000000000000000000000000000000000000000000000000000000000000000000000000000000000000000000F500000000BE0000
310
0000000000000000000000000000000000000000000000000000000000000000BE000000000000000000F50000000000000000000000000000000000000000000000000000F5F5F5F500F5F5F500000000000000000000000000000000000000000000000000000000F5F5F5F5000000000000000000000000000000000000
310
00000000000000000000F5F5F500F5F500F500000000000000000000000000000000000000000000000000000000000000000000000000000000000000000000000000000000000000000000000000000000000000000000000000000000000000000000000000000000000000000000000000000000000000F500000000BE
310
00000000000000000000000000000000000000000000000000000000000000000000BE000000000000000000F50000000000000000000000000000000000000000000000000000F5F5F5F500F5F5F500000000000000000000000000000000000000000000000000000000F5F5F5F500000000000000000000000000000000
310
000000000000000000000000F5F5F500F5F500F500000000000000000000000000000000000000000000000000000000000000000000000000000000000000000000000000000000000000000000000000000000000000000000000000000000000000000000000000000000000000000000000000000000000000F5000000
310
00BE00000000000000000000000000000000000000000000000000000000000000000000BE000000000000000000F50000000000000000000000000000000000000000000000000000F5F5F5F5F5F5F5F5F5F5F5F5F5F5F5F5F5F5F5F5F5F5F5F5F5F5F5F5F5F5F5F5F5F5F5F5F5F5F5F5F5F5F5F5F5F5F5F5F5F5F5F5F5F5
310
F5F5F5F5F5F5F5F5F5F5F5F5F5F5F5F5F5F5F5F5F5F500000000000000000000000000000000000000000000000000000000000000000000000000000000000000000000000000000000000000000000000000000000000000000000000000000000000000000000000000000000000000000000000000000000000000F500
310
000000BE00000000000000000000000000000000000000000000000000000000000000000000BE000000000000000000F50000000000000000000000000000000000000000000000000000000000000000000000000000000000000000000000000000000000000000000000000000F5F5F5F5000000000000000000000000
310
00000000000000000000000000000000000000000000000000000000000000000000000000000000000000000000000000000000000000000000000000000000000000000000000000000000000000000000000000000000000000000000000000000000000000000000000000000000000000000000000000000000000000
310
F500000000BE00000000000000000000000000000000000000000000000000000000000000000000BE000000000000000000F500000000000000000000000000000000000000000000000000000000000000000000000000000000000000000000000000000000000000000000000000000000000000000000000000000000
310
00000000000000000000000000000000000000000000000000000000000000000000000000000000000000000000000000000000000000000000000000000000000000000000000000000000000000000000000000000000000000000000000000000000000000000000000000000000000000000000000000000000000000
310
0000F500000000BE00000000000000000000000000000000000000000000000000000000000000000000BE000000000000000000F500000000000000000000000000000000000000000000000000000000000000000000000000000000000000000000000000000000000000000000F5F500F5F500F5F5F5F5F5F500000000
310
00000000000000000000000000000000000000000000000000000000000000000000000000000000000000000000000000000000000000000000000000000000000000000000000000000000000000000000000000000000000000000000000000000000000000000000000000000000000000000000000000000000000000
310
00000000F500000000BE00000000000000000000000000000000000000000000000000000000000000000000BE000000000000000000F500000000000000000000000000000000000000000000000000000000000000000000000000000000000000000000000000000000000000000000F5F5F5F5F5F5F5F5F5F5F5F50000
310
00000000000000000000000000000000000000000000000000000000000000000000000000000000000000000000000000000000000000000000000000000000000000000000000000000000000000000000000000000000000000000000000000000000000000000000000000000000000000000000000000000000000000
310
000000000000F500000000BE00000000000000000000000000000000000000000000000000000000000000000000BE000000000000000000F5000000000000000000000000000000000000000000000000000000000000000000000000000000000000000000000000000000000000000000000000000000F5F5F5F5F5F5F5
310
00000000000000000000000000000000000000000000000000000000000000000000000000000000000000000000000000000000000000000000000000000000000000000000000000000000000000000000000000000000000000000000000000000000000000000000000000000000000000000000000000000000000000
310
0000000000000000F500000000BE00000000000000000000000000000000000000000000000000000000000000000000BE000000000000000000F50000000000000000000000000000000000000000000000000000000000000000000000000000000000000000000000000000000000000000000000000000000000000000
310
00000000000000000000000000000000000000000000000000000000000000000000000000000000000000000000000000000000000000000000000000000000000000000000000000000000000000000000000000000000000000000000000000000000000000000000000000000000000000000000000000000000000000
310
00000000000000000000F500000000BE00000000000000000000000000000000000000000000000000000000000000000000BE000000000000000000F5000000000000000000000000000000000000000000000000000000000000000000000000000000000000000000000000000000000000000000000000000000000000
310
00000000000000000000000000000000000000000000000000000000000000000000000000000000000000000000000000000000000000000000000000000000000000000000000000000000000000000000000000000000000000000000000000000000000000000000000000000000000000000000000000000000000000
310
000000000000000000000000F500000000BE00000000000000000000000000000000000000000000000000000000000000000000BE000000000000000000F500000000000000000000000000000000000000000000000000000000000000000000000000000000000000000000000000000000000000000000000000000000
310
00000000000000000000000000000000000000000000000000000000000000000000000000000000000000000000000000000000000000000000000000000000000000000000000000000000000000000000000000000000000000000000000000000000000000000000000000000000000000000000000000000000000000
310
0000000000000000000000000000F500000000BE00000000000000000000000000000000000000000000000000000000000000000000BE000000000000000000F50000000000000000000000000000000000000000000000000000000000000000000000000000000000000000000000000000000000000000000000000000
310
00000000000000000000000000000000000000000000000000000000000000000000000000000000000000000000000000000000000000000000000000000000000000000000000000000000000000000000000000000000000000000000000000000000000000000000000000000000000000000000000000000000000000
310
00000000000000000000000000000000F500000000BE00000000000000000000000000000000000000000000000000000000000000000000BE000000000000000000F500000000000000000000000000000000000000000000000000000000F5F5000000000000000000000000000000000000000000000000000000000000
310
0000F5F5F5F50000000000000000000000000000000000000000000000000000000000000000F5F5000000000000000000000000000000000000000000000000000000000000000000000000000000000000000000000000000000000000000000000000000000000000000000000000000000000000000000000000000000
310
000000000000000000000000000000000000F500000000BE00000000000000000000000000000000000000000000000000000000000000000000BE000000000000000000F500000000000000000000000000000000000000000000000000000000F5F500000000000000000000000000000000000000000000000000000000
310
00000000F5F5F5F50000000000000000000000000000000000000000000000000000000000000000F5F500000000000000000000000000000000000000000000000000000000000000000000000000000000000000000000000000000000000000000000000000000000000000000000000000000000000000000000000000
310
0000000000000000000000000000000000000000F500000000BE00000000000000000000000000000000000000000000000000000000000000000000BE000000000000000000F5000000000000000000000000000000000000000000000000000000F5F5F5F5F5F5F5F5F5F5F5F5F5F5F5F5F5F5F5F5F5F5F5F5F5F5F5F5F5
310
F5F5F5F5F5F5F5F5F5F5F5F5F5F5F5F5F5F5F5F5F5F5F5F5F5F5F5F5F5F5F5F5F5F5F5F5F5F5F5F5F5F5F5F5F500000000000000000000000000000000000000000000000000000000000000000000000000000000000000000000000000000000000000000000000000000000000000000000000000000000000000000000
310
00000000000000000000000000000000000000000000F500000000BE00000000000000000000000000000000000000000000000000000000000000000000BE000000000000000000F500000000000000000000000000000000000000000000000000000000F500000000000000000000000000000000000000000000000000
310
0000000000000000002D00000000000000000000000000000000000000000000000000000000000000000000F5F5000000000000000000000000000000000000000000000000000000000000000000000000000000000000000000000000000000000000000000000000000000000000000000000000000000000000000000
310
000000000000000000000000000000000000000000000000F500000000BE00000000000000000000000000000000000000000000000000000000000000000000BE000000000000000000F500000000000000000000000000000000000000000000000000000000F50000000000000000000000000000000000000000000000
310
00000000000000000000002D0000000000000000000000000000000000000000000000000000000000000000000000F500000000000000000000000000000000000000000000000000000000000000000000000000000000000000000000000000000000000000000000000000000000000000000000000000000000000000
310
0000000000000000000000000000000000000000000000000000F500000000BE00000000000000000000000000000000000000000000000000000000000000000000BE000000000000000000F500000000000000000000000000000000000000000000000000000000F5F5F5F5F5F5F5F5F5F5F5F5F5F5F5F5F5F5F5F5F5F5
310
F5F5F5F5F5F5F5F5F5F5F5F5F5F5F5F5F5F5F5F5F5F5F5F5F5F5F5F5F5F5F5F5F5F5F5F5F5F5F5F5F5F5F5F5F5F5F5F5F5F5F5F5F5F5F5000000000000000000000000000000000000000000000000000000000000000000000000000000000000000000000000000000000000000000000000000000000000000000000000
310
00000000000000000000000000000000000000000000000000000000F500000000BE00000000000000000000000000000000000000000000000000000000000000000000BE000000000000000000F500000000000000000000000000000000000000000000000000000000F500000000000000000000000000000000000000
310
0000000000000000000000000000002D00000000000000000000000000000000000000000000000000000000000000000000F5F500000000F5F5000000000000000000000000000000000000000000000000000000000000000000000000000000000000000000000000000000000000000000000000000000000000000000
310
000000000000000000000000000000000000000000000000000000000000F500000000BE00000000000000000000000000000000000000000000000000000000000000000000BE000000000000000000F500000000000000000000000000000000000000000000000000000000F50000F5F5F5F5F5F5F5F5F5F5F5F5F5F5F5
310
F5F5F5F5F5F5F5F5F5F5F5F5F5F5F5F5F5F5F5F5F5F5F5F5F5F5F5F5F5F5F5F5F5F5F5F5F5F5F5F5F5F5F5F5F5F5F5F5F5F5F500F5F500000000F5F500000000000000000000000000000000000000000000000000000000000000000000000000000000000000000000000000000000000000000000000000000000000000
310
0000000000000000000000000000000000000000000000000000000000000000F500000000BE00000000000000000000000000000000000000000000000000000000000000000000BE000000000000000000F500000000000000000000000000000000000000000000000000000000F50000F5F5F5F5F5F5F5F5F5F5F5F5F5
310
F5F5F5F5F5F5F5F5F5F5F5F5F5F5F5F5F5F5F5F5F5F5F5F5F5F5F5F5F5F5F5F5F5F5F5F5F5F5F5F5F5F5F5F5F5F5F5F5F5F5F500F50000F500000000F5F50000000000000000000000000000000000000000000000000000000000000000000000000000000000000000000000000000000000000000000000000000000000
310
00000000000000000000000000000000000000000000000000000000000000000000F500000000BE00000000000000000000000000000000000000000000000000000000000000000000BE000000000000000000F500000000000000000000000000000000000000000000000000000000F50000F500F50000000000000000
310
0000000000000000000000000000000000000000002D0000000000000000000000000000000000000000000000000000000000F50000F50000F500000000F5F5000000000000000000000000000000000000000000000000000000000000000000000000000000000000000000000000000000000000000000000000000000
310
000000000000000000000000000000000000000000000000000000000000000000000000F500000000BE00000000000000000000000000000000000000000000000000000000000000000000BE000000000000000000F50000000000000000000000000000000000000000000000000000F5F5F50000F500F5000000000000
310
00000000000000000000000000000000000000000000002D0000000000000000000000000000000000000000000000000000000000F50000F50000F5F5F5F5F5F5F500000000000000000000000000000000000000000000000000000000000000000000000000000000000000000000000000000000000000000000000000
310
0000000000000000000000000000000000000000000000000000000000000000000000000000F500000000BE00000000000000000000000000000000000000000000000000000000000000000000BE000000000000000000F50000000000000000000000000000000000000000000000000000F500150000F500F500000000
310
000000000000000000000000000000000000000000000000002D0000000000000000000000000000000000000000000000000000000000F50000F500001500F50000F5000000000000000000000000000000000000000000000000000000000000000000000000000000000000000000000000000000000000000000000000
310
00000000000000000000000000000000000000000000000000000000000000000000000000000000F500000000BE00000000000000000000000000000000000000000000000000000000000000000000BE000000000000000000F50000000000000000000000000000000000000000000000000000F500150000F500F50000
310
0000000000000000000000000000000000000000000000000000002D0000000000000000000000000000000000000000000000000000000000F50000F500001500F50000F500000000000000000000000000000000000000000000000000000000000000000000000000000000000000000000000000000000000000000000
310
000000000000000000000000000000000000000000000000000000000000000000000000000000000000F500000000BE00000000000000000000000000000000000000000000000000000000000000000000BE000000000000000000F50000000000000000000000000000000000000000000000000000F500150000F500F5
310
00000000000000000000000000000000000000000000000000000000002D0000000000000000000000000000000000000000000000000000000000F50000F500001500F50000F50000000000000000000000000000000000000000000000000000000000000000000000000000000000000000000000000000000000000000
310
0000000000000000000000000000000000000000000000000000000000000000000000000000000000000000F500000000BE00000000000000000000000000000000000000000000000000000000000000000000BE000000000000000000F50000000000000000000000000000000000000000000000000000F500150000F5
310
00F500000000000000000000000000000000000000000000000000000000002D0000000000000000000000000000000000000000000000000000000000F50000F500001500F50000F5000000000000000000000000000000000000000000000000000000000000000000000000000000000000000000000000000000000000
310
00000000000000000000000000000000000000000000000000000000000000000000000000000000000000000000F500000000BE00000000000000000000000000000000000000000000000000000000000000000000BE000000000000000000F50000000000000000000000000000000000000000000000000000F5001500
310
00F500F500000000000000000000000000000000000000000000000000000000002D0000000000000000000000000000000000000000000000000000000000F50000F500001500F50000F500000000000000000000000000000000000000000000000000000000000000000000000000000000000000000000000000000000
310
000000000000000000000000000000000000000000000000000000000000000000000000000000000000000000000000F500000000BE00000000000000000000000000000000000000000000000000000000000000000000BE000000000000000000F50000000000000000000000000000000000000000000000000000F500
310
150000F500F500000000000000000000000000000000000000000000000000000000002D0000000000000000000000000000000000000000000000000000000000F50000F500001500F50000F5F500000000000000000000000000000000000000000000000000000000000000000000000000000000000000000000000000
310
0000000000000000000000000000000000000000000000000000000000000000000000000000000000000000000000000000F500000000BE00000000000000000000000000000000000000000000000000000000000000000000BE000000000000000000F50000000000000000000000000000000000000000000000000000
310
F500150000F500F500000000000000000000000000000000000000000000000000000000002D0000000000000000000000000000000000000000000000000000000000F50000F500001500F50000F5F50000000000000000000000000000000000000000000000000000000000000000000000000000000000000000000000
310
00000000000000000000000000000000000000000000000000000000000000000000000000000000000000000000000000000000F500000000BE00000000000000000000000000000000000000000000000000000000000000000000BE000000000000000000F5000000000000000000000000000000000000000000000000
310
0000F500150000F500F500000000000000000000000000000000000000000000000000000000002D0000000000000000000000000000000000000000000000000000000000F50000F500001500F50000F5F5000000000000000000000000000000000000000000000000000000000000000000000000000000000000000000
310
000000000000000000000000000000000000000000000000000000000000000000000000000000000000000000000000000000000000F500000000BE00000000000000000000000000000000000000000000000000000000000000000000BE000000000000000000F500000000000000000000000000000000000000000000
310
00000000F500150000F500F500000000000000000000000000000000000000000000000000000000002D0000000000000000000000000000000000000000000000000000000000F50000F500001500F50000F5F500000000000000000000000000000000000000000000000000000000000000000000000000000000000000
310
0000000000000000000000000000000000000000000000000000000000000000000000000000000000000000000000000000000000000000F500000000BE00000000000000000000000000000000000000000000000000000000000000000000BE000000000000000000F50000000000000000000000000000000000000000
310
000000000000F500150000F500F500000000000000000000000000000000000000000000000000000000002D0000000000000000000000000000000000000000000000000000000000F50000F500001500F50000F5000000000000000000000000000000000000000000000000000000000000000000000000000000000000
310
00000000000000000000000000000000000000000000000000000000000000000000000000000000000000000000000000000000000000000000F500000000BE00000000000000000000000000000000000000000000000000000000000000000000BE000000000000000000F5000000000000000000000000000000000000
310
0000000000000000F500150000F500F500000000000000000000000000000000000000000000000000000000002D0000000000000000000000000000000000000000000000000000000000F50000F500001500F50000F500000000000000000000000000000000000000000000000000000000000000000000000000000000
310
000000000000000000000000000000000000000000000000000000000000000000000000000000000000000000000000000000000000000000000000F500000000BE00000000000000000000000000000000000000000000000000000000000000000000BE000000000000000000F500000000000000000000000000000000
310
00000000000000000000F500150000F500F5F5F5F5F5F5F5F5F5F5F5F5F5F5F5F5F5F5F5F5F5F5F5F5F5F5F5F5F5F5F5F5F5F5F5F5F5F5F5F5F5F5F5F5F5F5F5F5F5F5F5F5F5F5F5F5F5F5F5F5F5F500F500001500F50000F50000000000000000000000000000000000000000000000000000000000000000000000000000
310
0000000000000000000000000000000000000000000000000000000000000000000000000000000000000000000000000000000000000000000000000000F500000000BE00000000000000000000000000000000000000000000000000000000000000000000BE000000000000000000F50000000000000000000000000000
310
000000000000000000000000F500150000F5F5F5F5F5F5F5F5F5F5F5F5F5F5F5F5F5F5F5F5F5F5F5F5F5F5F5F5F5F5F5F5F5F5F5F5F5F5F5F5F5F5F5F5F5F5F5F5F5F5F5F5F5F5F5F5F5F5F5F5F5F5F5F5F5F500001500F50000F5000000000000000000000000000000000000000000000000000000000000000000000000
310
00000000000000000000000000000000000000000000000000000000000000000000000000000000000000000000000000000000000000000000000000000000F500000000BE00000000000000000000000000000000000000000000000000000000000000000000BE000000000000000000F5000000000000000000000000
310
0000000000000000000000000000F50015000000000000000000000000000000000000000000000000000000000000000000002D00000000000000000000000000000000000000000000000000000000000000000000001500F50000F500000000000000000000000000000000000000000000000000000000000000000000
310
000000000000000000000000000000000000000000000000000000000000000000000000000000000000000000000000000000000000000000000000000000000000F500000000BE00000000000000000000000000000000000000000000000000000000000000000000BE000000000000000000F500000000000000000000
310
00000000000000000000000000000000F50015000000000000000000000000000000000000000000000000000000000000000000002D00000000000000000000000000000000000000000000000000000000000000000000001500F50000F50000000000000000000000000000000000000000000000000000000000000000
310
0000000000000000000000000000000000000000000000000000000000000000000000000000000000000000000000000000000000000000000000000000000000000000F500000000BE00000000000000000000000000000000000000000000000000000000000000000000BE000000000000000000F50000000000000000
310
000000000000000000000000000000000000F5F515F5F5F5F5F5F5F5F5F5F5F5F5F5F5F5F5F5F5F5F5F5F5F5F5F5F5F5F5F5F5F5F5F5F5F5F5F5F5F5F5F5F5F5F5F5F5F5F5F5F5F5F5F5F5F5F5F5F5F5F5F5F5F5F5F5F5F5F5F5F515F5F5F5F5F5000000000000000000000000000000000000000000000000000000000000
310
00000000000000000000000000000000000000000000000000000000000000000000000000000000000000000000000000000000000000000000000000000000000000000000F500000000BE00000000000000000000000000000000000000000000000000000000000000000000BE000000000000000000F5000000000000
310
0000000000000000000000000000000000000000F50000000000000000000000000000000000000000000000000000000000000000000000002D00000000000000000000000000000000000000000000000000000000000000000000000000F500000000000000000000000000000000000000000000000000000000000000
310
000000000000000000000000000000000000000000000000000000000000000000000000000000000000000000000000000000000000000000000000000000000000000000000000F500000000BE00000000000000000000000000000000000000000000000000000000000000000000BE000000000000000000F500000000
310
00000000000000000000000000000000000000000000F50000000000000000000000000000000000000000000000000000000000000000000000000000000000000000000000000000000000000000000000000000000000000000000000000000F50000000000000000000000000000000000000000000000000000000000
310
0000000000000000000000000000000000000000000000000000000000000000000000000000000000000000000000000000000000000000000000000000000000000000000000000000F500000000BE00000000000000000000000000000000000000000000000000000000000000000000BE000000000000000000F50000
310
000000000000000000000000000000000000000000000000F50000000000000000000000000000000000000000000000000000000000000000000000000000000000000000000000000000000000000000000000000000000000000000000000000000F5000000000000000000000000000000000000000000000000000000
310
00000000000000000000000000000000000000000000000000000000000000000000000000000000000000000000000000000000000000000000000000000000000000000000000000000000F500000000BE00000000000000000000000000000000000000000000000000000000000000000000BE000000000000000000F5
310
0000000000000000000000000000000000000000000000000000F50000000000000000000000000000000000000000000000000000000000000000000000000000000000000000000000000000000000000000000000000000000000000000000000000000F500000000000000000000000000000000000000000000000000
310
000000000000000000000000000000000000000000000000000000000000000000000000000000000000000000000000000000000000000000000000000000000000000000000000000000000000F500000000BE00000000000000000000000000000000000000000000000000000000000000000000BE0000000000000000
310
00F50000000000000000000000000000000000000000000000000000F5F5F5F5F5F5F5F5F5F5F5F5F5F5F5F5F5F5F5F5F5F5F5F5F5F5F5F5F5F5F5F5F5F5F5F5F5F5F5F5F5F5F5F5F5F5F5F5F5F5F5F5F5F5F5F5F5F5F5F5F5F5F5F5F5F5F5F5F5F5F5F5F5F5F5F50000000000000000000000000000000000000000000000
310
0000000000000000000000000000000000000000000000000000000000000000000000000000000000000000000000000000000000000000000000000000000000000000000000000000000000000000F500000000BE00000000000000000000000000000000000000000000000000000000000000000000BE000000000000
310
000000F50000000000000000000000000000000000000000000000000000000000000000000000000000000000000000000000000000000000000000000000000000F5F5F5F5000000000000000000000000000000000000000000000000000000000000000000000000000000000000000000000000000000000000000000
310
00000000000000000000000000000000000000000000000000000000000000000000000000000000000000000000000000000000000000000000000000000000000000000000000000000000000000000000F500000000BE00000000000000000000000000000000000000000000000000000000000000000000BE00000000
310
0000000000F500000000000000000000000000000000000000000000000000000000000000000000000000000000000000000000000000000000000000000000000000000000000000000000000000000000000000000000000000000000000000000000000000000000000000000000000000000000000000000000000000
310
000000000000000000000000000000000000000000000000000000000000000000000000000000000000000000000000000000000000000000000000000000000000000000000000000000000000000000000000F500000000BE00000000000000000000000000000000000000000000000000000000000000000000BE0000
310
00000000000000F50000000000000000000000000000000000000000000000000000000000000000000000000000000000000000000000000000000000000000000000000000000000000000000000000000000000000000000000000000000000000000000000000000000000000000000000000000000000000000000000
310
0000000000000000000000000000000000000000000000000000000000000000000000000000000000000000000000000000000000000000000000000000000000000000000000000000000000000000000000000000F500000000BE00000000000000000000000000000000000000000000000000000000000000000000BE
310
000000000000000000F500000000000000000000000000000000000000000000000000000000000000000000000000000000000000000000000000000000000000000000000000F5F5F5F5F5F50000000000000000000000000000000000000000000000000000000000000000000000000000000000000000000000000000
310
00000000000000000000000000000000000000000000000000000000000000000000000000000000000000000000000000000000000000000000000000000000000000000000000000000000000000000000000000000000F500000000BE000000000000000000000000000000000000000000000000000000000000000000
310
00BE000000000000000000F500000000000000000000000000000000000000000000000000000000000000000000000000000000000000000000000000000000000000000000000000F5F5F5F5F5F5000000000000000000000000000000000000000000000000000000000000000000000000000000000000000000000000
310
000000000000000000000000000000000000000000000000000000000000000000000000000000000000000000000000000000000000000000000000000000000000000000000000000000000000000000000000000000000000F500000000BE00000000000000000000000000000000000000000000000000000000000000
310
000000BE000000000000000000F500000000000000000000000000000000000000000000000000000000000000000000000000000000000000000000000000000000000000000000000000F5F5F5F5F5F500000000000000000000000000000000000000000000000000000000000000000000000000000000000000000000
310
0000000000000000000000000000000000000000000000000000000000000000000000000000000000000000000000000000000000000000000000000000000000000000000000000000000000000000000000000000000000000000F500000000BE0000000000000000000000000000000000000000000000000000000000
310
0000000000BE000000000000000000F5000000000000000000000000000000000000000000000000000000000000000000000000000000000000000000000000000000000000000000000000000000000000000000000000000000000000000000000000000000000000000000000000000000000000000000000000000000
310
00000000000000000000000000000000000000000000000000000000000000000000000000000000000000000000000000000000000000000000000000000000000000000000000000000000000000000000000000000000000000000000F500000000BE000000000000000000000000000000000000000000000000000000
310
00000000000000BE000000000000000000F500000000000000000000000000000000000000000000000000000000000000000000000000000000000000000000000000000000000000000000000000000000000000000000000000000000000000000000000000000000000000000000000000000000000000000000000000
310
000000000000000000000000000000000000000000000000000000000000000000000000000000000000000000000000000000000000000000000000000000000000000000000000000000000000000000000000000000000000000000000000F500000000BE00000000000000000000000000000000000000000000000000
310
000000000000000000BE000000000000000000F50000000000000000000000000000000000000000000000000000000000000000000000000000000000000000000000000000000000000000000000000000000000000000000000000000000000000000000000000000000000000000000000000000000000000000000000
310
0000000000000000000000000000000000000000000000000000000000000000000000000000000000000000000000000000000000000000000000000000000000000000000000000000000000000000000000000000000000000000000000000000F500000000BE0000000000000000000000000000000000000000000000
310
0000000000000000000000BE000000000000000000F5000000000000000000000000000000000000000000000000000000000000000000000000000000000000000000000000000000000000000000000000000000000000000000000000000000000000000000000000000000000000000000000000000000000000000000
310
00000000000000000000000000000000000000000000000000000000000000000000000000000000000000000000000000000000000000000000000000000000000000000000000000000000000000000000000000000000000000000000000000000000F500000000BE000000000000000000000000000000000000000000
310
00000000000000000000000000BE000000000000000000F500000000000000000000000000000000000000000000000000000000000000000000000000000000000000000000000000000000000000000000000000000000000000000000000000000000000000000000000000000000000000000000000000000000000000
310
0000000000000000000000000000000000000000000000000000F5F5F5000000000000000000000000000000000000F5F5F500000000000000000000000000000000000000000000000000000000000000000000000000000000000000000000000000000000F500000000BE00000000000000000000000000000000000000
310
000000000000000000000000000000BE000000000000000000F50000000000000000000000000000000000000000000000000000000000000000000000000000000000000000000000000000000000000000000000000000000000000000000000000000000000000000000000000000000000000000000000000000000000
310
0000000000000000000000000000000000000000000000000000F5F5F5F5F5F5000000000000000000000000000000F5F5F5F5F5F5F50000000000000000000000000000000000000000000000000000000000000000000000000000000000000000000000000000F500000000BE0000000000000000000000000000000000
310
0000000000000000000000000000000000BE000000000000000000F5000000000000000000000000000000000000000000000000000000000000000000000000000000000000000000000000000000000000000000000000000000000000000000000000000000000000000000000000000000000000000000000000000000
310
0000000000000000000000000000000000000000000000000000F5F5F5F5F5F5F5F5000000000000000000000000000000F5F5F5F5F5F5F50000000000000000000000000000000000000000000000000000000000000000000000000000000000000000000000000000F500000000BE000000000000000000000000000000
310
00000000000000000000000000000000000000BE000000000000000000F500000000000000000000000000000000000000000000000000000000F5F50000000000000000000000000000000000000000000000000000000000000000F5F5F5F500000000000000000000000000000000000000000000000000000000000000
310
00F5F5000000000000000000000000000000000000000000000000F5F5F5F50000F5F5F5000000000000000000000000000000F50000000000F50000000000000000000000000000000000000000000000000000000000000000000000000000000000000000000000000000F500000000BE00000000000000000000000000
310
000000000000000000000000000000000000000000BE000000000000000000F5000000000000000000000000000000000000000000000000000000F5F5F5F5F5F5F5F5F5F5F5F5F5F5F5F5F5F5F5F5F5F5F5F5F5F5F5F5F5F5F5F5F5F5F5F5F5F5F5F5F5F5F5F5F5F5F5F5F5F5F5F5F5F5F5F5F5F5F5F5F5F5F5F5F5F5F5F5
310
F5F5F5F5F5F50000000000000000000000000000000000000000000000F5F5F5F5F5F5F5F5F50000F5000000000000000000000000F50000000000F50000000000000000000000000000000000000000000000000000000000000000000000000000000000000000000000000000F500000000BE0000000000000000000000
310
0000000000000000000000000000000000000000000000BE000000000000000000F500000000000000000000000000000000000000000000000000000000F50000000000000000000000000000000000000000000000000000000000000000000000F500000000000000000000000000000000000000000000000000000000
310
0000000000F5F5000000000000000000000000000000000000000000000000000000F50000F500F50000F5F5F500000000000000000000F50000000000F50000000000000000000000000000000000000000000000000000000000000000000000000000000000000000000000000000F500000000BE000000000000000000
310
00000000000000000000000000000000000000000000000000BE000000000000000000F500000000000000000000000000000000000000000000000000000000F500000000000000000000000000000000000000000000000000000000000000000000F5F5F500000000000000000000000000000000000000000000000000
310
00000000000000F5F5000000000000000000000000000000000000000000000000000000F50000F500F50000F5F5F500000000000000000000F50000000000F50000000000000000000000000000000000000000000000000000000000000000000000000000000000000000000000000000F500000000BE00000000000000
310
000000000000000000000000000000000000000000000000000000BE000000000000000000F500000000000000000000000000000000000000000000000000000000F5F5F5F5F5F5F5F5F5F5F5F5F5F5F5F5F5F5F5F5F5F5F5F5F5F5F5F5F5F5F5F5F5F5F5F5F5F5F5F5F5F5F5F5F5F5F5F5F5F5F5F5F5F5F5F5F5F5F5F5F5
310
F5F5F5F5F5F5F5F5F5F5F5F5F5F5F5F5F5F5F500000000000000000000000000000000000000F5F5F5F5F5F500F5F5000000000000000000000000F5F5F5F5F5F5F5F5F5000000000000000000000000000000000000000000000000000000000000000000000000000000000000000000000000F500000000BE0000000000
310
0000000000000000000000000000000000000000000000000000000000BE000000000000000000F500000000000000000000000000000000000000000000000000000000F5000000000000000000000000000000000000000000000000000000000000000000002D0000000000000000000000000000000000000000000000
310
0000000000000000000000F5F5000000000000F50000000000000000000000000000000000000000F500000000F50000F5000000000000000000000000F50000000000F500F5000000000000000000000000000000000000000000000000000000000000000000000000000000000000000000000000F500000000BE000000
310
00000000000000000000000000000000000000000000000000000000000000BE000000000000000000F500000000000000000000000000000000000000000000000000000000F5000000000000000000000000000000000000000000000000000000000000000000002D000000000000000000000000000000000000000000
310
00000000000000000000000000F5F5000000000000F5F5F5000000000000000000000000000000000000F500000000F50000F5F5F500000000000000000000F50000000000F500F5F5F500000000000000000000000000000000000000000000000000000000000000000000000000000000000000000000F500000000BE00
310
000000000000000000000000000000000000000000000000000000000000000000BE000000000000000000F500000000000000000000000000000000000000000000000000000000F5000000000000000000000000000000000000000000000000000000000000000000002D00000000000000000000000000000000000000
310
00000000000000000000000000000000F5000000000000F5F5F5000000000000000000000000000000000000F500000000F500F5F5F5F500000000000000000000F50000000000F500F5F5F500000000000000000000000000000000000000000000000000000000000000000000000000000000000000000000F500000000
310
BE00000000000000000000000000000000000000000000000000000000000000000000BE000000000000000000F500000000000000000000000000000000000000000000000000000000F5000000000000000000000000000000000000000000000000000000000000000000002D0000000000000000000000000000000000
310
000000000000000000000000000000000000F5000000000000F500F5000000000000000000000000000000000000F50000F5F5F5F5F5F5F5F500000000000000000000F50000000000F500F5F50000000000000000000000000000000000000000000000000000000000000000000000000000000000000000000000F50000
310
0000BE00000000000000000000000000000000000000000000000000000000000000000000BE000000000000000000F50000000000000000000000000000000000000000000000000000F5F5F5000000000000000000000000000000000000000000000000000000000000000000002D000000000000000000000000000000
310
0000000000000000000000000000000000000000F5F5F5F5F5F5F5F5F5F5000000000000000000000000000000000000F50000F500000000F5000000000000000000000000F5F5F5F5F5F5F5F5F5F5F500000000000000000000000000000000000000000000000000000000000000000000000000000000000000000000F5
310
00000000BE00000000000000000000000000000000000000000000000000000000000000000000BE000000000000000000F50000000000000000000000000000000000000000000000000000F500F5000000000000000000000000000000000000000000000000000000000000000000002D00000000000000000000000000
310
000000000000000000000000000000000000000000001500F500000000F5F5F5000000000000000000000000000000000000F50000F500000000F5000000000000000000000000F50000F50000F500F5F500000000000000000000000000000000000000000000000000000000000000000000000000000000000000000000
310
00F500000000BE00000000000000000000000000000000000000000000000000000000000000000000BE000000000000000000F50000000000000000000000000000000000000000000000000000F500F5000000000000000000000000000000000000000000000000000000000000000000002D0000000000000000000000
310
0000000000000000000000000000000000000000000000001500F500000000F50000000000000000000000000000000000000000F50000F500000000F5000000000000000000000000F50000F50000F500F5000000000000000000000000000000000000000000000000000000000000000000000000000000000000000000
310
000000F500000000BE00000000000000000000000000000000000000000000000000000000000000000000BE000000000000000000F50000000000000000000000000000000000000000000000000000F500F5000000000000000000000000000000000000000000000000000000000000000000002D000000000000000000
310
00000000000000000000000000000000000000000000000000001500F500000000F50000000000000000000000000000000000000000F50000F500000000F5000000000000000000000000F50000F50000F500F500000000000000000000000000000000000000000000000000000000000000000000000000000000000000
310
0000000000F500000000BE00000000000000000000000000000000000000000000000000000000000000000000BE000000000000000000F50000000000000000000000000000000000000000000000000000F500F5000000000000000000000000000000000000000000000000000000000000000000002D00000000000000
310
000000000000000000000000000000000000000000000000000000001500F500000000F50000000000000000000000000000000000000000F50000F500000000F5F5F500000000000000000000F50000F50000F500F50000000000000000000000000000000000000000000000000000000000000000000000000000000000
310
00000000000000F500000000BE00000000000000000000000000000000000000000000000000000000000000000000BE000000000000000000F50000000000000000000000000000000000000000000000000000F500F5000000000000000000000000000000000000000000000000000000000000000000002D0000000000
310
0000000000000000000000000000000000000000000000000000000000001500F500000000F50000000000000000000000000000000000000000F50000F500000000F5F5F500000000000000000000F50000F50000F500F5000000000000000000000000000000000000000000000000000000000000000000000000000000
310
000000000000000000F500000000BE00000000000000000000000000000000000000000000000000000000000000000000BE000000000000000000F50000000000000000000000000000000000000000000000000000F500F5000000000000000000000000000000000000000000000000000000000000000000002D000000
310
00000000000000000000000000000000000000000000000000000000000000001500F500000000F50000000000000000000000000000000000000000F50000F500000000F5F5F500000000000000000000F50000F50000F500F500000000000000000000000000000000000000000000000000000000000000000000000000
310
0000000000000000000000F500000000BE00000000000000000000000000000000000000000000000000000000000000000000BE000000000000000000F50000000000000000000000000000000000000000000000F5F500F500F5000000000000000000000000000000000000000000000000000000000000000000002D00
310
000000000000000000000000000000000000000000000000000000000000000000001500F5F5F50000F5F5F5000000000000000000000000000000000000F50000F500000000F5F5F500000000000000000000F50000F50000F500F5F5F5000000000000000000000000000000000000000000000000000000000000000000
310
00000000000000000000000000F500000000BE00000000000000000000000000000000000000000000000000000000000000000000BE000000000000000000F50000000000000000000000000000000000000000000000F5F5F5F500F500000000000000000000000000000000000000000000000000000000000000000000
310
2D00000000000000000000000000000000000000000000000000000000000000000000001500F5F5F5F500F5F5F5000000000000000000000000000000000000F50000F500000000F5000000000000000000000000F50000F50000F500F5F5F500000000000000000000000000000000000000000000000000000000000000
310
000000000000000000000000000000F500000000BE00000000000000000000000000000000000000000000000000000000000000000000BE000000000000000000F50000000000000000000000000000000000000000000000000000F500F50000000000000000000000000000000000000000000000000000000000000000
310
00002D00000000000000000000000000000000000000000000000000000000000000000000001500F500000000F5F5F5000000000000000000000000000000000000F50000F500000000F5000000000000000000000000F50000F50000F500F5F5F50000000000000000000000000000000000000000000000000000000000
310
0000000000000000000000000000000000F500000000BE00000000000000000000000000000000000000000000000000000000000000000000BE000000000000000000F50000000000000000000000000000000000000000000000000000F500F5000000000000000000000000000000000000000000000000000000000000
310
000000002D00000000000000000000000000000000000000000000000000000000000000000000001500F500000000F5F5F5000000000000000000000000000000000000F50000F500000000F5000000000000000000000000F50000F50000F500F5F500000000000000000000000000000000000000000000000000000000
310
00000000000000000000000000000000000000F500000000BE00000000000000000000000000000000000000000000000000000000000000000000BE000000000000000000F50000000000000000000000000000000000000000000000000000F500F500000000000000000000000000000000000000000000000000000000
310
0000000000002D00000000000000000000000000000000000000000000000000000000000000000000001500F500000000F50000000000000000000000000000000000000000F50000F500000000F5000000000000000000000000F50000F50000F500F5000000000000000000000000000000000000000000000000000000
310
000000000000000000000000000000000000000000F500000000BE00000000000000000000000000000000000000000000000000000000000000000000BE000000000000000000F50000000000000000000000000000000000000000000000000000F500F50000000000000000000000000000000000000000000000000000
310
00000000000000002D00000000000000000000000000000000000000000000000000000000000000000000001500F500000000F50000000000000000000000000000000000000000F50000F5F5F5F5F5F5F5F500000000000000000000F50000F50000F500F500000000000000000000000000000000000000000000000000
310
0000000000000000000000000000000000000000000000F500000000BE00000000000000000000000000000000000000000000000000000000000000000000BE000000000000000000F50000000000000000000000000000000000000000000000000000F500F5000000000000000000000000000000000000000000000000
310
000000000000000000002D00000000000000000000000000000000000000000000000000000000000000000000001500F500000000F50000000000000000000000000000000000000000F5000000F5F500F5F5F5F500000000000000000000F50000F50000F500F50000000000000000000000000000000000000000000000
310
00000000000000000000000000000000000000000000000000F500000000BE00000000000000000000000000000000000000000000000000000000000000000000BE000000000000000000F50000000000000000000000000000000000000000000000000000F500F500000000000000000000000000000000000000000000
310
0000000000000000000000002D00000000000000000000000000000000000000000000000000000000000000000000001500F500000000F50000000000000000000000000000000000000000F500000000F50000F5F5F500000000000000000000F50000F50000F500F5000000000000000000000000000000000000000000
310
000000000000000000000000000000000000000000000000000000F500000000BE00000000000000000000000000000000000000000000000000000000000000000000BE000000000000000000F50000000000000000000000000000000000000000000000000000F500F50000000000000000000000000000000000000000
310
00000000000000000000000000002D00000000000000000000000000000000000000000000000000000000000000000000001500F500000000F50000000000000000000000000000000000000000F500000000F50000F5000000000000000000000000F50000F50000F500F500000000000000000000000000000000000000
310
0000000000000000000000000000000000000000000000000000000000F500000000BE00000000000000000000000000000000000000000000000000000000000000000000BE000000000000000000F50000000000000000000000000000000000000000000000000000F5F5F5F5F5F5F5F5F5F5F5F5F5F5F5F5F5F5F5F5F5
310
F5F5F5F5F5F5F5F5F5F5F5F5F5F5F5F5F5F5F5F5F5F5F5F5F5F5F5F5F5F5F5F5F5F5F5F5F5F5F5F5F5F5F5F5F5F5F5F5F5F5F5F5F5F5F5F5F5F5F5F5F500000000000000000000000000000000000000F5F5F5F5F5F500F5F5000000000000000000000000F5F5F5F5F5F5F5F5F50000000000000000000000000000000000
310
00000000000000000000000000000000000000000000000000000000000000F500000000BE00000000000000000000000000000000000000000000000000000000000000000000BE000000000000000000F5000000000000000000000000000000000000000000000000000000000000000000000000000000000000000000
310
000000000000000000000000000000000000F5F5F5000000000000000000000000000000000000000000000000000000000000000000000000000000000000000000000000000000000000000000000000000000000000000000F5F5F500000000000000000000000000000000000000000000000000000000000000000000
310
000000000000000000000000000000000000000000000000000000000000000000F500000000BE00000000000000000000000000000000000000000000000000000000000000000000BE000000000000000000F50000000000000000000000000000000000000000000000000000F500F50000000000000000000000000000
310
00000000000000000000000000000000000000002DF500000000000000000000000000000000000000000000000000000000000000000000F500F5000000000000000000000000000000000000000000000000000000000000000000F5F5F500000000000000000000F50000F50000F5000000000000000000000000000000
310
0000000000000000000000000000000000000000000000000000000000000000000000F500000000BE00000000000000000000000000000000000000000000000000000000000000000000BE000000000000000000F50000000000000000000000000000000000000000000000000000F5F5F5F5F5F5F5F5F5F5F5F5F5F5F5
310
F5F5F5F5F5F5F5F5F5F5F5F5F5F5F5F5F5F5F5F5F5F5F5F5F5F5F5F5F5F5F5F5F5F5F5F5F5F5F5F5F5F5F5F5F5F5F5F5F5F5F5F5F5F5F5F5F5F5F5F5F5000000000000000000000000000000000000000000000000000000000000000000F5F5F500000000000000F5F5F5F5F5F5F5F5F5F5F5F5F500000000000000000000
310
00000000000000000000000000000000000000000000000000000000000000000000000000F500000000BE00000000000000000000000000000000000000000000000000000000000000000000BE000000000000000000F50000000000000000000000000000000000000000000000000000F5F5F500000000000000000000
310
0000000000000000000000000000000000000000000000F5F5F5F5000000000000000000000000000000000000000000000000000000000000000000F5F5F500000000000000000000000000000000000000000000000000000000000000000000000000000000000000F5F5F50000F5F5000000F5F5000000000000000000
310
000000000000000000000000000000000000000000000000000000000000000000000000000000F500000000BE00000000000000000000000000000000000000000000000000000000000000000000BE000000000000000000F50000000000000000000000000000000000000000000000000000F5F5F5F5F5F5F5F5F5F5F5
310
F5F5F5F5F5F5F5F5F5F5F5F5F5F5F5F5F5F5F5F5F5F5F5F5F5F5F5F5F5F5F5F5F5F5F5F5F5F5F5F5F5F5F5F5F5F5F5F5F5F5F5F5F5F5F5F5F5F5F5F5F5F5F5F5F50000000000000000000000000000000000000000000000000000000000000000000000000000000000000000000000000000000000000000000000000000
310
0000000000000000000000000000000000000000000000000000000000000000000000000000000000F500000000BE00000000000000000000000000000000000000000000000000000000000000000000BE000000000000000000F50000000000000000000000000000000000000000000000000000F50000000000000000
310
000000000000000000000000000000000000000000000000000000F5F5F5F50000000000000000000000000000000000000000000000000000000000000000000000F5000000000000000000000000000000000000000000000000000000000000000000000000000000000000000000000000000000000000000000000000
310
00000000000000000000000000000000000000000000000000000000000000000000000000000000000000F500000000BE00000000000000000000000000000000000000000000000000000000000000000000BE000000000000000000F5000000000000000000000000000000000000000000000000000000000000000000
310
0000000000000000000000000000000000000000000000000000000000F5F5F5F500000000000000000000000000000000000000000000000000000000000000000000000000000000000000000000000000000000000000000000000000000000000000000000000000000000000000000000000000000000000000000000
310
000000000000000000000000000000000000000000000000000000000000000000000000000000000000000000F500000000BE00000000000000000000000000000000000000000000000000000000000000000000BE000000000000000000F500000000000000000000000000000000000000000000000000000000000000
310
00000000000000000000000000000000000000000000000000000000000000000000000000000000000000000000000000000000000000000000000000000000000000000000000000000000000000000000000000000000000000000000000000000000000000000000000000000000000000000000000000000000000000
310
0000000000000000000000000000000000000000000000000000000000000000000000000000000000000000000000F500000000BE00000000000000000000000000000000000000000000000000000000000000000000BE000000000000000000F50000000000000000000000000000000000000000000000000000000000
310
00000000000000000000000000000000000000000000000000000000000000000000000000000000000000000000000000000000000000000000000000000000000000000000000000000000000000000000000000000000000000000000000000000000000000000000000000000000000000000000000000000000000000
310
00000000000000000000000000000000000000000000000000000000000000000000000000000000000000000000000000F500000000BE00000000000000000000000000000000000000000000000000000000000000000000BE000000000000000000F5000000000000000000000000000000000000000000000000000000
310
00000000000000000000000000000000000000000000000000000000000000000000F5F5F5F5F5F500000000000000000000000000000000000000000000000000000000000000000000000000000000000000000000000000000000000000000000F5F500F5F500F5F5F5F50000000000000000000000000000F5F5F5F5F5
310
000000000000000000000000000000000000000000000000000000000000000000000000000000000000000000000000000000F500000000BE00000000000000000000000000000000000000000000000000000000000000000000BE000000000000000000F500000000000000000000000000000000000000000000000000
310
000000000000000000000000000000000000000000000000000000000000000000000000F5F5F5F5F5F500000000000000000000000000000000000000000000000000000000000000000000000000000000000000000000000000000000000000000000F5F5F5F5F5F5F5F5F5F500000000000000000000000000F5F5F5F5
310
F5F5000000000000000000000000000000000000000000000000000000000000000000000000000000000000000000000000000000F500000000BE00000000000000000000000000000000000000000000000000000000000000000000BE000000000000000000F50000000000000000000000000000000000000000000000
310
00000000000000000000000000000000000000000000000000000000000000000000000000000000000000000000000000000000000000000000000000000000000000000000000000000000000000000000000000000000000000000000000000000000000000000000000000000000000000000000000000000000000000
310
00000000000000000000000000000000000000000000000000000000000000000000000000000000000000000000000000000000000000F500000000BE00000000000000000000000000000000000000000000000000000000000000000000BE000000000000000000F5000000000000000000000000000000000000000000
310
00000000000000000000000000000000000000000000000000000000000000000000000000000000000000000000000000000000000000000000000000000000000000000000000000000000000000000000000000000000000000000000000000000000000000000000000000000000000000000000000000000000000000
310
000000000000000000000000000000000000000000000000000000000000000000000000000000000000000000000000000000000000000000F500000000BE00000000000000000000000000000000000000000000000000000000000000000000BE000000000000000000F500000000000000000000000000000000000000
310
00000000000000000000000000000000000000000000000000000000000000000000000000000000000000000000000000000000000000000000000000000000000000000000000000000000000000000000000000000000000000000000000000000000000000000000000000000000000000000000000000000000000000
310
0000000000000000000000000000000000000000000000000000000000000000000000000000000000000000000000000000000000000000000000F500000000BE00000000000000000000000000000000000000000000000000000000000000000000BE000000000000000000F50000000000000000000000000000000000
310
00000000000000000000000000000000000000000000000000000000000000000000000000000000000000000000000000000000000000000000000000000000000000000000000000000000000000000000000000000000000000000000000000000000000000000000000000000000000000000000000000000000000000
310
00000000000000000000000000000000000000000000000000000000000000000000000000000000000000000000000000000000000000000000000000F500000000BE00000000000000000000000000000000000000000000000000000000000000000000BE000000000000000000F5000000000000000000000000000000
310
00000000000000000000000000000000000000000000000000000000000000000000000000000000000000000000000000000000000000000000000000000000000000000000000000000000000000000000000000000000000000000000000000000000000000000000000000000000000000000000000000000000000000
310
000000000000000000000000000000000000000000000000000000000000000000000000000000000000000000000000000000000000000000000000000000F500000000BE00000000000000000000000000000000000000000000000000000000000000000000BE000000000000000000F500000000000000000000000000
310
00000000000000000000000000000000000000000000000000000000000000000000000000000000000000000000000000000000000000000000000000000000000000000000000000000000000000000000000000000000000000000000000000000000000000000000000000000000000000000000000000000000000000
310
0000000000000000000000000000000000000000000000000000000000000000000000000000000000000000000000000000000000000000000000000000000000F500000000BE00000000000000000000000000000000000000000000000000000000000000000000BE000000000000000000F50000000000000000000000
310
00000000000000000000000000000000000000000000000000000000000000000000000000000000000000000000000000000000000000000000000000000000000000000000000000000000000000000000000000000000000000000000000000000000000000000000000000000000000000000000000000000000000000
310
00000000000000000000000000000000000000000000000000000000000000000000000000000000000000000000000000000000000000000000000000000000000000F500000000BE00000000000000000000000000000000000000000000000000000000000000000000BE000000000000000000F5000000000000000000
310
00000000000000000000000000000000000000000000000000000000000000000000000000000000000000000000000000000000000000000000000000000000000000000000000000000000000000000000000000000000000000000000000000000000000000000000000000000000000000000000000000000000000000
310
000000000000000000000000000000000000000000000000000000000000000000000000000000000000000000000000000000000000000000000000000000000000000000F500000000BE00000000000000000000000000000000000000000000000000000000000000000000BE000000000000000000F500000000000000
310
00000000000000000000000000000000000000000000000000000000000000000000000000000000000000000000000000000000000000000000000000000000000000000000000000000000000000000000000000000000000000000000000000000000000000000000000000000000000000000000000000000000000000
310
0000000000000000000000000000000000000000000000000000000000000000000000000000000000000000000000000000000000000000000000000000000000000000000000F500000000BE00000000000000000000000000000000000000000000000000000000000000000000BE000000000000000000F50000000000
310
00000000000000000000000000000000000000000000000000000000000000000000000000000000000000000000000000000000000000000000000000000000000000000000000000000000000000000000000000000000000000000000000000000000000000000000000000000000000000000000000000000000000000
310
00000000000000000000000000000000000000000000000000000000000000000000000000000000000000000000000000000000000000000000000000000000000000000000000000F500000000BE00000000000000000000000000000000000000000000000000000000000000000000BE000000000000000000F5F5F5F5
310
F5F5F5F5F5F5F5F5F5F5F5F5F5F5F5F5F5F5F5F5F5F5F5F5F5F5F5F5F5F5F5F5F5F5F5F5F5F5F5F5F5F5F5F5F5F5F5F5F5F5F5F5F5F5F5F5F5F5F5F5F5F5F5F5F5F5F5F5F5F5F5F5F5F5F5F5F5F5F5F5F5F5F5F5F5F5F5F5F5F5F5F5F5F5F5F5F5F5F5F5F5F5F5F5F5F5F5F5F5F5F5F5F5F5F5F5F5F5F5F5F5F5F5F5F5F5F5
310
F5F5F5F5F5F5F5F5F5F5F5F5F5F5F5F5F5F5F5F5F5F5F5F5F5F5F5F5F5F5F5F5F5F5F5F5F5F5F5F5F5F5F5F5F5F5F5F5F5F5F5F5F5F5F5F5F5F5F5F5F5F5F5F5F5F5F5F5F5F5F5F5F5F5F5F500000000BE00000000000000000000000000000000000000000000000000000000000000000000BE0000000000000000000000
310
00000000000000000000000000000000000000000000000000000000000000000000000000000000000000000000000000000000000000000000000000000000000000000000000000000000000000000000000000000000000000000000000000000000000000000000000000000000000000000000000000000000000000
310
00000000000000000000000000000000000000000000000000000000000000000000000000000000000000000000000000000000000000000000000000000000000000000000000000000000000000000000BE00000000000000000000000000000000000000000000000000000000000000000000BE000000000000000000
310
00000000000000000000000000000000000000000000000000000000000000000000000000000000000000000000000000000000000000000000000000000000000000000000000000000000000000000000000000000000000000000000000000000000000000000000000000000000000000000000000000000000000000
310
000000000000000000000000000000000000000000000000000000000000000000000000000000000000000000000000000000000000000000000000000000000000000000000000000000000000000000000000BE00000000000000000000000000000000000000000000000000000000000000000000BE00000000000000
310
00000000000000000000000000000000000000000000000000000000000000000000000000000000000000000000000000000000000000000000000000000000000000000000000000000000000000000000000000000000000000000000000000000000000000000000000000000000000000000000000000000000000000
310
0000000000000000000000000000000000000000000000000000000000000000000000000000000000000000000000000000000000000000000000000000000000000000000000000000000000000000000000000000BE00000000000000000000000000000000000000000000000000000000000000000000BE0000000000
310
00000000000000000000000000000000000000000000000000000000000000000000000000000000000000000000000000000000000000000000000000000000000000000000000000000000000000000000000000000000000000000000000000000000000000000000000000000000000000000000000000000000000000
310
00000000000000000000000000000000000000000000000000000000000000000000000000000000000000000000000000000000000000000000000000000000000000000000000000000000000000000000000000000000BE00000000000000000000000000000000000000000000000000000000000000000000BEBEBEBE
310
BEBEBEBEBEBEBEBEBEBEBEBEBEBEBEBEBEBEBEBEBEBEBEBEBEBEBEBEBEBEBEBEBEBEBEBEBEBEBEBEBEBEBEBEBEBEBEBEBEBEBEBEBEBEBEBEBEBEBEBEBEBEBEBEBEBEBEBEBEBEBEBEBEBEBEBEBEBEBEBEBEBEBEBEBEBEBEBEBEBEBEBEBEBEBEBEBEBEBEBEBEBEBEBEBEBEBEBEBEBEBEBEBEBEBEBEBEBEBEBEBEBEBEBEBEBEBE
310
BEBEBEBEBEBEBEBEBEBEBEBEBEBEBEBEBEBEBEBEBEBEBEBEBEBEBEBEBEBEBEBEBEBEBEBEBEBEBEBEBEBEBEBEBEBEBEBEBEBEBEBEBEBEBEBEBEBEBEBEBEBEBEBEBEBEBEBEBEBEBEBEBEBEBEBEBEBEBEBEBEBEBEBEBEBEBEBEBEBEBE000000000000000000000000000000000000000000000000000000000000000000000000
310
00000000000000000000000000000000000000000000000000000000000000000000000000000000000000000000000000000000000000000000000000000000000000000000000000000000000000000000000000000000000000000000000000000000000000000000000000000000000000000000000000000000000000
310
0000000000000000000000000000000000000000000000000000000000000000000000000000000000000000000000000000000000000000000000000000000000000000000000000000000000000000000000000000000000000000000000000000000000000000000000000000
  0
XRECORD
  5
6234
102
{ACAD_REACTORS
330
6233
102
}
330
6233
100
AcDbXrecord
280
     1
102
SHADEPLOT
 70
     0
102
SHADEPLOTRESLEVEL
 70
     2
102
SHADEPLOTCUSTOMDPI
 70
   300
  0
XRECORD
  5
6236
102
{ACAD_REACTORS
330
6235
102
}
330
6235
100
AcDbXrecord
280
     1
102
SHADEPLOT
 70
     0
102
SHADEPLOTRESLEVEL
 70
     2
102
SHADEPLOTCUSTOMDPI
 70
   300
  0
XRECORD
  5
6238
102
{ACAD_REACTORS
330
619B
102
}
330
619B
100
AcDbXrecord
280
     1
102
MATERIAL
148
0.0
149
0.0
149
0.0
 93
        0
 94
      127
282
     0
 72
     0
 77
     0
171
     0
175
     0
179
     0
273
     0
  0
XRECORD
  5
619D
102
{ACAD_REACTORS
330
619B
102
}
330
619B
100
AcDbXrecord
280
     1
270
     1
271
     1
  0
XRECORD
  5
619C
102
{ACAD_REACTORS
330
619B
102
}
330
619B
100
AcDbXrecord
280
     1
270
     1
271
     1
  0
XRECORD
  5
61A0
102
{ACAD_REACTORS
330
619B
102
}
330
619B
100
AcDbXrecord
280
     1
270
     1
271
     1
  0
XRECORD
  5
619F
102
{ACAD_REACTORS
330
619B
102
}
330
619B
100
AcDbXrecord
280
     1
270
     1
271
     1
  0
XRECORD
  5
61A1
102
{ACAD_REACTORS
330
619B
102
}
330
619B
100
AcDbXrecord
280
     1
270
     1
271
     1
  0
XRECORD
  5
619E
102
{ACAD_REACTORS
330
619B
102
}
330
619B
100
AcDbXrecord
280
     1
270
     1
271
     1
  0
XRECORD
  5
6237
102
{ACAD_REACTORS
330
6193
102
}
330
6193
100
AcDbXrecord
280
     1
102
MATERIAL
148
0.0
149
0.0
149
0.0
 93
        0
 94
      127
282
     0
 72
     0
 77
     0
171
     0
175
     0
179
     0
273
     0
  0
XRECORD
  5
6195
102
{ACAD_REACTORS
330
6193
102
}
330
6193
100
AcDbXrecord
280
     1
270
     1
271
     1
  0
XRECORD
  5
6194
102
{ACAD_REACTORS
330
6193
102
}
330
6193
100
AcDbXrecord
280
     1
270
     1
271
     1
  0
XRECORD
  5
6198
102
{ACAD_REACTORS
330
6193
102
}
330
6193
100
AcDbXrecord
280
     1
270
     1
271
     1
  0
XRECORD
  5
6197
102
{ACAD_REACTORS
330
6193
102
}
330
6193
100
AcDbXrecord
280
     1
270
     1
271
     1
  0
XRECORD
  5
6199
102
{ACAD_REACTORS
330
6193
102
}
330
6193
100
AcDbXrecord
280
     1
270
     1
271
     1
  0
XRECORD
  5
6196
102
{ACAD_REACTORS
330
6193
102
}
330
6193
100
AcDbXrecord
280
     1
270
     1
271
     1
  0
XRECORD
  5
6239
102
{ACAD_REACTORS
330
61A3
102
}
330
61A3
100
AcDbXrecord
280
     1
102
MATERIAL
148
0.0
149
0.0
149
0.0
 93
        0
 94
      127
282
     0
 72
     0
 77
     0
171
     0
175
     0
179
     0
273
     0
  0
XRECORD
  5
61A5
102
{ACAD_REACTORS
330
61A3
102
}
330
61A3
100
AcDbXrecord
280
     1
270
     1
271
     1
  0
XRECORD
  5
61A4
102
{ACAD_REACTORS
330
61A3
102
}
330
61A3
100
AcDbXrecord
280
     1
270
     1
271
     1
  0
XRECORD
  5
61A8
102
{ACAD_REACTORS
330
61A3
102
}
330
61A3
100
AcDbXrecord
280
     1
270
     1
271
     1
  0
XRECORD
  5
61A7
102
{ACAD_REACTORS
330
61A3
102
}
330
61A3
100
AcDbXrecord
280
     1
270
     1
271
     1
  0
XRECORD
  5
61A9
102
{ACAD_REACTORS
330
61A3
102
}
330
61A3
100
AcDbXrecord
280
     1
270
     1
271
     1
  0
XRECORD
  5
61A6
102
{ACAD_REACTORS
330
61A3
102
}
330
61A3
100
AcDbXrecord
280
     1
270
     1
271
     1
  0
XRECORD
  5
622B
102
{ACAD_REACTORS
330
622A
102
}
330
622A
100
AcDbXrecord
280
     1
102
ACAD_ROUNDTRIP_2012_MLEADER_STYLE
298
     1
  0
CELLSTYLEMAP
  5
6229
102
{ACAD_REACTORS
330
6228
102
}
330
6228
100
AcDbCellStyleMap
 90
        3
300
CELLSTYLE
  1
TABLEFORMAT_BEGIN
 90
        5
170
     1
 91
        0
 92
    32768
 62
   257
 93
        1
300
CONTENTFORMAT
  1
CONTENTFORMAT_BEGIN
 90
        0
 91
        0
 92
        4
 93
        0
300

 40
0.0
140
1.0
 94
        5
 62
     0
340
11
144
6.0
309
CONTENTFORMAT_END
171
     1
301
MARGIN
  1
CELLMARGIN_BEGIN
 40
1.5
 40
1.5
 40
1.5
 40
1.5
 40
0.18
 40
0.18
309
CELLMARGIN_END
 94
        6
 95
        1
302
GRIDFORMAT
  1
GRIDFORMAT_BEGIN
 90
        0
 91
        1
 62
     0
 92
       -2
340
0
 93
        0
 40
0.045
309
GRIDFORMAT_END
 95
        2
302
GRIDFORMAT
  1
GRIDFORMAT_BEGIN
 90
        0
 91
        1
 62
     0
 92
       -2
340
0
 93
        0
 40
0.045
309
GRIDFORMAT_END
 95
        4
302
GRIDFORMAT
  1
GRIDFORMAT_BEGIN
 90
        0
 91
        1
 62
     0
 92
       -2
340
0
 93
        0
 40
0.045
309
GRIDFORMAT_END
 95
        8
302
GRIDFORMAT
  1
GRIDFORMAT_BEGIN
 90
        0
 91
        1
 62
     0
 92
       -2
340
0
 93
        0
 40
0.045
309
GRIDFORMAT_END
 95
       16
302
GRIDFORMAT
  1
GRIDFORMAT_BEGIN
 90
        0
 91
        1
 62
     0
 92
       -2
340
0
 93
        0
 40
0.045
309
GRIDFORMAT_END
 95
       32
302
GRIDFORMAT
  1
GRIDFORMAT_BEGIN
 90
        0
 91
        1
 62
     0
 92
       -2
340
0
 93
        0
 40
0.045
309
GRIDFORMAT_END
309
TABLEFORMAT_END
  1
CELLSTYLE_BEGIN
 90
        1
 91
        1
300
_TITLE
309
CELLSTYLE_END
300
CELLSTYLE
  1
TABLEFORMAT_BEGIN
 90
        5
170
     1
 91
        0
 92
        0
 62
   257
 93
        1
300
CONTENTFORMAT
  1
CONTENTFORMAT_BEGIN
 90
        0
 91
        0
 92
        4
 93
        0
300

 40
0.0
140
1.0
 94
        5
 62
     0
340
11
144
4.5
309
CONTENTFORMAT_END
171
     1
301
MARGIN
  1
CELLMARGIN_BEGIN
 40
1.5
 40
1.5
 40
1.5
 40
1.5
 40
0.18
 40
0.18
309
CELLMARGIN_END
 94
        6
 95
        1
302
GRIDFORMAT
  1
GRIDFORMAT_BEGIN
 90
        0
 91
        1
 62
     0
 92
       -2
340
0
 93
        0
 40
0.045
309
GRIDFORMAT_END
 95
        2
302
GRIDFORMAT
  1
GRIDFORMAT_BEGIN
 90
        0
 91
        1
 62
     0
 92
       -2
340
0
 93
        0
 40
0.045
309
GRIDFORMAT_END
 95
        4
302
GRIDFORMAT
  1
GRIDFORMAT_BEGIN
 90
        0
 91
        1
 62
     0
 92
       -2
340
0
 93
        0
 40
0.045
309
GRIDFORMAT_END
 95
        8
302
GRIDFORMAT
  1
GRIDFORMAT_BEGIN
 90
        0
 91
        1
 62
     0
 92
       -2
340
0
 93
        0
 40
0.045
309
GRIDFORMAT_END
 95
       16
302
GRIDFORMAT
  1
GRIDFORMAT_BEGIN
 90
        0
 91
        1
 62
     0
 92
       -2
340
0
 93
        0
 40
0.045
309
GRIDFORMAT_END
 95
       32
302
GRIDFORMAT
  1
GRIDFORMAT_BEGIN
 90
        0
 91
        1
 62
     0
 92
       -2
340
0
 93
        0
 40
0.045
309
GRIDFORMAT_END
309
TABLEFORMAT_END
  1
CELLSTYLE_BEGIN
 90
        2
 91
        1
300
_HEADER
309
CELLSTYLE_END
300
CELLSTYLE
  1
TABLEFORMAT_BEGIN
 90
        5
170
     1
 91
        0
 92
        0
 62
   257
 93
        1
300
CONTENTFORMAT
  1
CONTENTFORMAT_BEGIN
 90
        0
 91
        0
 92
        4
 93
        0
300

 40
0.0
140
1.0
 94
        2
 62
     0
340
11
144
4.5
309
CONTENTFORMAT_END
171
     1
301
MARGIN
  1
CELLMARGIN_BEGIN
 40
1.5
 40
1.5
 40
1.5
 40
1.5
 40
0.18
 40
0.18
309
CELLMARGIN_END
 94
        6
 95
        1
302
GRIDFORMAT
  1
GRIDFORMAT_BEGIN
 90
        0
 91
        1
 62
     0
 92
       -2
340
0
 93
        0
 40
0.045
309
GRIDFORMAT_END
 95
        2
302
GRIDFORMAT
  1
GRIDFORMAT_BEGIN
 90
        0
 91
        1
 62
     0
 92
       -2
340
0
 93
        0
 40
0.045
309
GRIDFORMAT_END
 95
        4
302
GRIDFORMAT
  1
GRIDFORMAT_BEGIN
 90
        0
 91
        1
 62
     0
 92
       -2
340
0
 93
        0
 40
0.045
309
GRIDFORMAT_END
 95
        8
302
GRIDFORMAT
  1
GRIDFORMAT_BEGIN
 90
        0
 91
        1
 62
     0
 92
       -2
340
0
 93
        0
 40
0.045
309
GRIDFORMAT_END
 95
       16
302
GRIDFORMAT
  1
GRIDFORMAT_BEGIN
 90
        0
 91
        1
 62
     0
 92
       -2
340
0
 93
        0
 40
0.045
309
GRIDFORMAT_END
 95
       32
302
GRIDFORMAT
  1
GRIDFORMAT_BEGIN
 90
        0
 91
        1
 62
     0
 92
       -2
340
0
 93
        0
 40
0.045
309
GRIDFORMAT_END
309
TABLEFORMAT_END
  1
CELLSTYLE_BEGIN
 90
        3
 91
        2
300
_DATA
309
CELLSTYLE_END
  0
XRECORD
  5
6232
102
{ACAD_REACTORS
330
6228
102
}
330
6228
100
AcDbXrecord
280
     1
102
ACAD_ROUNDTRIP_PRE2007_TABLESTYLE
 90
        4
 91
        0
  1

 92
        4
 93
        0
  2

 94
        4
 95
        0
  3

  0
XRECORD
  5
6245
102
{ACAD_REACTORS
330
6244
102
}
330
6244
100
AcDbXrecord
280
     1
102
RTVSPropertyOp0
 70
     1
102
RTVSPropertyOp1
 70
     1
102
RTVSPropertyOp2
 70
     1
102
RTVSPropertyOp3
 70
     1
102
RTVSPropertyOp4
 70
     1
102
RTVSPropertyOp5
 70
     1
102
RTVSPropertyOp6
 70
     1
102
RTVSPropertyOp7
 70
     1
102
RTVSPropertyOp8
 70
     1
102
RTVSPropertyOp9
 70
     1
102
RTVSPropertyOp10
 70
     1
102
RTVSPropertyOp11
 70
     1
102
RTVSPropertyOp12
 70
     1
102
RTVSPropertyOp13
 70
     1
102
RTVSPropertyOp14
 70
     1
102
RTVSPropertyOp15
 70
     1
102
RTVSPropertyOp16
 70
     1
102
RTVSPropertyOp17
 70
     1
102
RTVSPropertyOp18
 70
     1
102
RTVSPropertyOp19
 70
     1
102
RTVSPropertyOp20
 70
     1
102
RTVSPropertyOp21
 70
     1
102
RTVSPropertyOp22
 70
     1
102
RTVSPropertyOp23
 70
     1
102
RTVSPropertyOp24
 70
     1
102
RTVSPropertyOp25
 70
     1
102
RTVSPropertyOp26
 70
     1
102
RTVSPropertyOp27
 70
     1
102
RTVSPropertyOp28
 70
     1
102
RTVSPropertyOp29
 70
     1
102
RTVSPropertyOp30
 70
     1
102
RTVSPropertyOp31
 70
     1
102
RTVSPropertyOp32
 70
     1
  0
XRECORD
  5
6243
102
{ACAD_REACTORS
330
6242
102
}
330
6242
100
AcDbXrecord
280
     1
102
RTVSPropertyOp0
 70
     1
102
RTVSPropertyOp1
 70
     1
102
RTVSPropertyOp2
 70
     1
102
RTVSPropertyOp3
 70
     1
102
RTVSPropertyOp4
 70
     1
102
RTVSPropertyOp5
 70
     1
102
RTVSPropertyOp6
 70
     1
102
RTVSPropertyOp7
 70
     1
102
RTVSPropertyOp8
 70
     1
102
RTVSPropertyOp9
 70
     1
102
RTVSPropertyOp10
 70
     1
102
RTVSPropertyOp11
 70
     1
102
RTVSPropertyOp12
 70
     1
102
RTVSPropertyOp13
 70
     1
102
RTVSPropertyOp14
 70
     1
102
RTVSPropertyOp15
 70
     1
102
RTVSPropertyOp16
 70
     1
102
RTVSPropertyOp17
 70
     1
102
RTVSPropertyOp18
 70
     1
102
RTVSPropertyOp19
 70
     1
102
RTVSPropertyOp20
 70
     1
102
RTVSPropertyOp21
 70
     1
102
RTVSPropertyOp22
 70
     1
102
RTVSPropertyOp23
 70
     1
102
RTVSPropertyOp24
 70
     1
102
RTVSPropertyOp25
 70
     1
102
RTVSPropertyOp26
 70
     1
102
RTVSPropertyOp27
 70
     1
102
RTVSPropertyOp28
 70
     1
102
RTVSPropertyOp29
 70
     1
102
RTVSPropertyOp30
 70
     1
102
RTVSPropertyOp31
 70
     1
102
RTVSPropertyOp32
 70
     1
  0
XRECORD
  5
6251
102
{ACAD_REACTORS
330
6250
102
}
330
6250
100
AcDbXrecord
280
     1
102
RTVSPropertyOp0
 70
     1
102
RTVSPropertyOp1
 70
     1
102
RTVSPropertyOp2
 70
     1
102
RTVSPropertyOp3
 70
     1
102
RTVSPropertyOp4
 70
     1
102
RTVSPropertyOp5
 70
     1
102
RTVSPropertyOp6
 70
     1
102
RTVSPropertyOp7
 70
     1
102
RTVSPropertyOp8
 70
     1
102
RTVSPropertyOp9
 70
     1
102
RTVSPropertyOp10
 70
     1
102
RTVSPropertyOp11
 70
     1
102
RTVSPropertyOp12
 70
     1
102
RTVSPropertyOp13
 70
     1
102
RTVSPropertyOp14
 70
     1
102
RTVSPropertyOp15
 70
     1
102
RTVSPropertyOp16
 70
     1
102
RTVSPropertyOp17
 70
     1
102
RTVSPropertyOp18
 70
     1
102
RTVSPropertyOp19
 70
     1
102
RTVSPropertyOp20
 70
     1
102
RTVSPropertyOp21
 70
     1
102
RTVSPropertyOp22
 70
     1
102
RTVSPropertyOp23
 70
     1
102
RTVSPropertyOp24
 70
     1
102
RTVSPropertyOp25
 70
     1
102
RTVSPropertyOp26
 70
     1
102
RTVSPropertyOp27
 70
     1
102
RTVSPropertyOp28
 70
     1
102
RTVSPropertyOp29
 70
     1
102
RTVSPropertyOp30
 70
     1
102
RTVSPropertyOp31
 70
     1
102
RTVSPropertyOp32
 70
     1
  0
XRECORD
  5
6259
102
{ACAD_REACTORS
330
6258
102
}
330
6258
100
AcDbXrecord
280
     1
102
RTVSPropertyOp0
 70
     1
102
RTVSPropertyOp1
 70
     1
102
RTVSPropertyOp2
 70
     1
102
RTVSPropertyOp3
 70
     1
102
RTVSPropertyOp4
 70
     1
102
RTVSPropertyOp5
 70
     1
102
RTVSPropertyOp6
 70
     1
102
RTVSPropertyOp7
 70
     1
102
RTVSPropertyOp8
 70
     1
102
RTVSPropertyOp9
 70
     1
102
RTVSPropertyOp10
 70
     1
102
RTVSPropertyOp11
 70
     1
102
RTVSPropertyOp12
 70
     1
102
RTVSPropertyOp13
 70
     1
102
RTVSPropertyOp14
 70
     1
102
RTVSPropertyOp15
 70
     1
102
RTVSPropertyOp16
 70
     1
102
RTVSPropertyOp17
 70
     1
102
RTVSPropertyOp18
 70
     1
102
RTVSPropertyOp19
 70
     1
102
RTVSPropertyOp20
 70
     1
102
RTVSPropertyOp21
 70
     1
102
RTVSPropertyOp22
 70
     1
102
RTVSPropertyOp23
 70
     1
102
RTVSPropertyOp24
 70
     1
102
RTVSPropertyOp25
 70
     1
102
RTVSPropertyOp26
 70
     1
102
RTVSPropertyOp27
 70
     1
102
RTVSPropertyOp28
 70
     1
102
RTVSPropertyOp29
 70
     1
102
RTVSPropertyOp30
 70
     1
102
RTVSPropertyOp31
 70
     1
102
RTVSPropertyOp32
 70
     1
  0
XRECORD
  5
624B
102
{ACAD_REACTORS
330
624A
102
}
330
624A
100
AcDbXrecord
280
     1
102
RTVSPropertyOp0
 70
     1
102
RTVSPropertyOp1
 70
     1
102
RTVSPropertyOp2
 70
     1
102
RTVSPropertyOp3
 70
     1
102
RTVSPropertyOp4
 70
     1
102
RTVSPropertyOp5
 70
     1
102
RTVSPropertyOp6
 70
     1
102
RTVSPropertyOp7
 70
     1
102
RTVSPropertyOp8
 70
     1
102
RTVSPropertyOp9
 70
     1
102
RTVSPropertyOp10
 70
     1
102
RTVSPropertyOp11
 70
     1
102
RTVSPropertyOp12
 70
     1
102
RTVSPropertyOp13
 70
     1
102
RTVSPropertyOp14
 70
     1
102
RTVSPropertyOp15
 70
     1
102
RTVSPropertyOp16
 70
     1
102
RTVSPropertyOp17
 70
     1
102
RTVSPropertyOp18
 70
     1
102
RTVSPropertyOp19
 70
     1
102
RTVSPropertyOp20
 70
     1
102
RTVSPropertyOp21
 70
     1
102
RTVSPropertyOp22
 70
     1
102
RTVSPropertyOp23
 70
     1
102
RTVSPropertyOp24
 70
     1
102
RTVSPropertyOp25
 70
     1
102
RTVSPropertyOp26
 70
     1
102
RTVSPropertyOp27
 70
     1
102
RTVSPropertyOp28
 70
     1
102
RTVSPropertyOp29
 70
     1
102
RTVSPropertyOp30
 70
     1
102
RTVSPropertyOp31
 70
     1
102
RTVSPropertyOp32
 70
     1
  0
XRECORD
  5
624F
102
{ACAD_REACTORS
330
624E
102
}
330
624E
100
AcDbXrecord
280
     1
102
RTVSPropertyOp0
 70
     1
102
RTVSPropertyOp1
 70
     1
102
RTVSPropertyOp2
 70
     1
102
RTVSPropertyOp3
 70
     1
102
RTVSPropertyOp4
 70
     1
102
RTVSPropertyOp5
 70
     1
102
RTVSPropertyOp6
 70
     1
102
RTVSPropertyOp7
 70
     1
102
RTVSPropertyOp8
 70
     1
102
RTVSPropertyOp9
 70
     1
102
RTVSPropertyOp10
 70
     1
102
RTVSPropertyOp11
 70
     1
102
RTVSPropertyOp12
 70
     1
102
RTVSPropertyOp13
 70
     1
102
RTVSPropertyOp14
 70
     1
102
RTVSPropertyOp15
 70
     1
102
RTVSPropertyOp16
 70
     1
102
RTVSPropertyOp17
 70
     1
102
RTVSPropertyOp18
 70
     1
102
RTVSPropertyOp19
 70
     1
102
RTVSPropertyOp20
 70
     1
102
RTVSPropertyOp21
 70
     1
102
RTVSPropertyOp22
 70
     1
102
RTVSPropertyOp23
 70
     1
102
RTVSPropertyOp24
 70
     1
102
RTVSPropertyOp25
 70
     1
102
RTVSPropertyOp26
 70
     1
102
RTVSPropertyOp27
 70
     1
102
RTVSPropertyOp28
 70
     1
102
RTVSPropertyOp29
 70
     1
102
RTVSPropertyOp30
 70
     1
102
RTVSPropertyOp31
 70
     1
102
RTVSPropertyOp32
 70
     1
  0
XRECORD
  5
6269
102
{ACAD_REACTORS
330
6268
102
}
330
6268
100
AcDbXrecord
280
     1
102
RTVSPropertyOp0
 70
     0
102
RTVSPropertyOp1
 70
     0
102
RTVSPropertyOp2
 70
     0
102
RTVSPropertyOp3
 70
     0
102
RTVSPropertyOp4
 70
     0
102
RTVSPropertyOp5
 70
     0
102
RTVSPropertyOp6
 70
     0
102
RTVSPropertyOp7
 70
     0
102
RTVSPropertyOp8
 70
     0
102
RTVSPropertyOp9
 70
     0
102
RTVSPropertyOp10
 70
     0
102
RTVSPropertyOp11
 70
     0
102
RTVSPropertyOp12
 70
     0
102
RTVSPropertyOp13
 70
     0
102
RTVSPropertyOp14
 70
     2
102
RTVSPropertyOp15
 70
     0
102
RTVSPropertyOp16
 70
     0
102
RTVSPropertyOp17
 70
     0
102
RTVSPropertyOp18
 70
     0
102
RTVSPropertyOp19
 70
     0
102
RTVSPropertyOp20
 70
     0
102
RTVSPropertyOp21
 70
     0
102
RTVSPropertyOp22
 70
     0
102
RTVSPropertyOp23
 70
     0
102
RTVSPropertyOp24
 70
     0
102
RTVSPropertyOp25
 70
     0
102
RTVSPropertyOp26
 70
     0
102
RTVSPropertyOp27
 70
     0
102
RTVSPropertyOp28
 70
     1
102
RTVSPropertyOp29
 70
     1
102
RTVSPropertyOp30
 70
     1
102
RTVSPropertyOp31
 70
     1
102
RTVSPropertyOp32
 70
     1
  0
XRECORD
  5
6257
102
{ACAD_REACTORS
330
6256
102
}
330
6256
100
AcDbXrecord
280
     1
102
RTVSPropertyOp0
 70
     1
102
RTVSPropertyOp1
 70
     1
102
RTVSPropertyOp2
 70
     1
102
RTVSPropertyOp3
 70
     1
102
RTVSPropertyOp4
 70
     1
102
RTVSPropertyOp5
 70
     1
102
RTVSPropertyOp6
 70
     1
102
RTVSPropertyOp7
 70
     1
102
RTVSPropertyOp8
 70
     1
102
RTVSPropertyOp9
 70
     1
102
RTVSPropertyOp10
 70
     1
102
RTVSPropertyOp11
 70
     1
102
RTVSPropertyOp12
 70
     1
102
RTVSPropertyOp13
 70
     1
102
RTVSPropertyOp14
 70
     1
102
RTVSPropertyOp15
 70
     1
102
RTVSPropertyOp16
 70
     1
102
RTVSPropertyOp17
 70
     1
102
RTVSPropertyOp18
 70
     1
102
RTVSPropertyOp19
 70
     1
102
RTVSPropertyOp20
 70
     1
102
RTVSPropertyOp21
 70
     1
102
RTVSPropertyOp22
 70
     1
102
RTVSPropertyOp23
 70
     1
102
RTVSPropertyOp24
 70
     1
102
RTVSPropertyOp25
 70
     1
102
RTVSPropertyOp26
 70
     1
102
RTVSPropertyOp27
 70
     1
102
RTVSPropertyOp28
 70
     1
102
RTVSPropertyOp29
 70
     1
102
RTVSPropertyOp30
 70
     1
102
RTVSPropertyOp31
 70
     1
102
RTVSPropertyOp32
 70
     1
  0
XRECORD
  5
623B
102
{ACAD_REACTORS
330
623A
102
}
330
623A
100
AcDbXrecord
280
     1
102
RTVSPropertyOp0
 70
     1
102
RTVSPropertyOp1
 70
     1
102
RTVSPropertyOp2
 70
     1
102
RTVSPropertyOp3
 70
     1
102
RTVSPropertyOp4
 70
     1
102
RTVSPropertyOp5
 70
     1
102
RTVSPropertyOp6
 70
     1
102
RTVSPropertyOp7
 70
     1
102
RTVSPropertyOp8
 70
     1
102
RTVSPropertyOp9
 70
     1
102
RTVSPropertyOp10
 70
     1
102
RTVSPropertyOp11
 70
     1
102
RTVSPropertyOp12
 70
     1
102
RTVSPropertyOp13
 70
     1
102
RTVSPropertyOp14
 70
     1
102
RTVSPropertyOp15
 70
     1
102
RTVSPropertyOp16
 70
     1
102
RTVSPropertyOp17
 70
     1
102
RTVSPropertyOp18
 70
     1
102
RTVSPropertyOp19
 70
     1
102
RTVSPropertyOp20
 70
     1
102
RTVSPropertyOp21
 70
     1
102
RTVSPropertyOp22
 70
     1
102
RTVSPropertyOp23
 70
     1
102
RTVSPropertyOp24
 70
     1
102
RTVSPropertyOp25
 70
     1
102
RTVSPropertyOp26
 70
     1
102
RTVSPropertyOp27
 70
     1
102
RTVSPropertyOp28
 70
     1
102
RTVSPropertyOp29
 70
     1
102
RTVSPropertyOp30
 70
     1
102
RTVSPropertyOp31
 70
     1
102
RTVSPropertyOp32
 70
     1
  0
XRECORD
  5
623D
102
{ACAD_REACTORS
330
623C
102
}
330
623C
100
AcDbXrecord
280
     1
102
RTVSPropertyOp0
 70
     1
102
RTVSPropertyOp1
 70
     1
102
RTVSPropertyOp2
 70
     1
102
RTVSPropertyOp3
 70
     1
102
RTVSPropertyOp4
 70
     1
102
RTVSPropertyOp5
 70
     1
102
RTVSPropertyOp6
 70
     1
102
RTVSPropertyOp7
 70
     1
102
RTVSPropertyOp8
 70
     1
102
RTVSPropertyOp9
 70
     1
102
RTVSPropertyOp10
 70
     1
102
RTVSPropertyOp11
 70
     1
102
RTVSPropertyOp12
 70
     1
102
RTVSPropertyOp13
 70
     1
102
RTVSPropertyOp14
 70
     1
102
RTVSPropertyOp15
 70
     1
102
RTVSPropertyOp16
 70
     1
102
RTVSPropertyOp17
 70
     1
102
RTVSPropertyOp18
 70
     1
102
RTVSPropertyOp19
 70
     1
102
RTVSPropertyOp20
 70
     1
102
RTVSPropertyOp21
 70
     1
102
RTVSPropertyOp22
 70
     1
102
RTVSPropertyOp23
 70
     1
102
RTVSPropertyOp24
 70
     1
102
RTVSPropertyOp25
 70
     1
102
RTVSPropertyOp26
 70
     1
102
RTVSPropertyOp27
 70
     1
102
RTVSPropertyOp28
 70
     1
102
RTVSPropertyOp29
 70
     1
102
RTVSPropertyOp30
 70
     1
102
RTVSPropertyOp31
 70
     1
102
RTVSPropertyOp32
 70
     1
  0
XRECORD
  5
623F
102
{ACAD_REACTORS
330
623E
102
}
330
623E
100
AcDbXrecord
280
     1
102
RTVSPropertyOp0
 70
     1
102
RTVSPropertyOp1
 70
     1
102
RTVSPropertyOp2
 70
     1
102
RTVSPropertyOp3
 70
     1
102
RTVSPropertyOp4
 70
     1
102
RTVSPropertyOp5
 70
     1
102
RTVSPropertyOp6
 70
     1
102
RTVSPropertyOp7
 70
     1
102
RTVSPropertyOp8
 70
     1
102
RTVSPropertyOp9
 70
     1
102
RTVSPropertyOp10
 70
     1
102
RTVSPropertyOp11
 70
     1
102
RTVSPropertyOp12
 70
     1
102
RTVSPropertyOp13
 70
     1
102
RTVSPropertyOp14
 70
     1
102
RTVSPropertyOp15
 70
     1
102
RTVSPropertyOp16
 70
     1
102
RTVSPropertyOp17
 70
     1
102
RTVSPropertyOp18
 70
     1
102
RTVSPropertyOp19
 70
     1
102
RTVSPropertyOp20
 70
     1
102
RTVSPropertyOp21
 70
     1
102
RTVSPropertyOp22
 70
     1
102
RTVSPropertyOp23
 70
     1
102
RTVSPropertyOp24
 70
     1
102
RTVSPropertyOp25
 70
     1
102
RTVSPropertyOp26
 70
     1
102
RTVSPropertyOp27
 70
     1
102
RTVSPropertyOp28
 70
     1
102
RTVSPropertyOp29
 70
     1
102
RTVSPropertyOp30
 70
     1
102
RTVSPropertyOp31
 70
     1
102
RTVSPropertyOp32
 70
     1
  0
XRECORD
  5
6241
102
{ACAD_REACTORS
330
6240
102
}
330
6240
100
AcDbXrecord
280
     1
102
RTVSPropertyOp0
 70
     1
102
RTVSPropertyOp1
 70
     1
102
RTVSPropertyOp2
 70
     1
102
RTVSPropertyOp3
 70
     1
102
RTVSPropertyOp4
 70
     1
102
RTVSPropertyOp5
 70
     1
102
RTVSPropertyOp6
 70
     1
102
RTVSPropertyOp7
 70
     1
102
RTVSPropertyOp8
 70
     1
102
RTVSPropertyOp9
 70
     1
102
RTVSPropertyOp10
 70
     1
102
RTVSPropertyOp11
 70
     1
102
RTVSPropertyOp12
 70
     1
102
RTVSPropertyOp13
 70
     1
102
RTVSPropertyOp14
 70
     1
102
RTVSPropertyOp15
 70
     1
102
RTVSPropertyOp16
 70
     1
102
RTVSPropertyOp17
 70
     1
102
RTVSPropertyOp18
 70
     1
102
RTVSPropertyOp19
 70
     1
102
RTVSPropertyOp20
 70
     1
102
RTVSPropertyOp21
 70
     1
102
RTVSPropertyOp22
 70
     1
102
RTVSPropertyOp23
 70
     1
102
RTVSPropertyOp24
 70
     1
102
RTVSPropertyOp25
 70
     1
102
RTVSPropertyOp26
 70
     1
102
RTVSPropertyOp27
 70
     1
102
RTVSPropertyOp28
 70
     1
102
RTVSPropertyOp29
 70
     1
102
RTVSPropertyOp30
 70
     1
102
RTVSPropertyOp31
 70
     1
102
RTVSPropertyOp32
 70
     1
  0
XRECORD
  5
6249
102
{ACAD_REACTORS
330
6248
102
}
330
6248
100
AcDbXrecord
280
     1
102
RTVSPropertyOp0
 70
     1
102
RTVSPropertyOp1
 70
     1
102
RTVSPropertyOp2
 70
     1
102
RTVSPropertyOp3
 70
     1
102
RTVSPropertyOp4
 70
     1
102
RTVSPropertyOp5
 70
     1
102
RTVSPropertyOp6
 70
     1
102
RTVSPropertyOp7
 70
     1
102
RTVSPropertyOp8
 70
     1
102
RTVSPropertyOp9
 70
     1
102
RTVSPropertyOp10
 70
     1
102
RTVSPropertyOp11
 70
     1
102
RTVSPropertyOp12
 70
     1
102
RTVSPropertyOp13
 70
     1
102
RTVSPropertyOp14
 70
     1
102
RTVSPropertyOp15
 70
     1
102
RTVSPropertyOp16
 70
     1
102
RTVSPropertyOp17
 70
     1
102
RTVSPropertyOp18
 70
     1
102
RTVSPropertyOp19
 70
     1
102
RTVSPropertyOp20
 70
     1
102
RTVSPropertyOp21
 70
     1
102
RTVSPropertyOp22
 70
     1
102
RTVSPropertyOp23
 70
     1
102
RTVSPropertyOp24
 70
     1
102
RTVSPropertyOp25
 70
     1
102
RTVSPropertyOp26
 70
     1
102
RTVSPropertyOp27
 70
     1
102
RTVSPropertyOp28
 70
     1
102
RTVSPropertyOp29
 70
     1
102
RTVSPropertyOp30
 70
     1
102
RTVSPropertyOp31
 70
     1
102
RTVSPropertyOp32
 70
     1
  0
XRECORD
  5
6265
102
{ACAD_REACTORS
330
6264
102
}
330
6264
100
AcDbXrecord
280
     1
102
RTVSPropertyOp0
 70
     0
102
RTVSPropertyOp1
 70
     0
102
RTVSPropertyOp2
 70
     0
102
RTVSPropertyOp3
 70
     0
102
RTVSPropertyOp4
 70
     0
102
RTVSPropertyOp5
 70
     0
102
RTVSPropertyOp6
 70
     0
102
RTVSPropertyOp7
 70
     0
102
RTVSPropertyOp8
 70
     0
102
RTVSPropertyOp9
 70
     0
102
RTVSPropertyOp10
 70
     0
102
RTVSPropertyOp11
 70
     0
102
RTVSPropertyOp12
 70
     0
102
RTVSPropertyOp13
 70
     0
102
RTVSPropertyOp14
 70
     2
102
RTVSPropertyOp15
 70
     0
102
RTVSPropertyOp16
 70
     0
102
RTVSPropertyOp17
 70
     0
102
RTVSPropertyOp18
 70
     0
102
RTVSPropertyOp19
 70
     0
102
RTVSPropertyOp20
 70
     0
102
RTVSPropertyOp21
 70
     0
102
RTVSPropertyOp22
 70
     0
102
RTVSPropertyOp23
 70
     0
102
RTVSPropertyOp24
 70
     0
102
RTVSPropertyOp25
 70
     0
102
RTVSPropertyOp26
 70
     0
102
RTVSPropertyOp27
 70
     0
102
RTVSPropertyOp28
 70
     1
102
RTVSPropertyOp29
 70
     1
102
RTVSPropertyOp30
 70
     1
102
RTVSPropertyOp31
 70
     1
102
RTVSPropertyOp32
 70
     1
  0
XRECORD
  5
6255
102
{ACAD_REACTORS
330
6254
102
}
330
6254
100
AcDbXrecord
280
     1
102
RTVSPropertyOp0
 70
     1
102
RTVSPropertyOp1
 70
     1
102
RTVSPropertyOp2
 70
     1
102
RTVSPropertyOp3
 70
     1
102
RTVSPropertyOp4
 70
     1
102
RTVSPropertyOp5
 70
     1
102
RTVSPropertyOp6
 70
     1
102
RTVSPropertyOp7
 70
     1
102
RTVSPropertyOp8
 70
     1
102
RTVSPropertyOp9
 70
     1
102
RTVSPropertyOp10
 70
     1
102
RTVSPropertyOp11
 70
     1
102
RTVSPropertyOp12
 70
     1
102
RTVSPropertyOp13
 70
     1
102
RTVSPropertyOp14
 70
     1
102
RTVSPropertyOp15
 70
     1
102
RTVSPropertyOp16
 70
     1
102
RTVSPropertyOp17
 70
     1
102
RTVSPropertyOp18
 70
     1
102
RTVSPropertyOp19
 70
     1
102
RTVSPropertyOp20
 70
     1
102
RTVSPropertyOp21
 70
     1
102
RTVSPropertyOp22
 70
     1
102
RTVSPropertyOp23
 70
     1
102
RTVSPropertyOp24
 70
     1
102
RTVSPropertyOp25
 70
     1
102
RTVSPropertyOp26
 70
     1
102
RTVSPropertyOp27
 70
     1
102
RTVSPropertyOp28
 70
     1
102
RTVSPropertyOp29
 70
     1
102
RTVSPropertyOp30
 70
     1
102
RTVSPropertyOp31
 70
     1
102
RTVSPropertyOp32
 70
     1
  0
XRECORD
  5
6267
102
{ACAD_REACTORS
330
6266
102
}
330
6266
100
AcDbXrecord
280
     1
102
RTVSPropertyOp0
 70
     0
102
RTVSPropertyOp1
 70
     0
102
RTVSPropertyOp2
 70
     0
102
RTVSPropertyOp3
 70
     0
102
RTVSPropertyOp4
 70
     0
102
RTVSPropertyOp5
 70
     0
102
RTVSPropertyOp6
 70
     0
102
RTVSPropertyOp7
 70
     0
102
RTVSPropertyOp8
 70
     0
102
RTVSPropertyOp9
 70
     0
102
RTVSPropertyOp10
 70
     0
102
RTVSPropertyOp11
 70
     0
102
RTVSPropertyOp12
 70
     0
102
RTVSPropertyOp13
 70
     0
102
RTVSPropertyOp14
 70
     2
102
RTVSPropertyOp15
 70
     0
102
RTVSPropertyOp16
 70
     0
102
RTVSPropertyOp17
 70
     0
102
RTVSPropertyOp18
 70
     0
102
RTVSPropertyOp19
 70
     0
102
RTVSPropertyOp20
 70
     0
102
RTVSPropertyOp21
 70
     0
102
RTVSPropertyOp22
 70
     0
102
RTVSPropertyOp23
 70
     0
102
RTVSPropertyOp24
 70
     0
102
RTVSPropertyOp25
 70
     0
102
RTVSPropertyOp26
 70
     0
102
RTVSPropertyOp27
 70
     0
102
RTVSPropertyOp28
 70
     1
102
RTVSPropertyOp29
 70
     1
102
RTVSPropertyOp30
 70
     1
102
RTVSPropertyOp31
 70
     1
102
RTVSPropertyOp32
 70
     1
  0
XRECORD
  5
624D
102
{ACAD_REACTORS
330
624C
102
}
330
624C
100
AcDbXrecord
280
     1
102
RTVSPropertyOp0
 70
     1
102
RTVSPropertyOp1
 70
     1
102
RTVSPropertyOp2
 70
     1
102
RTVSPropertyOp3
 70
     1
102
RTVSPropertyOp4
 70
     1
102
RTVSPropertyOp5
 70
     1
102
RTVSPropertyOp6
 70
     1
102
RTVSPropertyOp7
 70
     1
102
RTVSPropertyOp8
 70
     1
102
RTVSPropertyOp9
 70
     1
102
RTVSPropertyOp10
 70
     1
102
RTVSPropertyOp11
 70
     1
102
RTVSPropertyOp12
 70
     1
102
RTVSPropertyOp13
 70
     1
102
RTVSPropertyOp14
 70
     1
102
RTVSPropertyOp15
 70
     1
102
RTVSPropertyOp16
 70
     1
102
RTVSPropertyOp17
 70
     1
102
RTVSPropertyOp18
 70
     1
102
RTVSPropertyOp19
 70
     1
102
RTVSPropertyOp20
 70
     1
102
RTVSPropertyOp21
 70
     1
102
RTVSPropertyOp22
 70
     1
102
RTVSPropertyOp23
 70
     1
102
RTVSPropertyOp24
 70
     1
102
RTVSPropertyOp25
 70
     1
102
RTVSPropertyOp26
 70
     1
102
RTVSPropertyOp27
 70
     1
102
RTVSPropertyOp28
 70
     1
102
RTVSPropertyOp29
 70
     1
102
RTVSPropertyOp30
 70
     1
102
RTVSPropertyOp31
 70
     1
102
RTVSPropertyOp32
 70
     1
  0
XRECORD
  5
6263
102
{ACAD_REACTORS
330
6262
102
}
330
6262
100
AcDbXrecord
280
     1
102
RTVSPropertyOp0
 70
     1
102
RTVSPropertyOp1
 70
     1
102
RTVSPropertyOp2
 70
     1
102
RTVSPropertyOp3
 70
     1
102
RTVSPropertyOp4
 70
     1
102
RTVSPropertyOp5
 70
     1
102
RTVSPropertyOp6
 70
     1
102
RTVSPropertyOp7
 70
     1
102
RTVSPropertyOp8
 70
     1
102
RTVSPropertyOp9
 70
     1
102
RTVSPropertyOp10
 70
     1
102
RTVSPropertyOp11
 70
     1
102
RTVSPropertyOp12
 70
     1
102
RTVSPropertyOp13
 70
     1
102
RTVSPropertyOp14
 70
     1
102
RTVSPropertyOp15
 70
     1
102
RTVSPropertyOp16
 70
     1
102
RTVSPropertyOp17
 70
     1
102
RTVSPropertyOp18
 70
     1
102
RTVSPropertyOp19
 70
     1
102
RTVSPropertyOp20
 70
     1
102
RTVSPropertyOp21
 70
     1
102
RTVSPropertyOp22
 70
     1
102
RTVSPropertyOp23
 70
     1
102
RTVSPropertyOp24
 70
     1
102
RTVSPropertyOp25
 70
     1
102
RTVSPropertyOp26
 70
     1
102
RTVSPropertyOp27
 70
     1
102
RTVSPropertyOp28
 70
     1
102
RTVSPropertyOp29
 70
     1
102
RTVSPropertyOp30
 70
     1
102
RTVSPropertyOp31
 70
     1
102
RTVSPropertyOp32
 70
     1
  0
XRECORD
  5
6261
102
{ACAD_REACTORS
330
6260
102
}
330
6260
100
AcDbXrecord
280
     1
102
RTVSPropertyOp0
 70
     1
102
RTVSPropertyOp1
 70
     1
102
RTVSPropertyOp2
 70
     1
102
RTVSPropertyOp3
 70
     1
102
RTVSPropertyOp4
 70
     1
102
RTVSPropertyOp5
 70
     1
102
RTVSPropertyOp6
 70
     1
102
RTVSPropertyOp7
 70
     1
102
RTVSPropertyOp8
 70
     1
102
RTVSPropertyOp9
 70
     1
102
RTVSPropertyOp10
 70
     1
102
RTVSPropertyOp11
 70
     1
102
RTVSPropertyOp12
 70
     1
102
RTVSPropertyOp13
 70
     1
102
RTVSPropertyOp14
 70
     1
102
RTVSPropertyOp15
 70
     1
102
RTVSPropertyOp16
 70
     1
102
RTVSPropertyOp17
 70
     1
102
RTVSPropertyOp18
 70
     1
102
RTVSPropertyOp19
 70
     1
102
RTVSPropertyOp20
 70
     1
102
RTVSPropertyOp21
 70
     1
102
RTVSPropertyOp22
 70
     1
102
RTVSPropertyOp23
 70
     1
102
RTVSPropertyOp24
 70
     1
102
RTVSPropertyOp25
 70
     1
102
RTVSPropertyOp26
 70
     1
102
RTVSPropertyOp27
 70
     1
102
RTVSPropertyOp28
 70
     1
102
RTVSPropertyOp29
 70
     1
102
RTVSPropertyOp30
 70
     1
102
RTVSPropertyOp31
 70
     1
102
RTVSPropertyOp32
 70
     1
  0
XRECORD
  5
625B
102
{ACAD_REACTORS
330
625A
102
}
330
625A
100
AcDbXrecord
280
     1
102
RTVSPropertyOp0
 70
     1
102
RTVSPropertyOp1
 70
     1
102
RTVSPropertyOp2
 70
     1
102
RTVSPropertyOp3
 70
     1
102
RTVSPropertyOp4
 70
     1
102
RTVSPropertyOp5
 70
     1
102
RTVSPropertyOp6
 70
     1
102
RTVSPropertyOp7
 70
     1
102
RTVSPropertyOp8
 70
     1
102
RTVSPropertyOp9
 70
     1
102
RTVSPropertyOp10
 70
     1
102
RTVSPropertyOp11
 70
     1
102
RTVSPropertyOp12
 70
     1
102
RTVSPropertyOp13
 70
     1
102
RTVSPropertyOp14
 70
     1
102
RTVSPropertyOp15
 70
     1
102
RTVSPropertyOp16
 70
     1
102
RTVSPropertyOp17
 70
     1
102
RTVSPropertyOp18
 70
     1
102
RTVSPropertyOp19
 70
     1
102
RTVSPropertyOp20
 70
     1
102
RTVSPropertyOp21
 70
     1
102
RTVSPropertyOp22
 70
     1
102
RTVSPropertyOp23
 70
     1
102
RTVSPropertyOp24
 70
     1
102
RTVSPropertyOp25
 70
     1
102
RTVSPropertyOp26
 70
     1
102
RTVSPropertyOp27
 70
     1
102
RTVSPropertyOp28
 70
     1
102
RTVSPropertyOp29
 70
     1
102
RTVSPropertyOp30
 70
     1
102
RTVSPropertyOp31
 70
     1
102
RTVSPropertyOp32
 70
     1
  0
XRECORD
  5
625D
102
{ACAD_REACTORS
330
625C
102
}
330
625C
100
AcDbXrecord
280
     1
102
RTVSPropertyOp0
 70
     1
102
RTVSPropertyOp1
 70
     1
102
RTVSPropertyOp2
 70
     1
102
RTVSPropertyOp3
 70
     1
102
RTVSPropertyOp4
 70
     1
102
RTVSPropertyOp5
 70
     1
102
RTVSPropertyOp6
 70
     1
102
RTVSPropertyOp7
 70
     1
102
RTVSPropertyOp8
 70
     1
102
RTVSPropertyOp9
 70
     1
102
RTVSPropertyOp10
 70
     1
102
RTVSPropertyOp11
 70
     1
102
RTVSPropertyOp12
 70
     1
102
RTVSPropertyOp13
 70
     1
102
RTVSPropertyOp14
 70
     1
102
RTVSPropertyOp15
 70
     1
102
RTVSPropertyOp16
 70
     1
102
RTVSPropertyOp17
 70
     1
102
RTVSPropertyOp18
 70
     1
102
RTVSPropertyOp19
 70
     1
102
RTVSPropertyOp20
 70
     1
102
RTVSPropertyOp21
 70
     1
102
RTVSPropertyOp22
 70
     1
102
RTVSPropertyOp23
 70
     1
102
RTVSPropertyOp24
 70
     1
102
RTVSPropertyOp25
 70
     1
102
RTVSPropertyOp26
 70
     1
102
RTVSPropertyOp27
 70
     1
102
RTVSPropertyOp28
 70
     1
102
RTVSPropertyOp29
 70
     1
102
RTVSPropertyOp30
 70
     1
102
RTVSPropertyOp31
 70
     1
102
RTVSPropertyOp32
 70
     1
  0
XRECORD
  5
6253
102
{ACAD_REACTORS
330
6252
102
}
330
6252
100
AcDbXrecord
280
     1
102
RTVSPropertyOp0
 70
     1
102
RTVSPropertyOp1
 70
     1
102
RTVSPropertyOp2
 70
     1
102
RTVSPropertyOp3
 70
     1
102
RTVSPropertyOp4
 70
     1
102
RTVSPropertyOp5
 70
     1
102
RTVSPropertyOp6
 70
     1
102
RTVSPropertyOp7
 70
     1
102
RTVSPropertyOp8
 70
     1
102
RTVSPropertyOp9
 70
     1
102
RTVSPropertyOp10
 70
     1
102
RTVSPropertyOp11
 70
     1
102
RTVSPropertyOp12
 70
     1
102
RTVSPropertyOp13
 70
     1
102
RTVSPropertyOp14
 70
     1
102
RTVSPropertyOp15
 70
     1
102
RTVSPropertyOp16
 70
     1
102
RTVSPropertyOp17
 70
     1
102
RTVSPropertyOp18
 70
     1
102
RTVSPropertyOp19
 70
     1
102
RTVSPropertyOp20
 70
     1
102
RTVSPropertyOp21
 70
     1
102
RTVSPropertyOp22
 70
     1
102
RTVSPropertyOp23
 70
     1
102
RTVSPropertyOp24
 70
     1
102
RTVSPropertyOp25
 70
     1
102
RTVSPropertyOp26
 70
     1
102
RTVSPropertyOp27
 70
     1
102
RTVSPropertyOp28
 70
     1
102
RTVSPropertyOp29
 70
     1
102
RTVSPropertyOp30
 70
     1
102
RTVSPropertyOp31
 70
     1
102
RTVSPropertyOp32
 70
     1
  0
XRECORD
  5
6247
102
{ACAD_REACTORS
330
6246
102
}
330
6246
100
AcDbXrecord
280
     1
102
RTVSPropertyOp0
 70
     1
102
RTVSPropertyOp1
 70
     1
102
RTVSPropertyOp2
 70
     1
102
RTVSPropertyOp3
 70
     1
102
RTVSPropertyOp4
 70
     1
102
RTVSPropertyOp5
 70
     1
102
RTVSPropertyOp6
 70
     1
102
RTVSPropertyOp7
 70
     1
102
RTVSPropertyOp8
 70
     1
102
RTVSPropertyOp9
 70
     1
102
RTVSPropertyOp10
 70
     1
102
RTVSPropertyOp11
 70
     1
102
RTVSPropertyOp12
 70
     1
102
RTVSPropertyOp13
 70
     1
102
RTVSPropertyOp14
 70
     1
102
RTVSPropertyOp15
 70
     1
102
RTVSPropertyOp16
 70
     1
102
RTVSPropertyOp17
 70
     1
102
RTVSPropertyOp18
 70
     1
102
RTVSPropertyOp19
 70
     1
102
RTVSPropertyOp20
 70
     1
102
RTVSPropertyOp21
 70
     1
102
RTVSPropertyOp22
 70
     1
102
RTVSPropertyOp23
 70
     1
102
RTVSPropertyOp24
 70
     1
102
RTVSPropertyOp25
 70
     1
102
RTVSPropertyOp26
 70
     1
102
RTVSPropertyOp27
 70
     1
102
RTVSPropertyOp28
 70
     1
102
RTVSPropertyOp29
 70
     1
102
RTVSPropertyOp30
 70
     1
102
RTVSPropertyOp31
 70
     1
102
RTVSPropertyOp32
 70
     1
  0
XRECORD
  5
625F
102
{ACAD_REACTORS
330
625E
102
}
330
625E
100
AcDbXrecord
280
     1
102
RTVSPropertyOp0
 70
     1
102
RTVSPropertyOp1
 70
     1
102
RTVSPropertyOp2
 70
     1
102
RTVSPropertyOp3
 70
     1
102
RTVSPropertyOp4
 70
     1
102
RTVSPropertyOp5
 70
     1
102
RTVSPropertyOp6
 70
     1
102
RTVSPropertyOp7
 70
     1
102
RTVSPropertyOp8
 70
     1
102
RTVSPropertyOp9
 70
     1
102
RTVSPropertyOp10
 70
     1
102
RTVSPropertyOp11
 70
     1
102
RTVSPropertyOp12
 70
     1
102
RTVSPropertyOp13
 70
     1
102
RTVSPropertyOp14
 70
     1
102
RTVSPropertyOp15
 70
     1
102
RTVSPropertyOp16
 70
     1
102
RTVSPropertyOp17
 70
     1
102
RTVSPropertyOp18
 70
     1
102
RTVSPropertyOp19
 70
     1
102
RTVSPropertyOp20
 70
     1
102
RTVSPropertyOp21
 70
     1
102
RTVSPropertyOp22
 70
     1
102
RTVSPropertyOp23
 70
     1
102
RTVSPropertyOp24
 70
     1
102
RTVSPropertyOp25
 70
     1
102
RTVSPropertyOp26
 70
     1
102
RTVSPropertyOp27
 70
     1
102
RTVSPropertyOp28
 70
     1
102
RTVSPropertyOp29
 70
     1
102
RTVSPropertyOp30
 70
     1
102
RTVSPropertyOp31
 70
     1
102
RTVSPropertyOp32
 70
     1
  0
ENDSEC
  0
EOF
