  0
SECTION
  2
HEADER
  9
$ACADVER
  1
AC1015
  9
$ACADMAINTVER
 70
    20
  9
$DWGCODEPAGE
  3
ANSI_932
  9
$INSBASE
 10
0.0
 20
0.0
 30
0.0
  9
$EXTMIN
 10
82.60787856108981
 20
88.77324353683434
 30
-0.0000000000000058
  9
$EXTMAX
 10
4282.99237657324
 20
3059.045138559715
 30
0.0000000000000104
  9
$LIMMIN
 10
82.80008844952817
 20
88.90916338651733
  9
$LIMMAX
 10
502.8000884495281
 20
385.9091633865173
  9
$ORTHOMODE
 70
     0
  9
$REGENMODE
 70
     1
  9
$FILLMODE
 70
     1
  9
$QTEXTMODE
 70
     0
  9
$MIRRTEXT
 70
     0
  9
$LTSCALE
 40
1.0
  9
$ATTMODE
 70
     1
  9
$TEXTSIZE
 40
2.5
  9
$TRACEWID
 40
1.0
  9
$TEXTSTYLE
  7
Standard
  9
$CLAYER
  8
0
  9
$CELTYPE
  6
ByLayer
  9
$CECOLOR
 62
   256
  9
$CELTSCALE
 40
1.0
  9
$DISPSILH
 70
     0
  9
$DIMSCALE
 40
1.0
  9
$DIMASZ
 40
2.5
  9
$DIMEXO
 40
0.625
  9
$DIMDLI
 40
3.75
  9
$DIMRND
 40
0.0
  9
$DIMDLE
 40
0.0
  9
$DIMEXE
 40
1.25
  9
$DIMTP
 40
0.0
  9
$DIMTM
 40
0.0
  9
$DIMTXT
 40
2.5
  9
$DIMCEN
 40
2.5
  9
$DIMTSZ
 40
0.0
  9
$DIMTOL
 70
     0
  9
$DIMLIM
 70
     0
  9
$DIMTIH
 70
     0
  9
$DIMTOH
 70
     0
  9
$DIMSE1
 70
     0
  9
$DIMSE2
 70
     0
  9
$DIMTAD
 70
     2
  9
$DIMZIN
 70
     8
  9
$DIMBLK
  1

  9
$DIMASO
 70
     1
  9
$DIMSHO
 70
     1
  9
$DIMPOST
  1

  9
$DIMAPOST
  1

  9
$DIMALT
 70
     0
  9
$DIMALTD
 70
     3
  9
$DIMALTF
 40
0.03937007874016
  9
$DIMLFAC
 40
1.0
  9
$DIMTOFL
 70
     1
  9
$DIMTVP
 40
0.0
  9
$DIMTIX
 70
     0
  9
$DIMSOXD
 70
     0
  9
$DIMSAH
 70
     0
  9
$DIMBLK1
  1

  9
$DIMBLK2
  1

  9
$DIMSTYLE
  2
ISO-25
  9
$DIMCLRD
 70
     0
  9
$DIMCLRE
 70
     0
  9
$DIMCLRT
 70
     0
  9
$DIMTFAC
 40
1.0
  9
$DIMGAP
 40
0.625
  9
$DIMJUST
 70
     0
  9
$DIMSD1
 70
     0
  9
$DIMSD2
 70
     0
  9
$DIMTOLJ
 70
     0
  9
$DIMTZIN
 70
     8
  9
$DIMALTZ
 70
     0
  9
$DIMALTTZ
 70
     0
  9
$DIMUPT
 70
     0
  9
$DIMDEC
 70
     2
  9
$DIMTDEC
 70
     2
  9
$DIMALTU
 70
     2
  9
$DIMALTTD
 70
     3
  9
$DIMTXSTY
  7
Standard
  9
$DIMAUNIT
 70
     0
  9
$DIMADEC
 70
     0
  9
$DIMALTRND
 40
0.0
  9
$DIMAZIN
 70
     0
  9
$DIMDSEP
 70
    44
  9
$DIMATFIT
 70
     3
  9
$DIMFRAC
 70
     0
  9
$DIMLDRBLK
  1

  9
$DIMLUNIT
 70
     2
  9
$DIMLWD
 70
    -2
  9
$DIMLWE
 70
    -2
  9
$DIMTMOVE
 70
     0
  9
$LUNITS
 70
     2
  9
$LUPREC
 70
     4
  9
$SKETCHINC
 40
1.0
  9
$FILLETRAD
 40
0.0
  9
$AUNITS
 70
     0
  9
$AUPREC
 70
     0
  9
$MENU
  1
.
  9
$ELEVATION
 40
0.0
  9
$PELEVATION
 40
0.0
  9
$THICKNESS
 40
0.0
  9
$LIMCHECK
 70
     0
  9
$CHAMFERA
 40
0.0
  9
$CHAMFERB
 40
0.0
  9
$CHAMFERC
 40
0.0
  9
$CHAMFERD
 40
0.0
  9
$SKPOLY
 70
     0
  9
$TDCREATE
 40
2454427.395492431
  9
$TDUCREATE
 40
2454427.020492431
  9
$TDUPDATE
 40
2457014.697638125
  9
$TDUUPDATE
 40
2457014.322638126
  9
$TDINDWG
 40
0.2614023264
  9
$TDUSRTIMER
 40
0.2614023264
  9
$USRTIMER
 70
     1
  9
$ANGBASE
 50
0.0
  9
$ANGDIR
 70
     0
  9
$PDMODE
 70
     0
  9
$PDSIZE
 40
0.0
  9
$PLINEWID
 40
0.0
  9
$SPLFRAME
 70
     0
  9
$SPLINETYPE
 70
     6
  9
$SPLINESEGS
 70
     8
  9
$HANDSEED
  5
5674
  9
$SURFTAB1
 70
     6
  9
$SURFTAB2
 70
     6
  9
$SURFTYPE
 70
     6
  9
$SURFU
 70
     6
  9
$SURFV
 70
     6
  9
$UCSBASE
  2

  9
$UCSNAME
  2

  9
$UCSORG
 10
0.0
 20
0.0
 30
0.0
  9
$UCSXDIR
 10
1.0
 20
0.0
 30
0.0
  9
$UCSYDIR
 10
0.0
 20
1.0
 30
0.0
  9
$UCSORTHOREF
  2

  9
$UCSORTHOVIEW
 70
     0
  9
$UCSORGTOP
 10
0.0
 20
0.0
 30
0.0
  9
$UCSORGBOTTOM
 10
0.0
 20
0.0
 30
0.0
  9
$UCSORGLEFT
 10
0.0
 20
0.0
 30
0.0
  9
$UCSORGRIGHT
 10
0.0
 20
0.0
 30
0.0
  9
$UCSORGFRONT
 10
0.0
 20
0.0
 30
0.0
  9
$UCSORGBACK
 10
0.0
 20
0.0
 30
0.0
  9
$PUCSBASE
  2

  9
$PUCSNAME
  2

  9
$PUCSORG
 10
0.0
 20
0.0
 30
0.0
  9
$PUCSXDIR
 10
1.0
 20
0.0
 30
0.0
  9
$PUCSYDIR
 10
0.0
 20
1.0
 30
0.0
  9
$PUCSORTHOREF
  2

  9
$PUCSORTHOVIEW
 70
     0
  9
$PUCSORGTOP
 10
0.0
 20
0.0
 30
0.0
  9
$PUCSORGBOTTOM
 10
0.0
 20
0.0
 30
0.0
  9
$PUCSORGLEFT
 10
0.0
 20
0.0
 30
0.0
  9
$PUCSORGRIGHT
 10
0.0
 20
0.0
 30
0.0
  9
$PUCSORGFRONT
 10
0.0
 20
0.0
 30
0.0
  9
$PUCSORGBACK
 10
0.0
 20
0.0
 30
0.0
  9
$USERI1
 70
     0
  9
$USERI2
 70
     0
  9
$USERI3
 70
     0
  9
$USERI4
 70
     0
  9
$USERI5
 70
     0
  9
$USERR1
 40
0.0
  9
$USERR2
 40
0.0
  9
$USERR3
 40
0.0
  9
$USERR4
 40
0.0
  9
$USERR5
 40
0.0
  9
$WORLDVIEW
 70
     1
  9
$SHADEDGE
 70
     3
  9
$SHADEDIF
 70
    70
  9
$TILEMODE
 70
     1
  9
$MAXACTVP
 70
    64
  9
$PINSBASE
 10
0.0
 20
0.0
 30
0.0
  9
$PLIMCHECK
 70
     0
  9
$PEXTMIN
 10
0.0
 20
0.0
 30
0.0
  9
$PEXTMAX
 10
0.0
 20
0.0
 30
0.0
  9
$PLIMMIN
 10
0.0
 20
0.0
  9
$PLIMMAX
 10
12.0
 20
9.0
  9
$UNITMODE
 70
     0
  9
$VISRETAIN
 70
     1
  9
$PLINEGEN
 70
     0
  9
$PSLTSCALE
 70
     1
  9
$TREEDEPTH
 70
  3020
  9
$CMLSTYLE
  2
Standard
  9
$CMLJUST
 70
     0
  9
$CMLSCALE
 40
20.0
  9
$PROXYGRAPHICS
 70
     1
  9
$MEASUREMENT
 70
     1
  9
$CELWEIGHT
370
    -1
  9
$ENDCAPS
280
     0
  9
$JOINSTYLE
280
     0
  9
$LWDISPLAY
290
     0
  9
$INSUNITS
 70
     4
  9
$HYPERLINKBASE
  1

  9
$STYLESHEET
  1
monochrome.ctb
  9
$XEDIT
290
     1
  9
$CEPSNTYPE
380
     0
  9
$PSTYLEMODE
290
     1
  9
$FINGERPRINTGUID
  2
{4ECE4D8E-F13A-40A1-9A46-5F0BA8809353}
  9
$VERSIONGUID
  2
{28E376A2-B491-4806-96EB-140C45AAFB0E}
  9
$EXTNAMES
290
     1
  9
$PSVPSCALE
 40
0.0
  9
$OLESTARTUP
290
     0
  0
ENDSEC
  0
SECTION
  2
CLASSES
  0
CLASS
  1
ACDBDICTIONARYWDFLT
  2
AcDbDictionaryWithDefault
  3
ObjectDBX Classes
 90
        0
280
     0
281
     0
  0
CLASS
  1
DICTIONARYVAR
  2
AcDbDictionaryVar
  3
ObjectDBX Classes
 90
        0
280
     0
281
     0
  0
CLASS
  1
TABLESTYLE
  2
AcDbTableStyle
  3
ObjectDBX Classes
 90
     4095
280
     0
281
     0
  0
CLASS
  1
SORTENTSTABLE
  2
AcDbSortentsTable
  3
ObjectDBX Classes
 90
        0
280
     0
281
     0
  0
CLASS
  1
DIMASSOC
  2
AcDbDimAssoc
  3
"AcDbDimAssoc|Product Desc:     AcDim ARX App For Dimension|Company:          Autodesk, Inc.|WEB Address:      www.autodesk.com"
 90
        0
280
     0
281
     0
  0
CLASS
  1
MATERIAL
  2
AcDbMaterial
  3
ObjectDBX Classes
 90
     1153
280
     0
281
     0
  0
CLASS
  1
VISUALSTYLE
  2
AcDbVisualStyle
  3
ObjectDBX Classes
 90
     4095
280
     0
281
     0
  0
CLASS
  1
SCALE
  2
AcDbScale
  3
ObjectDBX Classes
 90
     1153
280
     0
281
     0
  0
CLASS
  1
MLEADERSTYLE
  2
AcDbMLeaderStyle
  3
ACDB_MLEADERSTYLE_CLASS
 90
     4095
280
     0
281
     0
  0
CLASS
  1
CELLSTYLEMAP
  2
AcDbCellStyleMap
  3
ObjectDBX Classes
 90
     1152
280
     0
281
     0
  0
CLASS
  1
ACDBPLACEHOLDER
  2
AcDbPlaceHolder
  3
ObjectDBX Classes
 90
        0
280
     0
281
     0
  0
CLASS
  1
LAYOUT
  2
AcDbLayout
  3
ObjectDBX Classes
 90
        0
280
     0
281
     0
  0
ENDSEC
  0
SECTION
  2
TABLES
  0
TABLE
  2
VPORT
  5
8
330
0
100
AcDbSymbolTable
 70
     1
  0
VPORT
  5
5599
330
8
100
AcDbSymbolTableRecord
100
AcDbViewportTableRecord
  2
*Active
 70
     0
 10
0.0
 20
0.0
 11
1.0
 21
1.0
 12
2182.800127567166
 22
1573.909191048274
 13
0.0
 23
0.0
 14
10.0
 24
10.0
 15
10.0
 25
10.0
 16
0.0
 26
0.0
 36
1.0
 17
0.0
 27
0.0
 37
0.0
 40
2993.386851404381
 41
1.633766233766233
 42
50.0
 43
0.0
 44
0.0
 50
0.0
 51
0.0
 71
     0
 72
  1000
 73
     1
 74
     3
 75
     0
 76
     0
 77
     0
 78
     0
281
     0
 65
     1
110
0.0
120
0.0
130
0.0
111
1.0
121
0.0
131
0.0
112
0.0
122
1.0
132
0.0
 79
     0
146
0.0
1001
ACAD_NAV_VCDISPLAY
1070
     3
  0
ENDTAB
  0
TABLE
  2
LTYPE
  5
5
330
0
100
AcDbSymbolTable
 70
     4
  0
LTYPE
  5
14
330
5
100
AcDbSymbolTableRecord
100
AcDbLinetypeTableRecord
  2
ByBlock
 70
     0
  3

 72
    65
 73
     0
 40
0.0
  0
LTYPE
  5
15
330
5
100
AcDbSymbolTableRecord
100
AcDbLinetypeTableRecord
  2
ByLayer
 70
     0
  3

 72
    65
 73
     0
 40
0.0
  0
LTYPE
  5
16
330
5
100
AcDbSymbolTableRecord
100
AcDbLinetypeTableRecord
  2
Continuous
 70
     0
  3
Solid line
 72
    65
 73
     0
 40
0.0
  0
LTYPE
  5
14E
330
5
100
AcDbSymbolTableRecord
100
AcDbLinetypeTableRecord
  2
CENTER
 70
     0
  3
Center ____ _ ____ _ ____ _ ____ _ ____ _ ____
 72
    65
 73
     4
 40
50.8
 49
31.75
 74
     0
 49
-6.349999999999999
 74
     0
 49
6.349999999999999
 74
     0
 49
-6.349999999999999
 74
     0
  0
LTYPE
  5
1A6
330
5
100
AcDbSymbolTableRecord
100
AcDbLinetypeTableRecord
  2
DASHED
 70
     0
  3
Dashed __ __ __ __ __ __ __ __ __ __ __ __ __ _
 72
    65
 73
     2
 40
19.05
 49
12.7
 74
     0
 49
-6.349999999999999
 74
     0
  0
LTYPE
  5
1CC
330
5
100
AcDbSymbolTableRecord
100
AcDbLinetypeTableRecord
  2
FENCELINE1
 70
     0
  3
Fenceline circle ----0-----0----0-----0----0---
 72
    65
 73
     4
 40
36.83
 49
6.349999999999999
 74
     0
 49
-2.54
 74
     4
 75
   133
340
14D
 46
2.54
 50
0.0
 44
-2.54
 45
0.0
 49
-2.54
 74
     0
 49
25.4
 74
     0
  0
ENDTAB
  0
TABLE
  2
LAYER
  5
2
102
{ACAD_XDICTIONARY
360
101
102
}
330
0
100
AcDbSymbolTable
 70
    13
  0
LAYER
  5
10
102
{ACAD_XDICTIONARY
360
55E9
102
}
330
2
100
AcDbSymbolTableRecord
100
AcDbLayerTableRecord
  2
0
 70
     0
 62
     6
  6
Continuous
370
    -3
390
F
  0
LAYER
  5
FC
102
{ACAD_XDICTIONARY
360
55EB
102
}
330
2
100
AcDbSymbolTableRecord
100
AcDbLayerTableRecord
  2
題
 70
     0
 62
     7
  6
Continuous
370
    -3
390
F
1001
AcAecLayerStandard
1000

1000

  0
LAYER
  5
FD
330
2
100
AcDbSymbolTableRecord
100
AcDbLayerTableRecord
  2
DEFPOINTS
 70
     0
 62
     1
  6
Continuous
290
     0
370
    -3
390
F
1001
AcAecLayerStandard
1000

1000

  0
LAYER
  5
FE
102
{ACAD_XDICTIONARY
360
55ED
102
}
330
2
100
AcDbSymbolTableRecord
100
AcDbLayerTableRecord
  2
マーク
 70
     0
 62
   160
  6
Continuous
370
    -3
390
F
  0
LAYER
  5
FF
102
{ACAD_XDICTIONARY
360
55EF
102
}
330
2
100
AcDbSymbolTableRecord
100
AcDbLayerTableRecord
  2
図
 70
     0
 62
     7
  6
Continuous
370
    -3
390
F
1001
AcAecLayerStandard
1000

1000

  0
LAYER
  5
14B
102
{ACAD_XDICTIONARY
360
55F1
102
}
330
2
100
AcDbSymbolTableRecord
100
AcDbLayerTableRecord
  2
センター
 70
     0
 62
     4
  6
CENTER
370
    15
390
F
1001
AcAecLayerStandard
1000

1000

  0
LAYER
  5
14F
102
{ACAD_XDICTIONARY
360
55F3
102
}
330
2
100
AcDbSymbolTableRecord
100
AcDbLayerTableRecord
  2
補助
 70
     0
 62
     2
  6
Continuous
370
     9
390
F
1001
AcAecLayerStandard
1000

1000

  0
LAYER
  5
1A4
102
{ACAD_XDICTIONARY
360
55F5
102
}
330
2
100
AcDbSymbolTableRecord
100
AcDbLayerTableRecord
  2
寸法
 70
     0
 62
     7
  6
Continuous
370
    15
390
F
1001
AcAecLayerStandard
1000

1000

  0
LAYER
  5
1A5
102
{ACAD_XDICTIONARY
360
55F7
102
}
330
2
100
AcDbSymbolTableRecord
100
AcDbLayerTableRecord
  2
影
 70
     0
 62
   160
  6
DASHED
370
    15
390
F
1001
AcAecLayerStandard
1000

1000

  0
LAYER
  5
1747
102
{ACAD_XDICTIONARY
360
55F9
102
}
330
2
100
AcDbSymbolTableRecord
100
AcDbLayerTableRecord
  2
図文字
 70
     0
 62
     7
  6
Continuous
370
    -3
390
F
1001
AcAecLayerStandard
1000

1000

  0
LAYER
  5
49BB
102
{ACAD_XDICTIONARY
360
55FB
102
}
330
2
100
AcDbSymbolTableRecord
100
AcDbLayerTableRecord
  2
全体文字
 70
     0
 62
     7
  6
Continuous
370
    -3
390
F
1001
AcAecLayerStandard
1000

1000

  0
LAYER
  5
49BC
102
{ACAD_XDICTIONARY
360
55FD
102
}
330
2
100
AcDbSymbolTableRecord
100
AcDbLayerTableRecord
  2
鉄筋D
 70
     0
 62
     3
  6
FENCELINE1
370
     9
390
F
1001
AcAecLayerStandard
1000

1000

  0
LAYER
  5
49BD
102
{ACAD_XDICTIONARY
360
55FF
102
}
330
2
100
AcDbSymbolTableRecord
100
AcDbLayerTableRecord
  2
鉄筋\U+03C6
 70
     0
 62
     3
  6
Continuous
370
     9
390
F
1001
AcAecLayerStandard
1000

1000

  0
ENDTAB
  0
TABLE
  2
STYLE
  5
3
330
0
100
AcDbSymbolTable
 70
     2
  0
STYLE
  5
11
330
3
100
AcDbSymbolTableRecord
100
AcDbTextStyleTableRecord
  2
Standard
 70
     0
 40
0.0
 41
1.0
 50
0.0
 71
     0
 42
2.5
  3
txt.shx
  4
extfont2.shx
  0
STYLE
  5
14D
330
3
100
AcDbSymbolTableRecord
100
AcDbTextStyleTableRecord
  2

 70
     1
 40
0.0
 41
1.0
 50
0.0
 71
     0
 42
2.5
  3
ltypeshp.shx
  4

  0
ENDTAB
  0
TABLE
  2
VIEW
  5
6
330
0
100
AcDbSymbolTable
 70
     0
  0
ENDTAB
  0
TABLE
  2
UCS
  5
7
330
0
100
AcDbSymbolTable
 70
     0
  0
ENDTAB
  0
TABLE
  2
APPID
  5
9
330
0
100
AcDbSymbolTable
 70
    14
  0
APPID
  5
12
330
9
100
AcDbSymbolTableRecord
100
AcDbRegAppTableRecord
  2
ACAD
 70
     0
  0
APPID
  5
9E
330
9
100
AcDbSymbolTableRecord
100
AcDbRegAppTableRecord
  2
ACAD_PSEXT
 70
     0
  0
APPID
  5
100
330
9
100
AcDbSymbolTableRecord
100
AcDbRegAppTableRecord
  2
AcAecLayerStandard
 70
     0
  0
APPID
  5
1B6
330
9
100
AcDbSymbolTableRecord
100
AcDbRegAppTableRecord
  2
ACAD_EXEMPT_FROM_CAD_STANDARDS
 70
     0
  0
APPID
  5
E2E
330
9
100
AcDbSymbolTableRecord
100
AcDbRegAppTableRecord
  2
ACAD_DSTYLE_DIMTEXT_FILL
 70
     0
  0
APPID
  5
E2F
330
9
100
AcDbSymbolTableRecord
100
AcDbRegAppTableRecord
  2
ACAD_DSTYLE_DIMEXT_LENGTH
 70
     0
  0
APPID
  5
E30
330
9
100
AcDbSymbolTableRecord
100
AcDbRegAppTableRecord
  2
ACAD_DSTYLE_DIMEXT_ENABLED
 70
     0
  0
APPID
  5
E31
330
9
100
AcDbSymbolTableRecord
100
AcDbRegAppTableRecord
  2
ACAD_DSTYLE_DIM_LINETYPE
 70
     0
  0
APPID
  5
E32
330
9
100
AcDbSymbolTableRecord
100
AcDbRegAppTableRecord
  2
ACAD_DSTYLE_DIM_EXT1_LINETYPE
 70
     0
  0
APPID
  5
E33
330
9
100
AcDbSymbolTableRecord
100
AcDbRegAppTableRecord
  2
ACAD_DSTYLE_DIM_EXT2_LINETYPE
 70
     0
  0
APPID
  5
EEF
330
9
100
AcDbSymbolTableRecord
100
AcDbRegAppTableRecord
  2
ACAD_DSTYLE_DIMJOGGED_JOGANGLE_SYMBOL
 70
     0
  0
APPID
  5
F53
330
9
100
AcDbSymbolTableRecord
100
AcDbRegAppTableRecord
  2
ACAD_DSTYLE_DIMARC_LENGTH_SYMBOL
 70
     0
  0
APPID
  5
560A
330
9
100
AcDbSymbolTableRecord
100
AcDbRegAppTableRecord
  2
ACAD_NAV_VCDISPLAY
 70
     0
  0
APPID
  5
5673
330
9
100
AcDbSymbolTableRecord
100
AcDbRegAppTableRecord
  2
ACAD_MLEADERVER
 70
     0
  0
ENDTAB
  0
TABLE
  2
DIMSTYLE
  5
A
330
0
100
AcDbSymbolTable
 70
     1
100
AcDbDimStyleTable
 71
     1
340
27
  0
DIMSTYLE
105
27
102
{ACAD_REACTORS
330
4D17
330
4BF7
330
4BFA
330
4BFD
330
4C00
330
4C01
330
4C04
330
4C07
330
4C0A
330
4C0D
330
4C10
330
4C13
330
4C16
330
4C19
330
4C1C
330
4C1D
330
4C1E
330
4C21
330
4C24
330
4C27
330
4C28
330
4C2B
330
4C2E
330
4C38
330
4C3B
330
4C3E
330
4C41
330
4C42
330
4C43
330
4C46
330
4C49
330
4C4C
330
4C4F
330
4C52
330
4C55
330
4C58
330
4C5B
330
4C5E
330
4C87
330
4C8E
330
4C9C
330
4C9F
330
4CA0
330
4CA1
330
4CA2
330
4CA3
330
4CA4
330
4CA5
102
}
330
A
100
AcDbSymbolTableRecord
100
AcDbDimStyleTableRecord
  2
ISO-25
 70
     0
 41
2.5
 42
0.625
 43
3.75
 44
1.25
 73
     0
 74
     0
 77
     2
 78
     8
140
2.5
141
2.5
143
0.03937007874016
147
0.625
171
     3
172
     1
271
     2
272
     2
274
     3
278
    44
283
     0
284
     8
340
11
1001
ACAD_DSTYLE_DIMEXT_LENGTH
1070
   378
1040
1.25
1001
ACAD_DSTYLE_DIMJOGGED_JOGANGLE_SYMBOL
1070
   384
1040
1.570796326794896
  0
ENDTAB
  0
TABLE
  2
BLOCK_RECORD
  5
1
330
0
100
AcDbSymbolTable
 70
    52
  0
BLOCK_RECORD
  5
1F
102
{ACAD_XDICTIONARY
360
C0A
102
}
330
1
100
AcDbSymbolTableRecord
100
AcDbBlockTableRecord
  2
*Model_Space
340
22
  0
BLOCK_RECORD
  5
D2
330
1
100
AcDbSymbolTableRecord
100
AcDbBlockTableRecord
  2
*Paper_Space
340
D3
  0
BLOCK_RECORD
  5
D6
330
1
100
AcDbSymbolTableRecord
100
AcDbBlockTableRecord
  2
*Paper_Space0
340
D7
  0
BLOCK_RECORD
  5
F3
330
1
100
AcDbSymbolTableRecord
100
AcDbBlockTableRecord
  2
AI9-BLK1
340
0
102
{BLKREFS
331
123
102
}
  0
BLOCK_RECORD
  5
F7
330
1
100
AcDbSymbolTableRecord
100
AcDbBlockTableRecord
  2
AI9-BLK2
340
0
102
{BLKREFS
331
F5
102
}
  0
BLOCK_RECORD
  5
10D7
330
1
100
AcDbSymbolTableRecord
100
AcDbBlockTableRecord
  2
_Open30
340
0
  0
BLOCK_RECORD
  5
4D5C
330
1
100
AcDbSymbolTableRecord
100
AcDbBlockTableRecord
  2
*D4
340
0
  0
BLOCK_RECORD
  5
4D68
330
1
100
AcDbSymbolTableRecord
100
AcDbBlockTableRecord
  2
*D5
340
0
  0
BLOCK_RECORD
  5
4D74
330
1
100
AcDbSymbolTableRecord
100
AcDbBlockTableRecord
  2
*D6
340
0
  0
BLOCK_RECORD
  5
4D82
330
1
100
AcDbSymbolTableRecord
100
AcDbBlockTableRecord
  2
*D7
340
0
  0
BLOCK_RECORD
  5
4D8E
330
1
100
AcDbSymbolTableRecord
100
AcDbBlockTableRecord
  2
*D8
340
0
  0
BLOCK_RECORD
  5
4D9A
330
1
100
AcDbSymbolTableRecord
100
AcDbBlockTableRecord
  2
*D9
340
0
  0
BLOCK_RECORD
  5
4DA6
330
1
100
AcDbSymbolTableRecord
100
AcDbBlockTableRecord
  2
*D10
340
0
  0
BLOCK_RECORD
  5
4DB4
330
1
100
AcDbSymbolTableRecord
100
AcDbBlockTableRecord
  2
*D11
340
0
  0
BLOCK_RECORD
  5
4DC1
330
1
100
AcDbSymbolTableRecord
100
AcDbBlockTableRecord
  2
*D12
340
0
  0
BLOCK_RECORD
  5
4DCD
330
1
100
AcDbSymbolTableRecord
100
AcDbBlockTableRecord
  2
*D13
340
0
  0
BLOCK_RECORD
  5
4DD9
330
1
100
AcDbSymbolTableRecord
100
AcDbBlockTableRecord
  2
*D14
340
0
  0
BLOCK_RECORD
  5
4DE7
330
1
100
AcDbSymbolTableRecord
100
AcDbBlockTableRecord
  2
*D15
340
0
  0
BLOCK_RECORD
  5
4DF3
330
1
100
AcDbSymbolTableRecord
100
AcDbBlockTableRecord
  2
*D16
340
0
  0
BLOCK_RECORD
  5
4DFF
330
1
100
AcDbSymbolTableRecord
100
AcDbBlockTableRecord
  2
*D17
340
0
  0
BLOCK_RECORD
  5
4E0D
330
1
100
AcDbSymbolTableRecord
100
AcDbBlockTableRecord
  2
*D18
340
0
  0
BLOCK_RECORD
  5
4EF9
330
1
100
AcDbSymbolTableRecord
100
AcDbBlockTableRecord
  2
*D19
340
0
  0
BLOCK_RECORD
  5
4F05
330
1
100
AcDbSymbolTableRecord
100
AcDbBlockTableRecord
  2
*D20
340
0
  0
BLOCK_RECORD
  5
4F11
330
1
100
AcDbSymbolTableRecord
100
AcDbBlockTableRecord
  2
*D21
340
0
  0
BLOCK_RECORD
  5
4F26
330
1
100
AcDbSymbolTableRecord
100
AcDbBlockTableRecord
  2
*D22
340
0
  0
BLOCK_RECORD
  5
4F32
330
1
100
AcDbSymbolTableRecord
100
AcDbBlockTableRecord
  2
*D23
340
0
  0
BLOCK_RECORD
  5
4F40
330
1
100
AcDbSymbolTableRecord
100
AcDbBlockTableRecord
  2
*D24
340
0
  0
BLOCK_RECORD
  5
4F4C
330
1
100
AcDbSymbolTableRecord
100
AcDbBlockTableRecord
  2
*D25
340
0
  0
BLOCK_RECORD
  5
4F58
330
1
100
AcDbSymbolTableRecord
100
AcDbBlockTableRecord
  2
*D26
340
0
  0
BLOCK_RECORD
  5
4F71
330
1
100
AcDbSymbolTableRecord
100
AcDbBlockTableRecord
  2
*D27
340
0
  0
BLOCK_RECORD
  5
4F7D
330
1
100
AcDbSymbolTableRecord
100
AcDbBlockTableRecord
  2
*D28
340
0
  0
BLOCK_RECORD
  5
4F89
330
1
100
AcDbSymbolTableRecord
100
AcDbBlockTableRecord
  2
*D29
340
0
  0
BLOCK_RECORD
  5
4FA7
330
1
100
AcDbSymbolTableRecord
100
AcDbBlockTableRecord
  2
*D30
340
0
  0
BLOCK_RECORD
  5
4FB3
330
1
100
AcDbSymbolTableRecord
100
AcDbBlockTableRecord
  2
*D31
340
0
  0
BLOCK_RECORD
  5
4FBF
330
1
100
AcDbSymbolTableRecord
100
AcDbBlockTableRecord
  2
*D32
340
0
  0
BLOCK_RECORD
  5
4FD4
330
1
100
AcDbSymbolTableRecord
100
AcDbBlockTableRecord
  2
*D33
340
0
  0
BLOCK_RECORD
  5
4FE1
330
1
100
AcDbSymbolTableRecord
100
AcDbBlockTableRecord
  2
*D34
340
0
  0
BLOCK_RECORD
  5
4FEF
330
1
100
AcDbSymbolTableRecord
100
AcDbBlockTableRecord
  2
*D35
340
0
  0
BLOCK_RECORD
  5
4FFC
330
1
100
AcDbSymbolTableRecord
100
AcDbBlockTableRecord
  2
*D36
340
0
  0
BLOCK_RECORD
  5
5008
330
1
100
AcDbSymbolTableRecord
100
AcDbBlockTableRecord
  2
*D37
340
0
  0
BLOCK_RECORD
  5
5016
330
1
100
AcDbSymbolTableRecord
100
AcDbBlockTableRecord
  2
*D38
340
0
  0
BLOCK_RECORD
  5
5038
330
1
100
AcDbSymbolTableRecord
100
AcDbBlockTableRecord
  2
*D39
340
0
  0
BLOCK_RECORD
  5
5045
330
1
100
AcDbSymbolTableRecord
100
AcDbBlockTableRecord
  2
*D40
340
0
  0
BLOCK_RECORD
  5
5051
330
1
100
AcDbSymbolTableRecord
100
AcDbBlockTableRecord
  2
*D41
340
0
  0
BLOCK_RECORD
  5
505E
330
1
100
AcDbSymbolTableRecord
100
AcDbBlockTableRecord
  2
*D42
340
0
  0
BLOCK_RECORD
  5
506C
330
1
100
AcDbSymbolTableRecord
100
AcDbBlockTableRecord
  2
*D43
340
0
  0
BLOCK_RECORD
  5
5079
330
1
100
AcDbSymbolTableRecord
100
AcDbBlockTableRecord
  2
*D44
340
0
  0
BLOCK_RECORD
  5
5085
330
1
100
AcDbSymbolTableRecord
100
AcDbBlockTableRecord
  2
*D45
340
0
  0
BLOCK_RECORD
  5
5093
330
1
100
AcDbSymbolTableRecord
100
AcDbBlockTableRecord
  2
*D46
340
0
  0
BLOCK_RECORD
  5
509F
330
1
100
AcDbSymbolTableRecord
100
AcDbBlockTableRecord
  2
*D47
340
0
  0
BLOCK_RECORD
  5
50AB
330
1
100
AcDbSymbolTableRecord
100
AcDbBlockTableRecord
  2
*D48
340
0
  0
BLOCK_RECORD
  5
50B7
330
1
100
AcDbSymbolTableRecord
100
AcDbBlockTableRecord
  2
*D49
340
0
  0
BLOCK_RECORD
  5
50C3
330
1
100
AcDbSymbolTableRecord
100
AcDbBlockTableRecord
  2
*D50
340
0
  0
BLOCK_RECORD
  5
50CF
330
1
100
AcDbSymbolTableRecord
100
AcDbBlockTableRecord
  2
*D51
340
0
  0
ENDTAB
  0
ENDSEC
  0
SECTION
  2
BLOCKS
  0
BLOCK
  5
20
330
1F
100
AcDbEntity
  8
0
100
AcDbBlockBegin
  2
*Model_Space
 70
     0
 10
0.0
 20
0.0
 30
0.0
  3
*Model_Space
  1

  0
ENDBLK
  5
21
330
1F
100
AcDbEntity
  8
0
100
AcDbBlockEnd
  0
BLOCK
  5
D4
330
D2
100
AcDbEntity
 67
     1
  8
0
100
AcDbBlockBegin
  2
*Paper_Space
 70
     0
 10
0.0
 20
0.0
 30
0.0
  3
*Paper_Space
  1

  0
ENDBLK
  5
D5
330
D2
100
AcDbEntity
 67
     1
  8
0
100
AcDbBlockEnd
  0
BLOCK
  5
D8
330
D6
100
AcDbEntity
 67
     1
  8
0
100
AcDbBlockBegin
  2
*Paper_Space0
 70
     0
 10
0.0
 20
0.0
 30
0.0
  3
*Paper_Space0
  1

  0
ENDBLK
  5
D9
330
D6
100
AcDbEntity
 67
     1
  8
0
100
AcDbBlockEnd
  0
BLOCK
  5
F4
330
F3
100
AcDbEntity
  8
マーク
 62
     7
100
AcDbBlockBegin
  2
AI9-BLK1
 70
     0
 10
0.0
 20
0.0
 30
0.0
  3
AI9-BLK1
  1

  0
INSERT
  5
F5
330
F3
100
AcDbEntity
  8
マーク
 62
     7
100
AcDbBlockReference
  2
AI9-BLK2
 10
0.0
 20
0.0
 30
0.0
  0
ENDBLK
  5
F6
330
F3
100
AcDbEntity
  8
マーク
100
AcDbBlockEnd
  0
BLOCK
  5
F8
330
F7
100
AcDbEntity
  8
マーク
 62
     7
100
AcDbBlockBegin
  2
AI9-BLK2
 70
     0
 10
0.0
 20
0.0
 30
0.0
  3
AI9-BLK2
  1

  0
HATCH
  5
F9
330
F7
100
AcDbEntity
  8
マーク
 62
     7
100
AcDbHatch
 10
0.0
 20
0.0
 30
0.0
210
0.0
220
0.0
230
1.0
  2
SOLID
 70
     1
 71
     0
 91
        1
 92
        1
 93
        1
 72
     4
 94
        3
 73
     0
 74
     0
 95
       59
 96
       55
 40
0.0
 40
0.0
 40
0.0
 40
0.0
 40
1.0
 40
1.0
 40
1.0
 40
2.0
 40
2.0
 40
2.0
 40
3.0
 40
3.0
 40
3.0
 40
4.0
 40
4.0
 40
4.0
 40
5.0
 40
5.0
 40
5.0
 40
6.0
 40
6.0
 40
6.0
 40
7.0
 40
7.0
 40
7.0
 40
8.0
 40
8.0
 40
8.0
 40
9.0
 40
9.0
 40
9.0
 40
10.0
 40
10.0
 40
10.0
 40
11.0
 40
11.0
 40
11.0
 40
12.0
 40
12.0
 40
12.0
 40
13.0
 40
13.0
 40
13.0
 40
14.0
 40
14.0
 40
14.0
 40
15.0
 40
15.0
 40
15.0
 40
16.0
 40
16.0
 40
16.0
 40
17.0
 40
17.0
 40
17.0
 40
18.0
 40
18.0
 40
18.0
 40
18.0
 10
19.11183946397569
 20
10.62743055555555
 10
19.11183946397569
 20
10.62743055555555
 10
19.13285454644097
 20
10.66274278428819
 10
19.13285454644097
 20
10.66274278428819
 10
19.61275634765625
 20
10.33804253472222
 10
20.1877427842882
 20
10.15114610460069
 10
20.80854899088542
 20
10.15114610460069
 10
22.46667344835069
 20
10.15114610460069
 10
23.81060519748264
 20
11.49525010850694
 10
23.81060519748264
 20
13.1497572157118
 10
23.81060519748264
 20
14.20102810329861
 10
23.26731363932291
 20
15.12879231770833
 10
22.44910346137153
 20
15.66502143012153
 10
22.44910346137153
 20
15.66502143012153
 10
22.45599365234375
 20
15.67914632161458
 10
22.45599365234375
 20
15.67914632161458
 10
22.45599365234375
 20
15.67914632161458
 10
-18.13102077907986
 20
42.28561876085069
 10
-18.13102077907986
 20
42.28561876085069
 10
-12.56770833333333
 20
44.67754855685764
 10
-6.436471896701387
 20
46.0004652235243
 10
0.0017225477430556
 20
46.0004652235243
 10
25.40533989800347
 20
46.0004652235243
 10
46.0004652235243
 20
25.40533989800347
 10
46.0004652235243
 20
0.0017225477430556
 10
46.0004652235243
 20
-14.73036702473958
 10
39.07547878689236
 20
-27.84308946397569
 10
28.30507676866319
 20
-36.26393636067708
 10
28.30507676866319
 20
-36.26393636067708
 10
1.067118326822916
 20
-19.00607503255208
 10
1.067118326822916
 20
-19.00607503255208
 10
1.416451009114583
 20
-18.86482611762152
 10
1.761994086371527
 20
-18.72357720269097
 10
2.107881673177083
 20
-18.57922770182291
 10
5.145077853732638
 20
-17.27732611762152
 10
7.381978352864583
 20
-15.23817409939236
 10
8.923314073350693
 20
-12.3032972547743
 10
10.4367445203993
 20
-9.410450575086803
 10
11.01896565755208
 20
-6.288160536024305
 10
10.21832546657986
 20
-3.092145453559027
 10
9.308131239149304
 20
0.53795166015625
 10
7.399548339843748
 20
3.974089898003471
 10
5.371076117621527
 20
6.95495876736111
 10
4.340992567274304
 20
8.468389214409722
 10
3.278869628906249
 20
10.03470187717014
 10
2.926091851128472
 20
11.85147298177083
 10
2.552298990885416
 20
13.76005588107639
 10
3.416673448350694
 20
16.33888210720486
 10
5.554355197482638
 20
16.90336100260416
 10
7.286549207899304
 20
17.35845811631944
 10
9.106937662760415
 20
16.76228434244791
 10
10.6909925672743
 20
16.05311143663194
 10
10.6909925672743
 20
16.05311143663194
 10
19.11183946397569
 20
10.62743055555555
 10
19.11183946397569
 20
10.62743055555555
 97
        0
 75
     2
 76
     1
 98
        1
 10
0.0
 20
0.0
  0
HATCH
  5
FA
330
F7
100
AcDbEntity
  8
マーク
 62
     7
100
AcDbHatch
 10
0.0
 20
0.0
 30
0.0
210
0.0
220
0.0
230
1.0
  2
SOLID
 70
     1
 71
     0
 91
        1
 92
        1
 93
        1
 72
     4
 94
        3
 73
     0
 74
     0
 95
       68
 96
       64
 40
0.0
 40
0.0
 40
0.0
 40
0.0
 40
1.0
 40
1.0
 40
1.0
 40
2.0
 40
2.0
 40
2.0
 40
3.0
 40
3.0
 40
3.0
 40
4.0
 40
4.0
 40
4.0
 40
5.0
 40
5.0
 40
5.0
 40
6.0
 40
6.0
 40
6.0
 40
7.0
 40
7.0
 40
7.0
 40
8.0
 40
8.0
 40
8.0
 40
9.0
 40
9.0
 40
9.0
 40
10.0
 40
10.0
 40
10.0
 40
11.0
 40
11.0
 40
11.0
 40
12.0
 40
12.0
 40
12.0
 40
13.0
 40
13.0
 40
13.0
 40
14.0
 40
14.0
 40
14.0
 40
15.0
 40
15.0
 40
15.0
 40
16.0
 40
16.0
 40
16.0
 40
17.0
 40
17.0
 40
17.0
 40
18.0
 40
18.0
 40
18.0
 40
19.0
 40
19.0
 40
19.0
 40
20.0
 40
20.0
 40
20.0
 40
21.0
 40
21.0
 40
21.0
 40
21.0
 10
-23.28161078559027
 20
-10.57454833984375
 10
-23.28161078559027
 20
-10.57454833984375
 10
22.7522718641493
 20
-39.98911810980903
 10
22.7522718641493
 20
-39.98911810980903
 10
16.0426038953993
 20
-43.81696370442708
 10
8.278047688802082
 20
-46.0004652235243
 10
0.0017225477430556
 20
-46.0004652235243
 10
-25.40533989800347
 20
-46.0004652235243
 10
-46.0004652235243
 20
-25.40533989800347
 10
-46.0004652235243
 20
0.0017225477430556
 10
-46.0004652235243
 20
16.32820231119791
 10
-37.49504123263888
 20
30.66875678168403
 10
-24.6715345594618
 20
38.8319105360243
 10
-24.6715345594618
 20
38.8319105360243
 10
-0.4709445529513889
 20
23.24268120659722
 10
-0.4709445529513889
 20
23.24268120659722
 10
-0.4709445529513889
 20
23.24268120659722
 10
-0.5345065646701388
 20
23.14397922092014
 10
-0.5345065646701388
 20
23.14397922092014
 10
-2.495971679687499
 20
22.2654798719618
 10
-4.446756998697916
 20
21.18251410590278
 10
-5.77673611111111
 20
19.44325764973958
 10
-7.515992567274304
 20
17.1679443359375
 10
-7.216097005208332
 20
14.03514675564236
 10
-6.394097222222221
 20
11.46700032552083
 10
-5.882672797309027
 20
9.868992784288193
 10
-5.145250108506943
 20
8.344882541232637
 10
-4.309297688802082
 20
6.89139675564236
 10
-3.501422797309027
 20
5.487348090277777
 10
-2.591228569878472
 20
4.15047878689236
 10
-1.677589246961805
 20
2.816882324218749
 10
-0.7250203450520833
 20
1.434020996093749
 10
0.2451185438368055
 20
0.0475423177083333
 10
1.028188747829861
 20
-1.441255696614583
 10
1.811603461371527
 20
-2.926436360677083
 10
2.421729871961805
 20
-4.549076334635416
 10
2.488909233940971
 20
-6.242340766059027
 10
2.555744086371527
 20
-7.847410753038193
 10
2.097201877170138
 20
-9.456270345052082
 10
1.084688313802083
 20
-10.71924235026041
 10
0.0687296549479167
 20
-11.98221435546875
 10
-1.413005913628472
 20
-12.77940945095486
 10
-3.003951009114583
 20
-13.04054768880208
 10
-4.732527669270832
 20
-13.31925591362847
 10
-6.475229220920137
 20
-12.97336832682291
 10
-8.143861219618054
 20
-12.51482611762152
 10
-8.588450792100694
 20
-12.39493679470486
 10
-9.025805664062499
 20
-12.25713297526041
 10
-9.470395236545137
 20
-12.13379855685764
 10
-9.470395236545137
 20
-12.13379855685764
 10
-9.558589680989582
 20
-12.27504747178819
 10
-9.558589680989582
 20
-12.27504747178819
 10
-9.558589680989582
 20
-12.27504747178819
 10
-19.96553412543402
 20
-5.684924316406249
 10
-19.96553412543402
 20
-5.684924316406249
 10
-20.50520833333333
 20
-5.159547254774304
 10
-21.24263102213542
 20
-4.838464355468749
 10
-22.05395100911458
 20
-4.838464355468749
 10
-23.70845811631944
 20
-4.838464355468749
 10
-25.05256212022569
 20
-6.182396104600694
 10
-25.05256212022569
 20
-7.840520562065971
 10
-25.05256212022569
 20
-9.057672797309026
 10
-24.32581922743056
 20
-10.10532633463541
 10
-23.28161078559027
 20
-10.57454833984375
 97
        0
 75
     2
 76
     1
 98
        1
 10
0.0
 20
0.0
  0
ENDBLK
  5
FB
330
F7
100
AcDbEntity
  8
マーク
100
AcDbBlockEnd
  0
BLOCK
  5
10DB
330
10D7
100
AcDbEntity
  8
0
100
AcDbBlockBegin
  2
_Open30
 70
     0
 10
0.0
 20
0.0
 30
0.0
  3
_Open30
  1

  0
LINE
  5
10D8
330
10D7
100
AcDbEntity
  8
0
  6
ByBlock
 62
     0
370
    -2
100
AcDbLine
 10
-1.0
 20
0.26794919
 30
0.0
 11
0.0
 21
0.0
 31
0.0
  0
LINE
  5
10D9
330
10D7
100
AcDbEntity
  8
0
  6
ByBlock
 62
     0
370
    -2
100
AcDbLine
 10
0.0
 20
0.0
 30
0.0
 11
-1.0
 21
-0.26794919
 31
0.0
  0
LINE
  5
10DA
330
10D7
100
AcDbEntity
  8
0
  6
ByBlock
 62
     0
370
    -2
100
AcDbLine
 10
0.0
 20
0.0
 30
0.0
 11
-1.0
 21
0.0
 31
0.0
  0
ENDBLK
  5
10DC
330
10D7
100
AcDbEntity
  8
0
100
AcDbBlockEnd
  0
BLOCK
  5
4D66
330
4D5C
100
AcDbEntity
  8
0
100
AcDbBlockBegin
  2
*D4
 70
     1
 10
0.0
 20
0.0
 30
0.0
  3
*D4
  1

  0
LINE
  5
4EF0
330
4D5C
100
AcDbEntity
  8
寸法
 62
     0
370
    -2
100
AcDbLine
 10
916.1501925295878
 20
782.1943670860621
 30
0.0
 11
819.1984534147048
 21
592.4459633897917
 31
0.0
  0
LINE
  5
4EF1
330
4D5C
100
AcDbEntity
  8
寸法
 62
     0
370
    -2
100
AcDbLine
 10
782.5762110273138
 20
850.4438466857644
 30
0.0
 11
685.6244719124308
 21
660.695442989494
 31
0.0
  0
LINE
  5
4EF2
330
4D5C
100
AcDbEntity
  8
寸法
 62
     0
370
    -2
100
AcDbLine
 10
812.5685039678765
 20
601.4483947465143
 30
0.0
 11
696.8043866659058
 21
660.5979437329229
 31
0.0
  0
SOLID
  5
4EF3
330
4D5C
100
AcDbEntity
  8
寸法
 62
     0
100
AcDbTrace
 10
813.3268315189843
 20
602.9325500965395
 30
0.0
 11
811.8101764167688
 21
599.9642393964891
 31
0.0
 12
821.4734360680282
 22
596.8984294398674
 32
0.0
 13
821.4734360680282
 23
596.8984294398674
 33
0.0
  0
SOLID
  5
4EF4
330
4D5C
100
AcDbEntity
  8
寸法
 62
     0
100
AcDbTrace
 10
697.5627142170136
 20
662.0820990829481
 30
0.0
 11
696.046059114798
 21
659.1137883828977
 31
0.0
 12
687.8994545657542
 22
665.1479090395697
 32
0.0
 13
687.8994545657542
 23
665.1479090395697
 33
0.0
  0
MTEXT
  5
4EF5
330
4D5C
100
AcDbEntity
  8
寸法
 62
     0
100
AcDbMText
 10
745.5865147035977
 20
613.2133050394154
 30
0.0
 40
20.0
 41
0.0
 71
     5
 72
     1
  1
150
 11
0.8904932100151597
 21
-0.4549965306646816
 31
0.0
 73
     1
 44
1.0
1001
ACAD
1000
MTEXTBEGIN
1070
    73
1070
     1
1070
    44
1040
1.0
1070
    74
1070
     0
1000
MTEXTEND
  0
POINT
  5
4EF6
330
4D5C
100
AcDbEntity
  8
DEFPOINTS
 62
     0
100
AcDbPoint
 10
929.8000884495282
 20
808.9091633865168
 30
0.0
  0
POINT
  5
4EF7
330
4D5C
100
AcDbEntity
  8
DEFPOINTS
 62
     0
100
AcDbPoint
 10
796.2261069472543
 20
877.1586429862191
 30
0.0
  0
POINT
  5
4EF8
330
4D5C
100
AcDbEntity
  8
DEFPOINTS
 62
     0
100
AcDbPoint
 10
687.8994545657542
 20
665.1479090395697
 30
0.0
  0
ENDBLK
  5
4D67
330
4D5C
100
AcDbEntity
  8
0
100
AcDbBlockEnd
  0
BLOCK
  5
4D72
330
4D68
100
AcDbEntity
  8
0
100
AcDbBlockBegin
  2
*D5
 70
     1
 10
0.0
 20
0.0
 30
0.0
  3
*D5
  1

  0
LINE
  5
4F1D
330
4D68
100
AcDbEntity
  8
寸法
 62
     0
370
    -2
100
AcDbLine
 10
825.8000884495281
 20
2568.909163386517
 30
0.0
 11
825.8000884495281
 21
2594.24438039825
 31
0.0
  0
LINE
  5
4F1E
330
4D68
100
AcDbEntity
  8
寸法
 62
     0
370
    -2
100
AcDbLine
 10
782.8000884495281
 20
2568.909163386517
 30
0.0
 11
782.8000884495281
 21
2594.24438039825
 31
0.0
  0
LINE
  5
4F1F
330
4D68
100
AcDbEntity
  8
寸法
 62
     0
370
    -2
100
AcDbLine
 10
815.8000884495281
 20
2589.24438039825
 30
0.0
 11
792.8000884495282
 21
2589.24438039825
 31
0.0
  0
SOLID
  5
4F20
330
4D68
100
AcDbEntity
  8
寸法
 62
     0
100
AcDbTrace
 10
815.8000884495281
 20
2590.911047064917
 30
0.0
 11
815.8000884495281
 21
2587.577713731584
 31
0.0
 12
825.8000884495281
 22
2589.24438039825
 32
0.0
 13
825.8000884495281
 23
2589.24438039825
 33
0.0
  0
SOLID
  5
4F21
330
4D68
100
AcDbEntity
  8
寸法
 62
     0
100
AcDbTrace
 10
792.8000884495282
 20
2590.911047064917
 30
0.0
 11
792.8000884495282
 21
2587.577713731584
 31
0.0
 12
782.8000884495281
 22
2589.24438039825
 32
0.0
 13
782.8000884495281
 23
2589.24438039825
 33
0.0
  0
MTEXT
  5
4F22
330
4D68
100
AcDbEntity
  8
寸法
 62
     0
100
AcDbMText
 10
804.3000884495281
 20
2609.24438039825
 30
0.0
 40
20.0
 41
0.0
 71
     5
 72
     1
  1
43
 73
     1
 44
1.0
1001
ACAD
1000
MTEXTBEGIN
1070
    73
1070
     1
1070
    44
1040
1.0
1070
    74
1070
     0
1000
MTEXTEND
  0
POINT
  5
4F23
330
4D68
100
AcDbEntity
  8
DEFPOINTS
 62
     0
100
AcDbPoint
 10
825.8000884495281
 20
2538.909163386517
 30
0.0
  0
POINT
  5
4F24
330
4D68
100
AcDbEntity
  8
DEFPOINTS
 62
     0
100
AcDbPoint
 10
782.8000884495281
 20
2538.909163386517
 30
0.0
  0
POINT
  5
4F25
330
4D68
100
AcDbEntity
  8
DEFPOINTS
 62
     0
100
AcDbPoint
 10
782.8000884495281
 20
2589.24438039825
 30
0.0
  0
ENDBLK
  5
4D73
330
4D68
100
AcDbEntity
  8
0
100
AcDbBlockEnd
  0
BLOCK
  5
4D80
330
4D74
100
AcDbEntity
  8
0
100
AcDbBlockBegin
  2
*D6
 70
     1
 10
0.0
 20
0.0
 30
0.0
  3
*D6
  1

  0
LINE
  5
4F66
330
4D74
100
AcDbEntity
  8
寸法
 62
     0
370
    -2
100
AcDbLine
 10
2165.800088449528
 20
2204.909163386517
 30
0.0
 11
2165.800088449528
 21
2078.211708221491
 31
0.0
  0
LINE
  5
4F67
330
4D74
100
AcDbEntity
  8
寸法
 62
     0
370
    -2
100
AcDbLine
 10
2160.800088449528
 20
2108.909163386517
 30
0.0
 11
2160.800088449528
 21
2078.211708221491
 31
0.0
  0
LINE
  5
4F68
330
4D74
100
AcDbEntity
  8
寸法
 62
     0
370
    -2
100
AcDbLine
 10
2175.800088449528
 20
2083.21170822149
 30
0.0
 11
2185.800088449528
 21
2083.21170822149
 31
0.0
  0
LINE
  5
4F69
330
4D74
100
AcDbEntity
  8
寸法
 62
     0
370
    -2
100
AcDbLine
 10
2150.800088449528
 20
2083.21170822149
 30
0.0
 11
2140.800088449529
 21
2083.21170822149
 31
0.0
  0
LINE
  5
4F6A
330
4D74
100
AcDbEntity
  8
寸法
 62
     0
370
    -2
100
AcDbLine
 10
2165.800088449528
 20
2083.21170822149
 30
0.0
 11
2160.800088449528
 21
2083.21170822149
 31
0.0
  0
SOLID
  5
4F6B
330
4D74
100
AcDbEntity
  8
寸法
 62
     0
100
AcDbTrace
 10
2175.800088449528
 20
2084.878374888157
 30
0.0
 11
2175.800088449528
 21
2081.545041554824
 31
0.0
 12
2165.800088449528
 22
2083.21170822149
 32
0.0
 13
2165.800088449528
 23
2083.21170822149
 33
0.0
  0
SOLID
  5
4F6C
330
4D74
100
AcDbEntity
  8
寸法
 62
     0
100
AcDbTrace
 10
2150.800088449528
 20
2084.878374888157
 30
0.0
 11
2150.800088449528
 21
2081.545041554824
 31
0.0
 12
2160.800088449528
 22
2083.21170822149
 32
0.0
 13
2160.800088449528
 23
2083.21170822149
 33
0.0
  0
MTEXT
  5
4F6D
330
4D74
100
AcDbEntity
  8
寸法
 62
     0
100
AcDbMText
 10
2163.300088449528
 20
2063.211708221491
 30
0.0
 40
20.0
 41
0.0
 71
     5
 72
     1
  1
5
 73
     1
 44
1.0
1001
ACAD
1000
MTEXTBEGIN
1070
    73
1070
     1
1070
    44
1040
1.0
1070
    74
1070
     0
1000
MTEXTEND
  0
POINT
  5
4F6E
330
4D74
100
AcDbEntity
  8
DEFPOINTS
 62
     0
100
AcDbPoint
 10
2165.800088449528
 20
2234.909163386517
 30
0.0
  0
POINT
  5
4F6F
330
4D74
100
AcDbEntity
  8
DEFPOINTS
 62
     0
100
AcDbPoint
 10
2160.800088449528
 20
2138.909163386517
 30
0.0
  0
POINT
  5
4F70
330
4D74
100
AcDbEntity
  8
DEFPOINTS
 62
     0
100
AcDbPoint
 10
2160.800088449528
 20
2083.21170822149
 30
0.0
  0
ENDBLK
  5
4D81
330
4D74
100
AcDbEntity
  8
0
100
AcDbBlockEnd
  0
BLOCK
  5
4D8C
330
4D82
100
AcDbEntity
  8
0
100
AcDbBlockBegin
  2
*D7
 70
     1
 10
0.0
 20
0.0
 30
0.0
  3
*D7
  1

  0
LINE
  5
4F95
330
4D82
100
AcDbEntity
  8
寸法
 62
     0
370
    -2
100
AcDbLine
 10
2118.800088449528
 20
918.9091633865169
 30
0.0
 11
2118.800088449528
 21
963.7888117376665
 31
0.0
  0
LINE
  5
4F96
330
4D82
100
AcDbEntity
  8
寸法
 62
     0
370
    -2
100
AcDbLine
 10
2068.800088449528
 20
863.9091633865168
 30
0.0
 11
2068.800088449528
 21
963.7888117376665
 31
0.0
  0
LINE
  5
4F97
330
4D82
100
AcDbEntity
  8
寸法
 62
     0
370
    -2
100
AcDbLine
 10
2108.800088449529
 20
958.7888117376664
 30
0.0
 11
2078.800088449528
 21
958.7888117376664
 31
0.0
  0
SOLID
  5
4F98
330
4D82
100
AcDbEntity
  8
寸法
 62
     0
100
AcDbTrace
 10
2108.800088449529
 20
960.4554784043331
 30
0.0
 11
2108.800088449529
 21
957.1221450709998
 31
0.0
 12
2118.800088449528
 22
958.7888117376664
 32
0.0
 13
2118.800088449528
 23
958.7888117376664
 33
0.0
  0
SOLID
  5
4F99
330
4D82
100
AcDbEntity
  8
寸法
 62
     0
100
AcDbTrace
 10
2078.800088449528
 20
960.4554784043331
 30
0.0
 11
2078.800088449528
 21
957.1221450709998
 31
0.0
 12
2068.800088449528
 22
958.7888117376664
 32
0.0
 13
2068.800088449528
 23
958.7888117376664
 33
0.0
  0
MTEXT
  5
4F9A
330
4D82
100
AcDbEntity
  8
寸法
 62
     0
100
AcDbMText
 10
2093.836826287314
 20
978.7888117376665
 30
0.0
 40
20.0
 41
0.0
 71
     5
 72
     1
  1
50
 73
     1
 44
1.0
1001
ACAD
1000
MTEXTBEGIN
1070
    73
1070
     1
1070
    44
1040
1.0
1070
    74
1070
     0
1000
MTEXTEND
  0
POINT
  5
4F9B
330
4D82
100
AcDbEntity
  8
DEFPOINTS
 62
     0
100
AcDbPoint
 10
2118.800088449528
 20
888.9091633865168
 30
0.0
  0
POINT
  5
4F9C
330
4D82
100
AcDbEntity
  8
DEFPOINTS
 62
     0
100
AcDbPoint
 10
2068.800088449528
 20
833.9091633865168
 30
0.0
  0
POINT
  5
4F9D
330
4D82
100
AcDbEntity
  8
DEFPOINTS
 62
     0
100
AcDbPoint
 10
2068.800088449528
 20
958.7888117376664
 30
0.0
  0
ENDBLK
  5
4D8D
330
4D82
100
AcDbEntity
  8
0
100
AcDbBlockEnd
  0
BLOCK
  5
4D98
330
4D8E
100
AcDbEntity
  8
0
100
AcDbBlockBegin
  2
*D8
 70
     1
 10
0.0
 20
0.0
 30
0.0
  3
*D8
  1

  0
LINE
  5
4F9E
330
4D8E
100
AcDbEntity
  8
寸法
 62
     0
370
    -2
100
AcDbLine
 10
2208.800088449528
 20
918.9091633865169
 30
0.0
 11
2208.800088449528
 21
963.7888117376665
 31
0.0
  0
LINE
  5
4F9F
330
4D8E
100
AcDbEntity
  8
寸法
 62
     0
370
    -2
100
AcDbLine
 10
2118.800088449528
 20
918.9091633865169
 30
0.0
 11
2118.800088449528
 21
963.7888117376665
 31
0.0
  0
LINE
  5
4FA0
330
4D8E
100
AcDbEntity
  8
寸法
 62
     0
370
    -2
100
AcDbLine
 10
2198.800088449528
 20
958.7888117376664
 30
0.0
 11
2128.800088449528
 21
958.7888117376664
 31
0.0
  0
SOLID
  5
4FA1
330
4D8E
100
AcDbEntity
  8
寸法
 62
     0
100
AcDbTrace
 10
2198.800088449528
 20
960.4554784043331
 30
0.0
 11
2198.800088449528
 21
957.1221450709998
 31
0.0
 12
2208.800088449528
 22
958.7888117376664
 32
0.0
 13
2208.800088449528
 23
958.7888117376664
 33
0.0
  0
SOLID
  5
4FA2
330
4D8E
100
AcDbEntity
  8
寸法
 62
     0
100
AcDbTrace
 10
2128.800088449528
 20
960.4554784043331
 30
0.0
 11
2128.800088449528
 21
957.1221450709998
 31
0.0
 12
2118.800088449528
 22
958.7888117376664
 32
0.0
 13
2118.800088449528
 23
958.7888117376664
 33
0.0
  0
MTEXT
  5
4FA3
330
4D8E
100
AcDbEntity
  8
寸法
 62
     0
100
AcDbMText
 10
2163.800088449528
 20
978.7888117376665
 30
0.0
 40
20.0
 41
0.0
 71
     5
 72
     1
  1
90
 73
     1
 44
1.0
1001
ACAD
1000
MTEXTBEGIN
1070
    73
1070
     1
1070
    44
1040
1.0
1070
    74
1070
     0
1000
MTEXTEND
  0
POINT
  5
4FA4
330
4D8E
100
AcDbEntity
  8
DEFPOINTS
 62
     0
100
AcDbPoint
 10
2208.800088449528
 20
888.9091633865168
 30
0.0
  0
POINT
  5
4FA5
330
4D8E
100
AcDbEntity
  8
DEFPOINTS
 62
     0
100
AcDbPoint
 10
2118.800088449528
 20
888.9091633865168
 30
0.0
  0
POINT
  5
4FA6
330
4D8E
100
AcDbEntity
  8
DEFPOINTS
 62
     0
100
AcDbPoint
 10
2118.800088449528
 20
958.7888117376664
 30
0.0
  0
ENDBLK
  5
4D99
330
4D8E
100
AcDbEntity
  8
0
100
AcDbBlockEnd
  0
BLOCK
  5
4DA4
330
4D9A
100
AcDbEntity
  8
0
100
AcDbBlockBegin
  2
*D9
 70
     1
 10
0.0
 20
0.0
 30
0.0
  3
*D9
  1

  0
LINE
  5
4FCB
330
4D9A
100
AcDbEntity
  8
寸法
 62
     0
370
    -2
100
AcDbLine
 10
2208.800088449528
 20
808.9091633865168
 30
0.0
 11
2208.800088449528
 21
667.4970047881275
 31
0.0
  0
LINE
  5
4FCC
330
4D9A
100
AcDbEntity
  8
寸法
 62
     0
370
    -2
100
AcDbLine
 10
2165.800088449528
 20
758.9091633865169
 30
0.0
 11
2165.800088449528
 21
667.4970047881275
 31
0.0
  0
LINE
  5
4FCD
330
4D9A
100
AcDbEntity
  8
寸法
 62
     0
370
    -2
100
AcDbLine
 10
2198.800088449528
 20
672.4970047881274
 30
0.0
 11
2175.800088449528
 21
672.4970047881274
 31
0.0
  0
SOLID
  5
4FCE
330
4D9A
100
AcDbEntity
  8
寸法
 62
     0
100
AcDbTrace
 10
2198.800088449528
 20
674.1636714547941
 30
0.0
 11
2198.800088449528
 21
670.8303381214608
 31
0.0
 12
2208.800088449528
 22
672.4970047881274
 32
0.0
 13
2208.800088449528
 23
672.4970047881274
 33
0.0
  0
SOLID
  5
4FCF
330
4D9A
100
AcDbEntity
  8
寸法
 62
     0
100
AcDbTrace
 10
2175.800088449528
 20
674.1636714547941
 30
0.0
 11
2175.800088449528
 21
670.8303381214608
 31
0.0
 12
2165.800088449528
 22
672.4970047881274
 32
0.0
 13
2165.800088449528
 23
672.4970047881274
 33
0.0
  0
MTEXT
  5
4FD0
330
4D9A
100
AcDbEntity
  8
寸法
 62
     0
100
AcDbMText
 10
2187.300088449529
 20
652.4970047881274
 30
0.0
 40
20.0
 41
0.0
 71
     5
 72
     1
  1
43
 73
     1
 44
1.0
1001
ACAD
1000
MTEXTBEGIN
1070
    73
1070
     1
1070
    44
1040
1.0
1070
    74
1070
     0
1000
MTEXTEND
  0
POINT
  5
4FD1
330
4D9A
100
AcDbEntity
  8
DEFPOINTS
 62
     0
100
AcDbPoint
 10
2208.800088449528
 20
838.9091633865168
 30
0.0
  0
POINT
  5
4FD2
330
4D9A
100
AcDbEntity
  8
DEFPOINTS
 62
     0
100
AcDbPoint
 10
2165.800088449528
 20
788.9091633865168
 30
0.0
  0
POINT
  5
4FD3
330
4D9A
100
AcDbEntity
  8
DEFPOINTS
 62
     0
100
AcDbPoint
 10
2165.800088449528
 20
672.4970047881274
 30
0.0
  0
ENDBLK
  5
4DA5
330
4D9A
100
AcDbEntity
  8
0
100
AcDbBlockEnd
  0
BLOCK
  5
4DB2
330
4DA6
100
AcDbEntity
  8
0
100
AcDbBlockBegin
  2
*D10
 70
     1
 10
0.0
 20
0.0
 30
0.0
  3
*D10
  1

  0
LINE
  5
5023
330
4DA6
100
AcDbEntity
  8
寸法
 62
     0
370
    -2
100
AcDbLine
 10
2783.800088449528
 20
2208.909163386517
 30
0.0
 11
2863.800088449529
 21
2208.909163386517
 31
0.0
  0
LINE
  5
5024
330
4DA6
100
AcDbEntity
  8
寸法
 62
     0
370
    -2
100
AcDbLine
 10
2838.800088449529
 20
2188.909163386517
 30
0.0
 11
2863.800088449529
 21
2188.909163386517
 31
0.0
  0
LINE
  5
5025
330
4DA6
100
AcDbEntity
  8
寸法
 62
     0
370
    -2
100
AcDbLine
 10
2858.800088449529
 20
2218.909163386518
 30
0.0
 11
2858.800088449529
 21
2228.909163386517
 31
0.0
  0
LINE
  5
5026
330
4DA6
100
AcDbEntity
  8
寸法
 62
     0
370
    -2
100
AcDbLine
 10
2858.800088449529
 20
2178.909163386517
 30
0.0
 11
2858.800088449529
 21
2168.909163386517
 31
0.0
  0
LINE
  5
5027
330
4DA6
100
AcDbEntity
  8
寸法
 62
     0
370
    -2
100
AcDbLine
 10
2858.800088449529
 20
2208.909163386517
 30
0.0
 11
2858.800088449529
 21
2188.909163386517
 31
0.0
  0
SOLID
  5
5028
330
4DA6
100
AcDbEntity
  8
寸法
 62
     0
100
AcDbTrace
 10
2857.133421782862
 20
2218.909163386518
 30
0.0
 11
2860.466755116195
 21
2218.909163386518
 31
0.0
 12
2858.800088449529
 22
2208.909163386517
 32
0.0
 13
2858.800088449529
 23
2208.909163386517
 33
0.0
  0
SOLID
  5
5029
330
4DA6
100
AcDbEntity
  8
寸法
 62
     0
100
AcDbTrace
 10
2857.133421782862
 20
2178.909163386517
 30
0.0
 11
2860.466755116195
 21
2178.909163386517
 31
0.0
 12
2858.800088449529
 22
2188.909163386517
 32
0.0
 13
2858.800088449529
 23
2188.909163386517
 33
0.0
  0
MTEXT
  5
502A
330
4DA6
100
AcDbEntity
  8
寸法
 62
     0
100
AcDbMText
 10
2878.800088449528
 20
2198.909163386518
 30
0.0
 40
20.0
 41
0.0
 71
     5
 72
     1
  1
20
 11
0.0000000000000001
 21
1.0
 31
0.0
 73
     1
 44
1.0
1001
ACAD
1000
MTEXTBEGIN
1070
    73
1070
     1
1070
    44
1040
1.0
1070
    74
1070
     0
1000
MTEXTEND
  0
POINT
  5
502B
330
4DA6
100
AcDbEntity
  8
DEFPOINTS
 62
     0
100
AcDbPoint
 10
2753.800088449529
 20
2208.909163386517
 30
0.0
  0
POINT
  5
502C
330
4DA6
100
AcDbEntity
  8
DEFPOINTS
 62
     0
100
AcDbPoint
 10
2808.800088449528
 20
2188.909163386517
 30
0.0
  0
POINT
  5
502D
330
4DA6
100
AcDbEntity
  8
DEFPOINTS
 62
     0
100
AcDbPoint
 10
2858.800088449529
 20
2188.909163386517
 30
0.0
  0
ENDBLK
  5
4DB3
330
4DA6
100
AcDbEntity
  8
0
100
AcDbBlockEnd
  0
BLOCK
  5
4DBF
330
4DB4
100
AcDbEntity
  8
0
100
AcDbBlockBegin
  2
*D11
 70
     1
 10
0.0
 20
0.0
 30
0.0
  3
*D11
  1

  0
LINE
  5
502E
330
4DB4
100
AcDbEntity
  8
寸法
 62
     0
370
    -2
100
AcDbLine
 10
2838.800088449529
 20
2188.909163386517
 30
0.0
 11
2863.800088449528
 21
2188.909163386517
 31
0.0
  0
LINE
  5
502F
330
4DB4
100
AcDbEntity
  8
寸法
 62
     0
370
    -2
100
AcDbLine
 10
2838.800088449529
 20
2138.909163386518
 30
0.0
 11
2863.800088449528
 21
2138.909163386518
 31
0.0
  0
LINE
  5
5030
330
4DB4
100
AcDbEntity
  8
寸法
 62
     0
370
    -2
100
AcDbLine
 10
2858.800088449529
 20
2178.909163386517
 30
0.0
 11
2858.800088449529
 21
2148.909163386517
 31
0.0
  0
LINE
  5
5031
330
4DB4
100
AcDbEntity
  8
寸法
 62
     0
370
    -2
100
AcDbLine
 10
2858.800088449529
 20
2138.909163386518
 30
0.0
 11
2858.800088449529
 21
2078.909163386517
 31
0.0
  0
SOLID
  5
5032
330
4DB4
100
AcDbEntity
  8
寸法
 62
     0
100
AcDbTrace
 10
2857.133421782862
 20
2178.909163386517
 30
0.0
 11
2860.466755116195
 21
2178.909163386517
 31
0.0
 12
2858.800088449529
 22
2188.909163386517
 32
0.0
 13
2858.800088449529
 23
2188.909163386517
 33
0.0
  0
SOLID
  5
5033
330
4DB4
100
AcDbEntity
  8
寸法
 62
     0
100
AcDbTrace
 10
2857.133421782862
 20
2148.909163386517
 30
0.0
 11
2860.466755116195
 21
2148.909163386517
 31
0.0
 12
2858.800088449529
 22
2138.909163386518
 32
0.0
 13
2858.800088449529
 23
2138.909163386518
 33
0.0
  0
MTEXT
  5
5034
330
4DB4
100
AcDbEntity
  8
寸法
 62
     0
100
AcDbMText
 10
2878.800088449528
 20
2103.909163386518
 30
0.0
 40
20.0
 41
0.0
 71
     5
 72
     1
  1
50
 11
0.0000000000000001
 21
1.0
 31
0.0
 73
     1
 44
1.0
1001
ACAD
1000
MTEXTBEGIN
1070
    73
1070
     1
1070
    44
1040
1.0
1070
    74
1070
     0
1000
MTEXTEND
  0
POINT
  5
5035
330
4DB4
100
AcDbEntity
  8
DEFPOINTS
 62
     0
100
AcDbPoint
 10
2808.800088449528
 20
2188.909163386517
 30
0.0
  0
POINT
  5
5036
330
4DB4
100
AcDbEntity
  8
DEFPOINTS
 62
     0
100
AcDbPoint
 10
2808.800088449528
 20
2138.909163386518
 30
0.0
  0
POINT
  5
5037
330
4DB4
100
AcDbEntity
  8
DEFPOINTS
 62
     0
100
AcDbPoint
 10
2858.800088449529
 20
2138.909163386518
 30
0.0
  0
ENDBLK
  5
4DC0
330
4DB4
100
AcDbEntity
  8
0
100
AcDbBlockEnd
  0
BLOCK
  5
4DCB
330
4DC1
100
AcDbEntity
  8
0
100
AcDbBlockBegin
  2
*D12
 70
     1
 10
0.0
 20
0.0
 30
0.0
  3
*D12
  1

  0
LINE
  5
50DB
330
4DC1
100
AcDbEntity
  8
寸法
 62
     0
370
    -2
100
AcDbLine
 10
782.8000884495281
 20
1718.909163386516
 30
0.0
 11
782.8000884495281
 21
1793.45085461361
 31
0.0
  0
LINE
  5
50DC
330
4DC1
100
AcDbEntity
  8
寸法
 62
     0
370
    -2
100
AcDbLine
 10
2208.800088449528
 20
1718.909163386516
 30
0.0
 11
2208.800088449528
 21
1793.45085461361
 31
0.0
  0
LINE
  5
50DD
330
4DC1
100
AcDbEntity
  8
寸法
 62
     0
370
    -2
100
AcDbLine
 10
792.8000884495282
 20
1788.45085461361
 30
0.0
 11
2198.800088449528
 21
1788.45085461361
 31
0.0
  0
SOLID
  5
50DE
330
4DC1
100
AcDbEntity
  8
寸法
 62
     0
100
AcDbTrace
 10
792.8000884495282
 20
1790.117521280276
 30
0.0
 11
792.8000884495282
 21
1786.784187946943
 31
0.0
 12
782.8000884495281
 22
1788.45085461361
 32
0.0
 13
782.8000884495281
 23
1788.45085461361
 33
0.0
  0
SOLID
  5
50DF
330
4DC1
100
AcDbEntity
  8
寸法
 62
     0
100
AcDbTrace
 10
2198.800088449528
 20
1790.117521280276
 30
0.0
 11
2198.800088449528
 21
1786.784187946943
 31
0.0
 12
2208.800088449528
 22
1788.45085461361
 32
0.0
 13
2208.800088449528
 23
1788.45085461361
 33
0.0
  0
MTEXT
  5
50E0
330
4DC1
100
AcDbEntity
  8
寸法
 62
     0
100
AcDbMText
 10
1495.800088449528
 20
1808.45085461361
 30
0.0
 40
20.0
 41
0.0
 71
     5
 72
     1
  1
1426
 73
     1
 44
1.0
1001
ACAD
1000
MTEXTBEGIN
1070
    73
1070
     1
1070
    44
1040
1.0
1070
    74
1070
     0
1000
MTEXTEND
  0
POINT
  5
50E1
330
4DC1
100
AcDbEntity
  8
DEFPOINTS
 62
     0
100
AcDbPoint
 10
782.8000884495281
 20
1688.909163386517
 30
0.0
  0
POINT
  5
50E2
330
4DC1
100
AcDbEntity
  8
DEFPOINTS
 62
     0
100
AcDbPoint
 10
2208.800088449528
 20
1688.909163386517
 30
0.0
  0
POINT
  5
50E3
330
4DC1
100
AcDbEntity
  8
DEFPOINTS
 62
     0
100
AcDbPoint
 10
2208.800088449528
 20
1788.45085461361
 30
0.0
  0
ENDBLK
  5
4DCC
330
4DC1
100
AcDbEntity
  8
0
100
AcDbBlockEnd
  0
BLOCK
  5
4DD7
330
4DCD
100
AcDbEntity
  8
0
100
AcDbBlockBegin
  2
*D13
 70
     1
 10
0.0
 20
0.0
 30
0.0
  3
*D13
  1

  0
LINE
  5
50E4
330
4DCD
100
AcDbEntity
  8
寸法
 62
     0
370
    -2
100
AcDbLine
 10
2238.800088449528
 20
1688.909163386517
 30
0.0
 11
2267.854034440014
 21
1688.909163386517
 31
0.0
  0
LINE
  5
50E5
330
4DCD
100
AcDbEntity
  8
寸法
 62
     0
370
    -2
100
AcDbLine
 10
2238.800088449528
 20
1389.909163386517
 30
0.0
 11
2267.854034440014
 21
1389.909163386517
 31
0.0
  0
LINE
  5
50E6
330
4DCD
100
AcDbEntity
  8
寸法
 62
     0
370
    -2
100
AcDbLine
 10
2262.854034440014
 20
1678.909163386517
 30
0.0
 11
2262.854034440014
 21
1399.909163386517
 31
0.0
  0
SOLID
  5
50E7
330
4DCD
100
AcDbEntity
  8
寸法
 62
     0
100
AcDbTrace
 10
2261.187367773347
 20
1678.909163386517
 30
0.0
 11
2264.520701106681
 21
1678.909163386517
 31
0.0
 12
2262.854034440014
 22
1688.909163386517
 32
0.0
 13
2262.854034440014
 23
1688.909163386517
 33
0.0
  0
SOLID
  5
50E8
330
4DCD
100
AcDbEntity
  8
寸法
 62
     0
100
AcDbTrace
 10
2261.187367773347
 20
1399.909163386517
 30
0.0
 11
2264.520701106681
 21
1399.909163386517
 31
0.0
 12
2262.854034440014
 22
1389.909163386517
 32
0.0
 13
2262.854034440014
 23
1389.909163386517
 33
0.0
  0
MTEXT
  5
50E9
330
4DCD
100
AcDbEntity
  8
寸法
 62
     0
100
AcDbMText
 10
2282.854034440013
 20
1539.409163386517
 30
0.0
 40
20.0
 41
0.0
 71
     5
 72
     1
  1
299
 11
0.0000000000000001
 21
1.0
 31
0.0
 73
     1
 44
1.0
1001
ACAD
1000
MTEXTBEGIN
1070
    73
1070
     1
1070
    44
1040
1.0
1070
    74
1070
     0
1000
MTEXTEND
  0
POINT
  5
50EA
330
4DCD
100
AcDbEntity
  8
DEFPOINTS
 62
     0
100
AcDbPoint
 10
2208.800088449528
 20
1688.909163386517
 30
0.0
  0
POINT
  5
50EB
330
4DCD
100
AcDbEntity
  8
DEFPOINTS
 62
     0
100
AcDbPoint
 10
2208.800088449528
 20
1389.909163386517
 30
0.0
  0
POINT
  5
50EC
330
4DCD
100
AcDbEntity
  8
DEFPOINTS
 62
     0
100
AcDbPoint
 10
2262.854034440014
 20
1389.909163386517
 30
0.0
  0
ENDBLK
  5
4DD8
330
4DCD
100
AcDbEntity
  8
0
100
AcDbBlockEnd
  0
BLOCK
  5
4DE5
330
4DD9
100
AcDbEntity
  8
0
100
AcDbBlockBegin
  2
*D14
 70
     1
 10
0.0
 20
0.0
 30
0.0
  3
*D14
  1

  0
LINE
  5
50ED
330
4DD9
100
AcDbEntity
  8
寸法
 62
     0
370
    -2
100
AcDbLine
 10
2195.800088449528
 20
1384.909163386517
 30
0.0
 11
2267.854034440015
 21
1384.909163386517
 31
0.0
  0
LINE
  5
50EE
330
4DD9
100
AcDbEntity
  8
寸法
 62
     0
370
    -2
100
AcDbLine
 10
2238.800088449528
 20
1389.909163386517
 30
0.0
 11
2267.854034440015
 21
1389.909163386517
 31
0.0
  0
LINE
  5
50EF
330
4DD9
100
AcDbEntity
  8
寸法
 62
     0
370
    -2
100
AcDbLine
 10
2262.854034440014
 20
1374.909163386517
 30
0.0
 11
2262.854034440014
 21
1364.909163386517
 31
0.0
  0
LINE
  5
50F0
330
4DD9
100
AcDbEntity
  8
寸法
 62
     0
370
    -2
100
AcDbLine
 10
2262.854034440014
 20
1399.909163386517
 30
0.0
 11
2262.854034440014
 21
1409.909163386517
 31
0.0
  0
LINE
  5
50F1
330
4DD9
100
AcDbEntity
  8
寸法
 62
     0
370
    -2
100
AcDbLine
 10
2262.854034440014
 20
1384.909163386517
 30
0.0
 11
2262.854034440014
 21
1389.909163386517
 31
0.0
  0
SOLID
  5
50F2
330
4DD9
100
AcDbEntity
  8
寸法
 62
     0
100
AcDbTrace
 10
2261.187367773348
 20
1374.909163386517
 30
0.0
 11
2264.520701106681
 21
1374.909163386517
 31
0.0
 12
2262.854034440014
 22
1384.909163386517
 32
0.0
 13
2262.854034440014
 23
1384.909163386517
 33
0.0
  0
SOLID
  5
50F3
330
4DD9
100
AcDbEntity
  8
寸法
 62
     0
100
AcDbTrace
 10
2261.187367773348
 20
1399.909163386517
 30
0.0
 11
2264.520701106681
 21
1399.909163386517
 31
0.0
 12
2262.854034440014
 22
1389.909163386517
 32
0.0
 13
2262.854034440014
 23
1389.909163386517
 33
0.0
  0
MTEXT
  5
50F4
330
4DD9
100
AcDbEntity
  8
寸法
 62
     0
100
AcDbMText
 10
2282.854034440014
 20
1387.409163386517
 30
0.0
 40
20.0
 41
0.0
 71
     5
 72
     1
  1
5
 11
0.0000000000000001
 21
1.0
 31
0.0
 73
     1
 44
1.0
1001
ACAD
1000
MTEXTBEGIN
1070
    73
1070
     1
1070
    44
1040
1.0
1070
    74
1070
     0
1000
MTEXTEND
  0
POINT
  5
50F5
330
4DD9
100
AcDbEntity
  8
DEFPOINTS
 62
     0
100
AcDbPoint
 10
2165.800088449528
 20
1384.909163386517
 30
0.0
  0
POINT
  5
50F6
330
4DD9
100
AcDbEntity
  8
DEFPOINTS
 62
     0
100
AcDbPoint
 10
2208.800088449528
 20
1389.909163386517
 30
0.0
  0
POINT
  5
50F7
330
4DD9
100
AcDbEntity
  8
DEFPOINTS
 62
     0
100
AcDbPoint
 10
2262.854034440014
 20
1389.909163386517
 30
0.0
  0
ENDBLK
  5
4DE6
330
4DD9
100
AcDbEntity
  8
0
100
AcDbBlockEnd
  0
BLOCK
  5
4DF1
330
4DE7
100
AcDbEntity
  8
0
100
AcDbBlockBegin
  2
*D15
 70
     1
 10
0.0
 20
0.0
 30
0.0
  3
*D15
  1

  0
LINE
  5
50F8
330
4DE7
100
AcDbEntity
  8
寸法
 62
     0
370
    -2
100
AcDbLine
 10
2190.800088449528
 20
1288.909163386517
 30
0.0
 11
2267.854034440015
 21
1288.909163386517
 31
0.0
  0
LINE
  5
50F9
330
4DE7
100
AcDbEntity
  8
寸法
 62
     0
370
    -2
100
AcDbLine
 10
2195.800088449528
 20
1384.909163386517
 30
0.0
 11
2267.854034440015
 21
1384.909163386517
 31
0.0
  0
LINE
  5
50FA
330
4DE7
100
AcDbEntity
  8
寸法
 62
     0
370
    -2
100
AcDbLine
 10
2262.854034440014
 20
1298.909163386517
 30
0.0
 11
2262.854034440014
 21
1374.909163386517
 31
0.0
  0
SOLID
  5
50FB
330
4DE7
100
AcDbEntity
  8
寸法
 62
     0
100
AcDbTrace
 10
2261.187367773348
 20
1298.909163386517
 30
0.0
 11
2264.520701106681
 21
1298.909163386517
 31
0.0
 12
2262.854034440014
 22
1288.909163386517
 32
0.0
 13
2262.854034440014
 23
1288.909163386517
 33
0.0
  0
SOLID
  5
50FC
330
4DE7
100
AcDbEntity
  8
寸法
 62
     0
100
AcDbTrace
 10
2261.187367773348
 20
1374.909163386517
 30
0.0
 11
2264.520701106681
 21
1374.909163386517
 31
0.0
 12
2262.854034440014
 22
1384.909163386517
 32
0.0
 13
2262.854034440014
 23
1384.909163386517
 33
0.0
  0
MTEXT
  5
50FD
330
4DE7
100
AcDbEntity
  8
寸法
 62
     0
100
AcDbMText
 10
2282.854034440014
 20
1336.909163386517
 30
0.0
 40
20.0
 41
0.0
 71
     5
 72
     1
  1
96
 11
0.0000000000000001
 21
1.0
 31
0.0
 73
     1
 44
1.0
1001
ACAD
1000
MTEXTBEGIN
1070
    73
1070
     1
1070
    44
1040
1.0
1070
    74
1070
     0
1000
MTEXTEND
  0
POINT
  5
50FE
330
4DE7
100
AcDbEntity
  8
DEFPOINTS
 62
     0
100
AcDbPoint
 10
2160.800088449528
 20
1288.909163386517
 30
0.0
  0
POINT
  5
50FF
330
4DE7
100
AcDbEntity
  8
DEFPOINTS
 62
     0
100
AcDbPoint
 10
2165.800088449528
 20
1384.909163386517
 30
0.0
  0
POINT
  5
5100
330
4DE7
100
AcDbEntity
  8
DEFPOINTS
 62
     0
100
AcDbPoint
 10
2262.854034440014
 20
1384.909163386517
 30
0.0
  0
ENDBLK
  5
4DF2
330
4DE7
100
AcDbEntity
  8
0
100
AcDbBlockEnd
  0
BLOCK
  5
4DFD
330
4DF3
100
AcDbEntity
  8
0
100
AcDbBlockBegin
  2
*D16
 70
     1
 10
0.0
 20
0.0
 30
0.0
  3
*D16
  1

  0
LINE
  5
5101
330
4DF3
100
AcDbEntity
  8
寸法
 62
     0
370
    -2
100
AcDbLine
 10
830.8000884495282
 20
1258.909163386517
 30
0.0
 11
830.8000884495282
 21
1228.21170822149
 31
0.0
  0
LINE
  5
5102
330
4DF3
100
AcDbEntity
  8
寸法
 62
     0
370
    -2
100
AcDbLine
 10
2160.800088449528
 20
1258.909163386517
 30
0.0
 11
2160.800088449528
 21
1228.21170822149
 31
0.0
  0
LINE
  5
5103
330
4DF3
100
AcDbEntity
  8
寸法
 62
     0
370
    -2
100
AcDbLine
 10
840.8000884495281
 20
1233.21170822149
 30
0.0
 11
2150.800088449528
 21
1233.21170822149
 31
0.0
  0
SOLID
  5
5104
330
4DF3
100
AcDbEntity
  8
寸法
 62
     0
100
AcDbTrace
 10
840.8000884495281
 20
1234.878374888157
 30
0.0
 11
840.8000884495281
 21
1231.545041554824
 31
0.0
 12
830.8000884495282
 22
1233.21170822149
 32
0.0
 13
830.8000884495282
 23
1233.21170822149
 33
0.0
  0
SOLID
  5
5105
330
4DF3
100
AcDbEntity
  8
寸法
 62
     0
100
AcDbTrace
 10
2150.800088449528
 20
1234.878374888157
 30
0.0
 11
2150.800088449528
 21
1231.545041554824
 31
0.0
 12
2160.800088449528
 22
1233.21170822149
 32
0.0
 13
2160.800088449528
 23
1233.21170822149
 33
0.0
  0
MTEXT
  5
5106
330
4DF3
100
AcDbEntity
  8
寸法
 62
     0
100
AcDbMText
 10
1495.800088449528
 20
1213.21170822149
 30
0.0
 40
20.0
 41
0.0
 71
     5
 72
     1
  1
1330
 73
     1
 44
1.0
1001
ACAD
1000
MTEXTBEGIN
1070
    73
1070
     1
1070
    44
1040
1.0
1070
    74
1070
     0
1000
MTEXTEND
  0
POINT
  5
5107
330
4DF3
100
AcDbEntity
  8
DEFPOINTS
 62
     0
100
AcDbPoint
 10
830.8000884495282
 20
1288.909163386517
 30
0.0
  0
POINT
  5
5108
330
4DF3
100
AcDbEntity
  8
DEFPOINTS
 62
     0
100
AcDbPoint
 10
2160.800088449528
 20
1288.909163386517
 30
0.0
  0
POINT
  5
5109
330
4DF3
100
AcDbEntity
  8
DEFPOINTS
 62
     0
100
AcDbPoint
 10
2160.800088449528
 20
1233.21170822149
 30
0.0
  0
ENDBLK
  5
4DFE
330
4DF3
100
AcDbEntity
  8
0
100
AcDbBlockEnd
  0
BLOCK
  5
4E0B
330
4DFF
100
AcDbEntity
  8
0
100
AcDbBlockBegin
  2
*D17
 70
     1
 10
0.0
 20
0.0
 30
0.0
  3
*D17
  1

  0
LINE
  5
510A
330
4DFF
100
AcDbEntity
  8
寸法
 62
     0
370
    -2
100
AcDbLine
 10
825.8000884495281
 20
1354.909163386517
 30
0.0
 11
825.8000884495281
 21
1228.21170822149
 31
0.0
  0
LINE
  5
510B
330
4DFF
100
AcDbEntity
  8
寸法
 62
     0
370
    -2
100
AcDbLine
 10
830.8000884495282
 20
1258.909163386517
 30
0.0
 11
830.8000884495282
 21
1228.21170822149
 31
0.0
  0
LINE
  5
510C
330
4DFF
100
AcDbEntity
  8
寸法
 62
     0
370
    -2
100
AcDbLine
 10
815.8000884495281
 20
1233.21170822149
 30
0.0
 11
805.8000884495282
 21
1233.21170822149
 31
0.0
  0
LINE
  5
510D
330
4DFF
100
AcDbEntity
  8
寸法
 62
     0
370
    -2
100
AcDbLine
 10
840.8000884495281
 20
1233.21170822149
 30
0.0
 11
850.8000884495281
 21
1233.21170822149
 31
0.0
  0
LINE
  5
510E
330
4DFF
100
AcDbEntity
  8
寸法
 62
     0
370
    -2
100
AcDbLine
 10
825.8000884495281
 20
1233.21170822149
 30
0.0
 11
830.8000884495282
 21
1233.21170822149
 31
0.0
  0
SOLID
  5
510F
330
4DFF
100
AcDbEntity
  8
寸法
 62
     0
100
AcDbTrace
 10
815.8000884495281
 20
1234.878374888157
 30
0.0
 11
815.8000884495281
 21
1231.545041554824
 31
0.0
 12
825.8000884495281
 22
1233.21170822149
 32
0.0
 13
825.8000884495281
 23
1233.21170822149
 33
0.0
  0
SOLID
  5
5110
330
4DFF
100
AcDbEntity
  8
寸法
 62
     0
100
AcDbTrace
 10
840.8000884495281
 20
1234.878374888157
 30
0.0
 11
840.8000884495281
 21
1231.545041554824
 31
0.0
 12
830.8000884495282
 22
1233.21170822149
 32
0.0
 13
830.8000884495282
 23
1233.21170822149
 33
0.0
  0
MTEXT
  5
5111
330
4DFF
100
AcDbEntity
  8
寸法
 62
     0
100
AcDbMText
 10
828.3000884495281
 20
1213.21170822149
 30
0.0
 40
20.0
 41
0.0
 71
     5
 72
     1
  1
5
 73
     1
 44
1.0
1001
ACAD
1000
MTEXTBEGIN
1070
    73
1070
     1
1070
    44
1040
1.0
1070
    74
1070
     0
1000
MTEXTEND
  0
POINT
  5
5112
330
4DFF
100
AcDbEntity
  8
DEFPOINTS
 62
     0
100
AcDbPoint
 10
825.8000884495281
 20
1384.909163386517
 30
0.0
  0
POINT
  5
5113
330
4DFF
100
AcDbEntity
  8
DEFPOINTS
 62
     0
100
AcDbPoint
 10
830.8000884495282
 20
1288.909163386517
 30
0.0
  0
POINT
  5
5114
330
4DFF
100
AcDbEntity
  8
DEFPOINTS
 62
     0
100
AcDbPoint
 10
830.8000884495282
 20
1233.21170822149
 30
0.0
  0
ENDBLK
  5
4E0C
330
4DFF
100
AcDbEntity
  8
0
100
AcDbBlockEnd
  0
BLOCK
  5
4E19
330
4E0D
100
AcDbEntity
  8
0
100
AcDbBlockBegin
  2
*D18
 70
     1
 10
0.0
 20
0.0
 30
0.0
  3
*D18
  1

  0
LINE
  5
5115
330
4E0D
100
AcDbEntity
  8
寸法
 62
     0
370
    -2
100
AcDbLine
 10
2165.800088449528
 20
1354.909163386517
 30
0.0
 11
2165.800088449528
 21
1228.21170822149
 31
0.0
  0
LINE
  5
5116
330
4E0D
100
AcDbEntity
  8
寸法
 62
     0
370
    -2
100
AcDbLine
 10
2160.800088449528
 20
1258.909163386517
 30
0.0
 11
2160.800088449528
 21
1228.21170822149
 31
0.0
  0
LINE
  5
5117
330
4E0D
100
AcDbEntity
  8
寸法
 62
     0
370
    -2
100
AcDbLine
 10
2175.800088449528
 20
1233.21170822149
 30
0.0
 11
2185.800088449528
 21
1233.21170822149
 31
0.0
  0
LINE
  5
5118
330
4E0D
100
AcDbEntity
  8
寸法
 62
     0
370
    -2
100
AcDbLine
 10
2150.800088449528
 20
1233.21170822149
 30
0.0
 11
2140.800088449529
 21
1233.21170822149
 31
0.0
  0
LINE
  5
5119
330
4E0D
100
AcDbEntity
  8
寸法
 62
     0
370
    -2
100
AcDbLine
 10
2165.800088449528
 20
1233.21170822149
 30
0.0
 11
2160.800088449528
 21
1233.21170822149
 31
0.0
  0
SOLID
  5
511A
330
4E0D
100
AcDbEntity
  8
寸法
 62
     0
100
AcDbTrace
 10
2175.800088449528
 20
1234.878374888157
 30
0.0
 11
2175.800088449528
 21
1231.545041554824
 31
0.0
 12
2165.800088449528
 22
1233.21170822149
 32
0.0
 13
2165.800088449528
 23
1233.21170822149
 33
0.0
  0
SOLID
  5
511B
330
4E0D
100
AcDbEntity
  8
寸法
 62
     0
100
AcDbTrace
 10
2150.800088449528
 20
1234.878374888157
 30
0.0
 11
2150.800088449528
 21
1231.545041554824
 31
0.0
 12
2160.800088449528
 22
1233.21170822149
 32
0.0
 13
2160.800088449528
 23
1233.21170822149
 33
0.0
  0
MTEXT
  5
511C
330
4E0D
100
AcDbEntity
  8
寸法
 62
     0
100
AcDbMText
 10
2163.300088449528
 20
1213.21170822149
 30
0.0
 40
20.0
 41
0.0
 71
     5
 72
     1
  1
5
 73
     1
 44
1.0
1001
ACAD
1000
MTEXTBEGIN
1070
    73
1070
     1
1070
    44
1040
1.0
1070
    74
1070
     0
1000
MTEXTEND
  0
POINT
  5
511D
330
4E0D
100
AcDbEntity
  8
DEFPOINTS
 62
     0
100
AcDbPoint
 10
2165.800088449528
 20
1384.909163386517
 30
0.0
  0
POINT
  5
511E
330
4E0D
100
AcDbEntity
  8
DEFPOINTS
 62
     0
100
AcDbPoint
 10
2160.800088449528
 20
1288.909163386517
 30
0.0
  0
POINT
  5
511F
330
4E0D
100
AcDbEntity
  8
DEFPOINTS
 62
     0
100
AcDbPoint
 10
2160.800088449528
 20
1233.21170822149
 30
0.0
  0
ENDBLK
  5
4E1A
330
4E0D
100
AcDbEntity
  8
0
100
AcDbBlockEnd
  0
BLOCK
  5
4F03
330
4EF9
100
AcDbEntity
  8
0
100
AcDbBlockBegin
  2
*D19
 70
     1
 10
0.0
 20
0.0
 30
0.0
  3
*D19
  1

  0
LINE
  5
4EFA
330
4EF9
100
AcDbEntity
  8
寸法
 62
     0
370
    -2
100
AcDbLine
 10
782.8000884495281
 20
2568.909163386517
 30
0.0
 11
782.8000884495281
 21
2643.45085461361
 31
0.0
  0
LINE
  5
4EFB
330
4EF9
100
AcDbEntity
  8
寸法
 62
     0
370
    -2
100
AcDbLine
 10
2208.800088449528
 20
2568.909163386517
 30
0.0
 11
2208.800088449528
 21
2643.45085461361
 31
0.0
  0
LINE
  5
4EFC
330
4EF9
100
AcDbEntity
  8
寸法
 62
     0
370
    -2
100
AcDbLine
 10
792.8000884495282
 20
2638.45085461361
 30
0.0
 11
2198.800088449528
 21
2638.45085461361
 31
0.0
  0
SOLID
  5
4EFD
330
4EF9
100
AcDbEntity
  8
寸法
 62
     0
100
AcDbTrace
 10
792.8000884495282
 20
2640.117521280277
 30
0.0
 11
792.8000884495282
 21
2636.784187946944
 31
0.0
 12
782.8000884495281
 22
2638.45085461361
 32
0.0
 13
782.8000884495281
 23
2638.45085461361
 33
0.0
  0
SOLID
  5
4EFE
330
4EF9
100
AcDbEntity
  8
寸法
 62
     0
100
AcDbTrace
 10
2198.800088449528
 20
2640.117521280277
 30
0.0
 11
2198.800088449528
 21
2636.784187946944
 31
0.0
 12
2208.800088449528
 22
2638.45085461361
 32
0.0
 13
2208.800088449528
 23
2638.45085461361
 33
0.0
  0
MTEXT
  5
4EFF
330
4EF9
100
AcDbEntity
  8
寸法
 62
     0
100
AcDbMText
 10
1495.800088449528
 20
2658.45085461361
 30
0.0
 40
20.0
 41
0.0
 71
     5
 72
     1
  1
1426
 73
     1
 44
1.0
1001
ACAD
1000
MTEXTBEGIN
1070
    73
1070
     1
1070
    44
1040
1.0
1070
    74
1070
     0
1000
MTEXTEND
  0
POINT
  5
4F00
330
4EF9
100
AcDbEntity
  8
DEFPOINTS
 62
     0
100
AcDbPoint
 10
782.8000884495281
 20
2538.909163386517
 30
0.0
  0
POINT
  5
4F01
330
4EF9
100
AcDbEntity
  8
DEFPOINTS
 62
     0
100
AcDbPoint
 10
2208.800088449528
 20
2538.909163386517
 30
0.0
  0
POINT
  5
4F02
330
4EF9
100
AcDbEntity
  8
DEFPOINTS
 62
     0
100
AcDbPoint
 10
2208.800088449528
 20
2638.45085461361
 30
0.0
  0
ENDBLK
  5
4F04
330
4EF9
100
AcDbEntity
  8
0
100
AcDbBlockEnd
  0
BLOCK
  5
4F0F
330
4F05
100
AcDbEntity
  8
0
100
AcDbBlockBegin
  2
*D20
 70
     1
 10
0.0
 20
0.0
 30
0.0
  3
*D20
  1

  0
LINE
  5
4F06
330
4F05
100
AcDbEntity
  8
寸法
 62
     0
370
    -2
100
AcDbLine
 10
825.8000884495281
 20
2568.909163386517
 30
0.0
 11
825.8000884495281
 21
2594.24438039825
 31
0.0
  0
LINE
  5
4F07
330
4F05
100
AcDbEntity
  8
寸法
 62
     0
370
    -2
100
AcDbLine
 10
2165.800088449528
 20
2568.909163386517
 30
0.0
 11
2165.800088449528
 21
2594.24438039825
 31
0.0
  0
LINE
  5
4F08
330
4F05
100
AcDbEntity
  8
寸法
 62
     0
370
    -2
100
AcDbLine
 10
835.8000884495281
 20
2589.24438039825
 30
0.0
 11
2155.800088449528
 21
2589.24438039825
 31
0.0
  0
SOLID
  5
4F09
330
4F05
100
AcDbEntity
  8
寸法
 62
     0
100
AcDbTrace
 10
835.8000884495281
 20
2590.911047064917
 30
0.0
 11
835.8000884495281
 21
2587.577713731584
 31
0.0
 12
825.8000884495281
 22
2589.24438039825
 32
0.0
 13
825.8000884495281
 23
2589.24438039825
 33
0.0
  0
SOLID
  5
4F0A
330
4F05
100
AcDbEntity
  8
寸法
 62
     0
100
AcDbTrace
 10
2155.800088449528
 20
2590.911047064917
 30
0.0
 11
2155.800088449528
 21
2587.577713731584
 31
0.0
 12
2165.800088449528
 22
2589.24438039825
 32
0.0
 13
2165.800088449528
 23
2589.24438039825
 33
0.0
  0
MTEXT
  5
4F0B
330
4F05
100
AcDbEntity
  8
寸法
 62
     0
100
AcDbMText
 10
1495.800088449528
 20
2609.24438039825
 30
0.0
 40
20.0
 41
0.0
 71
     5
 72
     1
  1
1340
 73
     1
 44
1.0
1001
ACAD
1000
MTEXTBEGIN
1070
    73
1070
     1
1070
    44
1040
1.0
1070
    74
1070
     0
1000
MTEXTEND
  0
POINT
  5
4F0C
330
4F05
100
AcDbEntity
  8
DEFPOINTS
 62
     0
100
AcDbPoint
 10
825.8000884495281
 20
2538.909163386517
 30
0.0
  0
POINT
  5
4F0D
330
4F05
100
AcDbEntity
  8
DEFPOINTS
 62
     0
100
AcDbPoint
 10
2165.800088449528
 20
2538.909163386517
 30
0.0
  0
POINT
  5
4F0E
330
4F05
100
AcDbEntity
  8
DEFPOINTS
 62
     0
100
AcDbPoint
 10
2165.800088449528
 20
2589.24438039825
 30
0.0
  0
ENDBLK
  5
4F10
330
4F05
100
AcDbEntity
  8
0
100
AcDbBlockEnd
  0
BLOCK
  5
4F1B
330
4F11
100
AcDbEntity
  8
0
100
AcDbBlockBegin
  2
*D21
 70
     1
 10
0.0
 20
0.0
 30
0.0
  3
*D21
  1

  0
LINE
  5
4F12
330
4F11
100
AcDbEntity
  8
寸法
 62
     0
370
    -2
100
AcDbLine
 10
2165.800088449528
 20
2568.909163386517
 30
0.0
 11
2165.800088449528
 21
2594.24438039825
 31
0.0
  0
LINE
  5
4F13
330
4F11
100
AcDbEntity
  8
寸法
 62
     0
370
    -2
100
AcDbLine
 10
2208.800088449528
 20
2568.909163386517
 30
0.0
 11
2208.800088449528
 21
2594.24438039825
 31
0.0
  0
LINE
  5
4F14
330
4F11
100
AcDbEntity
  8
寸法
 62
     0
370
    -2
100
AcDbLine
 10
2175.800088449528
 20
2589.24438039825
 30
0.0
 11
2198.800088449528
 21
2589.24438039825
 31
0.0
  0
SOLID
  5
4F15
330
4F11
100
AcDbEntity
  8
寸法
 62
     0
100
AcDbTrace
 10
2175.800088449528
 20
2590.911047064917
 30
0.0
 11
2175.800088449528
 21
2587.577713731584
 31
0.0
 12
2165.800088449528
 22
2589.24438039825
 32
0.0
 13
2165.800088449528
 23
2589.24438039825
 33
0.0
  0
SOLID
  5
4F16
330
4F11
100
AcDbEntity
  8
寸法
 62
     0
100
AcDbTrace
 10
2198.800088449528
 20
2590.911047064917
 30
0.0
 11
2198.800088449528
 21
2587.577713731584
 31
0.0
 12
2208.800088449528
 22
2589.24438039825
 32
0.0
 13
2208.800088449528
 23
2589.24438039825
 33
0.0
  0
MTEXT
  5
4F17
330
4F11
100
AcDbEntity
  8
寸法
 62
     0
100
AcDbMText
 10
2187.300088449529
 20
2609.24438039825
 30
0.0
 40
20.0
 41
0.0
 71
     5
 72
     1
  1
43
 73
     1
 44
1.0
1001
ACAD
1000
MTEXTBEGIN
1070
    73
1070
     1
1070
    44
1040
1.0
1070
    74
1070
     0
1000
MTEXTEND
  0
POINT
  5
4F18
330
4F11
100
AcDbEntity
  8
DEFPOINTS
 62
     0
100
AcDbPoint
 10
2165.800088449528
 20
2538.909163386517
 30
0.0
  0
POINT
  5
4F19
330
4F11
100
AcDbEntity
  8
DEFPOINTS
 62
     0
100
AcDbPoint
 10
2208.800088449528
 20
2538.909163386517
 30
0.0
  0
POINT
  5
4F1A
330
4F11
100
AcDbEntity
  8
DEFPOINTS
 62
     0
100
AcDbPoint
 10
2208.800088449528
 20
2589.24438039825
 30
0.0
  0
ENDBLK
  5
4F1C
330
4F11
100
AcDbEntity
  8
0
100
AcDbBlockEnd
  0
BLOCK
  5
4F30
330
4F26
100
AcDbEntity
  8
0
100
AcDbBlockBegin
  2
*D22
 70
     1
 10
0.0
 20
0.0
 30
0.0
  3
*D22
  1

  0
LINE
  5
5559
330
4F26
100
AcDbEntity
  8
寸法
 62
     0
370
    -2
100
AcDbLine
 10
2238.800088449528
 20
2538.909163386517
 30
0.0
 11
2322.280666073184
 21
2538.909163386517
 31
0.0
  0
LINE
  5
555A
330
4F26
100
AcDbEntity
  8
寸法
 62
     0
370
    -2
100
AcDbLine
 10
2238.800088449528
 20
2239.909163386517
 30
0.0
 11
2322.280666073184
 21
2239.909163386517
 31
0.0
  0
LINE
  5
555B
330
4F26
100
AcDbEntity
  8
寸法
 62
     0
370
    -2
100
AcDbLine
 10
2317.280666073184
 20
2528.909163386517
 30
0.0
 11
2317.280666073184
 21
2249.909163386517
 31
0.0
  0
SOLID
  5
555C
330
4F26
100
AcDbEntity
  8
寸法
 62
     0
100
AcDbTrace
 10
2315.613999406517
 20
2528.909163386517
 30
0.0
 11
2318.947332739851
 21
2528.909163386517
 31
0.0
 12
2317.280666073184
 22
2538.909163386517
 32
0.0
 13
2317.280666073184
 23
2538.909163386517
 33
0.0
  0
SOLID
  5
555D
330
4F26
100
AcDbEntity
  8
寸法
 62
     0
100
AcDbTrace
 10
2315.613999406517
 20
2249.909163386517
 30
0.0
 11
2318.947332739851
 21
2249.909163386517
 31
0.0
 12
2317.280666073184
 22
2239.909163386517
 32
0.0
 13
2317.280666073184
 23
2239.909163386517
 33
0.0
  0
MTEXT
  5
555E
330
4F26
100
AcDbEntity
  8
寸法
 62
     0
100
AcDbMText
 10
2337.280666073183
 20
2389.409163386517
 30
0.0
 40
20.0
 41
0.0
 71
     5
 72
     1
  1
299
 11
0.0000000000000001
 21
1.0
 31
0.0
 73
     1
 44
1.0
1001
ACAD
1000
MTEXTBEGIN
1070
    73
1070
     1
1070
    44
1040
1.0
1070
    74
1070
     0
1000
MTEXTEND
  0
POINT
  5
555F
330
4F26
100
AcDbEntity
  8
DEFPOINTS
 62
     0
100
AcDbPoint
 10
2208.800088449528
 20
2538.909163386517
 30
0.0
  0
POINT
  5
5560
330
4F26
100
AcDbEntity
  8
DEFPOINTS
 62
     0
100
AcDbPoint
 10
2208.800088449528
 20
2239.909163386517
 30
0.0
  0
POINT
  5
5561
330
4F26
100
AcDbEntity
  8
DEFPOINTS
 62
     0
100
AcDbPoint
 10
2317.280666073184
 20
2239.909163386517
 30
0.0
  0
ENDBLK
  5
4F31
330
4F26
100
AcDbEntity
  8
0
100
AcDbBlockEnd
  0
BLOCK
  5
4F3E
330
4F32
100
AcDbEntity
  8
0
100
AcDbBlockBegin
  2
*D23
 70
     1
 10
0.0
 20
0.0
 30
0.0
  3
*D23
  1

  0
LINE
  5
5562
330
4F32
100
AcDbEntity
  8
寸法
 62
     0
370
    -2
100
AcDbLine
 10
2195.800088449528
 20
2234.909163386517
 30
0.0
 11
2322.280666073185
 21
2234.909163386517
 31
0.0
  0
LINE
  5
5563
330
4F32
100
AcDbEntity
  8
寸法
 62
     0
370
    -2
100
AcDbLine
 10
2238.800088449528
 20
2239.909163386517
 30
0.0
 11
2322.280666073185
 21
2239.909163386517
 31
0.0
  0
LINE
  5
5564
330
4F32
100
AcDbEntity
  8
寸法
 62
     0
370
    -2
100
AcDbLine
 10
2317.280666073184
 20
2224.909163386517
 30
0.0
 11
2317.280666073184
 21
2214.909163386517
 31
0.0
  0
LINE
  5
5565
330
4F32
100
AcDbEntity
  8
寸法
 62
     0
370
    -2
100
AcDbLine
 10
2317.280666073184
 20
2249.909163386517
 30
0.0
 11
2317.280666073184
 21
2259.909163386517
 31
0.0
  0
LINE
  5
5566
330
4F32
100
AcDbEntity
  8
寸法
 62
     0
370
    -2
100
AcDbLine
 10
2317.280666073184
 20
2234.909163386517
 30
0.0
 11
2317.280666073184
 21
2239.909163386517
 31
0.0
  0
SOLID
  5
5567
330
4F32
100
AcDbEntity
  8
寸法
 62
     0
100
AcDbTrace
 10
2315.613999406518
 20
2224.909163386517
 30
0.0
 11
2318.947332739851
 21
2224.909163386517
 31
0.0
 12
2317.280666073184
 22
2234.909163386517
 32
0.0
 13
2317.280666073184
 23
2234.909163386517
 33
0.0
  0
SOLID
  5
5568
330
4F32
100
AcDbEntity
  8
寸法
 62
     0
100
AcDbTrace
 10
2315.613999406518
 20
2249.909163386517
 30
0.0
 11
2318.947332739851
 21
2249.909163386517
 31
0.0
 12
2317.280666073184
 22
2239.909163386517
 32
0.0
 13
2317.280666073184
 23
2239.909163386517
 33
0.0
  0
MTEXT
  5
5569
330
4F32
100
AcDbEntity
  8
寸法
 62
     0
100
AcDbMText
 10
2337.280666073184
 20
2237.409163386518
 30
0.0
 40
20.0
 41
0.0
 71
     5
 72
     1
  1
5
 11
0.0000000000000001
 21
1.0
 31
0.0
 73
     1
 44
1.0
1001
ACAD
1000
MTEXTBEGIN
1070
    73
1070
     1
1070
    44
1040
1.0
1070
    74
1070
     0
1000
MTEXTEND
  0
POINT
  5
556A
330
4F32
100
AcDbEntity
  8
DEFPOINTS
 62
     0
100
AcDbPoint
 10
2165.800088449528
 20
2234.909163386517
 30
0.0
  0
POINT
  5
556B
330
4F32
100
AcDbEntity
  8
DEFPOINTS
 62
     0
100
AcDbPoint
 10
2208.800088449528
 20
2239.909163386517
 30
0.0
  0
POINT
  5
556C
330
4F32
100
AcDbEntity
  8
DEFPOINTS
 62
     0
100
AcDbPoint
 10
2317.280666073184
 20
2239.909163386517
 30
0.0
  0
ENDBLK
  5
4F3F
330
4F32
100
AcDbEntity
  8
0
100
AcDbBlockEnd
  0
BLOCK
  5
4F4A
330
4F40
100
AcDbEntity
  8
0
100
AcDbBlockBegin
  2
*D24
 70
     1
 10
0.0
 20
0.0
 30
0.0
  3
*D24
  1

  0
LINE
  5
556D
330
4F40
100
AcDbEntity
  8
寸法
 62
     0
370
    -2
100
AcDbLine
 10
2190.800088449528
 20
2138.909163386517
 30
0.0
 11
2322.280666073185
 21
2138.909163386517
 31
0.0
  0
LINE
  5
556E
330
4F40
100
AcDbEntity
  8
寸法
 62
     0
370
    -2
100
AcDbLine
 10
2195.800088449528
 20
2234.909163386517
 30
0.0
 11
2322.280666073185
 21
2234.909163386517
 31
0.0
  0
LINE
  5
556F
330
4F40
100
AcDbEntity
  8
寸法
 62
     0
370
    -2
100
AcDbLine
 10
2317.280666073184
 20
2148.909163386517
 30
0.0
 11
2317.280666073184
 21
2224.909163386517
 31
0.0
  0
SOLID
  5
5570
330
4F40
100
AcDbEntity
  8
寸法
 62
     0
100
AcDbTrace
 10
2315.613999406518
 20
2148.909163386517
 30
0.0
 11
2318.947332739851
 21
2148.909163386517
 31
0.0
 12
2317.280666073184
 22
2138.909163386517
 32
0.0
 13
2317.280666073184
 23
2138.909163386517
 33
0.0
  0
SOLID
  5
5571
330
4F40
100
AcDbEntity
  8
寸法
 62
     0
100
AcDbTrace
 10
2315.613999406518
 20
2224.909163386517
 30
0.0
 11
2318.947332739851
 21
2224.909163386517
 31
0.0
 12
2317.280666073184
 22
2234.909163386517
 32
0.0
 13
2317.280666073184
 23
2234.909163386517
 33
0.0
  0
MTEXT
  5
5572
330
4F40
100
AcDbEntity
  8
寸法
 62
     0
100
AcDbMText
 10
2337.280666073184
 20
2186.909163386518
 30
0.0
 40
20.0
 41
0.0
 71
     5
 72
     1
  1
96
 11
0.0000000000000001
 21
1.0
 31
0.0
 73
     1
 44
1.0
1001
ACAD
1000
MTEXTBEGIN
1070
    73
1070
     1
1070
    44
1040
1.0
1070
    74
1070
     0
1000
MTEXTEND
  0
POINT
  5
5573
330
4F40
100
AcDbEntity
  8
DEFPOINTS
 62
     0
100
AcDbPoint
 10
2160.800088449528
 20
2138.909163386517
 30
0.0
  0
POINT
  5
5574
330
4F40
100
AcDbEntity
  8
DEFPOINTS
 62
     0
100
AcDbPoint
 10
2165.800088449528
 20
2234.909163386517
 30
0.0
  0
POINT
  5
5575
330
4F40
100
AcDbEntity
  8
DEFPOINTS
 62
     0
100
AcDbPoint
 10
2317.280666073184
 20
2234.909163386517
 30
0.0
  0
ENDBLK
  5
4F4B
330
4F40
100
AcDbEntity
  8
0
100
AcDbBlockEnd
  0
BLOCK
  5
4F56
330
4F4C
100
AcDbEntity
  8
0
100
AcDbBlockBegin
  2
*D25
 70
     1
 10
0.0
 20
0.0
 30
0.0
  3
*D25
  1

  0
LINE
  5
4F4D
330
4F4C
100
AcDbEntity
  8
寸法
 62
     0
370
    -2
100
AcDbLine
 10
830.8000884495282
 20
2108.909163386517
 30
0.0
 11
830.8000884495282
 21
2078.211708221491
 31
0.0
  0
LINE
  5
4F4E
330
4F4C
100
AcDbEntity
  8
寸法
 62
     0
370
    -2
100
AcDbLine
 10
2160.800088449528
 20
2108.909163386517
 30
0.0
 11
2160.800088449528
 21
2078.211708221491
 31
0.0
  0
LINE
  5
4F4F
330
4F4C
100
AcDbEntity
  8
寸法
 62
     0
370
    -2
100
AcDbLine
 10
840.8000884495281
 20
2083.21170822149
 30
0.0
 11
2150.800088449528
 21
2083.21170822149
 31
0.0
  0
SOLID
  5
4F50
330
4F4C
100
AcDbEntity
  8
寸法
 62
     0
100
AcDbTrace
 10
840.8000884495281
 20
2084.878374888157
 30
0.0
 11
840.8000884495281
 21
2081.545041554824
 31
0.0
 12
830.8000884495282
 22
2083.21170822149
 32
0.0
 13
830.8000884495282
 23
2083.21170822149
 33
0.0
  0
SOLID
  5
4F51
330
4F4C
100
AcDbEntity
  8
寸法
 62
     0
100
AcDbTrace
 10
2150.800088449528
 20
2084.878374888157
 30
0.0
 11
2150.800088449528
 21
2081.545041554824
 31
0.0
 12
2160.800088449528
 22
2083.21170822149
 32
0.0
 13
2160.800088449528
 23
2083.21170822149
 33
0.0
  0
MTEXT
  5
4F52
330
4F4C
100
AcDbEntity
  8
寸法
 62
     0
100
AcDbMText
 10
1495.800088449528
 20
2063.211708221491
 30
0.0
 40
20.0
 41
0.0
 71
     5
 72
     1
  1
1330
 73
     1
 44
1.0
1001
ACAD
1000
MTEXTBEGIN
1070
    73
1070
     1
1070
    44
1040
1.0
1070
    74
1070
     0
1000
MTEXTEND
  0
POINT
  5
4F53
330
4F4C
100
AcDbEntity
  8
DEFPOINTS
 62
     0
100
AcDbPoint
 10
830.8000884495282
 20
2138.909163386517
 30
0.0
  0
POINT
  5
4F54
330
4F4C
100
AcDbEntity
  8
DEFPOINTS
 62
     0
100
AcDbPoint
 10
2160.800088449528
 20
2138.909163386517
 30
0.0
  0
POINT
  5
4F55
330
4F4C
100
AcDbEntity
  8
DEFPOINTS
 62
     0
100
AcDbPoint
 10
2160.800088449528
 20
2083.21170822149
 30
0.0
  0
ENDBLK
  5
4F57
330
4F4C
100
AcDbEntity
  8
0
100
AcDbBlockEnd
  0
BLOCK
  5
4F64
330
4F58
100
AcDbEntity
  8
0
100
AcDbBlockBegin
  2
*D26
 70
     1
 10
0.0
 20
0.0
 30
0.0
  3
*D26
  1

  0
LINE
  5
4F59
330
4F58
100
AcDbEntity
  8
寸法
 62
     0
370
    -2
100
AcDbLine
 10
825.8000884495281
 20
2204.909163386517
 30
0.0
 11
825.8000884495281
 21
2078.211708221491
 31
0.0
  0
LINE
  5
4F5A
330
4F58
100
AcDbEntity
  8
寸法
 62
     0
370
    -2
100
AcDbLine
 10
830.8000884495282
 20
2108.909163386517
 30
0.0
 11
830.8000884495282
 21
2078.211708221491
 31
0.0
  0
LINE
  5
4F5B
330
4F58
100
AcDbEntity
  8
寸法
 62
     0
370
    -2
100
AcDbLine
 10
815.8000884495281
 20
2083.21170822149
 30
0.0
 11
805.8000884495282
 21
2083.21170822149
 31
0.0
  0
LINE
  5
4F5C
330
4F58
100
AcDbEntity
  8
寸法
 62
     0
370
    -2
100
AcDbLine
 10
840.8000884495281
 20
2083.21170822149
 30
0.0
 11
850.8000884495281
 21
2083.21170822149
 31
0.0
  0
LINE
  5
4F5D
330
4F58
100
AcDbEntity
  8
寸法
 62
     0
370
    -2
100
AcDbLine
 10
825.8000884495281
 20
2083.21170822149
 30
0.0
 11
830.8000884495282
 21
2083.21170822149
 31
0.0
  0
SOLID
  5
4F5E
330
4F58
100
AcDbEntity
  8
寸法
 62
     0
100
AcDbTrace
 10
815.8000884495281
 20
2084.878374888157
 30
0.0
 11
815.8000884495281
 21
2081.545041554824
 31
0.0
 12
825.8000884495281
 22
2083.21170822149
 32
0.0
 13
825.8000884495281
 23
2083.21170822149
 33
0.0
  0
SOLID
  5
4F5F
330
4F58
100
AcDbEntity
  8
寸法
 62
     0
100
AcDbTrace
 10
840.8000884495281
 20
2084.878374888157
 30
0.0
 11
840.8000884495281
 21
2081.545041554824
 31
0.0
 12
830.8000884495282
 22
2083.21170822149
 32
0.0
 13
830.8000884495282
 23
2083.21170822149
 33
0.0
  0
MTEXT
  5
4F60
330
4F58
100
AcDbEntity
  8
寸法
 62
     0
100
AcDbMText
 10
828.3000884495281
 20
2063.211708221491
 30
0.0
 40
20.0
 41
0.0
 71
     5
 72
     1
  1
5
 73
     1
 44
1.0
1001
ACAD
1000
MTEXTBEGIN
1070
    73
1070
     1
1070
    44
1040
1.0
1070
    74
1070
     0
1000
MTEXTEND
  0
POINT
  5
4F61
330
4F58
100
AcDbEntity
  8
DEFPOINTS
 62
     0
100
AcDbPoint
 10
825.8000884495281
 20
2234.909163386517
 30
0.0
  0
POINT
  5
4F62
330
4F58
100
AcDbEntity
  8
DEFPOINTS
 62
     0
100
AcDbPoint
 10
830.8000884495282
 20
2138.909163386517
 30
0.0
  0
POINT
  5
4F63
330
4F58
100
AcDbEntity
  8
DEFPOINTS
 62
     0
100
AcDbPoint
 10
830.8000884495282
 20
2083.21170822149
 30
0.0
  0
ENDBLK
  5
4F65
330
4F58
100
AcDbEntity
  8
0
100
AcDbBlockEnd
  0
BLOCK
  5
4F7B
330
4F71
100
AcDbEntity
  8
0
100
AcDbBlockBegin
  2
*D27
 70
     1
 10
0.0
 20
0.0
 30
0.0
  3
*D27
  1

  0
LINE
  5
4F72
330
4F71
100
AcDbEntity
  8
寸法
 62
     0
370
    -2
100
AcDbLine
 10
922.8000884495282
 20
863.9091633865168
 30
0.0
 11
922.8000884495282
 21
963.7888117376665
 31
0.0
  0
LINE
  5
4F73
330
4F71
100
AcDbEntity
  8
寸法
 62
     0
370
    -2
100
AcDbLine
 10
2068.800088449528
 20
863.9091633865168
 30
0.0
 11
2068.800088449528
 21
963.7888117376665
 31
0.0
  0
LINE
  5
4F74
330
4F71
100
AcDbEntity
  8
寸法
 62
     0
370
    -2
100
AcDbLine
 10
932.8000884495281
 20
958.7888117376664
 30
0.0
 11
2058.800088449528
 21
958.7888117376664
 31
0.0
  0
SOLID
  5
4F75
330
4F71
100
AcDbEntity
  8
寸法
 62
     0
100
AcDbTrace
 10
932.8000884495281
 20
960.4554784043331
 30
0.0
 11
932.8000884495281
 21
957.1221450709998
 31
0.0
 12
922.8000884495282
 22
958.7888117376664
 32
0.0
 13
922.8000884495282
 23
958.7888117376664
 33
0.0
  0
SOLID
  5
4F76
330
4F71
100
AcDbEntity
  8
寸法
 62
     0
100
AcDbTrace
 10
2058.800088449528
 20
960.4554784043331
 30
0.0
 11
2058.800088449528
 21
957.1221450709998
 31
0.0
 12
2068.800088449528
 22
958.7888117376664
 32
0.0
 13
2068.800088449528
 23
958.7888117376664
 33
0.0
  0
MTEXT
  5
4F77
330
4F71
100
AcDbEntity
  8
寸法
 62
     0
100
AcDbMText
 10
1495.800088449528
 20
978.7888117376665
 30
0.0
 40
20.0
 41
0.0
 71
     5
 72
     1
  1
1146
 73
     1
 44
1.0
1001
ACAD
1000
MTEXTBEGIN
1070
    73
1070
     1
1070
    44
1040
1.0
1070
    74
1070
     0
1000
MTEXTEND
  0
POINT
  5
4F78
330
4F71
100
AcDbEntity
  8
DEFPOINTS
 62
     0
100
AcDbPoint
 10
922.8000884495282
 20
833.9091633865168
 30
0.0
  0
POINT
  5
4F79
330
4F71
100
AcDbEntity
  8
DEFPOINTS
 62
     0
100
AcDbPoint
 10
2068.800088449528
 20
833.9091633865168
 30
0.0
  0
POINT
  5
4F7A
330
4F71
100
AcDbEntity
  8
DEFPOINTS
 62
     0
100
AcDbPoint
 10
2068.800088449528
 20
958.7888117376664
 30
0.0
  0
ENDBLK
  5
4F7C
330
4F71
100
AcDbEntity
  8
0
100
AcDbBlockEnd
  0
BLOCK
  5
4F87
330
4F7D
100
AcDbEntity
  8
0
100
AcDbBlockBegin
  2
*D28
 70
     1
 10
0.0
 20
0.0
 30
0.0
  3
*D28
  1

  0
LINE
  5
4F7E
330
4F7D
100
AcDbEntity
  8
寸法
 62
     0
370
    -2
100
AcDbLine
 10
872.8000884495282
 20
918.9091633865169
 30
0.0
 11
872.8000884495282
 21
963.7888117376665
 31
0.0
  0
LINE
  5
4F7F
330
4F7D
100
AcDbEntity
  8
寸法
 62
     0
370
    -2
100
AcDbLine
 10
922.8000884495282
 20
863.9091633865168
 30
0.0
 11
922.8000884495282
 21
963.7888117376665
 31
0.0
  0
LINE
  5
4F80
330
4F7D
100
AcDbEntity
  8
寸法
 62
     0
370
    -2
100
AcDbLine
 10
882.8000884495281
 20
958.7888117376664
 30
0.0
 11
912.8000884495282
 21
958.7888117376664
 31
0.0
  0
SOLID
  5
4F81
330
4F7D
100
AcDbEntity
  8
寸法
 62
     0
100
AcDbTrace
 10
882.8000884495281
 20
960.4554784043331
 30
0.0
 11
882.8000884495281
 21
957.1221450709998
 31
0.0
 12
872.8000884495282
 22
958.7888117376664
 32
0.0
 13
872.8000884495282
 23
958.7888117376664
 33
0.0
  0
SOLID
  5
4F82
330
4F7D
100
AcDbEntity
  8
寸法
 62
     0
100
AcDbTrace
 10
912.8000884495282
 20
960.4554784043331
 30
0.0
 11
912.8000884495282
 21
957.1221450709998
 31
0.0
 12
922.8000884495282
 22
958.7888117376664
 32
0.0
 13
922.8000884495282
 23
958.7888117376664
 33
0.0
  0
MTEXT
  5
4F83
330
4F7D
100
AcDbEntity
  8
寸法
 62
     0
100
AcDbMText
 10
897.7633506117422
 20
978.7888117376665
 30
0.0
 40
20.0
 41
0.0
 71
     5
 72
     1
  1
50
 73
     1
 44
1.0
1001
ACAD
1000
MTEXTBEGIN
1070
    73
1070
     1
1070
    44
1040
1.0
1070
    74
1070
     0
1000
MTEXTEND
  0
POINT
  5
4F84
330
4F7D
100
AcDbEntity
  8
DEFPOINTS
 62
     0
100
AcDbPoint
 10
872.8000884495282
 20
888.9091633865168
 30
0.0
  0
POINT
  5
4F85
330
4F7D
100
AcDbEntity
  8
DEFPOINTS
 62
     0
100
AcDbPoint
 10
922.8000884495282
 20
833.9091633865168
 30
0.0
  0
POINT
  5
4F86
330
4F7D
100
AcDbEntity
  8
DEFPOINTS
 62
     0
100
AcDbPoint
 10
922.8000884495282
 20
958.7888117376664
 30
0.0
  0
ENDBLK
  5
4F88
330
4F7D
100
AcDbEntity
  8
0
100
AcDbBlockEnd
  0
BLOCK
  5
4F93
330
4F89
100
AcDbEntity
  8
0
100
AcDbBlockBegin
  2
*D29
 70
     1
 10
0.0
 20
0.0
 30
0.0
  3
*D29
  1

  0
LINE
  5
4F8A
330
4F89
100
AcDbEntity
  8
寸法
 62
     0
370
    -2
100
AcDbLine
 10
782.8000884495281
 20
918.9091633865169
 30
0.0
 11
782.8000884495281
 21
963.7888117376665
 31
0.0
  0
LINE
  5
4F8B
330
4F89
100
AcDbEntity
  8
寸法
 62
     0
370
    -2
100
AcDbLine
 10
872.8000884495282
 20
918.9091633865169
 30
0.0
 11
872.8000884495282
 21
963.7888117376665
 31
0.0
  0
LINE
  5
4F8C
330
4F89
100
AcDbEntity
  8
寸法
 62
     0
370
    -2
100
AcDbLine
 10
792.8000884495282
 20
958.7888117376664
 30
0.0
 11
862.8000884495282
 21
958.7888117376664
 31
0.0
  0
SOLID
  5
4F8D
330
4F89
100
AcDbEntity
  8
寸法
 62
     0
100
AcDbTrace
 10
792.8000884495282
 20
960.4554784043331
 30
0.0
 11
792.8000884495282
 21
957.1221450709998
 31
0.0
 12
782.8000884495281
 22
958.7888117376664
 32
0.0
 13
782.8000884495281
 23
958.7888117376664
 33
0.0
  0
SOLID
  5
4F8E
330
4F89
100
AcDbEntity
  8
寸法
 62
     0
100
AcDbTrace
 10
862.8000884495282
 20
960.4554784043331
 30
0.0
 11
862.8000884495282
 21
957.1221450709998
 31
0.0
 12
872.8000884495282
 22
958.7888117376664
 32
0.0
 13
872.8000884495282
 23
958.7888117376664
 33
0.0
  0
MTEXT
  5
4F8F
330
4F89
100
AcDbEntity
  8
寸法
 62
     0
100
AcDbMText
 10
827.8000884495281
 20
978.7888117376665
 30
0.0
 40
20.0
 41
0.0
 71
     5
 72
     1
  1
90
 73
     1
 44
1.0
1001
ACAD
1000
MTEXTBEGIN
1070
    73
1070
     1
1070
    44
1040
1.0
1070
    74
1070
     0
1000
MTEXTEND
  0
POINT
  5
4F90
330
4F89
100
AcDbEntity
  8
DEFPOINTS
 62
     0
100
AcDbPoint
 10
782.8000884495281
 20
888.9091633865168
 30
0.0
  0
POINT
  5
4F91
330
4F89
100
AcDbEntity
  8
DEFPOINTS
 62
     0
100
AcDbPoint
 10
872.8000884495282
 20
888.9091633865168
 30
0.0
  0
POINT
  5
4F92
330
4F89
100
AcDbEntity
  8
DEFPOINTS
 62
     0
100
AcDbPoint
 10
872.8000884495282
 20
958.7888117376664
 30
0.0
  0
ENDBLK
  5
4F94
330
4F89
100
AcDbEntity
  8
0
100
AcDbBlockEnd
  0
BLOCK
  5
4FB1
330
4FA7
100
AcDbEntity
  8
0
100
AcDbBlockBegin
  2
*D30
 70
     1
 10
0.0
 20
0.0
 30
0.0
  3
*D30
  1

  0
LINE
  5
4FA8
330
4FA7
100
AcDbEntity
  8
寸法
 62
     0
370
    -2
100
AcDbLine
 10
782.8000884495281
 20
918.9091633865169
 30
0.0
 11
782.8000884495281
 21
1010.430697582415
 31
0.0
  0
LINE
  5
4FA9
330
4FA7
100
AcDbEntity
  8
寸法
 62
     0
370
    -2
100
AcDbLine
 10
2208.800088449528
 20
918.9091633865169
 30
0.0
 11
2208.800088449528
 21
1010.430697582415
 31
0.0
  0
LINE
  5
4FAA
330
4FA7
100
AcDbEntity
  8
寸法
 62
     0
370
    -2
100
AcDbLine
 10
792.8000884495282
 20
1005.430697582415
 30
0.0
 11
2198.800088449528
 21
1005.430697582415
 31
0.0
  0
SOLID
  5
4FAB
330
4FA7
100
AcDbEntity
  8
寸法
 62
     0
100
AcDbTrace
 10
792.8000884495282
 20
1007.097364249082
 30
0.0
 11
792.8000884495282
 21
1003.764030915748
 31
0.0
 12
782.8000884495281
 22
1005.430697582415
 32
0.0
 13
782.8000884495281
 23
1005.430697582415
 33
0.0
  0
SOLID
  5
4FAC
330
4FA7
100
AcDbEntity
  8
寸法
 62
     0
100
AcDbTrace
 10
2198.800088449528
 20
1007.097364249082
 30
0.0
 11
2198.800088449528
 21
1003.764030915748
 31
0.0
 12
2208.800088449528
 22
1005.430697582415
 32
0.0
 13
2208.800088449528
 23
1005.430697582415
 33
0.0
  0
MTEXT
  5
4FAD
330
4FA7
100
AcDbEntity
  8
寸法
 62
     0
100
AcDbMText
 10
1495.800088449528
 20
1025.430697582415
 30
0.0
 40
20.0
 41
0.0
 71
     5
 72
     1
  1
1426
 73
     1
 44
1.0
1001
ACAD
1000
MTEXTBEGIN
1070
    73
1070
     1
1070
    44
1040
1.0
1070
    74
1070
     0
1000
MTEXTEND
  0
POINT
  5
4FAE
330
4FA7
100
AcDbEntity
  8
DEFPOINTS
 62
     0
100
AcDbPoint
 10
782.8000884495281
 20
888.9091633865168
 30
0.0
  0
POINT
  5
4FAF
330
4FA7
100
AcDbEntity
  8
DEFPOINTS
 62
     0
100
AcDbPoint
 10
2208.800088449528
 20
888.9091633865168
 30
0.0
  0
POINT
  5
4FB0
330
4FA7
100
AcDbEntity
  8
DEFPOINTS
 62
     0
100
AcDbPoint
 10
2208.800088449528
 20
1005.430697582415
 30
0.0
  0
ENDBLK
  5
4FB2
330
4FA7
100
AcDbEntity
  8
0
100
AcDbBlockEnd
  0
BLOCK
  5
4FBD
330
4FB3
100
AcDbEntity
  8
0
100
AcDbBlockBegin
  2
*D31
 70
     1
 10
0.0
 20
0.0
 30
0.0
  3
*D31
  1

  0
LINE
  5
4FB4
330
4FB3
100
AcDbEntity
  8
寸法
 62
     0
370
    -2
100
AcDbLine
 10
825.8000884495281
 20
758.9091633865169
 30
0.0
 11
825.8000884495281
 21
667.4970047881275
 31
0.0
  0
LINE
  5
4FB5
330
4FB3
100
AcDbEntity
  8
寸法
 62
     0
370
    -2
100
AcDbLine
 10
2165.800088449528
 20
758.9091633865169
 30
0.0
 11
2165.800088449528
 21
667.4970047881275
 31
0.0
  0
LINE
  5
4FB6
330
4FB3
100
AcDbEntity
  8
寸法
 62
     0
370
    -2
100
AcDbLine
 10
835.8000884495281
 20
672.4970047881274
 30
0.0
 11
2155.800088449528
 21
672.4970047881274
 31
0.0
  0
SOLID
  5
4FB7
330
4FB3
100
AcDbEntity
  8
寸法
 62
     0
100
AcDbTrace
 10
835.8000884495281
 20
674.1636714547941
 30
0.0
 11
835.8000884495281
 21
670.8303381214608
 31
0.0
 12
825.8000884495281
 22
672.4970047881274
 32
0.0
 13
825.8000884495281
 23
672.4970047881274
 33
0.0
  0
SOLID
  5
4FB8
330
4FB3
100
AcDbEntity
  8
寸法
 62
     0
100
AcDbTrace
 10
2155.800088449528
 20
674.1636714547941
 30
0.0
 11
2155.800088449528
 21
670.8303381214608
 31
0.0
 12
2165.800088449528
 22
672.4970047881274
 32
0.0
 13
2165.800088449528
 23
672.4970047881274
 33
0.0
  0
MTEXT
  5
4FB9
330
4FB3
100
AcDbEntity
  8
寸法
 62
     0
100
AcDbMText
 10
1495.800088449528
 20
652.4970047881274
 30
0.0
 40
20.0
 41
0.0
 71
     5
 72
     1
  1
1340
 73
     1
 44
1.0
1001
ACAD
1000
MTEXTBEGIN
1070
    73
1070
     1
1070
    44
1040
1.0
1070
    74
1070
     0
1000
MTEXTEND
  0
POINT
  5
4FBA
330
4FB3
100
AcDbEntity
  8
DEFPOINTS
 62
     0
100
AcDbPoint
 10
825.8000884495281
 20
788.9091633865168
 30
0.0
  0
POINT
  5
4FBB
330
4FB3
100
AcDbEntity
  8
DEFPOINTS
 62
     0
100
AcDbPoint
 10
2165.800088449528
 20
788.9091633865168
 30
0.0
  0
POINT
  5
4FBC
330
4FB3
100
AcDbEntity
  8
DEFPOINTS
 62
     0
100
AcDbPoint
 10
2165.800088449528
 20
672.4970047881274
 30
0.0
  0
ENDBLK
  5
4FBE
330
4FB3
100
AcDbEntity
  8
0
100
AcDbBlockEnd
  0
BLOCK
  5
4FC9
330
4FBF
100
AcDbEntity
  8
0
100
AcDbBlockBegin
  2
*D32
 70
     1
 10
0.0
 20
0.0
 30
0.0
  3
*D32
  1

  0
LINE
  5
4FC0
330
4FBF
100
AcDbEntity
  8
寸法
 62
     0
370
    -2
100
AcDbLine
 10
782.8000884495281
 20
808.9091633865168
 30
0.0
 11
782.8000884495281
 21
667.4970047881275
 31
0.0
  0
LINE
  5
4FC1
330
4FBF
100
AcDbEntity
  8
寸法
 62
     0
370
    -2
100
AcDbLine
 10
825.8000884495281
 20
758.9091633865169
 30
0.0
 11
825.8000884495281
 21
667.4970047881275
 31
0.0
  0
LINE
  5
4FC2
330
4FBF
100
AcDbEntity
  8
寸法
 62
     0
370
    -2
100
AcDbLine
 10
792.8000884495282
 20
672.4970047881274
 30
0.0
 11
815.8000884495281
 21
672.4970047881274
 31
0.0
  0
SOLID
  5
4FC3
330
4FBF
100
AcDbEntity
  8
寸法
 62
     0
100
AcDbTrace
 10
792.8000884495282
 20
674.1636714547941
 30
0.0
 11
792.8000884495282
 21
670.8303381214608
 31
0.0
 12
782.8000884495281
 22
672.4970047881274
 32
0.0
 13
782.8000884495281
 23
672.4970047881274
 33
0.0
  0
SOLID
  5
4FC4
330
4FBF
100
AcDbEntity
  8
寸法
 62
     0
100
AcDbTrace
 10
815.8000884495281
 20
674.1636714547941
 30
0.0
 11
815.8000884495281
 21
670.8303381214608
 31
0.0
 12
825.8000884495281
 22
672.4970047881274
 32
0.0
 13
825.8000884495281
 23
672.4970047881274
 33
0.0
  0
MTEXT
  5
4FC5
330
4FBF
100
AcDbEntity
  8
寸法
 62
     0
100
AcDbMText
 10
804.3000884495281
 20
652.4970047881274
 30
0.0
 40
20.0
 41
0.0
 71
     5
 72
     1
  1
43
 73
     1
 44
1.0
1001
ACAD
1000
MTEXTBEGIN
1070
    73
1070
     1
1070
    44
1040
1.0
1070
    74
1070
     0
1000
MTEXTEND
  0
POINT
  5
4FC6
330
4FBF
100
AcDbEntity
  8
DEFPOINTS
 62
     0
100
AcDbPoint
 10
782.8000884495281
 20
838.9091633865168
 30
0.0
  0
POINT
  5
4FC7
330
4FBF
100
AcDbEntity
  8
DEFPOINTS
 62
     0
100
AcDbPoint
 10
825.8000884495281
 20
788.9091633865168
 30
0.0
  0
POINT
  5
4FC8
330
4FBF
100
AcDbEntity
  8
DEFPOINTS
 62
     0
100
AcDbPoint
 10
825.8000884495281
 20
672.4970047881274
 30
0.0
  0
ENDBLK
  5
4FCA
330
4FBF
100
AcDbEntity
  8
0
100
AcDbBlockEnd
  0
BLOCK
  5
4FDF
330
4FD4
100
AcDbEntity
  8
0
100
AcDbBlockBegin
  2
*D33
 70
     1
 10
0.0
 20
0.0
 30
0.0
  3
*D33
  1

  0
LINE
  5
4FD5
330
4FD4
100
AcDbEntity
  8
寸法
 62
     0
370
    -2
100
AcDbLine
 10
2195.800088449528
 20
788.9091633865168
 30
0.0
 11
2267.800379246352
 21
788.9091633865168
 31
0.0
  0
LINE
  5
4FD6
330
4FD4
100
AcDbEntity
  8
寸法
 62
     0
370
    -2
100
AcDbLine
 10
2238.800088449528
 20
833.9091633865168
 30
0.0
 11
2267.800379246352
 21
833.9091633865168
 31
0.0
  0
LINE
  5
4FD7
330
4FD4
100
AcDbEntity
  8
寸法
 62
     0
370
    -2
100
AcDbLine
 10
2262.800379246352
 20
823.9091633865168
 30
0.0
 11
2262.800379246352
 21
798.9091633865168
 31
0.0
  0
LINE
  5
4FD8
330
4FD4
100
AcDbEntity
  8
寸法
 62
     0
370
    -2
100
AcDbLine
 10
2262.800379246352
 20
788.9091633865168
 30
0.0
 11
2262.800379246352
 21
725.5758300531835
 31
0.0
  0
SOLID
  5
4FD9
330
4FD4
100
AcDbEntity
  8
寸法
 62
     0
100
AcDbTrace
 10
2261.133712579685
 20
823.9091633865168
 30
0.0
 11
2264.467045913018
 21
823.9091633865168
 31
0.0
 12
2262.800379246352
 22
833.9091633865168
 32
0.0
 13
2262.800379246352
 23
833.9091633865168
 33
0.0
  0
SOLID
  5
4FDA
330
4FD4
100
AcDbEntity
  8
寸法
 62
     0
100
AcDbTrace
 10
2261.133712579685
 20
798.9091633865168
 30
0.0
 11
2264.467045913018
 21
798.9091633865168
 31
0.0
 12
2262.800379246352
 22
788.9091633865168
 32
0.0
 13
2262.800379246352
 23
788.9091633865168
 33
0.0
  0
MTEXT
  5
4FDB
330
4FD4
100
AcDbEntity
  8
寸法
 62
     0
100
AcDbMText
 10
2282.800379246352
 20
752.2424967198506
 30
0.0
 40
20.0
 41
0.0
 71
     5
 72
     1
  1
45
 11
0.0000000000000001
 21
1.0
 31
0.0
 73
     1
 44
1.0
1001
ACAD
1000
MTEXTBEGIN
1070
    73
1070
     1
1070
    44
1040
1.0
1070
    74
1070
     0
1000
MTEXTEND
  0
POINT
  5
4FDC
330
4FD4
100
AcDbEntity
  8
DEFPOINTS
 62
     0
100
AcDbPoint
 10
2165.800088449528
 20
788.9091633865168
 30
0.0
  0
POINT
  5
4FDD
330
4FD4
100
AcDbEntity
  8
DEFPOINTS
 62
     0
100
AcDbPoint
 10
2208.800088449528
 20
833.9091633865168
 30
0.0
  0
POINT
  5
4FDE
330
4FD4
100
AcDbEntity
  8
DEFPOINTS
 62
     0
100
AcDbPoint
 10
2262.800379246352
 20
833.9091633865168
 30
0.0
  0
ENDBLK
  5
4FE0
330
4FD4
100
AcDbEntity
  8
0
100
AcDbBlockEnd
  0
BLOCK
  5
4FED
330
4FE1
100
AcDbEntity
  8
0
100
AcDbBlockBegin
  2
*D34
 70
     1
 10
0.0
 20
0.0
 30
0.0
  3
*D34
  1

  0
LINE
  5
4FE2
330
4FE1
100
AcDbEntity
  8
寸法
 62
     0
370
    -2
100
AcDbLine
 10
2195.800088449528
 20
833.9091633865168
 30
0.0
 11
2267.800379246352
 21
833.9091633865168
 31
0.0
  0
LINE
  5
4FE3
330
4FE1
100
AcDbEntity
  8
寸法
 62
     0
370
    -2
100
AcDbLine
 10
2238.800088449528
 20
838.9091633865168
 30
0.0
 11
2267.800379246352
 21
838.9091633865168
 31
0.0
  0
LINE
  5
4FE4
330
4FE1
100
AcDbEntity
  8
寸法
 62
     0
370
    -2
100
AcDbLine
 10
2262.800379246352
 20
823.9091633865168
 30
0.0
 11
2262.800379246352
 21
813.9091633865168
 31
0.0
  0
LINE
  5
4FE5
330
4FE1
100
AcDbEntity
  8
寸法
 62
     0
370
    -2
100
AcDbLine
 10
2262.800379246352
 20
848.9091633865168
 30
0.0
 11
2262.800379246352
 21
858.9091633865168
 31
0.0
  0
LINE
  5
4FE6
330
4FE1
100
AcDbEntity
  8
寸法
 62
     0
370
    -2
100
AcDbLine
 10
2262.800379246352
 20
833.9091633865168
 30
0.0
 11
2262.800379246352
 21
838.9091633865168
 31
0.0
  0
SOLID
  5
4FE7
330
4FE1
100
AcDbEntity
  8
寸法
 62
     0
100
AcDbTrace
 10
2261.133712579685
 20
823.9091633865168
 30
0.0
 11
2264.467045913018
 21
823.9091633865168
 31
0.0
 12
2262.800379246352
 22
833.9091633865168
 32
0.0
 13
2262.800379246352
 23
833.9091633865168
 33
0.0
  0
SOLID
  5
4FE8
330
4FE1
100
AcDbEntity
  8
寸法
 62
     0
100
AcDbTrace
 10
2261.133712579685
 20
848.9091633865168
 30
0.0
 11
2264.467045913018
 21
848.9091633865168
 31
0.0
 12
2262.800379246352
 22
838.9091633865168
 32
0.0
 13
2262.800379246352
 23
838.9091633865168
 33
0.0
  0
MTEXT
  5
4FE9
330
4FE1
100
AcDbEntity
  8
寸法
 62
     0
100
AcDbMText
 10
2282.800379246352
 20
836.4091633865172
 30
0.0
 40
20.0
 41
0.0
 71
     5
 72
     1
  1
5
 11
0.0000000000000001
 21
1.0
 31
0.0
 73
     1
 44
1.0
1001
ACAD
1000
MTEXTBEGIN
1070
    73
1070
     1
1070
    44
1040
1.0
1070
    74
1070
     0
1000
MTEXTEND
  0
POINT
  5
4FEA
330
4FE1
100
AcDbEntity
  8
DEFPOINTS
 62
     0
100
AcDbPoint
 10
2165.800088449528
 20
833.9091633865168
 30
0.0
  0
POINT
  5
4FEB
330
4FE1
100
AcDbEntity
  8
DEFPOINTS
 62
     0
100
AcDbPoint
 10
2208.800088449528
 20
838.9091633865168
 30
0.0
  0
POINT
  5
4FEC
330
4FE1
100
AcDbEntity
  8
DEFPOINTS
 62
     0
100
AcDbPoint
 10
2262.800379246352
 20
838.9091633865168
 30
0.0
  0
ENDBLK
  5
4FEE
330
4FE1
100
AcDbEntity
  8
0
100
AcDbBlockEnd
  0
BLOCK
  5
4FFA
330
4FEF
100
AcDbEntity
  8
0
100
AcDbBlockBegin
  2
*D35
 70
     1
 10
0.0
 20
0.0
 30
0.0
  3
*D35
  1

  0
LINE
  5
4FF0
330
4FEF
100
AcDbEntity
  8
寸法
 62
     0
370
    -2
100
AcDbLine
 10
2238.800088449528
 20
838.9091633865168
 30
0.0
 11
2267.800379246352
 21
838.9091633865168
 31
0.0
  0
LINE
  5
4FF1
330
4FEF
100
AcDbEntity
  8
寸法
 62
     0
370
    -2
100
AcDbLine
 10
2238.800088449528
 20
888.9091633865168
 30
0.0
 11
2267.800379246352
 21
888.9091633865168
 31
0.0
  0
LINE
  5
4FF2
330
4FEF
100
AcDbEntity
  8
寸法
 62
     0
370
    -2
100
AcDbLine
 10
2262.800379246352
 20
848.9091633865168
 30
0.0
 11
2262.800379246352
 21
878.9091633865169
 31
0.0
  0
LINE
  5
4FF3
330
4FEF
100
AcDbEntity
  8
寸法
 62
     0
370
    -2
100
AcDbLine
 10
2262.800379246352
 20
888.9091633865168
 30
0.0
 11
2262.800379246352
 21
948.9091633865168
 31
0.0
  0
SOLID
  5
4FF4
330
4FEF
100
AcDbEntity
  8
寸法
 62
     0
100
AcDbTrace
 10
2261.133712579685
 20
848.9091633865168
 30
0.0
 11
2264.467045913018
 21
848.9091633865168
 31
0.0
 12
2262.800379246352
 22
838.9091633865168
 32
0.0
 13
2262.800379246352
 23
838.9091633865168
 33
0.0
  0
SOLID
  5
4FF5
330
4FEF
100
AcDbEntity
  8
寸法
 62
     0
100
AcDbTrace
 10
2261.133712579685
 20
878.9091633865169
 30
0.0
 11
2264.467045913018
 21
878.9091633865169
 31
0.0
 12
2262.800379246352
 22
888.9091633865168
 32
0.0
 13
2262.800379246352
 23
888.9091633865168
 33
0.0
  0
MTEXT
  5
4FF6
330
4FEF
100
AcDbEntity
  8
寸法
 62
     0
100
AcDbMText
 10
2282.800379246352
 20
923.9091633865172
 30
0.0
 40
20.0
 41
0.0
 71
     5
 72
     1
  1
50
 11
0.0000000000000001
 21
1.0
 31
0.0
 73
     1
 44
1.0
1001
ACAD
1000
MTEXTBEGIN
1070
    73
1070
     1
1070
    44
1040
1.0
1070
    74
1070
     0
1000
MTEXTEND
  0
POINT
  5
4FF7
330
4FEF
100
AcDbEntity
  8
DEFPOINTS
 62
     0
100
AcDbPoint
 10
2208.800088449528
 20
838.9091633865168
 30
0.0
  0
POINT
  5
4FF8
330
4FEF
100
AcDbEntity
  8
DEFPOINTS
 62
     0
100
AcDbPoint
 10
2208.800088449528
 20
888.9091633865168
 30
0.0
  0
POINT
  5
4FF9
330
4FEF
100
AcDbEntity
  8
DEFPOINTS
 62
     0
100
AcDbPoint
 10
2262.800379246352
 20
888.9091633865168
 30
0.0
  0
ENDBLK
  5
4FFB
330
4FEF
100
AcDbEntity
  8
0
100
AcDbBlockEnd
  0
BLOCK
  5
5006
330
4FFC
100
AcDbEntity
  8
0
100
AcDbBlockBegin
  2
*D36
 70
     1
 10
0.0
 20
0.0
 30
0.0
  3
*D36
  1

  0
LINE
  5
4FFD
330
4FFC
100
AcDbEntity
  8
寸法
 62
     0
370
    -2
100
AcDbLine
 10
2783.800088449528
 20
2208.909163386517
 30
0.0
 11
2863.800088449528
 21
2208.909163386517
 31
0.0
  0
LINE
  5
4FFE
330
4FFC
100
AcDbEntity
  8
寸法
 62
     0
370
    -2
100
AcDbLine
 10
2783.800088449528
 20
2468.909163386517
 30
0.0
 11
2863.800088449528
 21
2468.909163386517
 31
0.0
  0
LINE
  5
4FFF
330
4FFC
100
AcDbEntity
  8
寸法
 62
     0
370
    -2
100
AcDbLine
 10
2858.800088449529
 20
2218.909163386517
 30
0.0
 11
2858.800088449529
 21
2458.909163386517
 31
0.0
  0
SOLID
  5
5000
330
4FFC
100
AcDbEntity
  8
寸法
 62
     0
100
AcDbTrace
 10
2857.133421782862
 20
2218.909163386517
 30
0.0
 11
2860.466755116195
 21
2218.909163386517
 31
0.0
 12
2858.800088449529
 22
2208.909163386517
 32
0.0
 13
2858.800088449529
 23
2208.909163386517
 33
0.0
  0
SOLID
  5
5001
330
4FFC
100
AcDbEntity
  8
寸法
 62
     0
100
AcDbTrace
 10
2857.133421782862
 20
2458.909163386517
 30
0.0
 11
2860.466755116195
 21
2458.909163386517
 31
0.0
 12
2858.800088449529
 22
2468.909163386517
 32
0.0
 13
2858.800088449529
 23
2468.909163386517
 33
0.0
  0
MTEXT
  5
5002
330
4FFC
100
AcDbEntity
  8
寸法
 62
     0
100
AcDbMText
 10
2878.800088449528
 20
2338.909163386517
 30
0.0
 40
20.0
 41
0.0
 71
     5
 72
     1
  1
260
 11
0.0000000000000001
 21
1.0
 31
0.0
 73
     1
 44
1.0
1001
ACAD
1000
MTEXTBEGIN
1070
    73
1070
     1
1070
    44
1040
1.0
1070
    74
1070
     0
1000
MTEXTEND
  0
POINT
  5
5003
330
4FFC
100
AcDbEntity
  8
DEFPOINTS
 62
     0
100
AcDbPoint
 10
2753.800088449529
 20
2208.909163386517
 30
0.0
  0
POINT
  5
5004
330
4FFC
100
AcDbEntity
  8
DEFPOINTS
 62
     0
100
AcDbPoint
 10
2753.800088449529
 20
2468.909163386517
 30
0.0
  0
POINT
  5
5005
330
4FFC
100
AcDbEntity
  8
DEFPOINTS
 62
     0
100
AcDbPoint
 10
2858.800088449529
 20
2468.909163386517
 30
0.0
  0
ENDBLK
  5
5007
330
4FFC
100
AcDbEntity
  8
0
100
AcDbBlockEnd
  0
BLOCK
  5
5014
330
5008
100
AcDbEntity
  8
0
100
AcDbBlockBegin
  2
*D37
 70
     1
 10
0.0
 20
0.0
 30
0.0
  3
*D37
  1

  0
LINE
  5
5009
330
5008
100
AcDbEntity
  8
寸法
 62
     0
370
    -2
100
AcDbLine
 10
2783.800088449528
 20
2468.909163386517
 30
0.0
 11
2863.800088449529
 21
2468.909163386517
 31
0.0
  0
LINE
  5
500A
330
5008
100
AcDbEntity
  8
寸法
 62
     0
370
    -2
100
AcDbLine
 10
2838.800088449529
 20
2488.909163386517
 30
0.0
 11
2863.800088449529
 21
2488.909163386517
 31
0.0
  0
LINE
  5
500B
330
5008
100
AcDbEntity
  8
寸法
 62
     0
370
    -2
100
AcDbLine
 10
2858.800088449529
 20
2458.909163386517
 30
0.0
 11
2858.800088449529
 21
2448.909163386517
 31
0.0
  0
LINE
  5
500C
330
5008
100
AcDbEntity
  8
寸法
 62
     0
370
    -2
100
AcDbLine
 10
2858.800088449529
 20
2498.909163386517
 30
0.0
 11
2858.800088449529
 21
2508.909163386517
 31
0.0
  0
LINE
  5
500D
330
5008
100
AcDbEntity
  8
寸法
 62
     0
370
    -2
100
AcDbLine
 10
2858.800088449529
 20
2468.909163386517
 30
0.0
 11
2858.800088449529
 21
2488.909163386517
 31
0.0
  0
SOLID
  5
500E
330
5008
100
AcDbEntity
  8
寸法
 62
     0
100
AcDbTrace
 10
2857.133421782862
 20
2458.909163386517
 30
0.0
 11
2860.466755116195
 21
2458.909163386517
 31
0.0
 12
2858.800088449529
 22
2468.909163386517
 32
0.0
 13
2858.800088449529
 23
2468.909163386517
 33
0.0
  0
SOLID
  5
500F
330
5008
100
AcDbEntity
  8
寸法
 62
     0
100
AcDbTrace
 10
2857.133421782862
 20
2498.909163386517
 30
0.0
 11
2860.466755116195
 21
2498.909163386517
 31
0.0
 12
2858.800088449529
 22
2488.909163386517
 32
0.0
 13
2858.800088449529
 23
2488.909163386517
 33
0.0
  0
MTEXT
  5
5010
330
5008
100
AcDbEntity
  8
寸法
 62
     0
100
AcDbMText
 10
2878.800088449528
 20
2478.909163386517
 30
0.0
 40
20.0
 41
0.0
 71
     5
 72
     1
  1
20
 11
0.0000000000000001
 21
1.0
 31
0.0
 73
     1
 44
1.0
1001
ACAD
1000
MTEXTBEGIN
1070
    73
1070
     1
1070
    44
1040
1.0
1070
    74
1070
     0
1000
MTEXTEND
  0
POINT
  5
5011
330
5008
100
AcDbEntity
  8
DEFPOINTS
 62
     0
100
AcDbPoint
 10
2753.800088449529
 20
2468.909163386517
 30
0.0
  0
POINT
  5
5012
330
5008
100
AcDbEntity
  8
DEFPOINTS
 62
     0
100
AcDbPoint
 10
2808.800088449528
 20
2488.909163386517
 30
0.0
  0
POINT
  5
5013
330
5008
100
AcDbEntity
  8
DEFPOINTS
 62
     0
100
AcDbPoint
 10
2858.800088449529
 20
2488.909163386517
 30
0.0
  0
ENDBLK
  5
5015
330
5008
100
AcDbEntity
  8
0
100
AcDbBlockEnd
  0
BLOCK
  5
5021
330
5016
100
AcDbEntity
  8
0
100
AcDbBlockBegin
  2
*D38
 70
     1
 10
0.0
 20
0.0
 30
0.0
  3
*D38
  1

  0
LINE
  5
5017
330
5016
100
AcDbEntity
  8
寸法
 62
     0
370
    -2
100
AcDbLine
 10
2838.800088449529
 20
2488.909163386517
 30
0.0
 11
2863.800088449528
 21
2488.909163386517
 31
0.0
  0
LINE
  5
5018
330
5016
100
AcDbEntity
  8
寸法
 62
     0
370
    -2
100
AcDbLine
 10
2838.800088449529
 20
2538.909163386517
 30
0.0
 11
2863.800088449528
 21
2538.909163386517
 31
0.0
  0
LINE
  5
5019
330
5016
100
AcDbEntity
  8
寸法
 62
     0
370
    -2
100
AcDbLine
 10
2858.800088449529
 20
2498.909163386517
 30
0.0
 11
2858.800088449529
 21
2528.909163386517
 31
0.0
  0
LINE
  5
501A
330
5016
100
AcDbEntity
  8
寸法
 62
     0
370
    -2
100
AcDbLine
 10
2858.800088449529
 20
2538.909163386517
 30
0.0
 11
2858.800088449529
 21
2598.909163386517
 31
0.0
  0
SOLID
  5
501B
330
5016
100
AcDbEntity
  8
寸法
 62
     0
100
AcDbTrace
 10
2857.133421782862
 20
2498.909163386517
 30
0.0
 11
2860.466755116195
 21
2498.909163386517
 31
0.0
 12
2858.800088449529
 22
2488.909163386517
 32
0.0
 13
2858.800088449529
 23
2488.909163386517
 33
0.0
  0
SOLID
  5
501C
330
5016
100
AcDbEntity
  8
寸法
 62
     0
100
AcDbTrace
 10
2857.133421782862
 20
2528.909163386517
 30
0.0
 11
2860.466755116195
 21
2528.909163386517
 31
0.0
 12
2858.800088449529
 22
2538.909163386517
 32
0.0
 13
2858.800088449529
 23
2538.909163386517
 33
0.0
  0
MTEXT
  5
501D
330
5016
100
AcDbEntity
  8
寸法
 62
     0
100
AcDbMText
 10
2878.800088449528
 20
2573.909163386517
 30
0.0
 40
20.0
 41
0.0
 71
     5
 72
     1
  1
50
 11
0.0000000000000001
 21
1.0
 31
0.0
 73
     1
 44
1.0
1001
ACAD
1000
MTEXTBEGIN
1070
    73
1070
     1
1070
    44
1040
1.0
1070
    74
1070
     0
1000
MTEXTEND
  0
POINT
  5
501E
330
5016
100
AcDbEntity
  8
DEFPOINTS
 62
     0
100
AcDbPoint
 10
2808.800088449528
 20
2488.909163386517
 30
0.0
  0
POINT
  5
501F
330
5016
100
AcDbEntity
  8
DEFPOINTS
 62
     0
100
AcDbPoint
 10
2808.800088449528
 20
2538.909163386517
 30
0.0
  0
POINT
  5
5020
330
5016
100
AcDbEntity
  8
DEFPOINTS
 62
     0
100
AcDbPoint
 10
2858.800088449529
 20
2538.909163386517
 30
0.0
  0
ENDBLK
  5
5022
330
5016
100
AcDbEntity
  8
0
100
AcDbBlockEnd
  0
BLOCK
  5
5043
330
5038
100
AcDbEntity
  8
0
100
AcDbBlockBegin
  2
*D39
 70
     1
 10
0.0
 20
0.0
 30
0.0
  3
*D39
  1

  0
LINE
  5
5039
330
5038
100
AcDbEntity
  8
寸法
 62
     0
370
    -2
100
AcDbLine
 10
2708.800088449529
 20
2108.909163386517
 30
0.0
 11
2708.800088449529
 21
2074.2633250841
 31
0.0
  0
LINE
  5
503A
330
5038
100
AcDbEntity
  8
寸法
 62
     0
370
    -2
100
AcDbLine
 10
2753.800088449529
 20
2108.909163386517
 30
0.0
 11
2753.800088449529
 21
2074.2633250841
 31
0.0
  0
LINE
  5
503B
330
5038
100
AcDbEntity
  8
寸法
 62
     0
370
    -2
100
AcDbLine
 10
2743.800088449528
 20
2079.2633250841
 30
0.0
 11
2718.800088449528
 21
2079.2633250841
 31
0.0
  0
LINE
  5
503C
330
5038
100
AcDbEntity
  8
寸法
 62
     0
370
    -2
100
AcDbLine
 10
2708.800088449529
 20
2079.2633250841
 30
0.0
 11
2645.466755116195
 21
2079.2633250841
 31
0.0
  0
SOLID
  5
503D
330
5038
100
AcDbEntity
  8
寸法
 62
     0
100
AcDbTrace
 10
2743.800088449528
 20
2080.929991750766
 30
0.0
 11
2743.800088449528
 21
2077.596658417433
 31
0.0
 12
2753.800088449529
 22
2079.2633250841
 32
0.0
 13
2753.800088449529
 23
2079.2633250841
 33
0.0
  0
SOLID
  5
503E
330
5038
100
AcDbEntity
  8
寸法
 62
     0
100
AcDbTrace
 10
2718.800088449528
 20
2080.929991750766
 30
0.0
 11
2718.800088449528
 21
2077.596658417433
 31
0.0
 12
2708.800088449529
 22
2079.2633250841
 32
0.0
 13
2708.800088449529
 23
2079.2633250841
 33
0.0
  0
MTEXT
  5
503F
330
5038
100
AcDbEntity
  8
寸法
 62
     0
100
AcDbMText
 10
2672.133421782862
 20
2059.2633250841
 30
0.0
 40
20.0
 41
0.0
 71
     5
 72
     1
  1
45
 73
     1
 44
1.0
1001
ACAD
1000
MTEXTBEGIN
1070
    73
1070
     1
1070
    44
1040
1.0
1070
    74
1070
     0
1000
MTEXTEND
  0
POINT
  5
5040
330
5038
100
AcDbEntity
  8
DEFPOINTS
 62
     0
100
AcDbPoint
 10
2708.800088449529
 20
2138.909163386517
 30
0.0
  0
POINT
  5
5041
330
5038
100
AcDbEntity
  8
DEFPOINTS
 62
     0
100
AcDbPoint
 10
2753.800088449529
 20
2138.909163386517
 30
0.0
  0
POINT
  5
5042
330
5038
100
AcDbEntity
  8
DEFPOINTS
 62
     0
100
AcDbPoint
 10
2753.800088449529
 20
2079.2633250841
 30
0.0
  0
ENDBLK
  5
5044
330
5038
100
AcDbEntity
  8
0
100
AcDbBlockEnd
  0
BLOCK
  5
504F
330
5045
100
AcDbEntity
  8
0
100
AcDbBlockBegin
  2
*D40
 70
     1
 10
0.0
 20
0.0
 30
0.0
  3
*D40
  1

  0
LINE
  5
5046
330
5045
100
AcDbEntity
  8
寸法
 62
     0
370
    -2
100
AcDbLine
 10
2753.800088449529
 20
2108.909163386517
 30
0.0
 11
2753.800088449529
 21
2074.2633250841
 31
0.0
  0
LINE
  5
5047
330
5045
100
AcDbEntity
  8
寸法
 62
     0
370
    -2
100
AcDbLine
 10
2808.800088449528
 20
2108.909163386517
 30
0.0
 11
2808.800088449528
 21
2074.2633250841
 31
0.0
  0
LINE
  5
5048
330
5045
100
AcDbEntity
  8
寸法
 62
     0
370
    -2
100
AcDbLine
 10
2763.800088449528
 20
2079.2633250841
 30
0.0
 11
2798.800088449528
 21
2079.2633250841
 31
0.0
  0
SOLID
  5
5049
330
5045
100
AcDbEntity
  8
寸法
 62
     0
100
AcDbTrace
 10
2763.800088449528
 20
2080.929991750766
 30
0.0
 11
2763.800088449528
 21
2077.596658417433
 31
0.0
 12
2753.800088449529
 22
2079.2633250841
 32
0.0
 13
2753.800088449529
 23
2079.2633250841
 33
0.0
  0
SOLID
  5
504A
330
5045
100
AcDbEntity
  8
寸法
 62
     0
100
AcDbTrace
 10
2798.800088449528
 20
2080.929991750766
 30
0.0
 11
2798.800088449528
 21
2077.596658417433
 31
0.0
 12
2808.800088449528
 22
2079.2633250841
 32
0.0
 13
2808.800088449528
 23
2079.2633250841
 33
0.0
  0
MTEXT
  5
504B
330
5045
100
AcDbEntity
  8
寸法
 62
     0
100
AcDbMText
 10
2781.300088449528
 20
2059.2633250841
 30
0.0
 40
20.0
 41
0.0
 71
     5
 72
     1
  1
55
 73
     1
 44
1.0
1001
ACAD
1000
MTEXTBEGIN
1070
    73
1070
     1
1070
    44
1040
1.0
1070
    74
1070
     0
1000
MTEXTEND
  0
POINT
  5
504C
330
5045
100
AcDbEntity
  8
DEFPOINTS
 62
     0
100
AcDbPoint
 10
2753.800088449529
 20
2138.909163386517
 30
0.0
  0
POINT
  5
504D
330
5045
100
AcDbEntity
  8
DEFPOINTS
 62
     0
100
AcDbPoint
 10
2808.800088449528
 20
2138.909163386517
 30
0.0
  0
POINT
  5
504E
330
5045
100
AcDbEntity
  8
DEFPOINTS
 62
     0
100
AcDbPoint
 10
2808.800088449528
 20
2079.2633250841
 30
0.0
  0
ENDBLK
  5
5050
330
5045
100
AcDbEntity
  8
0
100
AcDbBlockEnd
  0
BLOCK
  5
505C
330
5051
100
AcDbEntity
  8
0
100
AcDbBlockBegin
  2
*D41
 70
     1
 10
0.0
 20
0.0
 30
0.0
  3
*D41
  1

  0
LINE
  5
5052
330
5051
100
AcDbEntity
  8
寸法
 62
     0
370
    -2
100
AcDbLine
 10
3108.800088449529
 20
2568.909163386517
 30
0.0
 11
3108.800088449529
 21
2594.5183862411
 31
0.0
  0
LINE
  5
5053
330
5051
100
AcDbEntity
  8
寸法
 62
     0
370
    -2
100
AcDbLine
 10
3153.800088449528
 20
2568.909163386517
 30
0.0
 11
3153.800088449528
 21
2594.5183862411
 31
0.0
  0
LINE
  5
5054
330
5051
100
AcDbEntity
  8
寸法
 62
     0
370
    -2
100
AcDbLine
 10
3143.800088449528
 20
2589.518386241099
 30
0.0
 11
3118.800088449528
 21
2589.518386241099
 31
0.0
  0
LINE
  5
5055
330
5051
100
AcDbEntity
  8
寸法
 62
     0
370
    -2
100
AcDbLine
 10
3108.800088449529
 20
2589.518386241099
 30
0.0
 11
3045.466755116195
 21
2589.518386241099
 31
0.0
  0
SOLID
  5
5056
330
5051
100
AcDbEntity
  8
寸法
 62
     0
100
AcDbTrace
 10
3143.800088449528
 20
2591.185052907766
 30
0.0
 11
3143.800088449528
 21
2587.851719574433
 31
0.0
 12
3153.800088449528
 22
2589.518386241099
 32
0.0
 13
3153.800088449528
 23
2589.518386241099
 33
0.0
  0
SOLID
  5
5057
330
5051
100
AcDbEntity
  8
寸法
 62
     0
100
AcDbTrace
 10
3118.800088449528
 20
2591.185052907766
 30
0.0
 11
3118.800088449528
 21
2587.851719574433
 31
0.0
 12
3108.800088449529
 22
2589.518386241099
 32
0.0
 13
3108.800088449529
 23
2589.518386241099
 33
0.0
  0
MTEXT
  5
5058
330
5051
100
AcDbEntity
  8
寸法
 62
     0
100
AcDbMText
 10
3072.133421782862
 20
2609.518386241099
 30
0.0
 40
20.0
 41
0.0
 71
     5
 72
     1
  1
45
 73
     1
 44
1.0
1001
ACAD
1000
MTEXTBEGIN
1070
    73
1070
     1
1070
    44
1040
1.0
1070
    74
1070
     0
1000
MTEXTEND
  0
POINT
  5
5059
330
5051
100
AcDbEntity
  8
DEFPOINTS
 62
     0
100
AcDbPoint
 10
3108.800088449529
 20
2538.909163386517
 30
0.0
  0
POINT
  5
505A
330
5051
100
AcDbEntity
  8
DEFPOINTS
 62
     0
100
AcDbPoint
 10
3153.800088449528
 20
2538.909163386517
 30
0.0
  0
POINT
  5
505B
330
5051
100
AcDbEntity
  8
DEFPOINTS
 62
     0
100
AcDbPoint
 10
3153.800088449528
 20
2589.518386241099
 30
0.0
  0
ENDBLK
  5
505D
330
5051
100
AcDbEntity
  8
0
100
AcDbBlockEnd
  0
BLOCK
  5
506A
330
505E
100
AcDbEntity
  8
0
100
AcDbBlockBegin
  2
*D42
 70
     1
 10
0.0
 20
0.0
 30
0.0
  3
*D42
  1

  0
LINE
  5
505F
330
505E
100
AcDbEntity
  8
寸法
 62
     0
370
    -2
100
AcDbLine
 10
3153.800088449528
 20
2568.909163386517
 30
0.0
 11
3153.800088449528
 21
2594.5183862411
 31
0.0
  0
LINE
  5
5060
330
505E
100
AcDbEntity
  8
寸法
 62
     0
370
    -2
100
AcDbLine
 10
3158.800088449528
 20
2568.909163386517
 30
0.0
 11
3158.800088449528
 21
2594.5183862411
 31
0.0
  0
LINE
  5
5061
330
505E
100
AcDbEntity
  8
寸法
 62
     0
370
    -2
100
AcDbLine
 10
3143.800088449528
 20
2589.518386241099
 30
0.0
 11
3133.800088449528
 21
2589.518386241099
 31
0.0
  0
LINE
  5
5062
330
505E
100
AcDbEntity
  8
寸法
 62
     0
370
    -2
100
AcDbLine
 10
3168.800088449528
 20
2589.518386241099
 30
0.0
 11
3178.800088449528
 21
2589.518386241099
 31
0.0
  0
LINE
  5
5063
330
505E
100
AcDbEntity
  8
寸法
 62
     0
370
    -2
100
AcDbLine
 10
3153.800088449528
 20
2589.518386241099
 30
0.0
 11
3158.800088449528
 21
2589.518386241099
 31
0.0
  0
SOLID
  5
5064
330
505E
100
AcDbEntity
  8
寸法
 62
     0
100
AcDbTrace
 10
3143.800088449528
 20
2591.185052907766
 30
0.0
 11
3143.800088449528
 21
2587.851719574433
 31
0.0
 12
3153.800088449528
 22
2589.518386241099
 32
0.0
 13
3153.800088449528
 23
2589.518386241099
 33
0.0
  0
SOLID
  5
5065
330
505E
100
AcDbEntity
  8
寸法
 62
     0
100
AcDbTrace
 10
3168.800088449528
 20
2591.185052907766
 30
0.0
 11
3168.800088449528
 21
2587.851719574433
 31
0.0
 12
3158.800088449528
 22
2589.518386241099
 32
0.0
 13
3158.800088449528
 23
2589.518386241099
 33
0.0
  0
MTEXT
  5
5066
330
505E
100
AcDbEntity
  8
寸法
 62
     0
100
AcDbMText
 10
3156.300088449528
 20
2609.518386241099
 30
0.0
 40
20.0
 41
0.0
 71
     5
 72
     1
  1
5
 73
     1
 44
1.0
1001
ACAD
1000
MTEXTBEGIN
1070
    73
1070
     1
1070
    44
1040
1.0
1070
    74
1070
     0
1000
MTEXTEND
  0
POINT
  5
5067
330
505E
100
AcDbEntity
  8
DEFPOINTS
 62
     0
100
AcDbPoint
 10
3153.800088449528
 20
2538.909163386517
 30
0.0
  0
POINT
  5
5068
330
505E
100
AcDbEntity
  8
DEFPOINTS
 62
     0
100
AcDbPoint
 10
3158.800088449528
 20
2538.909163386517
 30
0.0
  0
POINT
  5
5069
330
505E
100
AcDbEntity
  8
DEFPOINTS
 62
     0
100
AcDbPoint
 10
3158.800088449528
 20
2589.518386241099
 30
0.0
  0
ENDBLK
  5
506B
330
505E
100
AcDbEntity
  8
0
100
AcDbBlockEnd
  0
BLOCK
  5
5077
330
506C
100
AcDbEntity
  8
0
100
AcDbBlockBegin
  2
*D43
 70
     1
 10
0.0
 20
0.0
 30
0.0
  3
*D43
  1

  0
LINE
  5
506D
330
506C
100
AcDbEntity
  8
寸法
 62
     0
370
    -2
100
AcDbLine
 10
3158.800088449528
 20
2568.909163386517
 30
0.0
 11
3158.800088449528
 21
2594.5183862411
 31
0.0
  0
LINE
  5
506E
330
506C
100
AcDbEntity
  8
寸法
 62
     0
370
    -2
100
AcDbLine
 10
3208.800088449528
 20
2568.909163386517
 30
0.0
 11
3208.800088449528
 21
2594.5183862411
 31
0.0
  0
LINE
  5
506F
330
506C
100
AcDbEntity
  8
寸法
 62
     0
370
    -2
100
AcDbLine
 10
3168.800088449528
 20
2589.518386241099
 30
0.0
 11
3198.800088449528
 21
2589.518386241099
 31
0.0
  0
LINE
  5
5070
330
506C
100
AcDbEntity
  8
寸法
 62
     0
370
    -2
100
AcDbLine
 10
3208.800088449528
 20
2589.518386241099
 30
0.0
 11
3268.800088449528
 21
2589.518386241099
 31
0.0
  0
SOLID
  5
5071
330
506C
100
AcDbEntity
  8
寸法
 62
     0
100
AcDbTrace
 10
3168.800088449528
 20
2591.185052907766
 30
0.0
 11
3168.800088449528
 21
2587.851719574433
 31
0.0
 12
3158.800088449528
 22
2589.518386241099
 32
0.0
 13
3158.800088449528
 23
2589.518386241099
 33
0.0
  0
SOLID
  5
5072
330
506C
100
AcDbEntity
  8
寸法
 62
     0
100
AcDbTrace
 10
3198.800088449528
 20
2591.185052907766
 30
0.0
 11
3198.800088449528
 21
2587.851719574433
 31
0.0
 12
3208.800088449528
 22
2589.518386241099
 32
0.0
 13
3208.800088449528
 23
2589.518386241099
 33
0.0
  0
MTEXT
  5
5073
330
506C
100
AcDbEntity
  8
寸法
 62
     0
100
AcDbMText
 10
3243.800088449528
 20
2609.518386241099
 30
0.0
 40
20.0
 41
0.0
 71
     5
 72
     1
  1
50
 73
     1
 44
1.0
1001
ACAD
1000
MTEXTBEGIN
1070
    73
1070
     1
1070
    44
1040
1.0
1070
    74
1070
     0
1000
MTEXTEND
  0
POINT
  5
5074
330
506C
100
AcDbEntity
  8
DEFPOINTS
 62
     0
100
AcDbPoint
 10
3158.800088449528
 20
2538.909163386517
 30
0.0
  0
POINT
  5
5075
330
506C
100
AcDbEntity
  8
DEFPOINTS
 62
     0
100
AcDbPoint
 10
3208.800088449528
 20
2538.909163386517
 30
0.0
  0
POINT
  5
5076
330
506C
100
AcDbEntity
  8
DEFPOINTS
 62
     0
100
AcDbPoint
 10
3208.800088449528
 20
2589.518386241099
 30
0.0
  0
ENDBLK
  5
5078
330
506C
100
AcDbEntity
  8
0
100
AcDbBlockEnd
  0
BLOCK
  5
5083
330
5079
100
AcDbEntity
  8
0
100
AcDbBlockBegin
  2
*D44
 70
     1
 10
0.0
 20
0.0
 30
0.0
  3
*D44
  1

  0
LINE
  5
507A
330
5079
100
AcDbEntity
  8
寸法
 62
     0
370
    -2
100
AcDbLine
 10
3238.800088449528
 20
2239.909163386517
 30
0.0
 11
3261.485621563927
 21
2239.909163386517
 31
0.0
  0
LINE
  5
507B
330
5079
100
AcDbEntity
  8
寸法
 62
     0
370
    -2
100
AcDbLine
 10
3238.800088449528
 20
2538.909163386517
 30
0.0
 11
3261.485621563927
 21
2538.909163386517
 31
0.0
  0
LINE
  5
507C
330
5079
100
AcDbEntity
  8
寸法
 62
     0
370
    -2
100
AcDbLine
 10
3256.485621563927
 20
2249.909163386517
 30
0.0
 11
3256.485621563927
 21
2528.909163386517
 31
0.0
  0
SOLID
  5
507D
330
5079
100
AcDbEntity
  8
寸法
 62
     0
100
AcDbTrace
 10
3254.818954897261
 20
2249.909163386517
 30
0.0
 11
3258.152288230593
 21
2249.909163386517
 31
0.0
 12
3256.485621563927
 22
2239.909163386517
 32
0.0
 13
3256.485621563927
 23
2239.909163386517
 33
0.0
  0
SOLID
  5
507E
330
5079
100
AcDbEntity
  8
寸法
 62
     0
100
AcDbTrace
 10
3254.818954897261
 20
2528.909163386517
 30
0.0
 11
3258.152288230593
 21
2528.909163386517
 31
0.0
 12
3256.485621563927
 22
2538.909163386517
 32
0.0
 13
3256.485621563927
 23
2538.909163386517
 33
0.0
  0
MTEXT
  5
507F
330
5079
100
AcDbEntity
  8
寸法
 62
     0
100
AcDbMText
 10
3276.485621563927
 20
2389.409163386518
 30
0.0
 40
20.0
 41
0.0
 71
     5
 72
     1
  1
299
 11
0.0000000000000001
 21
1.0
 31
0.0
 73
     1
 44
1.0
1001
ACAD
1000
MTEXTBEGIN
1070
    73
1070
     1
1070
    44
1040
1.0
1070
    74
1070
     0
1000
MTEXTEND
  0
POINT
  5
5080
330
5079
100
AcDbEntity
  8
DEFPOINTS
 62
     0
100
AcDbPoint
 10
3208.800088449528
 20
2239.909163386517
 30
0.0
  0
POINT
  5
5081
330
5079
100
AcDbEntity
  8
DEFPOINTS
 62
     0
100
AcDbPoint
 10
3208.800088449528
 20
2538.909163386517
 30
0.0
  0
POINT
  5
5082
330
5079
100
AcDbEntity
  8
DEFPOINTS
 62
     0
100
AcDbPoint
 10
3256.485621563927
 20
2538.909163386517
 30
0.0
  0
ENDBLK
  5
5084
330
5079
100
AcDbEntity
  8
0
100
AcDbBlockEnd
  0
BLOCK
  5
5091
330
5085
100
AcDbEntity
  8
0
100
AcDbBlockBegin
  2
*D45
 70
     1
 10
0.0
 20
0.0
 30
0.0
  3
*D45
  1

  0
LINE
  5
5086
330
5085
100
AcDbEntity
  8
寸法
 62
     0
370
    -2
100
AcDbLine
 10
3238.800088449528
 20
2234.909163386517
 30
0.0
 11
3261.485621563928
 21
2234.909163386517
 31
0.0
  0
LINE
  5
5087
330
5085
100
AcDbEntity
  8
寸法
 62
     0
370
    -2
100
AcDbLine
 10
3238.800088449528
 20
2239.909163386517
 30
0.0
 11
3261.485621563928
 21
2239.909163386517
 31
0.0
  0
LINE
  5
5088
330
5085
100
AcDbEntity
  8
寸法
 62
     0
370
    -2
100
AcDbLine
 10
3256.485621563927
 20
2224.909163386517
 30
0.0
 11
3256.485621563927
 21
2214.909163386517
 31
0.0
  0
LINE
  5
5089
330
5085
100
AcDbEntity
  8
寸法
 62
     0
370
    -2
100
AcDbLine
 10
3256.485621563927
 20
2249.909163386517
 30
0.0
 11
3256.485621563927
 21
2259.909163386517
 31
0.0
  0
LINE
  5
508A
330
5085
100
AcDbEntity
  8
寸法
 62
     0
370
    -2
100
AcDbLine
 10
3256.485621563927
 20
2234.909163386517
 30
0.0
 11
3256.485621563927
 21
2239.909163386517
 31
0.0
  0
SOLID
  5
508B
330
5085
100
AcDbEntity
  8
寸法
 62
     0
100
AcDbTrace
 10
3254.818954897261
 20
2224.909163386517
 30
0.0
 11
3258.152288230594
 21
2224.909163386517
 31
0.0
 12
3256.485621563927
 22
2234.909163386517
 32
0.0
 13
3256.485621563927
 23
2234.909163386517
 33
0.0
  0
SOLID
  5
508C
330
5085
100
AcDbEntity
  8
寸法
 62
     0
100
AcDbTrace
 10
3254.818954897261
 20
2249.909163386517
 30
0.0
 11
3258.152288230594
 21
2249.909163386517
 31
0.0
 12
3256.485621563927
 22
2239.909163386517
 32
0.0
 13
3256.485621563927
 23
2239.909163386517
 33
0.0
  0
MTEXT
  5
508D
330
5085
100
AcDbEntity
  8
寸法
 62
     0
100
AcDbMText
 10
3276.485621563927
 20
2237.409163386518
 30
0.0
 40
20.0
 41
0.0
 71
     5
 72
     1
  1
5
 11
0.0000000000000001
 21
1.0
 31
0.0
 73
     1
 44
1.0
1001
ACAD
1000
MTEXTBEGIN
1070
    73
1070
     1
1070
    44
1040
1.0
1070
    74
1070
     0
1000
MTEXTEND
  0
POINT
  5
508E
330
5085
100
AcDbEntity
  8
DEFPOINTS
 62
     0
100
AcDbPoint
 10
3208.800088449528
 20
2234.909163386517
 30
0.0
  0
POINT
  5
508F
330
5085
100
AcDbEntity
  8
DEFPOINTS
 62
     0
100
AcDbPoint
 10
3208.800088449528
 20
2239.909163386517
 30
0.0
  0
POINT
  5
5090
330
5085
100
AcDbEntity
  8
DEFPOINTS
 62
     0
100
AcDbPoint
 10
3256.485621563927
 20
2239.909163386517
 30
0.0
  0
ENDBLK
  5
5092
330
5085
100
AcDbEntity
  8
0
100
AcDbBlockEnd
  0
BLOCK
  5
509D
330
5093
100
AcDbEntity
  8
0
100
AcDbBlockBegin
  2
*D46
 70
     1
 10
0.0
 20
0.0
 30
0.0
  3
*D46
  1

  0
LINE
  5
5094
330
5093
100
AcDbEntity
  8
寸法
 62
     0
370
    -2
100
AcDbLine
 10
3238.800088449528
 20
2234.909163386517
 30
0.0
 11
3261.485621563927
 21
2234.909163386517
 31
0.0
  0
LINE
  5
5095
330
5093
100
AcDbEntity
  8
寸法
 62
     0
370
    -2
100
AcDbLine
 10
3238.800088449528
 20
2138.909163386517
 30
0.0
 11
3261.485621563927
 21
2138.909163386517
 31
0.0
  0
LINE
  5
5096
330
5093
100
AcDbEntity
  8
寸法
 62
     0
370
    -2
100
AcDbLine
 10
3256.485621563927
 20
2224.909163386517
 30
0.0
 11
3256.485621563927
 21
2148.909163386517
 31
0.0
  0
SOLID
  5
5097
330
5093
100
AcDbEntity
  8
寸法
 62
     0
100
AcDbTrace
 10
3254.818954897261
 20
2224.909163386517
 30
0.0
 11
3258.152288230593
 21
2224.909163386517
 31
0.0
 12
3256.485621563927
 22
2234.909163386517
 32
0.0
 13
3256.485621563927
 23
2234.909163386517
 33
0.0
  0
SOLID
  5
5098
330
5093
100
AcDbEntity
  8
寸法
 62
     0
100
AcDbTrace
 10
3254.818954897261
 20
2148.909163386517
 30
0.0
 11
3258.152288230593
 21
2148.909163386517
 31
0.0
 12
3256.485621563927
 22
2138.909163386517
 32
0.0
 13
3256.485621563927
 23
2138.909163386517
 33
0.0
  0
MTEXT
  5
5099
330
5093
100
AcDbEntity
  8
寸法
 62
     0
100
AcDbMText
 10
3276.485621563927
 20
2186.909163386518
 30
0.0
 40
20.0
 41
0.0
 71
     5
 72
     1
  1
96
 11
0.0000000000000001
 21
1.0
 31
0.0
 73
     1
 44
1.0
1001
ACAD
1000
MTEXTBEGIN
1070
    73
1070
     1
1070
    44
1040
1.0
1070
    74
1070
     0
1000
MTEXTEND
  0
POINT
  5
509A
330
5093
100
AcDbEntity
  8
DEFPOINTS
 62
     0
100
AcDbPoint
 10
3208.800088449528
 20
2234.909163386517
 30
0.0
  0
POINT
  5
509B
330
5093
100
AcDbEntity
  8
DEFPOINTS
 62
     0
100
AcDbPoint
 10
3208.800088449528
 20
2138.909163386517
 30
0.0
  0
POINT
  5
509C
330
5093
100
AcDbEntity
  8
DEFPOINTS
 62
     0
100
AcDbPoint
 10
3256.485621563927
 20
2138.909163386517
 30
0.0
  0
ENDBLK
  5
509E
330
5093
100
AcDbEntity
  8
0
100
AcDbBlockEnd
  0
BLOCK
  5
50A9
330
509F
100
AcDbEntity
  8
0
100
AcDbBlockBegin
  2
*D47
 70
     1
 10
0.0
 20
0.0
 30
0.0
  3
*D47
  1

  0
LINE
  5
50A0
330
509F
100
AcDbEntity
  8
寸法
 62
     0
370
    -2
100
AcDbLine
 10
3108.800088449529
 20
2108.909163386517
 30
0.0
 11
3108.800088449529
 21
2028.110308324755
 31
0.0
  0
LINE
  5
50A1
330
509F
100
AcDbEntity
  8
寸法
 62
     0
370
    -2
100
AcDbLine
 10
3208.800088449528
 20
2108.909163386517
 30
0.0
 11
3208.800088449528
 21
2028.110308324755
 31
0.0
  0
LINE
  5
50A2
330
509F
100
AcDbEntity
  8
寸法
 62
     0
370
    -2
100
AcDbLine
 10
3118.800088449528
 20
2033.110308324755
 30
0.0
 11
3198.800088449528
 21
2033.110308324755
 31
0.0
  0
SOLID
  5
50A3
330
509F
100
AcDbEntity
  8
寸法
 62
     0
100
AcDbTrace
 10
3118.800088449528
 20
2034.776974991422
 30
0.0
 11
3118.800088449528
 21
2031.443641658088
 31
0.0
 12
3108.800088449529
 22
2033.110308324755
 32
0.0
 13
3108.800088449529
 23
2033.110308324755
 33
0.0
  0
SOLID
  5
50A4
330
509F
100
AcDbEntity
  8
寸法
 62
     0
100
AcDbTrace
 10
3198.800088449528
 20
2034.776974991422
 30
0.0
 11
3198.800088449528
 21
2031.443641658088
 31
0.0
 12
3208.800088449528
 22
2033.110308324755
 32
0.0
 13
3208.800088449528
 23
2033.110308324755
 33
0.0
  0
MTEXT
  5
50A5
330
509F
100
AcDbEntity
  8
寸法
 62
     0
100
AcDbMText
 10
3158.800088449528
 20
2013.110308324755
 30
0.0
 40
20.0
 41
0.0
 71
     5
 72
     1
  1
100
 73
     1
 44
1.0
1001
ACAD
1000
MTEXTBEGIN
1070
    73
1070
     1
1070
    44
1040
1.0
1070
    74
1070
     0
1000
MTEXTEND
  0
POINT
  5
50A6
330
509F
100
AcDbEntity
  8
DEFPOINTS
 62
     0
100
AcDbPoint
 10
3108.800088449529
 20
2138.909163386517
 30
0.0
  0
POINT
  5
50A7
330
509F
100
AcDbEntity
  8
DEFPOINTS
 62
     0
100
AcDbPoint
 10
3208.800088449528
 20
2138.909163386517
 30
0.0
  0
POINT
  5
50A8
330
509F
100
AcDbEntity
  8
DEFPOINTS
 62
     0
100
AcDbPoint
 10
3208.800088449528
 20
2033.110308324755
 30
0.0
  0
ENDBLK
  5
50AA
330
509F
100
AcDbEntity
  8
0
100
AcDbBlockEnd
  0
BLOCK
  5
50B5
330
50AB
100
AcDbEntity
  8
0
100
AcDbBlockBegin
  2
*D48
 70
     1
 10
0.0
 20
0.0
 30
0.0
  3
*D48
  1

  0
LINE
  5
50AC
330
50AB
100
AcDbEntity
  8
寸法
 62
     0
370
    -2
100
AcDbLine
 10
2238.800088449528
 20
888.9091633865168
 30
0.0
 11
2316.7622978401
 21
888.9091633865167
 31
0.0
  0
LINE
  5
50AD
330
50AB
100
AcDbEntity
  8
寸法
 62
     0
370
    -2
100
AcDbLine
 10
2238.800088449528
 20
788.9091633865168
 30
0.0
 11
2316.7622978401
 21
788.9091633865167
 31
0.0
  0
LINE
  5
50AE
330
50AB
100
AcDbEntity
  8
寸法
 62
     0
370
    -2
100
AcDbLine
 10
2311.7622978401
 20
878.9091633865167
 30
0.0
 11
2311.7622978401
 21
798.9091633865167
 31
0.0
  0
SOLID
  5
50AF
330
50AB
100
AcDbEntity
  8
寸法
 62
     0
100
AcDbTrace
 10
2310.095631173433
 20
878.9091633865167
 30
0.0
 11
2313.428964506766
 21
878.9091633865167
 31
0.0
 12
2311.7622978401
 22
888.9091633865167
 32
0.0
 13
2311.7622978401
 23
888.9091633865167
 33
0.0
  0
SOLID
  5
50B0
330
50AB
100
AcDbEntity
  8
寸法
 62
     0
100
AcDbTrace
 10
2310.095631173433
 20
798.9091633865167
 30
0.0
 11
2313.428964506766
 21
798.9091633865167
 31
0.0
 12
2311.7622978401
 22
788.9091633865167
 32
0.0
 13
2311.7622978401
 23
788.9091633865167
 33
0.0
  0
MTEXT
  5
50B1
330
50AB
100
AcDbEntity
  8
寸法
 62
     0
100
AcDbMText
 10
2331.7622978401
 20
838.9091633865172
 30
0.0
 40
20.0
 41
0.0
 71
     5
 72
     1
  1
100
 11
0.0000000000000001
 21
1.0
 31
0.0
 73
     1
 44
1.0
1001
ACAD
1000
MTEXTBEGIN
1070
    73
1070
     1
1070
    44
1040
1.0
1070
    74
1070
     0
1000
MTEXTEND
  0
POINT
  5
50B2
330
50AB
100
AcDbEntity
  8
DEFPOINTS
 62
     0
100
AcDbPoint
 10
2208.800088449528
 20
888.9091633865168
 30
0.0
  0
POINT
  5
50B3
330
50AB
100
AcDbEntity
  8
DEFPOINTS
 62
     0
100
AcDbPoint
 10
2208.800088449528
 20
788.9091633865168
 30
0.0
  0
POINT
  5
50B4
330
50AB
100
AcDbEntity
  8
DEFPOINTS
 62
     0
100
AcDbPoint
 10
2311.7622978401
 20
788.9091633865167
 30
0.0
  0
ENDBLK
  5
50B6
330
50AB
100
AcDbEntity
  8
0
100
AcDbBlockEnd
  0
BLOCK
  5
50C1
330
50B7
100
AcDbEntity
  8
0
100
AcDbBlockBegin
  2
*D49
 70
     1
 10
0.0
 20
0.0
 30
0.0
  3
*D49
  1

  0
LINE
  5
50B8
330
50B7
100
AcDbEntity
  8
寸法
 62
     0
370
    -2
100
AcDbLine
 10
2708.800088449529
 20
2108.909163386517
 30
0.0
 11
2708.800088449529
 21
2028.110308324755
 31
0.0
  0
LINE
  5
50B9
330
50B7
100
AcDbEntity
  8
寸法
 62
     0
370
    -2
100
AcDbLine
 10
2808.800088449528
 20
2108.909163386517
 30
0.0
 11
2808.800088449528
 21
2028.110308324755
 31
0.0
  0
LINE
  5
50BA
330
50B7
100
AcDbEntity
  8
寸法
 62
     0
370
    -2
100
AcDbLine
 10
2718.800088449528
 20
2033.110308324755
 30
0.0
 11
2798.800088449528
 21
2033.110308324755
 31
0.0
  0
SOLID
  5
50BB
330
50B7
100
AcDbEntity
  8
寸法
 62
     0
100
AcDbTrace
 10
2718.800088449528
 20
2034.776974991422
 30
0.0
 11
2718.800088449528
 21
2031.443641658088
 31
0.0
 12
2708.800088449529
 22
2033.110308324755
 32
0.0
 13
2708.800088449529
 23
2033.110308324755
 33
0.0
  0
SOLID
  5
50BC
330
50B7
100
AcDbEntity
  8
寸法
 62
     0
100
AcDbTrace
 10
2798.800088449528
 20
2034.776974991422
 30
0.0
 11
2798.800088449528
 21
2031.443641658088
 31
0.0
 12
2808.800088449528
 22
2033.110308324755
 32
0.0
 13
2808.800088449528
 23
2033.110308324755
 33
0.0
  0
MTEXT
  5
50BD
330
50B7
100
AcDbEntity
  8
寸法
 62
     0
100
AcDbMText
 10
2758.800088449528
 20
2013.110308324755
 30
0.0
 40
20.0
 41
0.0
 71
     5
 72
     1
  1
100
 73
     1
 44
1.0
1001
ACAD
1000
MTEXTBEGIN
1070
    73
1070
     1
1070
    44
1040
1.0
1070
    74
1070
     0
1000
MTEXTEND
  0
POINT
  5
50BE
330
50B7
100
AcDbEntity
  8
DEFPOINTS
 62
     0
100
AcDbPoint
 10
2708.800088449529
 20
2138.909163386517
 30
0.0
  0
POINT
  5
50BF
330
50B7
100
AcDbEntity
  8
DEFPOINTS
 62
     0
100
AcDbPoint
 10
2808.800088449528
 20
2138.909163386517
 30
0.0
  0
POINT
  5
50C0
330
50B7
100
AcDbEntity
  8
DEFPOINTS
 62
     0
100
AcDbPoint
 10
2808.800088449528
 20
2033.110308324755
 30
0.0
  0
ENDBLK
  5
50C2
330
50B7
100
AcDbEntity
  8
0
100
AcDbBlockEnd
  0
BLOCK
  5
50CD
330
50C3
100
AcDbEntity
  8
0
100
AcDbBlockBegin
  2
*D50
 70
     1
 10
0.0
 20
0.0
 30
0.0
  3
*D50
  1

  0
LINE
  5
5625
330
50C3
100
AcDbEntity
  8
寸法
 62
     0
370
    -2
100
AcDbLine
 10
2075.449984369469
 20
782.1943670860621
 30
0.0
 11
2172.401723484352
 21
592.4459633897915
 31
0.0
  0
LINE
  5
5626
330
50C3
100
AcDbEntity
  8
寸法
 62
     0
370
    -2
100
AcDbLine
 10
2209.023965871743
 20
850.4438466857644
 30
0.0
 11
2305.975704986626
 21
660.6954429894937
 31
0.0
  0
LINE
  5
5627
330
50C3
100
AcDbEntity
  8
寸法
 62
     0
370
    -2
100
AcDbLine
 10
2179.03167293118
 20
601.4483947465139
 30
0.0
 11
2294.795790233151
 21
660.5979437329226
 31
0.0
  0
SOLID
  5
5628
330
50C3
100
AcDbEntity
  8
寸法
 62
     0
100
AcDbTrace
 10
2178.273345380072
 20
602.9325500965391
 30
0.0
 11
2179.790000482288
 21
599.9642393964887
 31
0.0
 12
2170.126740831029
 22
596.8984294398672
 32
0.0
 13
2170.126740831029
 23
596.8984294398672
 33
0.0
  0
SOLID
  5
5629
330
50C3
100
AcDbEntity
  8
寸法
 62
     0
100
AcDbTrace
 10
2294.037462682043
 20
662.0820990829479
 30
0.0
 11
2295.554117784259
 21
659.1137883828974
 31
0.0
 12
2303.700722333303
 22
665.1479090395694
 32
0.0
 13
2303.700722333303
 23
665.1479090395694
 33
0.0
  0
MTEXT
  5
562A
330
50C3
100
AcDbEntity
  8
寸法
 62
     0
100
AcDbMText
 10
2246.013662195459
 20
613.2133050394152
 30
0.0
 40
20.0
 41
0.0
 71
     5
 72
     1
  1
150
 11
0.8904932100151597
 21
0.4549965306646818
 31
0.0
 73
     1
 44
1.0
1001
ACAD
1000
MTEXTBEGIN
1070
    73
1070
     1
1070
    44
1040
1.0
1070
    74
1070
     0
1000
MTEXTEND
  0
POINT
  5
562B
330
50C3
100
AcDbEntity
  8
DEFPOINTS
 62
     0
100
AcDbPoint
 10
2061.800088449528
 20
808.9091633865169
 30
0.0
  0
POINT
  5
562C
330
50C3
100
AcDbEntity
  8
DEFPOINTS
 62
     0
100
AcDbPoint
 10
2195.374069951802
 20
877.1586429862193
 30
0.0
  0
POINT
  5
562D
330
50C3
100
AcDbEntity
  8
DEFPOINTS
 62
     0
100
AcDbPoint
 10
2303.700722333303
 20
665.1479090395694
 30
0.0
  0
ENDBLK
  5
50CE
330
50C3
100
AcDbEntity
  8
0
100
AcDbBlockEnd
  0
BLOCK
  5
50D9
330
50CF
100
AcDbEntity
  8
0
100
AcDbBlockBegin
  2
*D51
 70
     1
 10
0.0
 20
0.0
 30
0.0
  3
*D51
  1

  0
LINE
  5
561C
330
50CF
100
AcDbEntity
  8
寸法
 62
     0
370
    -2
100
AcDbLine
 10
929.8000884495282
 20
778.9091633865169
 30
0.0
 11
929.8000884495282
 21
732.3216160724964
 31
0.0
  0
LINE
  5
561D
330
50CF
100
AcDbEntity
  8
寸法
 62
     0
370
    -2
100
AcDbLine
 10
2061.800088449528
 20
778.9091633865169
 30
0.0
 11
2061.800088449528
 21
732.3216160724964
 31
0.0
  0
LINE
  5
561E
330
50CF
100
AcDbEntity
  8
寸法
 62
     0
370
    -2
100
AcDbLine
 10
939.8000884495282
 20
737.3216160724965
 30
0.0
 11
2051.800088449528
 21
737.3216160724965
 31
0.0
  0
SOLID
  5
561F
330
50CF
100
AcDbEntity
  8
寸法
 62
     0
100
AcDbTrace
 10
939.8000884495282
 20
738.988282739163
 30
0.0
 11
939.8000884495282
 21
735.6549494058298
 31
0.0
 12
929.8000884495282
 22
737.3216160724965
 32
0.0
 13
929.8000884495282
 23
737.3216160724965
 33
0.0
  0
SOLID
  5
5620
330
50CF
100
AcDbEntity
  8
寸法
 62
     0
100
AcDbTrace
 10
2051.800088449528
 20
738.988282739163
 30
0.0
 11
2051.800088449528
 21
735.6549494058298
 31
0.0
 12
2061.800088449528
 22
737.3216160724965
 32
0.0
 13
2061.800088449528
 23
737.3216160724965
 33
0.0
  0
MTEXT
  5
5621
330
50CF
100
AcDbEntity
  8
寸法
 62
     0
100
AcDbMText
 10
1495.800088449528
 20
717.3216160724964
 30
0.0
 40
20.0
 41
0.0
 71
     5
 72
     1
  1
1132
 73
     1
 44
1.0
1001
ACAD
1000
MTEXTBEGIN
1070
    73
1070
     1
1070
    44
1040
1.0
1070
    74
1070
     0
1000
MTEXTEND
  0
POINT
  5
5622
330
50CF
100
AcDbEntity
  8
DEFPOINTS
 62
     0
100
AcDbPoint
 10
929.8000884495282
 20
808.9091633865168
 30
0.0
  0
POINT
  5
5623
330
50CF
100
AcDbEntity
  8
DEFPOINTS
 62
     0
100
AcDbPoint
 10
2061.800088449528
 20
808.9091633865168
 30
0.0
  0
POINT
  5
5624
330
50CF
100
AcDbEntity
  8
DEFPOINTS
 62
     0
100
AcDbPoint
 10
2061.800088449528
 20
737.3216160724965
 30
0.0
  0
ENDBLK
  5
50DA
330
50CF
100
AcDbEntity
  8
0
100
AcDbBlockEnd
  0
ENDSEC
  0
SECTION
  2
ENTITIES
  0
INSERT
  5
123
330
1F
100
AcDbEntity
  8
題
 62
     7
100
AcDbBlockReference
  2
AI9-BLK1
 10
3257.800088449528
 20
263.9091633865173
 30
0.0
 41
1.152000000001862
 42
1.152000000000157
 43
1.152
  0
MTEXT
  5
124
330
1F
100
AcDbEntity
  8
題
100
AcDbMText
 10
3332.800088449528
 20
288.9091633865173
 30
0.0
 40
60.0
 41
850.0
 71
     4
 72
     5
  1
{\fHGMaruGothicMPRO|b0|i0|c128|p50; 新生興産株式会社}
 73
     1
 44
1.0
1001
ACAD
1000
MTEXTBEGIN
1070
    73
1070
     1
1070
    44
1040
1.0
1070
    74
1070
     0
1000
MTEXTEND
1000
ACAD_MTEXT_DEFINED_HEIGHT_BEGIN
1070
    46
1040
10.0
1000
ACAD_MTEXT_DEFINED_HEIGHT_END
  0
MTEXT
  5
125
330
1F
100
AcDbEntity
  8
題
100
AcDbMText
 10
3332.800088449528
 20
213.9091633865173
 30
0.0
 40
60.0
 41
850.0
 71
     4
 72
     5
  1
{\fCentury Gothic|b0|i0|c0|p34;\H0.5x;                              SHINSEI KOSAN CO.,LTD}
 73
     1
 44
1.0
1001
ACAD
1000
MTEXTBEGIN
1070
    73
1070
     1
1070
    44
1040
1.0
1070
    74
1070
     0
1000
MTEXTEND
1000
ACAD_MTEXT_DEFINED_HEIGHT_BEGIN
1070
    46
1040
5.0
1000
ACAD_MTEXT_DEFINED_HEIGHT_END
  0
LWPOLYLINE
  5
126
330
1F
100
AcDbEntity
  8
DEFPOINTS
100
AcDbPolyline
 90
        4
 70
     1
 43
0.0
 10
82.80008844952817
 20
88.90916338651733
 10
4282.800088449529
 20
88.90916338651733
 10
4282.800088449529
 20
3058.909163386517
 10
82.80008844952817
 20
3058.909163386517
  0
LWPOLYLINE
  5
127
330
1F
100
AcDbEntity
  8
題
100
AcDbPolyline
 90
        4
 70
     1
 43
0.0
 10
4182.800088449528
 20
188.9091633865173
 10
3182.800088449528
 20
188.9091633865173
 10
3182.800088449528
 20
338.9091633865173
 10
4182.800088449528
 20
338.9091633865173
  0
LWPOLYLINE
  5
128
330
1F
100
AcDbEntity
  8
題
100
AcDbPolyline
 90
        4
 70
     1
 43
0.0
 10
3182.800088449528
 20
338.9091633865173
 10
3332.800088449528
 20
338.9091633865173
 10
3332.800088449528
 20
438.9091633865173
 10
3182.800088449528
 20
438.9091633865173
  0
LWPOLYLINE
  5
129
330
1F
100
AcDbEntity
  8
題
100
AcDbPolyline
 90
        4
 70
     1
 43
0.0
 10
3182.800088449528
 20
438.9091633865173
 10
3332.800088449528
 20
438.9091633865173
 10
3332.800088449528
 20
538.9091633865173
 10
3182.800088449528
 20
538.9091633865173
  0
LWPOLYLINE
  5
132
330
1F
100
AcDbEntity
  8
題
100
AcDbPolyline
 90
        4
 70
     1
 43
0.0
 10
3932.800088449528
 20
438.9091633865173
 10
4032.800088449528
 20
438.9091633865173
 10
4032.800088449528
 20
538.9091633865173
 10
3932.800088449528
 20
538.9091633865173
  0
LWPOLYLINE
  5
133
330
1F
100
AcDbEntity
  8
題
100
AcDbPolyline
 90
        4
 70
     1
 43
0.0
 10
3932.800088449528
 20
338.9091633865173
 10
3332.800088449528
 20
338.9091633865173
 10
3332.800088449528
 20
438.9091633865173
 10
3932.800088449528
 20
438.9091633865173
  0
LWPOLYLINE
  5
134
330
1F
100
AcDbEntity
  8
題
100
AcDbPolyline
 90
        4
 70
     1
 43
0.0
 10
3932.800088449528
 20
438.9091633865173
 10
3332.800088449528
 20
438.9091633865173
 10
3332.800088449528
 20
538.9091633865173
 10
3932.800088449528
 20
538.9091633865173
  0
MTEXT
  5
135
330
1F
100
AcDbEntity
  8
題
100
AcDbMText
 10
3982.800088449528
 20
488.9091633865173
 30
0.0
 40
25.0
 41
100.0
 71
     5
 72
     5
  1
{\fHGSeikaishotaiPRO|b0|i0|c128|p66;縮尺}
 73
     1
 44
1.0
1001
ACAD
1000
MTEXTBEGIN
1070
    73
1070
     1
1070
    44
1040
1.0
1070
    74
1070
     0
1000
MTEXTEND
  0
LWPOLYLINE
  5
136
330
1F
100
AcDbEntity
  8
題
100
AcDbPolyline
 90
        4
 70
     1
 43
0.0
 10
4032.800088449528
 20
438.9091633865173
 10
4182.800088449528
 20
438.9091633865173
 10
4182.800088449528
 20
538.9091633865173
 10
4032.800088449528
 20
538.9091633865173
  0
MTEXT
  5
137
330
1F
100
AcDbEntity
  8
題
100
AcDbMText
 10
4107.800088449528
 20
488.9091633865173
 30
0.0
 40
25.0
 41
150.0
 71
     5
 72
     5
  1
1：10
 73
     1
 44
1.0
1001
ACAD
1000
MTEXTBEGIN
1070
    73
1070
     1
1070
    44
1040
1.0
1070
    74
1070
     0
1000
MTEXTEND
  0
MTEXT
  5
138
330
1F
100
AcDbEntity
  8
題
100
AcDbMText
 10
3257.800088449528
 20
488.9091633865173
 30
0.0
 40
25.0
 41
150.0
 71
     5
 72
     5
  1
{\fHGSeikaishotaiPRO|b0|i0|c128|p66;製品名}
 73
     1
 44
1.0
1001
ACAD
1000
MTEXTBEGIN
1070
    73
1070
     1
1070
    44
1040
1.0
1070
    74
1070
     0
1000
MTEXTEND
  0
MTEXT
  5
139
330
1F
100
AcDbEntity
  8
題
100
AcDbMText
 10
3257.800088449528
 20
388.9091633865173
 30
0.0
 40
25.0
 41
150.0
 71
     5
 72
     5
  1
{\fHGSeikaishotaiPRO|b0|i0|c128|p66;規格}
 73
     1
 44
1.0
1001
ACAD
1000
MTEXTBEGIN
1070
    73
1070
     1
1070
    44
1040
1.0
1070
    74
1070
     0
1000
MTEXTEND
  0
LWPOLYLINE
  5
163
330
1F
100
AcDbEntity
  8
題
100
AcDbPolyline
 90
        4
 70
     1
 43
0.0
 10
282.8000884495282
 20
188.9091633865173
 10
4182.800088449528
 20
188.9091633865173
 10
4182.800088449528
 20
2958.909163386517
 10
282.8000884495282
 20
2958.909163386517
  0
MTEXT
  5
4B91
330
1F
100
AcDbEntity
  8
全体文字
100
AcDbMText
 10
3632.800088449528
 20
488.9091633865173
 30
0.0
 40
35.0
 41
600.0000000000002
 71
     5
 72
     5
  1
U形柵渠 側板
 73
     1
 44
1.0
1001
ACAD
1000
MTEXTBEGIN
1070
    73
1070
     1
1070
    44
1040
1.0
1070
    74
1070
     0
1000
MTEXTEND
1000
ACAD_MTEXT_DEFINED_HEIGHT_BEGIN
1070
    46
1040
100.0
1000
ACAD_MTEXT_DEFINED_HEIGHT_END
  0
MTEXT
  5
4B92
330
1F
100
AcDbEntity
  8
全体文字
100
AcDbMText
 10
3632.800088449528
 20
388.9091633865173
 30
0.0
 40
35.0
 41
600.0000000000002
 71
     5
 72
     5
  1
400 （6-1型）
 73
     1
 44
1.0
1001
ACAD
1000
MTEXTBEGIN
1070
    73
1070
     1
1070
    44
1040
1.0
1070
    74
1070
     0
1000
MTEXTEND
1000
ACAD_MTEXT_DEFINED_HEIGHT_BEGIN
1070
    46
1040
100.0
1000
ACAD_MTEXT_DEFINED_HEIGHT_END
  0
LWPOLYLINE
  5
4B9C
102
{ACAD_REACTORS
330
4C4B
330
4C51
330
4C54
330
4C5A
330
4C5D
102
}
330
1F
100
AcDbEntity
  8
図
100
AcDbPolyline
 90
        4
 70
     1
 43
0.0
 10
3108.800088449529
 20
2138.909163386517
 10
3208.800088449528
 20
2138.909163386517
 10
3208.800088449528
 20
2538.909163386517
 10
3108.800088449529
 20
2538.909163386517
  0
LINE
  5
4B9F
330
1F
100
AcDbEntity
  8
センター
100
AcDbLine
 10
1495.800088449528
 20
2568.909163386517
 30
0.0
 11
1495.800088449528
 21
2108.909163386517
 31
0.0
  0
LINE
  5
4BA0
330
1F
100
AcDbEntity
  8
センター
100
AcDbLine
 10
1495.800088449528
 20
1718.909163386516
 30
0.0
 11
1495.800088449528
 21
1258.909163386517
 31
0.0
  0
LINE
  5
4BA1
330
1F
100
AcDbEntity
  8
センター
100
AcDbLine
 10
1495.800088449528
 20
918.9091633865169
 30
0.0
 11
1495.800088449528
 21
758.9091633865169
 31
0.0
  0
LINE
  5
4BA4
102
{ACAD_REACTORS
330
4C4B
330
4C4E
102
}
330
1F
100
AcDbEntity
  8
図
100
AcDbLine
 10
3153.800088449528
 20
2538.909163386517
 30
0.0
 11
3153.800088449528
 21
2234.909163386517
 31
0.0
  0
LINE
  5
4BA5
102
{ACAD_REACTORS
330
4C57
330
4C5A
102
}
330
1F
100
AcDbEntity
  8
図
100
AcDbLine
 10
3108.800088449529
 20
2234.909163386517
 30
0.0
 11
3208.800088449528
 21
2234.909163386517
 31
0.0
  0
LINE
  5
4BA6
102
{ACAD_REACTORS
330
4C4E
330
4C51
102
}
330
1F
100
AcDbEntity
  8
図
100
AcDbLine
 10
3158.800088449528
 20
2538.909163386517
 30
0.0
 11
3158.800088449528
 21
2239.909163386517
 31
0.0
  0
LINE
  5
4BA7
102
{ACAD_REACTORS
330
4C54
330
4C57
102
}
330
1F
100
AcDbEntity
  8
図
100
AcDbLine
 10
3208.800088449528
 20
2239.909163386517
 30
0.0
 11
3158.800088449528
 21
2239.909163386517
 31
0.0
  0
LINE
  5
4BAE
330
1F
100
AcDbEntity
  8
図
100
AcDbLine
 10
2708.800088449529
 20
2538.909163386517
 30
0.0
 11
2808.800088449528
 21
2538.909163386517
 31
0.0
  0
LINE
  5
4BAF
102
{ACAD_REACTORS
330
4C40
102
}
330
1F
100
AcDbEntity
  8
図
100
AcDbLine
 10
2808.800088449528
 20
2538.909163386517
 30
0.0
 11
2808.800088449528
 21
2488.909163386517
 31
0.0
  0
LINE
  5
4BB0
102
{ACAD_REACTORS
330
4C3D
330
4C40
102
}
330
1F
100
AcDbEntity
  8
図
100
AcDbLine
 10
2808.800088449528
 20
2488.909163386517
 30
0.0
 11
2753.800088449529
 21
2468.909163386517
 31
0.0
  0
LINE
  5
4BB1
102
{ACAD_REACTORS
330
4C3A
330
4C3D
102
}
330
1F
100
AcDbEntity
  8
図
100
AcDbLine
 10
2753.800088449529
 20
2468.909163386517
 30
0.0
 11
2753.800088449529
 21
2208.909163386517
 31
0.0
  0
LINE
  5
4BB2
102
{ACAD_REACTORS
330
4C3A
102
}
330
1F
100
AcDbEntity
  8
図
100
AcDbLine
 10
2753.800088449529
 20
2208.909163386517
 30
0.0
 11
2808.800088449528
 21
2188.909163386517
 31
0.0
  0
LINE
  5
4BB3
330
1F
100
AcDbEntity
  8
図
100
AcDbLine
 10
2808.800088449528
 20
2188.909163386517
 30
0.0
 11
2808.800088449528
 21
2138.909163386517
 31
0.0
  0
LINE
  5
4BB4
102
{ACAD_REACTORS
330
4C48
330
4C89
102
}
330
1F
100
AcDbEntity
  8
図
100
AcDbLine
 10
2808.800088449528
 20
2138.909163386517
 30
0.0
 11
2708.800088449529
 21
2138.909163386517
 31
0.0
  0
LINE
  5
4BB5
102
{ACAD_REACTORS
330
4C45
330
4C89
102
}
330
1F
100
AcDbEntity
  8
図
100
AcDbLine
 10
2708.800088449529
 20
2138.909163386517
 30
0.0
 11
2708.800088449529
 21
2538.909163386517
 31
0.0
  0
LINE
  5
4BB8
330
1F
100
AcDbEntity
  8
図
100
AcDbLine
 10
1495.800088449528
 20
2538.909163386517
 30
0.0
 11
782.8000884495281
 21
2538.909163386517
 31
0.0
  0
LINE
  5
4BB9
102
{ACAD_REACTORS
330
4BF9
102
}
330
1F
100
AcDbEntity
  8
図
100
AcDbLine
 10
782.8000884495281
 20
2538.909163386517
 30
0.0
 11
782.8000884495281
 21
2239.909163386517
 31
0.0
  0
LINE
  5
4BBA
330
1F
100
AcDbEntity
  8
図
100
AcDbLine
 10
782.8000884495281
 20
2239.909163386517
 30
0.0
 11
825.8000884495281
 21
2234.909163386517
 31
0.0
  0
LINE
  5
4BBB
330
1F
100
AcDbEntity
  8
図
100
AcDbLine
 10
825.8000884495281
 20
2234.909163386517
 30
0.0
 11
830.8000884495282
 21
2138.909163386517
 31
0.0
  0
LINE
  5
4BBC
102
{ACAD_REACTORS
330
4C0C
330
4C0F
102
}
330
1F
100
AcDbEntity
  8
図
100
AcDbLine
 10
830.8000884495282
 20
2138.909163386517
 30
0.0
 11
1495.800088449528
 21
2138.909163386517
 31
0.0
  0
LINE
  5
4BBD
330
1F
100
AcDbEntity
  8
図
100
AcDbLine
 10
1495.800088449528
 20
2538.909163386517
 30
0.0
 11
2208.800088449528
 21
2538.909163386517
 31
0.0
  0
LINE
  5
4BBE
102
{ACAD_REACTORS
330
4BF9
330
4BFF
330
4C03
102
}
330
1F
100
AcDbEntity
  8
図
100
AcDbLine
 10
2208.800088449528
 20
2538.909163386517
 30
0.0
 11
2208.800088449528
 21
2239.909163386517
 31
0.0
  0
LINE
  5
4BBF
102
{ACAD_REACTORS
330
4C03
330
4C06
102
}
330
1F
100
AcDbEntity
  8
図
100
AcDbLine
 10
2208.800088449528
 20
2239.909163386517
 30
0.0
 11
2165.800088449528
 21
2234.909163386517
 31
0.0
  0
LINE
  5
4BC0
330
1F
100
AcDbEntity
  8
図
100
AcDbLine
 10
2165.800088449528
 20
2234.909163386517
 30
0.0
 11
2160.800088449528
 21
2138.909163386517
 31
0.0
  0
LINE
  5
4BC1
102
{ACAD_REACTORS
330
4C09
330
4C0C
102
}
330
1F
100
AcDbEntity
  8
図
100
AcDbLine
 10
2160.800088449528
 20
2138.909163386517
 30
0.0
 11
1495.800088449528
 21
2138.909163386517
 31
0.0
  0
LINE
  5
4BC2
330
1F
100
AcDbEntity
  8
図
100
AcDbLine
 10
1495.800088449528
 20
1688.909163386517
 30
0.0
 11
782.8000884495281
 21
1688.909163386517
 31
0.0
  0
LINE
  5
4BC3
330
1F
100
AcDbEntity
  8
図
100
AcDbLine
 10
782.8000884495281
 20
1688.909163386517
 30
0.0
 11
782.8000884495281
 21
1389.909163386517
 31
0.0
  0
LINE
  5
4BC4
330
1F
100
AcDbEntity
  8
図
100
AcDbLine
 10
782.8000884495281
 20
1389.909163386517
 30
0.0
 11
825.8000884495281
 21
1384.909163386517
 31
0.0
  0
LINE
  5
4BC5
330
1F
100
AcDbEntity
  8
図
100
AcDbLine
 10
825.8000884495281
 20
1384.909163386517
 30
0.0
 11
830.8000884495282
 21
1288.909163386517
 31
0.0
  0
LINE
  5
4BC6
330
1F
100
AcDbEntity
  8
図
100
AcDbLine
 10
830.8000884495282
 20
1288.909163386517
 30
0.0
 11
1495.800088449528
 21
1288.909163386517
 31
0.0
  0
LINE
  5
4BC7
330
1F
100
AcDbEntity
  8
図
100
AcDbLine
 10
1495.800088449528
 20
1688.909163386517
 30
0.0
 11
2208.800088449528
 21
1688.909163386517
 31
0.0
  0
LINE
  5
4BC8
330
1F
100
AcDbEntity
  8
図
100
AcDbLine
 10
2208.800088449528
 20
1688.909163386517
 30
0.0
 11
2208.800088449528
 21
1389.909163386517
 31
0.0
  0
LINE
  5
4BC9
330
1F
100
AcDbEntity
  8
図
100
AcDbLine
 10
2208.800088449528
 20
1389.909163386517
 30
0.0
 11
2165.800088449528
 21
1384.909163386517
 31
0.0
  0
LINE
  5
4BCA
330
1F
100
AcDbEntity
  8
図
100
AcDbLine
 10
2165.800088449528
 20
1384.909163386517
 30
0.0
 11
2160.800088449528
 21
1288.909163386517
 31
0.0
  0
LINE
  5
4BCB
330
1F
100
AcDbEntity
  8
図
100
AcDbLine
 10
2160.800088449528
 20
1288.909163386517
 30
0.0
 11
1495.800088449528
 21
1288.909163386517
 31
0.0
  0
LINE
  5
4BCC
102
{ACAD_REACTORS
330
4BFC
330
4C0F
102
}
330
1F
100
AcDbEntity
  8
図
100
AcDbLine
 10
825.8000884495281
 20
2234.909163386517
 30
0.0
 11
825.8000884495281
 21
2538.909163386517
 31
0.0
  0
LINE
  5
4BCD
330
1F
100
AcDbEntity
  8
影
100
AcDbLine
 10
825.8000884495281
 20
1384.909163386517
 30
0.0
 11
825.8000884495281
 21
1688.909163386517
 31
0.0
  0
LINE
  5
4BCE
330
1F
100
AcDbEntity
  8
図
100
AcDbLine
 10
872.8000884495282
 20
1638.909163386517
 30
0.0
 11
1495.800088449528
 21
1638.909163386517
 31
0.0
  0
LINE
  5
4BCF
330
1F
100
AcDbEntity
  8
図
100
AcDbLine
 10
872.8000884495282
 20
1338.909163386517
 30
0.0
 11
1495.800088449528
 21
1338.909163386517
 31
0.0
  0
LINE
  5
4BD0
330
1F
100
AcDbEntity
  8
図
100
AcDbLine
 10
872.8000884495282
 20
1638.909163386517
 30
0.0
 11
872.8000884495282
 21
1338.909163386517
 31
0.0
  0
LINE
  5
4BD1
330
1F
100
AcDbEntity
  8
図
100
AcDbLine
 10
1495.800088449528
 20
1618.909163386517
 30
0.0
 11
927.8000884495282
 21
1618.909163386517
 31
0.0
  0
LINE
  5
4BD2
330
1F
100
AcDbEntity
  8
図
100
AcDbLine
 10
927.8000884495282
 20
1618.909163386517
 30
0.0
 11
927.8000884495282
 21
1358.909163386517
 31
0.0
  0
LINE
  5
4BD3
330
1F
100
AcDbEntity
  8
図
100
AcDbLine
 10
927.8000884495282
 20
1358.909163386517
 30
0.0
 11
1495.800088449528
 21
1358.909163386517
 31
0.0
  0
LINE
  5
4BD4
330
1F
100
AcDbEntity
  8
図
100
AcDbLine
 10
872.8000884495282
 20
1638.909163386517
 30
0.0
 11
927.8000884495282
 21
1618.909163386517
 31
0.0
  0
LINE
  5
4BD5
330
1F
100
AcDbEntity
  8
図
100
AcDbLine
 10
872.8000884495282
 20
1338.909163386517
 30
0.0
 11
927.8000884495282
 21
1358.909163386517
 31
0.0
  0
LINE
  5
4BD6
330
1F
100
AcDbEntity
  8
図
100
AcDbLine
 10
1495.800088449528
 20
1688.909163386517
 30
0.0
 11
2208.800088449528
 21
1688.909163386517
 31
0.0
  0
LINE
  5
4BD7
330
1F
100
AcDbEntity
  8
図
100
AcDbLine
 10
2208.800088449528
 20
1688.909163386517
 30
0.0
 11
2208.800088449528
 21
1389.909163386517
 31
0.0
  0
LINE
  5
4BD8
330
1F
100
AcDbEntity
  8
図
100
AcDbLine
 10
2208.800088449528
 20
1389.909163386517
 30
0.0
 11
2165.800088449528
 21
1384.909163386517
 31
0.0
  0
LINE
  5
4BD9
330
1F
100
AcDbEntity
  8
図
100
AcDbLine
 10
2165.800088449528
 20
1384.909163386517
 30
0.0
 11
2160.800088449528
 21
1288.909163386517
 31
0.0
  0
LINE
  5
4BDA
330
1F
100
AcDbEntity
  8
図
100
AcDbLine
 10
2160.800088449528
 20
1288.909163386517
 30
0.0
 11
1495.800088449528
 21
1288.909163386517
 31
0.0
  0
LINE
  5
4BDB
330
1F
100
AcDbEntity
  8
影
100
AcDbLine
 10
2165.800088449528
 20
1384.909163386517
 30
0.0
 11
2165.800088449528
 21
1688.909163386517
 31
0.0
  0
LINE
  5
4BDC
330
1F
100
AcDbEntity
  8
図
100
AcDbLine
 10
2118.800088449528
 20
1638.909163386517
 30
0.0
 11
1495.800088449528
 21
1638.909163386517
 31
0.0
  0
LINE
  5
4BDD
330
1F
100
AcDbEntity
  8
図
100
AcDbLine
 10
2118.800088449528
 20
1338.909163386517
 30
0.0
 11
1495.800088449528
 21
1338.909163386517
 31
0.0
  0
LINE
  5
4BDE
330
1F
100
AcDbEntity
  8
図
100
AcDbLine
 10
2118.800088449528
 20
1638.909163386517
 30
0.0
 11
2118.800088449528
 21
1338.909163386517
 31
0.0
  0
LINE
  5
4BDF
330
1F
100
AcDbEntity
  8
図
100
AcDbLine
 10
1495.800088449528
 20
1618.909163386517
 30
0.0
 11
2063.800088449528
 21
1618.909163386517
 31
0.0
  0
LINE
  5
4BE0
330
1F
100
AcDbEntity
  8
図
100
AcDbLine
 10
2063.800088449528
 20
1618.909163386517
 30
0.0
 11
2063.800088449528
 21
1358.909163386517
 31
0.0
  0
LINE
  5
4BE1
330
1F
100
AcDbEntity
  8
図
100
AcDbLine
 10
2063.800088449528
 20
1358.909163386517
 30
0.0
 11
1495.800088449528
 21
1358.909163386517
 31
0.0
  0
LINE
  5
4BE2
330
1F
100
AcDbEntity
  8
図
100
AcDbLine
 10
2118.800088449528
 20
1638.909163386517
 30
0.0
 11
2063.800088449528
 21
1618.909163386517
 31
0.0
  0
LINE
  5
4BE3
330
1F
100
AcDbEntity
  8
図
100
AcDbLine
 10
2118.800088449528
 20
1338.909163386517
 30
0.0
 11
2063.800088449528
 21
1358.909163386517
 31
0.0
  0
LINE
  5
4BE6
330
1F
100
AcDbEntity
  8
図
100
AcDbLine
 10
1495.800088449528
 20
888.9091633865168
 30
0.0
 11
2208.800088449528
 21
888.9091633865168
 31
0.0
  0
LINE
  5
4BE7
102
{ACAD_REACTORS
330
4C20
330
4C30
330
4C60
102
}
330
1F
100
AcDbEntity
  8
図
100
AcDbLine
 10
2208.800088449528
 20
888.9091633865168
 30
0.0
 11
2208.800088449528
 21
838.9091633865168
 31
0.0
  0
LINE
  5
4BE8
102
{ACAD_REACTORS
330
4C2D
330
4C30
102
}
330
1F
100
AcDbEntity
  8
図
100
AcDbLine
 10
2208.800088449528
 20
838.9091633865168
 30
0.0
 11
2165.800088449528
 21
833.9091633865168
 31
0.0
  0
LINE
  5
4BE9
102
{ACAD_REACTORS
330
4C2D
102
}
330
1F
100
AcDbEntity
  8
図
100
AcDbLine
 10
2165.800088449528
 20
833.9091633865168
 30
0.0
 11
2165.800088449528
 21
788.9091633865168
 31
0.0
  0
LINE
  5
4BEA
102
{ACAD_REACTORS
330
4C23
330
4C2A
102
}
330
1F
100
AcDbEntity
  8
図
100
AcDbLine
 10
2165.800088449528
 20
788.9091633865168
 30
0.0
 11
1495.800088449528
 21
788.9091633865168
 31
0.0
  0
LINE
  5
4BEB
330
1F
100
AcDbEntity
  8
図
100
AcDbLine
 10
1495.800088449528
 20
888.9091633865168
 30
0.0
 11
782.8000884495281
 21
888.9091633865168
 31
0.0
  0
LINE
  5
4BEC
102
{ACAD_REACTORS
330
4C1B
330
4C20
102
}
330
1F
100
AcDbEntity
  8
図
100
AcDbLine
 10
782.8000884495281
 20
888.9091633865168
 30
0.0
 11
782.8000884495281
 21
838.9091633865168
 31
0.0
  0
LINE
  5
4BED
102
{ACAD_REACTORS
330
4C26
102
}
330
1F
100
AcDbEntity
  8
図
100
AcDbLine
 10
782.8000884495281
 20
838.9091633865168
 30
0.0
 11
825.8000884495281
 21
833.9091633865168
 31
0.0
  0
LINE
  5
4BEE
330
1F
100
AcDbEntity
  8
図
100
AcDbLine
 10
825.8000884495281
 20
833.9091633865168
 30
0.0
 11
825.8000884495281
 21
788.9091633865168
 31
0.0
  0
LINE
  5
4BEF
102
{ACAD_REACTORS
330
4C23
330
4C26
102
}
330
1F
100
AcDbEntity
  8
図
100
AcDbLine
 10
825.8000884495281
 20
788.9091633865168
 30
0.0
 11
1495.800088449528
 21
788.9091633865168
 31
0.0
  0
LINE
  5
4BF0
330
1F
100
AcDbEntity
  8
影
100
AcDbLine
 10
2118.800088449528
 20
888.9091633865168
 30
0.0
 11
2068.800088449528
 21
833.9091633865168
 31
0.0
  0
LINE
  5
4BF1
102
{ACAD_REACTORS
330
4C15
102
}
330
1F
100
AcDbEntity
  8
影
100
AcDbLine
 10
2068.800088449528
 20
833.9091633865168
 30
0.0
 11
1495.800088449528
 21
833.9091633865168
 31
0.0
  0
LINE
  5
4BF2
102
{ACAD_REACTORS
330
4C18
330
4C1B
102
}
330
1F
100
AcDbEntity
  8
影
100
AcDbLine
 10
872.8000884495282
 20
888.9091633865168
 30
0.0
 11
922.8000884495282
 21
833.9091633865168
 31
0.0
  0
LINE
  5
4BF3
102
{ACAD_REACTORS
330
4C15
330
4C18
102
}
330
1F
100
AcDbEntity
  8
影
100
AcDbLine
 10
922.8000884495282
 20
833.9091633865168
 30
0.0
 11
1495.800088449528
 21
833.9091633865168
 31
0.0
  0
MTEXT
  5
4BF5
330
1F
100
AcDbEntity
  8
図文字
100
AcDbMText
 10
3957.800088449526
 20
688.9091633865173
 30
0.0
 40
30.0
 41
450.0000000000004
 71
     5
 72
     5
  1
参考重量85kg
 73
     1
 44
1.0
1001
ACAD
1000
MTEXTBEGIN
1070
    73
1070
     1
1070
    44
1040
1.0
1070
    74
1070
     0
1000
MTEXTEND
  0
LINE
  5
4BF6
102
{ACAD_REACTORS
330
4BFC
330
4BFF
330
4C06
330
4C09
102
}
330
1F
100
AcDbEntity
  8
影
100
AcDbLine
 10
2165.800088449528
 20
2234.909163386517
 30
0.0
 11
2165.800088449528
 21
2538.909163386517
 31
0.0
  0
DIMENSION
  5
4BF7
102
{ACAD_XDICTIONARY
360
4BF8
102
}
102
{ACAD_REACTORS
330
4BF9
102
}
330
1F
100
AcDbEntity
  8
寸法
100
AcDbDimension
  2
*D19
 10
2208.800088449528
 20
2638.45085461361
 30
0.0
 11
1495.800088449528
 21
2658.45085461361
 31
0.0
 70
    32
 71
     5
 42
1426.0
  3
ISO-25
100
AcDbAlignedDimension
 13
782.8000884495281
 23
2538.909163386517
 33
0.0
 14
2208.800088449528
 24
2538.909163386517
 34
0.0
100
AcDbRotatedDimension
1001
ACAD
1000
DSTYLE
1002
{
1070
    41
1040
10.0
1070
    42
1040
30.0
1070
    44
1040
5.0
1070
   140
1040
20.0
1070
   147
1040
10.0
1002
}
  0
DIMENSION
  5
4BFA
102
{ACAD_XDICTIONARY
360
4BFB
102
}
102
{ACAD_REACTORS
330
4BFC
102
}
330
1F
100
AcDbEntity
  8
寸法
100
AcDbDimension
  2
*D20
 10
2165.800088449528
 20
2589.24438039825
 30
0.0
 11
1495.800088449528
 21
2609.24438039825
 31
0.0
 70
    32
 71
     5
 42
1340.0
  3
ISO-25
100
AcDbAlignedDimension
 13
825.8000884495281
 23
2538.909163386517
 33
0.0
 14
2165.800088449528
 24
2538.909163386517
 34
0.0
100
AcDbRotatedDimension
1001
ACAD
1000
DSTYLE
1002
{
1070
    41
1040
10.0
1070
    42
1040
30.0
1070
    44
1040
5.0
1070
   140
1040
20.0
1070
   147
1040
10.0
1002
}
  0
DIMENSION
  5
4BFD
102
{ACAD_XDICTIONARY
360
4BFE
102
}
102
{ACAD_REACTORS
330
4BFF
102
}
330
1F
100
AcDbEntity
  8
寸法
100
AcDbDimension
  2
*D21
 10
2208.800088449528
 20
2589.24438039825
 30
0.0
 11
2187.300088449529
 21
2589.24438039825
 31
0.0
 70
   160
 71
     5
 42
43.0
  3
ISO-25
100
AcDbAlignedDimension
 13
2165.800088449528
 23
2538.909163386517
 33
0.0
 14
2208.800088449528
 24
2538.909163386517
 34
0.0
100
AcDbRotatedDimension
1001
ACAD
1000
DSTYLE
1002
{
1070
    41
1040
10.0
1070
    42
1040
30.0
1070
    44
1040
5.0
1070
   140
1040
20.0
1070
   147
1040
10.0
1002
}
  0
DIMENSION
  5
4C00
330
1F
100
AcDbEntity
  8
寸法
100
AcDbDimension
  2
*D5
 10
782.8000884495281
 20
2589.24438039825
 30
0.0
 11
804.3000884495281
 21
2589.24438039825
 31
0.0
 70
   160
 71
     5
 42
43.0
  3
ISO-25
100
AcDbAlignedDimension
 13
825.8000884495281
 23
2538.909163386517
 33
0.0
 14
782.8000884495281
 24
2538.909163386517
 34
0.0
 50
180.0
100
AcDbRotatedDimension
1001
ACAD
1000
DSTYLE
1002
{
1070
    41
1040
10.0
1070
    42
1040
30.0
1070
    44
1040
5.0
1070
   140
1040
20.0
1070
   147
1040
10.0
1002
}
  0
DIMENSION
  5
4C01
102
{ACAD_XDICTIONARY
360
4C02
102
}
102
{ACAD_REACTORS
330
4C03
102
}
330
1F
100
AcDbEntity
  8
寸法
100
AcDbDimension
  2
*D22
 10
2317.280666073184
 20
2239.909163386517
 30
0.0
 11
2337.280666073183
 21
2389.409163386517
 31
0.0
 70
    32
 71
     5
 42
299.0
  3
ISO-25
100
AcDbAlignedDimension
 13
2208.800088449528
 23
2538.909163386517
 33
0.0
 14
2208.800088449528
 24
2239.909163386517
 34
0.0
 50
90.0
100
AcDbRotatedDimension
1001
ACAD
1000
DSTYLE
1002
{
1070
    41
1040
10.0
1070
    42
1040
30.0
1070
    44
1040
5.0
1070
   140
1040
20.0
1070
   147
1040
10.0
1002
}
  0
DIMENSION
  5
4C04
102
{ACAD_XDICTIONARY
360
4C05
102
}
102
{ACAD_REACTORS
330
4C06
102
}
330
1F
100
AcDbEntity
  8
寸法
100
AcDbDimension
  2
*D23
 10
2317.280666073184
 20
2239.909163386517
 30
0.0
 11
2317.280666073184
 21
2237.409163386518
 31
0.0
 70
   160
 71
     5
 42
5.0
  3
ISO-25
100
AcDbAlignedDimension
 13
2165.800088449528
 23
2234.909163386517
 33
0.0
 14
2208.800088449528
 24
2239.909163386517
 34
0.0
 50
90.0
100
AcDbRotatedDimension
1001
ACAD
1000
DSTYLE
1002
{
1070
    41
1040
10.0
1070
    42
1040
30.0
1070
    44
1040
5.0
1070
   140
1040
20.0
1070
   147
1040
10.0
1002
}
  0
DIMENSION
  5
4C07
102
{ACAD_XDICTIONARY
360
4C08
102
}
102
{ACAD_REACTORS
330
4C09
102
}
330
1F
100
AcDbEntity
  8
寸法
100
AcDbDimension
  2
*D24
 10
2317.280666073184
 20
2234.909163386517
 30
0.0
 11
2337.280666073184
 21
2186.909163386518
 31
0.0
 70
    32
 71
     5
 42
96.0
  3
ISO-25
100
AcDbAlignedDimension
 13
2160.800088449528
 23
2138.909163386517
 33
0.0
 14
2165.800088449528
 24
2234.909163386517
 34
0.0
 50
90.0
100
AcDbRotatedDimension
1001
ACAD
1000
DSTYLE
1002
{
1070
    41
1040
10.0
1070
    42
1040
30.0
1070
    44
1040
5.0
1070
   140
1040
20.0
1070
   147
1040
10.0
1002
}
  0
DIMENSION
  5
4C0A
102
{ACAD_XDICTIONARY
360
4C0B
102
}
102
{ACAD_REACTORS
330
4C0C
102
}
330
1F
100
AcDbEntity
  8
寸法
100
AcDbDimension
  2
*D25
 10
2160.800088449528
 20
2083.21170822149
 30
0.0
 11
1495.800088449528
 21
2063.211708221491
 31
0.0
 70
    32
 71
     5
 42
1330.0
  3
ISO-25
100
AcDbAlignedDimension
 13
830.8000884495282
 23
2138.909163386517
 33
0.0
 14
2160.800088449528
 24
2138.909163386517
 34
0.0
100
AcDbRotatedDimension
1001
ACAD
1000
DSTYLE
1002
{
1070
    41
1040
10.0
1070
    42
1040
30.0
1070
    44
1040
5.0
1070
   140
1040
20.0
1070
   147
1040
10.0
1002
}
  0
DIMENSION
  5
4C0D
102
{ACAD_XDICTIONARY
360
4C0E
102
}
102
{ACAD_REACTORS
330
4C0F
102
}
330
1F
100
AcDbEntity
  8
寸法
100
AcDbDimension
  2
*D26
 10
830.8000884495282
 20
2083.21170822149
 30
0.0
 11
828.3000884495281
 21
2083.21170822149
 31
0.0
 70
   160
 71
     5
 42
5.0
  3
ISO-25
100
AcDbAlignedDimension
 13
825.8000884495281
 23
2234.909163386517
 33
0.0
 14
830.8000884495282
 24
2138.909163386517
 34
0.0
100
AcDbRotatedDimension
1001
ACAD
1000
DSTYLE
1002
{
1070
    41
1040
10.0
1070
    42
1040
30.0
1070
    44
1040
5.0
1070
   140
1040
20.0
1070
   147
1040
10.0
1002
}
  0
DIMENSION
  5
4C10
330
1F
100
AcDbEntity
  8
寸法
100
AcDbDimension
  2
*D6
 10
2160.800088449528
 20
2083.21170822149
 30
0.0
 11
2163.300088449528
 21
2083.21170822149
 31
0.0
 70
   160
 71
     5
 42
5.0
  3
ISO-25
100
AcDbAlignedDimension
 13
2165.800088449528
 23
2234.909163386517
 33
0.0
 14
2160.800088449528
 24
2138.909163386517
 34
0.0
 50
180.0
100
AcDbRotatedDimension
1001
ACAD
1000
DSTYLE
1002
{
1070
    41
1040
10.0
1070
    42
1040
30.0
1070
    44
1040
5.0
1070
   140
1040
20.0
1070
   147
1040
10.0
1002
}
  0
MTEXT
  5
4C11
330
1F
100
AcDbEntity
  8
図文字
100
AcDbMText
 10
1495.800088449528
 20
2738.909163386517
 30
0.0
 40
30.0
 41
1426.0
 71
     5
 72
     5
  1
正面図
 73
     1
 44
1.0
1001
ACAD
1000
MTEXTBEGIN
1070
    73
1070
     1
1070
    44
1040
1.0
1070
    74
1070
     0
1000
MTEXTEND
  0
MTEXT
  5
4C12
330
1F
100
AcDbEntity
  8
図文字
100
AcDbMText
 10
1495.800088449528
 20
1888.909163386517
 30
0.0
 40
30.0
 41
1426.0
 71
     5
 72
     5
  1
背面図
 73
     1
 44
1.0
1001
ACAD
1000
MTEXTBEGIN
1070
    73
1070
     1
1070
    44
1040
1.0
1070
    74
1070
     0
1000
MTEXTEND
1000
ACAD_MTEXT_DEFINED_HEIGHT_BEGIN
1070
    46
1040
100.0
1000
ACAD_MTEXT_DEFINED_HEIGHT_END
  0
DIMENSION
  5
4C13
102
{ACAD_XDICTIONARY
360
4C14
102
}
102
{ACAD_REACTORS
330
4C15
102
}
330
1F
100
AcDbEntity
  8
寸法
100
AcDbDimension
  2
*D27
 10
2068.800088449528
 20
958.7888117376664
 30
0.0
 11
1495.800088449528
 21
978.7888117376665
 31
0.0
 70
    32
 71
     5
 42
1146.0
  3
ISO-25
100
AcDbAlignedDimension
 13
922.8000884495282
 23
833.9091633865168
 33
0.0
 14
2068.800088449528
 24
833.9091633865168
 34
0.0
100
AcDbRotatedDimension
1001
ACAD
1000
DSTYLE
1002
{
1070
    41
1040
10.0
1070
    42
1040
30.0
1070
    44
1040
5.0
1070
   140
1040
20.0
1070
   147
1040
10.0
1002
}
  0
DIMENSION
  5
4C16
102
{ACAD_XDICTIONARY
360
4C17
102
}
102
{ACAD_REACTORS
330
4C18
102
}
330
1F
100
AcDbEntity
  8
寸法
100
AcDbDimension
  2
*D28
 10
922.8000884495282
 20
958.7888117376664
 30
0.0
 11
897.7633506117422
 21
958.7888117376664
 31
0.0
 70
   160
 71
     5
 42
50.0
  3
ISO-25
100
AcDbAlignedDimension
 13
872.8000884495282
 23
888.9091633865168
 33
0.0
 14
922.8000884495282
 24
833.9091633865168
 34
0.0
100
AcDbRotatedDimension
1001
ACAD
1000
DSTYLE
1002
{
1070
    41
1040
10.0
1070
    42
1040
30.0
1070
    44
1040
5.0
1070
   140
1040
20.0
1070
   147
1040
10.0
1002
}
  0
DIMENSION
  5
4C19
102
{ACAD_XDICTIONARY
360
4C1A
102
}
102
{ACAD_REACTORS
330
4C1B
102
}
330
1F
100
AcDbEntity
  8
寸法
100
AcDbDimension
  2
*D29
 10
872.8000884495282
 20
958.7888117376664
 30
0.0
 11
827.8000884495281
 21
978.7888117376665
 31
0.0
 70
    32
 71
     5
 42
90.0
  3
ISO-25
100
AcDbAlignedDimension
 13
782.8000884495281
 23
888.9091633865168
 33
0.0
 14
872.8000884495282
 24
888.9091633865168
 34
0.0
100
AcDbRotatedDimension
1001
ACAD
1000
DSTYLE
1002
{
1070
    41
1040
10.0
1070
    42
1040
30.0
1070
    44
1040
5.0
1070
   140
1040
20.0
1070
   147
1040
10.0
1002
}
  0
DIMENSION
  5
4C1C
330
1F
100
AcDbEntity
  8
寸法
100
AcDbDimension
  2
*D7
 10
2068.800088449528
 20
958.7888117376664
 30
0.0
 11
2093.836826287314
 21
958.7888117376664
 31
0.0
 70
   160
 71
     5
 42
50.0
  3
ISO-25
100
AcDbAlignedDimension
 13
2118.800088449528
 23
888.9091633865168
 33
0.0
 14
2068.800088449528
 24
833.9091633865168
 34
0.0
 50
180.0
100
AcDbRotatedDimension
1001
ACAD
1000
DSTYLE
1002
{
1070
    41
1040
10.0
1070
    42
1040
30.0
1070
    44
1040
5.0
1070
   140
1040
20.0
1070
   147
1040
10.0
1002
}
  0
DIMENSION
  5
4C1D
330
1F
100
AcDbEntity
  8
寸法
100
AcDbDimension
  2
*D8
 10
2118.800088449528
 20
958.7888117376664
 30
0.0
 11
2163.800088449528
 21
978.7888117376665
 31
0.0
 70
    32
 71
     5
 42
90.0
  3
ISO-25
100
AcDbAlignedDimension
 13
2208.800088449528
 23
888.9091633865168
 33
0.0
 14
2118.800088449528
 24
888.9091633865168
 34
0.0
 50
180.0
100
AcDbRotatedDimension
1001
ACAD
1000
DSTYLE
1002
{
1070
    41
1040
10.0
1070
    42
1040
30.0
1070
    44
1040
5.0
1070
   140
1040
20.0
1070
   147
1040
10.0
1002
}
  0
DIMENSION
  5
4C1E
102
{ACAD_XDICTIONARY
360
4C1F
102
}
102
{ACAD_REACTORS
330
4C20
102
}
330
1F
100
AcDbEntity
  8
寸法
100
AcDbDimension
  2
*D30
 10
2208.800088449528
 20
1005.430697582415
 30
0.0
 11
1495.800088449528
 21
1025.430697582415
 31
0.0
 70
    32
 71
     5
 42
1426.0
  3
ISO-25
100
AcDbAlignedDimension
 13
782.8000884495281
 23
888.9091633865168
 33
0.0
 14
2208.800088449528
 24
888.9091633865168
 34
0.0
100
AcDbRotatedDimension
1001
ACAD
1000
DSTYLE
1002
{
1070
    41
1040
10.0
1070
    42
1040
30.0
1070
    44
1040
5.0
1070
   140
1040
20.0
1070
   147
1040
10.0
1002
}
  0
DIMENSION
  5
4C21
102
{ACAD_XDICTIONARY
360
4C22
102
}
102
{ACAD_REACTORS
330
4C23
102
}
330
1F
100
AcDbEntity
  8
寸法
100
AcDbDimension
  2
*D31
 10
2165.800088449528
 20
672.4970047881274
 30
0.0
 11
1495.800088449528
 21
652.4970047881274
 31
0.0
 70
    32
 71
     5
 42
1340.0
  3
ISO-25
100
AcDbAlignedDimension
 13
825.8000884495281
 23
788.9091633865168
 33
0.0
 14
2165.800088449528
 24
788.9091633865168
 34
0.0
100
AcDbRotatedDimension
1001
ACAD
1000
DSTYLE
1002
{
1070
    41
1040
10.0
1070
    42
1040
30.0
1070
    44
1040
5.0
1070
   140
1040
20.0
1070
   147
1040
10.0
1002
}
  0
DIMENSION
  5
4C24
102
{ACAD_XDICTIONARY
360
4C25
102
}
102
{ACAD_REACTORS
330
4C26
102
}
330
1F
100
AcDbEntity
  8
寸法
100
AcDbDimension
  2
*D32
 10
825.8000884495281
 20
672.4970047881274
 30
0.0
 11
804.3000884495281
 21
672.4970047881274
 31
0.0
 70
   160
 71
     5
 42
43.0
  3
ISO-25
100
AcDbAlignedDimension
 13
782.8000884495281
 23
838.9091633865168
 33
0.0
 14
825.8000884495281
 24
788.9091633865168
 34
0.0
100
AcDbRotatedDimension
1001
ACAD
1000
DSTYLE
1002
{
1070
    41
1040
10.0
1070
    42
1040
30.0
1070
    44
1040
5.0
1070
   140
1040
20.0
1070
   147
1040
10.0
1002
}
  0
DIMENSION
  5
4C27
330
1F
100
AcDbEntity
  8
寸法
100
AcDbDimension
  2
*D9
 10
2165.800088449528
 20
672.4970047881274
 30
0.0
 11
2187.300088449529
 21
672.4970047881274
 31
0.0
 70
   160
 71
     5
 42
43.0
  3
ISO-25
100
AcDbAlignedDimension
 13
2208.800088449528
 23
838.9091633865168
 33
0.0
 14
2165.800088449528
 24
788.9091633865168
 34
0.0
 50
180.0
100
AcDbRotatedDimension
1001
ACAD
1000
DSTYLE
1002
{
1070
    41
1040
10.0
1070
    42
1040
30.0
1070
    44
1040
5.0
1070
   140
1040
20.0
1070
   147
1040
10.0
1002
}
  0
DIMENSION
  5
4C28
102
{ACAD_XDICTIONARY
360
4C29
102
}
102
{ACAD_REACTORS
330
4C2A
102
}
330
1F
100
AcDbEntity
  8
寸法
100
AcDbDimension
  2
*D33
 10
2262.800379246352
 20
833.9091633865168
 30
0.0
 11
2262.800379246352
 21
752.2424967198506
 31
0.0
 70
   160
 71
     5
 42
45.0
  3
ISO-25
100
AcDbAlignedDimension
 13
2165.800088449528
 23
788.9091633865168
 33
0.0
 14
2208.800088449528
 24
833.9091633865168
 34
0.0
 50
90.0
100
AcDbRotatedDimension
1001
ACAD
1000
DSTYLE
1002
{
1070
    41
1040
10.0
1070
    42
1040
30.0
1070
    44
1040
5.0
1070
   140
1040
20.0
1070
   147
1040
10.0
1002
}
  0
DIMENSION
  5
4C2B
102
{ACAD_XDICTIONARY
360
4C2C
102
}
102
{ACAD_REACTORS
330
4C2D
102
}
330
1F
100
AcDbEntity
  8
寸法
100
AcDbDimension
  2
*D34
 10
2262.800379246352
 20
838.9091633865168
 30
0.0
 11
2262.800379246352
 21
836.4091633865172
 31
0.0
 70
   160
 71
     5
 42
5.0
  3
ISO-25
100
AcDbAlignedDimension
 13
2165.800088449528
 23
833.9091633865168
 33
0.0
 14
2208.800088449528
 24
838.9091633865168
 34
0.0
 50
90.0
100
AcDbRotatedDimension
1001
ACAD
1000
DSTYLE
1002
{
1070
    41
1040
10.0
1070
    42
1040
30.0
1070
    44
1040
5.0
1070
   140
1040
20.0
1070
   147
1040
10.0
1002
}
  0
DIMENSION
  5
4C2E
102
{ACAD_XDICTIONARY
360
4C2F
102
}
102
{ACAD_REACTORS
330
4C30
102
}
330
1F
100
AcDbEntity
  8
寸法
100
AcDbDimension
  2
*D35
 10
2262.800379246352
 20
888.9091633865168
 30
0.0
 11
2262.800379246352
 21
923.9091633865172
 31
0.0
 70
   160
 71
     5
 42
50.0
  3
ISO-25
100
AcDbAlignedDimension
 13
2208.800088449528
 23
838.9091633865168
 33
0.0
 14
2208.800088449528
 24
888.9091633865168
 34
0.0
 50
90.0
100
AcDbRotatedDimension
1001
ACAD
1000
DSTYLE
1002
{
1070
    41
1040
10.0
1070
    42
1040
30.0
1070
    44
1040
5.0
1070
   140
1040
20.0
1070
   147
1040
10.0
1002
}
  0
MTEXT
  5
4C31
330
1F
100
AcDbEntity
  8
図文字
100
AcDbMText
 10
1495.800088449528
 20
1088.909163386517
 30
0.0
 40
30.0
 41
1426.0
 71
     5
 72
     5
  1
a-a'断面図
 73
     1
 44
1.0
1001
ACAD
1000
MTEXTBEGIN
1070
    73
1070
     1
1070
    44
1040
1.0
1070
    74
1070
     0
1000
MTEXTEND
1000
ACAD_MTEXT_DEFINED_HEIGHT_BEGIN
1070
    46
1040
100.0
1000
ACAD_MTEXT_DEFINED_HEIGHT_END
  0
MTEXT
  5
4C36
330
1F
100
AcDbEntity
  8
図文字
100
AcDbMText
 10
2753.800088449529
 20
2738.909163386517
 30
0.0
 40
30.0
 41
400.0
 71
     5
 72
     5
  1
b-b'断面
 73
     1
 44
1.0
1001
ACAD
1000
MTEXTBEGIN
1070
    73
1070
     1
1070
    44
1040
1.0
1070
    74
1070
     0
1000
MTEXTEND
  0
MTEXT
  5
4C37
330
1F
100
AcDbEntity
  8
図文字
100
AcDbMText
 10
3158.800088449528
 20
2738.909163386517
 30
0.0
 40
30.0
 41
400.0
 71
     5
 72
     5
  1
側面図
 73
     1
 44
1.0
1001
ACAD
1000
MTEXTBEGIN
1070
    73
1070
     1
1070
    44
1040
1.0
1070
    74
1070
     0
1000
MTEXTEND
  0
DIMENSION
  5
4C38
102
{ACAD_XDICTIONARY
360
4C39
102
}
102
{ACAD_REACTORS
330
4C3A
102
}
330
1F
100
AcDbEntity
  8
寸法
100
AcDbDimension
  2
*D36
 10
2858.800088449529
 20
2468.909163386517
 30
0.0
 11
2878.800088449528
 21
2338.909163386517
 31
0.0
 70
    32
 71
     5
 42
260.0
  3
ISO-25
100
AcDbAlignedDimension
 13
2753.800088449529
 23
2208.909163386517
 33
0.0
 14
2753.800088449529
 24
2468.909163386517
 34
0.0
 50
90.0
100
AcDbRotatedDimension
1001
ACAD
1000
DSTYLE
1002
{
1070
    41
1040
10.0
1070
    42
1040
30.0
1070
    44
1040
5.0
1070
   140
1040
20.0
1070
   147
1040
10.0
1002
}
  0
DIMENSION
  5
4C3B
102
{ACAD_XDICTIONARY
360
4C3C
102
}
102
{ACAD_REACTORS
330
4C3D
102
}
330
1F
100
AcDbEntity
  8
寸法
100
AcDbDimension
  2
*D37
 10
2858.800088449529
 20
2488.909163386517
 30
0.0
 11
2858.800088449529
 21
2478.909163386517
 31
0.0
 70
   160
 71
     5
 42
20.0
  3
ISO-25
100
AcDbAlignedDimension
 13
2753.800088449529
 23
2468.909163386517
 33
0.0
 14
2808.800088449528
 24
2488.909163386517
 34
0.0
 50
90.0
100
AcDbRotatedDimension
1001
ACAD
1000
DSTYLE
1002
{
1070
    41
1040
10.0
1070
    42
1040
30.0
1070
    44
1040
5.0
1070
   140
1040
20.0
1070
   147
1040
10.0
1002
}
  0
DIMENSION
  5
4C3E
102
{ACAD_XDICTIONARY
360
4C3F
102
}
102
{ACAD_REACTORS
330
4C40
102
}
330
1F
100
AcDbEntity
  8
寸法
100
AcDbDimension
  2
*D38
 10
2858.800088449529
 20
2538.909163386517
 30
0.0
 11
2878.800088449528
 21
2573.909163386517
 31
0.0
 70
    32
 71
     5
 42
50.0
  3
ISO-25
100
AcDbAlignedDimension
 13
2808.800088449528
 23
2488.909163386517
 33
0.0
 14
2808.800088449528
 24
2538.909163386517
 34
0.0
 50
90.0
100
AcDbRotatedDimension
1001
ACAD
1000
DSTYLE
1002
{
1070
    41
1040
10.0
1070
    42
1040
30.0
1070
    44
1040
5.0
1070
   140
1040
20.0
1070
   147
1040
10.0
1002
}
  0
DIMENSION
  5
4C41
330
1F
100
AcDbEntity
  8
寸法
100
AcDbDimension
  2
*D10
 10
2858.800088449529
 20
2188.909163386517
 30
0.0
 11
2858.800088449529
 21
2198.909163386518
 31
0.0
 70
   160
 71
     5
 42
20.0
  3
ISO-25
100
AcDbAlignedDimension
 13
2753.800088449529
 23
2208.909163386517
 33
0.0
 14
2808.800088449528
 24
2188.909163386517
 34
0.0
 50
270.0
100
AcDbRotatedDimension
1001
ACAD
1000
DSTYLE
1002
{
1070
    41
1040
10.0
1070
    42
1040
30.0
1070
    44
1040
5.0
1070
   140
1040
20.0
1070
   147
1040
10.0
1002
}
  0
DIMENSION
  5
4C42
330
1F
100
AcDbEntity
  8
寸法
100
AcDbDimension
  2
*D11
 10
2858.800088449529
 20
2138.909163386518
 30
0.0
 11
2878.800088449528
 21
2103.909163386518
 31
0.0
 70
    32
 71
     5
 42
50.0
  3
ISO-25
100
AcDbAlignedDimension
 13
2808.800088449528
 23
2188.909163386517
 33
0.0
 14
2808.800088449528
 24
2138.909163386518
 34
0.0
 50
270.0
100
AcDbRotatedDimension
1001
ACAD
1000
DSTYLE
1002
{
1070
    41
1040
10.0
1070
    42
1040
30.0
1070
    44
1040
5.0
1070
   140
1040
20.0
1070
   147
1040
10.0
1002
}
  0
DIMENSION
  5
4C43
102
{ACAD_XDICTIONARY
360
4C44
102
}
102
{ACAD_REACTORS
330
4C45
102
}
330
1F
100
AcDbEntity
  8
寸法
100
AcDbDimension
  2
*D39
 10
2753.800088449529
 20
2079.2633250841
 30
0.0
 11
2672.133421782862
 21
2079.2633250841
 31
0.0
 70
   160
 71
     5
 42
45.0
  3
ISO-25
100
AcDbAlignedDimension
 13
2708.800088449529
 23
2138.909163386517
 33
0.0
 14
2753.800088449529
 24
2138.909163386517
 34
0.0
100
AcDbRotatedDimension
1001
ACAD
1000
DSTYLE
1002
{
1070
    41
1040
10.0
1070
    42
1040
30.0
1070
    44
1040
5.0
1070
   140
1040
20.0
1070
   147
1040
10.0
1002
}
  0
DIMENSION
  5
4C46
102
{ACAD_XDICTIONARY
360
4C47
102
}
102
{ACAD_REACTORS
330
4C48
102
}
330
1F
100
AcDbEntity
  8
寸法
100
AcDbDimension
  2
*D40
 10
2808.800088449528
 20
2079.2633250841
 30
0.0
 11
2781.300088449528
 21
2059.2633250841
 31
0.0
 70
    32
 71
     5
 42
55.0
  3
ISO-25
100
AcDbAlignedDimension
 13
2753.800088449529
 23
2138.909163386517
 33
0.0
 14
2808.800088449528
 24
2138.909163386517
 34
0.0
100
AcDbRotatedDimension
1001
ACAD
1000
DSTYLE
1002
{
1070
    41
1040
10.0
1070
    42
1040
30.0
1070
    44
1040
5.0
1070
   140
1040
20.0
1070
   147
1040
10.0
1002
}
  0
DIMENSION
  5
4C49
102
{ACAD_XDICTIONARY
360
4C4A
102
}
102
{ACAD_REACTORS
330
4C4B
102
}
330
1F
100
AcDbEntity
  8
寸法
100
AcDbDimension
  2
*D41
 10
3153.800088449528
 20
2589.518386241099
 30
0.0
 11
3072.133421782862
 21
2589.518386241099
 31
0.0
 70
   160
 71
     5
 42
45.0
  3
ISO-25
100
AcDbAlignedDimension
 13
3108.800088449529
 23
2538.909163386517
 33
0.0
 14
3153.800088449528
 24
2538.909163386517
 34
0.0
100
AcDbRotatedDimension
1001
ACAD
1000
DSTYLE
1002
{
1070
    41
1040
10.0
1070
    42
1040
30.0
1070
    44
1040
5.0
1070
   140
1040
20.0
1070
   147
1040
10.0
1002
}
  0
DIMENSION
  5
4C4C
102
{ACAD_XDICTIONARY
360
4C4D
102
}
102
{ACAD_REACTORS
330
4C4E
102
}
330
1F
100
AcDbEntity
  8
寸法
100
AcDbDimension
  2
*D42
 10
3158.800088449528
 20
2589.518386241099
 30
0.0
 11
3156.300088449528
 21
2589.518386241099
 31
0.0
 70
   160
 71
     5
 42
5.0
  3
ISO-25
100
AcDbAlignedDimension
 13
3153.800088449528
 23
2538.909163386517
 33
0.0
 14
3158.800088449528
 24
2538.909163386517
 34
0.0
100
AcDbRotatedDimension
1001
ACAD
1000
DSTYLE
1002
{
1070
    41
1040
10.0
1070
    42
1040
30.0
1070
    44
1040
5.0
1070
   140
1040
20.0
1070
   147
1040
10.0
1002
}
  0
DIMENSION
  5
4C4F
102
{ACAD_XDICTIONARY
360
4C50
102
}
102
{ACAD_REACTORS
330
4C51
102
}
330
1F
100
AcDbEntity
  8
寸法
100
AcDbDimension
  2
*D43
 10
3208.800088449528
 20
2589.518386241099
 30
0.0
 11
3243.800088449528
 21
2609.518386241099
 31
0.0
 70
    32
 71
     5
 42
50.0
  3
ISO-25
100
AcDbAlignedDimension
 13
3158.800088449528
 23
2538.909163386517
 33
0.0
 14
3208.800088449528
 24
2538.909163386517
 34
0.0
100
AcDbRotatedDimension
1001
ACAD
1000
DSTYLE
1002
{
1070
    41
1040
10.0
1070
    42
1040
30.0
1070
    44
1040
5.0
1070
   140
1040
20.0
1070
   147
1040
10.0
1002
}
  0
DIMENSION
  5
4C52
102
{ACAD_XDICTIONARY
360
4C53
102
}
102
{ACAD_REACTORS
330
4C54
102
}
330
1F
100
AcDbEntity
  8
寸法
100
AcDbDimension
  2
*D44
 10
3256.485621563927
 20
2538.909163386517
 30
0.0
 11
3276.485621563927
 21
2389.409163386518
 31
0.0
 70
    32
 71
     5
 42
299.0
  3
ISO-25
100
AcDbAlignedDimension
 13
3208.800088449528
 23
2239.909163386517
 33
0.0
 14
3208.800088449528
 24
2538.909163386517
 34
0.0
 50
90.0
100
AcDbRotatedDimension
1001
ACAD
1000
DSTYLE
1002
{
1070
    41
1040
10.0
1070
    42
1040
30.0
1070
    44
1040
5.0
1070
   140
1040
20.0
1070
   147
1040
10.0
1002
}
  0
DIMENSION
  5
4C55
102
{ACAD_XDICTIONARY
360
4C56
102
}
102
{ACAD_REACTORS
330
4C57
102
}
330
1F
100
AcDbEntity
  8
寸法
100
AcDbDimension
  2
*D45
 10
3256.485621563927
 20
2239.909163386517
 30
0.0
 11
3256.485621563927
 21
2237.409163386518
 31
0.0
 70
   160
 71
     5
 42
5.0
  3
ISO-25
100
AcDbAlignedDimension
 13
3208.800088449528
 23
2234.909163386517
 33
0.0
 14
3208.800088449528
 24
2239.909163386517
 34
0.0
 50
90.0
100
AcDbRotatedDimension
1001
ACAD
1000
DSTYLE
1002
{
1070
    41
1040
10.0
1070
    42
1040
30.0
1070
    44
1040
5.0
1070
   140
1040
20.0
1070
   147
1040
10.0
1002
}
  0
DIMENSION
  5
4C58
102
{ACAD_XDICTIONARY
360
4C59
102
}
102
{ACAD_REACTORS
330
4C5A
102
}
330
1F
100
AcDbEntity
  8
寸法
100
AcDbDimension
  2
*D46
 10
3256.485621563927
 20
2138.909163386517
 30
0.0
 11
3276.485621563927
 21
2186.909163386518
 31
0.0
 70
    32
 71
     5
 42
96.0
  3
ISO-25
100
AcDbAlignedDimension
 13
3208.800088449528
 23
2234.909163386517
 33
0.0
 14
3208.800088449528
 24
2138.909163386517
 34
0.0
 50
90.0
100
AcDbRotatedDimension
1001
ACAD
1000
DSTYLE
1002
{
1070
    41
1040
10.0
1070
    42
1040
30.0
1070
    44
1040
5.0
1070
   140
1040
20.0
1070
   147
1040
10.0
1002
}
  0
DIMENSION
  5
4C5B
102
{ACAD_XDICTIONARY
360
4C5C
102
}
102
{ACAD_REACTORS
330
4C5D
102
}
330
1F
100
AcDbEntity
  8
寸法
100
AcDbDimension
  2
*D47
 10
3208.800088449528
 20
2033.110308324755
 30
0.0
 11
3158.800088449528
 21
2013.110308324755
 31
0.0
 70
    32
 71
     5
 42
100.0
  3
ISO-25
100
AcDbAlignedDimension
 13
3108.800088449529
 23
2138.909163386517
 33
0.0
 14
3208.800088449528
 24
2138.909163386517
 34
0.0
100
AcDbRotatedDimension
1001
ACAD
1000
DSTYLE
1002
{
1070
    41
1040
10.0
1070
    42
1040
30.0
1070
    44
1040
5.0
1070
   140
1040
20.0
1070
   147
1040
10.0
1002
}
  0
DIMENSION
  5
4C5E
102
{ACAD_XDICTIONARY
360
4C5F
102
}
102
{ACAD_REACTORS
330
4C60
102
}
330
1F
100
AcDbEntity
  8
寸法
100
AcDbDimension
  2
*D48
 10
2311.7622978401
 20
788.9091633865167
 30
0.0
 11
2331.7622978401
 21
838.9091633865172
 31
0.0
 70
    32
 71
     5
 42
100.0
  3
ISO-25
100
AcDbAlignedDimension
 13
2208.800088449528
 23
888.9091633865168
 33
0.0
 14
2208.800088449528
 24
788.9091633865168
 34
0.0
 50
90.0
100
AcDbRotatedDimension
1001
ACAD
1000
DSTYLE
1002
{
1070
    41
1040
10.0
1070
    42
1040
30.0
1070
    44
1040
5.0
1070
   140
1040
20.0
1070
   147
1040
10.0
1002
}
  0
LEADER
  5
4C73
330
1F
100
AcDbEntity
  8
寸法
100
AcDbLeader
  3
ISO-25
 76
     3
 10
766.0969419765311
 20
2388.909163386517
 30
0.0
 10
740.4373033006363
 20
2388.909163386517
 30
0.0
 10
740.4373033006363
 20
2357.287954469986
 30
0.0
1001
ACAD
1000
DSTYLE
1002
{
1070
   341
1005
10D7
1070
    41
1040
10.0
1070
   147
1040
0.625
1070
    77
1070
     0
1002
}
  0
MTEXT
  5
4C74
330
1F
100
AcDbEntity
  8
寸法
100
AcDbMText
 10
728.5611594485031
 20
2373.098558928251
 30
0.0
 40
20.0
 41
23.75228770426657
 71
     5
 72
     5
  1
a
 73
     1
 44
1.0
1001
ACAD
1000
MTEXTBEGIN
1070
    73
1070
     1
1070
    44
1040
1.0
1070
    74
1070
     0
1000
MTEXTEND
1000
ACAD_MTEXT_DEFINED_HEIGHT_BEGIN
1070
    46
1040
31.62120891653103
1000
ACAD_MTEXT_DEFINED_HEIGHT_END
  0
LEADER
  5
4C75
330
1F
100
AcDbEntity
  8
寸法
100
AcDbLeader
  3
ISO-25
 76
     3
 10
2211.654076190676
 20
2389.632807726206
 30
0.0
 10
2232.460743982291
 20
2389.632807726206
 30
0.0
 10
2232.460743982291
 20
2358.082675818938
 30
0.0
211
-1.0
221
0.0
231
0.0
1001
ACAD
1000
DSTYLE
1002
{
1070
   341
1005
10D7
1070
    41
1040
10.0
1070
   147
1040
0.625
1070
    77
1070
     0
1002
}
  0
MTEXT
  5
4C76
330
1F
100
AcDbEntity
  8
寸法
100
AcDbMText
 10
2247.305181448964
 20
2373.857741772571
 30
0.0
 40
19.99999999999999
 41
29.68887493334658
 71
     5
 72
     5
  1
a'
 73
     1
 44
1.0
1001
ACAD
1000
MTEXTBEGIN
1070
    73
1070
     1
1070
    44
1040
1.0
1070
    74
1070
     0
1000
MTEXTEND
1000
ACAD_MTEXT_DEFINED_HEIGHT_BEGIN
1070
    46
1040
31.55013190726822
1000
ACAD_MTEXT_DEFINED_HEIGHT_END
  0
LEADER
  5
4C77
330
1F
100
AcDbEntity
  8
寸法
100
AcDbLeader
  3
ISO-25
 76
     3
 10
1498.498945484617
 20
2540.987729739428
 30
0.0
 10
1498.498945484617
 20
2563.936520095432
 30
0.0
 10
1528.470022477744
 20
2563.936520095433
 30
0.0
1001
ACAD
1000
DSTYLE
1002
{
1070
   341
1005
10D7
1070
    41
1040
10.0
1070
   147
1040
0.625
1070
    77
1070
     0
1002
}
  0
MTEXT
  5
4C78
330
1F
100
AcDbEntity
  8
寸法
100
AcDbMText
 10
1513.48448398118
 20
2570.968952673268
 30
0.0
 40
10.0
 41
29.9710769931271
 71
     5
 72
     5
  1
b
 73
     1
 44
1.0
1001
ACAD
1000
MTEXTBEGIN
1070
    73
1070
     1
1070
    44
1040
1.0
1070
    74
1070
     0
1000
MTEXTEND
1000
ACAD_MTEXT_DEFINED_HEIGHT_BEGIN
1070
    46
1040
14.06486515567212
1000
ACAD_MTEXT_DEFINED_HEIGHT_END
  0
LEADER
  5
4C79
330
1F
100
AcDbEntity
  8
寸法
100
AcDbLeader
  3
ISO-25
 76
     3
 10
1498.498945484617
 20
2137.613010940754
 30
0.0
 10
1498.498945484617
 20
2114.664220584751
 30
0.0
 10
1528.470022477744
 20
2114.66422058475
 30
0.0
1001
ACAD
1000
DSTYLE
1002
{
1070
   341
1005
10D7
1070
    41
1040
10.0
1070
   147
1040
0.625
1070
    77
1070
     0
1002
}
  0
MTEXT
  5
4C7A
330
1F
100
AcDbEntity
  8
寸法
100
AcDbMText
 10
1513.48448398118
 20
2107.631788006915
 30
0.0
 40
10.0
 41
29.9710769931271
 71
     5
 72
     5
  1
b
 73
     1
 44
1.0
1001
ACAD
1000
MTEXTBEGIN
1070
    73
1070
     1
1070
    44
1040
1.0
1070
    74
1070
     0
1000
MTEXTEND
1000
ACAD_MTEXT_DEFINED_HEIGHT_BEGIN
1070
    46
1040
14.06486515567212
1000
ACAD_MTEXT_DEFINED_HEIGHT_END
  0
DIMENSION
  5
4C87
102
{ACAD_XDICTIONARY
360
4C88
102
}
102
{ACAD_REACTORS
330
4C89
102
}
330
1F
100
AcDbEntity
  8
寸法
100
AcDbDimension
  2
*D49
 10
2808.800088449528
 20
2033.110308324755
 30
0.0
 11
2758.800088449528
 21
2013.110308324755
 31
0.0
 70
    32
 71
     5
 42
100.0
  3
ISO-25
100
AcDbAlignedDimension
 13
2708.800088449529
 23
2138.909163386517
 33
0.0
 14
2808.800088449528
 24
2138.909163386517
 34
0.0
100
AcDbRotatedDimension
1001
ACAD
1000
DSTYLE
1002
{
1070
    41
1040
10.0
1070
    42
1040
30.0
1070
    44
1040
5.0
1070
   140
1040
20.0
1070
   147
1040
10.0
1002
}
  0
LINE
  5
4C8A
330
1F
100
AcDbEntity
  8
図
100
AcDbLine
 10
3153.800088449528
 20
2234.909163386517
 30
0.0
 11
3158.800088449528
 21
2239.909163386517
 31
0.0
  0
DIMENSION
  5
4C8E
330
1F
100
AcDbEntity
  8
寸法
100
AcDbDimension
  2
*D50
 10
2303.700722333303
 20
665.1479090395694
 30
0.0
 11
2246.013662195459
 21
613.2133050394152
 31
0.0
 70
    33
 71
     5
 42
150.0
  3
ISO-25
100
AcDbAlignedDimension
 13
2061.800088449528
 23
808.9091633865168
 33
0.0
 14
2195.374069951802
 24
877.1586429862191
 34
0.0
1001
ACAD
1000
DSTYLE
1002
{
1070
    41
1040
10.0
1070
    42
1040
30.0
1070
    44
1040
5.0
1070
   140
1040
20.0
1070
   147
1040
10.0
1002
}
  0
DIMENSION
  5
4C9C
330
1F
100
AcDbEntity
  8
寸法
100
AcDbDimension
  2
*D51
 10
2061.800088449528
 20
737.3216160724965
 30
0.0
 11
1495.800088449528
 21
717.3216160724964
 31
0.0
 70
    32
 71
     5
 42
1132.0
  3
ISO-25
100
AcDbAlignedDimension
 13
929.8000884495282
 23
808.9091633865168
 33
0.0
 14
2061.800088449528
 24
808.9091633865168
 34
0.0
100
AcDbRotatedDimension
1001
ACAD
1000
DSTYLE
1002
{
1070
    41
1040
10.0
1070
    42
1040
30.0
1070
    44
1040
5.0
1070
   140
1040
20.0
1070
   147
1040
10.0
1002
}
  0
DIMENSION
  5
4C9F
330
1F
100
AcDbEntity
  8
寸法
100
AcDbDimension
  2
*D12
 10
2208.800088449528
 20
1788.45085461361
 30
0.0
 11
1495.800088449528
 21
1808.45085461361
 31
0.0
 70
    32
 71
     5
 42
1426.0
  3
ISO-25
100
AcDbAlignedDimension
 13
782.8000884495281
 23
1688.909163386517
 33
0.0
 14
2208.800088449528
 24
1688.909163386517
 34
0.0
100
AcDbRotatedDimension
1001
ACAD
1000
DSTYLE
1002
{
1070
    41
1040
10.0
1070
    42
1040
30.0
1070
    44
1040
5.0
1070
   140
1040
20.0
1070
   147
1040
10.0
1002
}
  0
DIMENSION
  5
4CA0
330
1F
100
AcDbEntity
  8
寸法
100
AcDbDimension
  2
*D13
 10
2262.854034440014
 20
1389.909163386517
 30
0.0
 11
2282.854034440013
 21
1539.409163386517
 31
0.0
 70
    32
 71
     5
 42
299.0
  3
ISO-25
100
AcDbAlignedDimension
 13
2208.800088449528
 23
1688.909163386517
 33
0.0
 14
2208.800088449528
 24
1389.909163386517
 34
0.0
 50
90.0
100
AcDbRotatedDimension
1001
ACAD
1000
DSTYLE
1002
{
1070
    41
1040
10.0
1070
    42
1040
30.0
1070
    44
1040
5.0
1070
   140
1040
20.0
1070
   147
1040
10.0
1002
}
  0
DIMENSION
  5
4CA1
330
1F
100
AcDbEntity
  8
寸法
100
AcDbDimension
  2
*D14
 10
2262.854034440014
 20
1389.909163386517
 30
0.0
 11
2262.854034440014
 21
1387.409163386517
 31
0.0
 70
   160
 71
     5
 42
5.0
  3
ISO-25
100
AcDbAlignedDimension
 13
2165.800088449528
 23
1384.909163386517
 33
0.0
 14
2208.800088449528
 24
1389.909163386517
 34
0.0
 50
90.0
100
AcDbRotatedDimension
1001
ACAD
1000
DSTYLE
1002
{
1070
    41
1040
10.0
1070
    42
1040
30.0
1070
    44
1040
5.0
1070
   140
1040
20.0
1070
   147
1040
10.0
1002
}
  0
DIMENSION
  5
4CA2
330
1F
100
AcDbEntity
  8
寸法
100
AcDbDimension
  2
*D15
 10
2262.854034440014
 20
1384.909163386517
 30
0.0
 11
2282.854034440014
 21
1336.909163386517
 31
0.0
 70
    32
 71
     5
 42
96.0
  3
ISO-25
100
AcDbAlignedDimension
 13
2160.800088449528
 23
1288.909163386517
 33
0.0
 14
2165.800088449528
 24
1384.909163386517
 34
0.0
 50
90.0
100
AcDbRotatedDimension
1001
ACAD
1000
DSTYLE
1002
{
1070
    41
1040
10.0
1070
    42
1040
30.0
1070
    44
1040
5.0
1070
   140
1040
20.0
1070
   147
1040
10.0
1002
}
  0
DIMENSION
  5
4CA3
330
1F
100
AcDbEntity
  8
寸法
100
AcDbDimension
  2
*D16
 10
2160.800088449528
 20
1233.21170822149
 30
0.0
 11
1495.800088449528
 21
1213.21170822149
 31
0.0
 70
    32
 71
     5
 42
1330.0
  3
ISO-25
100
AcDbAlignedDimension
 13
830.8000884495282
 23
1288.909163386517
 33
0.0
 14
2160.800088449528
 24
1288.909163386517
 34
0.0
100
AcDbRotatedDimension
1001
ACAD
1000
DSTYLE
1002
{
1070
    41
1040
10.0
1070
    42
1040
30.0
1070
    44
1040
5.0
1070
   140
1040
20.0
1070
   147
1040
10.0
1002
}
  0
DIMENSION
  5
4CA4
330
1F
100
AcDbEntity
  8
寸法
100
AcDbDimension
  2
*D17
 10
830.8000884495282
 20
1233.21170822149
 30
0.0
 11
828.3000884495281
 21
1233.21170822149
 31
0.0
 70
   160
 71
     5
 42
5.0
  3
ISO-25
100
AcDbAlignedDimension
 13
825.8000884495281
 23
1384.909163386517
 33
0.0
 14
830.8000884495282
 24
1288.909163386517
 34
0.0
100
AcDbRotatedDimension
1001
ACAD
1000
DSTYLE
1002
{
1070
    41
1040
10.0
1070
    42
1040
30.0
1070
    44
1040
5.0
1070
   140
1040
20.0
1070
   147
1040
10.0
1002
}
  0
DIMENSION
  5
4CA5
330
1F
100
AcDbEntity
  8
寸法
100
AcDbDimension
  2
*D18
 10
2160.800088449528
 20
1233.21170822149
 30
0.0
 11
2163.300088449528
 21
1233.21170822149
 31
0.0
 70
   160
 71
     5
 42
5.0
  3
ISO-25
100
AcDbAlignedDimension
 13
2165.800088449528
 23
1384.909163386517
 33
0.0
 14
2160.800088449528
 24
1288.909163386517
 34
0.0
 50
180.0
100
AcDbRotatedDimension
1001
ACAD
1000
DSTYLE
1002
{
1070
    41
1040
10.0
1070
    42
1040
30.0
1070
    44
1040
5.0
1070
   140
1040
20.0
1070
   147
1040
10.0
1002
}
  0
DIMENSION
  5
4D17
330
1F
100
AcDbEntity
  8
寸法
100
AcDbDimension
  2
*D4
 10
687.8994545657542
 20
665.1479090395697
 30
0.0
 11
745.5865147035977
 21
613.2133050394154
 31
0.0
 70
    33
 71
     5
 42
150.0
  3
ISO-25
100
AcDbAlignedDimension
 13
929.8000884495282
 23
808.9091633865168
 33
0.0
 14
796.2261069472543
 24
877.1586429862191
 34
0.0
1001
ACAD
1000
DSTYLE
1002
{
1070
    41
1040
10.0
1070
    42
1040
30.0
1070
    44
1040
5.0
1070
   140
1040
20.0
1070
   147
1040
10.0
1002
}
  0
MTEXT
  5
553F
330
1F
100
AcDbEntity
  8
寸法
100
AcDbMText
 10
2201.351331005946
 20
2202.73265318684
 30
0.0
 40
19.99999999999999
 41
111.1024851128458
 71
     5
 72
     5
  1
\U+03C64-2
 73
     1
 44
1.0
1001
ACAD
1000
MTEXTBEGIN
1070
    73
1070
     1
1070
    44
1040
1.0
1070
    74
1070
     0
1000
MTEXTEND
1000
ACAD_MTEXT_DEFINED_HEIGHT_BEGIN
1070
    46
1040
36.14557169400064
1000
ACAD_MTEXT_DEFINED_HEIGHT_END
  0
LEADER
  5
5543
330
1F
100
AcDbEntity
  8
寸法
100
AcDbLeader
  3
ISO-25
 76
     2
 10
2133.021310639886
 20
2184.65986733984
 30
0.0
 10
2256.902573562369
 20
2184.659867339838
 30
0.0
211
1.0
221
-0.0000000000000245
231
0.0
1001
ACAD
1000
DSTYLE
1002
{
1070
   341
1005
10D7
1070
    41
1040
10.0
1070
   147
1040
0.625
1070
    77
1070
     0
1002
}
  0
ENDSEC
  0
SECTION
  2
OBJECTS
  0
DICTIONARY
  5
C
330
0
100
AcDbDictionary
281
     1
  3
ACAD_2007HEADERVARS_RT
350
5637
  3
ACAD_CIP_PREVIOUS_PRODUCT_INFO
350
55E5
  3
ACAD_COLOR
350
6B
  3
ACAD_GROUP
350
D
  3
ACAD_LAYOUT
350
1A
  3
ACAD_MATERIAL
350
6A
  3
ACAD_MLEADERSTYLE
350
55DE
  3
ACAD_MLINESTYLE
350
17
  3
ACAD_PLOTSETTINGS
350
19
  3
ACAD_PLOTSTYLENAME
350
E
  3
ACAD_SCALELIST
350
55CC
  3
ACAD_TABLESTYLE
350
7E
  3
ACAD_VISUALSTYLE
350
55B3
  3
ACDB_RECOMPOSE_DATA
350
5635
  3
AcDbVariableDictionary
350
5E
  3
DWGPROPS
350
5636
  0
DICTIONARY
  5
101
330
2
100
AcDbDictionary
280
     1
281
     1
  3
ACAD_LAYERFILTERS
360
51A4
  3
ACAD_LAYERSTATES
360
102
  3
ACLYDICTIONARY
360
51A3
  0
DICTIONARY
  5
55E9
330
10
100
AcDbDictionary
280
     1
281
     1
  3
ADSK_XREC_LAYER_RECONCILED
360
55EA
  0
DICTIONARY
  5
55EB
330
FC
100
AcDbDictionary
280
     1
281
     1
  3
ADSK_XREC_LAYER_RECONCILED
360
55EC
  0
DICTIONARY
  5
55ED
330
FE
100
AcDbDictionary
280
     1
281
     1
  3
ADSK_XREC_LAYER_RECONCILED
360
55EE
  0
DICTIONARY
  5
55EF
330
FF
100
AcDbDictionary
280
     1
281
     1
  3
ADSK_XREC_LAYER_RECONCILED
360
55F0
  0
DICTIONARY
  5
55F1
330
14B
100
AcDbDictionary
280
     1
281
     1
  3
ADSK_XREC_LAYER_RECONCILED
360
55F2
  0
DICTIONARY
  5
55F3
330
14F
100
AcDbDictionary
280
     1
281
     1
  3
ADSK_XREC_LAYER_RECONCILED
360
55F4
  0
DICTIONARY
  5
55F5
330
1A4
100
AcDbDictionary
280
     1
281
     1
  3
ADSK_XREC_LAYER_RECONCILED
360
55F6
  0
DICTIONARY
  5
55F7
330
1A5
100
AcDbDictionary
280
     1
281
     1
  3
ADSK_XREC_LAYER_RECONCILED
360
55F8
  0
DICTIONARY
  5
55F9
330
1747
100
AcDbDictionary
280
     1
281
     1
  3
ADSK_XREC_LAYER_RECONCILED
360
55FA
  0
DICTIONARY
  5
55FB
330
49BB
100
AcDbDictionary
280
     1
281
     1
  3
ADSK_XREC_LAYER_RECONCILED
360
55FC
  0
DICTIONARY
  5
55FD
330
49BC
100
AcDbDictionary
280
     1
281
     1
  3
ADSK_XREC_LAYER_RECONCILED
360
55FE
  0
DICTIONARY
  5
55FF
330
49BD
100
AcDbDictionary
280
     1
281
     1
  3
ADSK_XREC_LAYER_RECONCILED
360
5600
  0
DICTIONARY
  5
C0A
330
1F
100
AcDbDictionary
280
     1
281
     1
  3
ACAD_SORTENTS
360
C0B
  0
DICTIONARY
  5
4BF8
330
4BF7
100
AcDbDictionary
280
     1
281
     1
  3
ACAD_DIMASSOC
360
4BF9
  0
DICTIONARY
  5
4BFB
330
4BFA
100
AcDbDictionary
280
     1
281
     1
  3
ACAD_DIMASSOC
360
4BFC
  0
DICTIONARY
  5
4BFE
330
4BFD
100
AcDbDictionary
280
     1
281
     1
  3
ACAD_DIMASSOC
360
4BFF
  0
DICTIONARY
  5
4C02
330
4C01
100
AcDbDictionary
280
     1
281
     1
  3
ACAD_DIMASSOC
360
4C03
  0
DICTIONARY
  5
4C05
330
4C04
100
AcDbDictionary
280
     1
281
     1
  3
ACAD_DIMASSOC
360
4C06
  0
DICTIONARY
  5
4C08
330
4C07
100
AcDbDictionary
280
     1
281
     1
  3
ACAD_DIMASSOC
360
4C09
  0
DICTIONARY
  5
4C0B
330
4C0A
100
AcDbDictionary
280
     1
281
     1
  3
ACAD_DIMASSOC
360
4C0C
  0
DICTIONARY
  5
4C0E
330
4C0D
100
AcDbDictionary
280
     1
281
     1
  3
ACAD_DIMASSOC
360
4C0F
  0
DICTIONARY
  5
4C14
330
4C13
100
AcDbDictionary
280
     1
281
     1
  3
ACAD_DIMASSOC
360
4C15
  0
DICTIONARY
  5
4C17
330
4C16
100
AcDbDictionary
280
     1
281
     1
  3
ACAD_DIMASSOC
360
4C18
  0
DICTIONARY
  5
4C1A
330
4C19
100
AcDbDictionary
280
     1
281
     1
  3
ACAD_DIMASSOC
360
4C1B
  0
DICTIONARY
  5
4C1F
330
4C1E
100
AcDbDictionary
280
     1
281
     1
  3
ACAD_DIMASSOC
360
4C20
  0
DICTIONARY
  5
4C22
330
4C21
100
AcDbDictionary
280
     1
281
     1
  3
ACAD_DIMASSOC
360
4C23
  0
DICTIONARY
  5
4C25
330
4C24
100
AcDbDictionary
280
     1
281
     1
  3
ACAD_DIMASSOC
360
4C26
  0
DICTIONARY
  5
4C29
330
4C28
100
AcDbDictionary
280
     1
281
     1
  3
ACAD_DIMASSOC
360
4C2A
  0
DICTIONARY
  5
4C2C
330
4C2B
100
AcDbDictionary
280
     1
281
     1
  3
ACAD_DIMASSOC
360
4C2D
  0
DICTIONARY
  5
4C2F
330
4C2E
100
AcDbDictionary
280
     1
281
     1
  3
ACAD_DIMASSOC
360
4C30
  0
DICTIONARY
  5
4C39
330
4C38
100
AcDbDictionary
280
     1
281
     1
  3
ACAD_DIMASSOC
360
4C3A
  0
DICTIONARY
  5
4C3C
330
4C3B
100
AcDbDictionary
280
     1
281
     1
  3
ACAD_DIMASSOC
360
4C3D
  0
DICTIONARY
  5
4C3F
330
4C3E
100
AcDbDictionary
280
     1
281
     1
  3
ACAD_DIMASSOC
360
4C40
  0
DICTIONARY
  5
4C44
330
4C43
100
AcDbDictionary
280
     1
281
     1
  3
ACAD_DIMASSOC
360
4C45
  0
DICTIONARY
  5
4C47
330
4C46
100
AcDbDictionary
280
     1
281
     1
  3
ACAD_DIMASSOC
360
4C48
  0
DICTIONARY
  5
4C4A
330
4C49
100
AcDbDictionary
280
     1
281
     1
  3
ACAD_DIMASSOC
360
4C4B
  0
DICTIONARY
  5
4C4D
330
4C4C
100
AcDbDictionary
280
     1
281
     1
  3
ACAD_DIMASSOC
360
4C4E
  0
DICTIONARY
  5
4C50
330
4C4F
100
AcDbDictionary
280
     1
281
     1
  3
ACAD_DIMASSOC
360
4C51
  0
DICTIONARY
  5
4C53
330
4C52
100
AcDbDictionary
280
     1
281
     1
  3
ACAD_DIMASSOC
360
4C54
  0
DICTIONARY
  5
4C56
330
4C55
100
AcDbDictionary
280
     1
281
     1
  3
ACAD_DIMASSOC
360
4C57
  0
DICTIONARY
  5
4C59
330
4C58
100
AcDbDictionary
280
     1
281
     1
  3
ACAD_DIMASSOC
360
4C5A
  0
DICTIONARY
  5
4C5C
330
4C5B
100
AcDbDictionary
280
     1
281
     1
  3
ACAD_DIMASSOC
360
4C5D
  0
DICTIONARY
  5
4C5F
330
4C5E
100
AcDbDictionary
280
     1
281
     1
  3
ACAD_DIMASSOC
360
4C60
  0
DICTIONARY
  5
4C88
330
4C87
100
AcDbDictionary
280
     1
281
     1
  3
ACAD_DIMASSOC
360
4C89
  0
DICTIONARY
  5
5637
102
{ACAD_REACTORS
330
C
102
}
330
C
100
AcDbDictionary
281
     1
  3
DIMFXL
350
5638
  3
DIMJOGANG
350
5639
  0
XRECORD
  5
55E5
102
{ACAD_REACTORS
330
C
102
}
330
C
100
AcDbXrecord
280
     1
300
ACD
300
2012
300
ACD_F_S
  0
DICTIONARY
  5
6B
102
{ACAD_REACTORS
330
C
102
}
330
C
100
AcDbDictionary
281
     1
  0
DICTIONARY
  5
D
102
{ACAD_REACTORS
330
C
102
}
330
C
100
AcDbDictionary
281
     1
  0
DICTIONARY
  5
1A
102
{ACAD_REACTORS
330
C
102
}
330
C
100
AcDbDictionary
281
     1
  3
Model
350
22
  3
レイアウト1
350
D3
  3
レイアウト2
350
D7
  0
DICTIONARY
  5
6A
102
{ACAD_REACTORS
330
C
102
}
330
C
100
AcDbDictionary
281
     1
  3
ByBlock
350
55A3
  3
ByLayer
350
559B
  3
Global
350
55AB
  0
DICTIONARY
  5
55DE
102
{ACAD_REACTORS
330
C
102
}
330
C
100
AcDbDictionary
281
     1
  3
Standard
350
55DF
  0
DICTIONARY
  5
17
102
{ACAD_REACTORS
330
C
102
}
330
C
100
AcDbDictionary
281
     1
  3
Standard
350
18
  0
DICTIONARY
  5
19
102
{ACAD_REACTORS
330
C
102
}
330
C
100
AcDbDictionary
281
     1
  0
ACDBDICTIONARYWDFLT
  5
E
102
{ACAD_REACTORS
330
C
102
}
330
C
100
AcDbDictionary
281
     1
  3
Normal
350
F
100
AcDbDictionaryWithDefault
340
F
  0
DICTIONARY
  5
55CC
102
{ACAD_REACTORS
330
C
102
}
330
C
100
AcDbDictionary
281
     1
  3
A0
350
55CD
  3
A1
350
55CE
  3
A2
350
55CF
  3
A3
350
55D0
  3
A4
350
55D1
  3
A5
350
55D2
  3
A6
350
55D3
  3
A7
350
55D4
  3
A8
350
55D5
  3
A9
350
55D6
  3
B0
350
55D7
  3
B1
350
55D8
  3
B2
350
55D9
  3
B3
350
55DA
  3
B4
350
55DB
  3
B5
350
55DC
  3
B6
350
55DD
  0
DICTIONARY
  5
7E
102
{ACAD_REACTORS
330
C
102
}
330
C
100
AcDbDictionary
281
     1
  3
Standard
350
7F
  0
DICTIONARY
  5
55B3
102
{ACAD_REACTORS
330
C
102
}
330
C
100
AcDbDictionary
281
     1
  3
2dWireframe
350
55B9
  3
Basic
350
55B8
  3
Brighten
350
55BF
  3
ColorChange
350
55C3
  3
Conceptual
350
55BC
  3
Dim
350
55BE
  3
EdgeColorOff
350
55CB
  3
Facepattern
350
55C2
  3
Flat
350
55B4
  3
FlatWithEdges
350
55B5
  3
Gouraud
350
55B6
  3
GouraudWithEdges
350
55B7
  3
Hidden
350
55BB
  3
JitterOff
350
55C9
  3
Linepattern
350
55C1
  3
OverhangOff
350
55CA
  3
Realistic
350
55BD
  3
Shaded
350
55C8
  3
Shaded with edges
350
55C7
  3
Shades of Gray
350
55C4
  3
Sketchy
350
55C5
  3
Thicken
350
55C0
  3
Wireframe
350
55BA
  3
X-Ray
350
55C6
  0
XRECORD
  5
5635
102
{ACAD_REACTORS
330
C
102
}
330
C
100
AcDbXrecord
280
     1
 90
        1
330
7F
  0
DICTIONARY
  5
5E
102
{ACAD_REACTORS
330
C
102
}
330
C
100
AcDbDictionary
281
     1
  3
CANNOSCALE
350
560F
  3
CMLEADERSTYLE
350
560D
  3
CTABLESTYLE
350
84
  3
DIMASSOC
350
5F
  3
HIDETEXT
350
63
  3
INDEXCTL
350
562F
  3
LAYEREVAL
350
5611
  3
LAYERNOTIFY
350
5612
  3
LIGHTINGUNITS
350
5610
  3
MSLTSCALE
350
560E
  3
SORTENTS
350
562E
  3
XCLIPFRAME
350
5630
  0
XRECORD
  5
5636
102
{ACAD_REACTORS
330
C
102
}
330
C
100
AcDbXrecord
280
     1
  1
DWGPROPS COOKIE
  2

  3

  4

  6

  7

  8
tom
  9

300
=
301
=
302
=
303
=
304
=
305
=
306
=
307
=
308
=
309
=
 40
0.2614021412037037
 41
2454427.395492431
 42
2457014.697638125
  1

 90
        0
  0
DICTIONARY
  5
51A4
102
{ACAD_REACTORS
330
101
102
}
330
101
100
AcDbDictionary
281
     1
  0
DICTIONARY
  5
102
102
{ACAD_REACTORS
330
101
102
}
330
101
100
AcDbDictionary
281
     1
  0
DICTIONARY
  5
51A3
102
{ACAD_REACTORS
330
101
102
}
330
101
100
AcDbDictionary
281
     1
1001
ACAD
1000
<All
  0
XRECORD
  5
55EA
102
{ACAD_REACTORS
330
55E9
102
}
330
55E9
100
AcDbXrecord
280
     1
290
     1
  0
XRECORD
  5
55EC
102
{ACAD_REACTORS
330
55EB
102
}
330
55EB
100
AcDbXrecord
280
     1
290
     1
  0
XRECORD
  5
55EE
102
{ACAD_REACTORS
330
55ED
102
}
330
55ED
100
AcDbXrecord
280
     1
290
     1
  0
XRECORD
  5
55F0
102
{ACAD_REACTORS
330
55EF
102
}
330
55EF
100
AcDbXrecord
280
     1
290
     1
  0
XRECORD
  5
55F2
102
{ACAD_REACTORS
330
55F1
102
}
330
55F1
100
AcDbXrecord
280
     1
290
     1
  0
XRECORD
  5
55F4
102
{ACAD_REACTORS
330
55F3
102
}
330
55F3
100
AcDbXrecord
280
     1
290
     1
  0
XRECORD
  5
55F6
102
{ACAD_REACTORS
330
55F5
102
}
330
55F5
100
AcDbXrecord
280
     1
290
     1
  0
XRECORD
  5
55F8
102
{ACAD_REACTORS
330
55F7
102
}
330
55F7
100
AcDbXrecord
280
     1
290
     1
  0
XRECORD
  5
55FA
102
{ACAD_REACTORS
330
55F9
102
}
330
55F9
100
AcDbXrecord
280
     1
290
     1
  0
XRECORD
  5
55FC
102
{ACAD_REACTORS
330
55FB
102
}
330
55FB
100
AcDbXrecord
280
     1
290
     1
  0
XRECORD
  5
55FE
102
{ACAD_REACTORS
330
55FD
102
}
330
55FD
100
AcDbXrecord
280
     1
290
     1
  0
XRECORD
  5
5600
102
{ACAD_REACTORS
330
55FF
102
}
330
55FF
100
AcDbXrecord
280
     1
290
     1
  0
SORTENTSTABLE
  5
C0B
102
{ACAD_REACTORS
330
C0A
102
}
330
C0A
100
AcDbSortentsTable
330
1F
331
129
  5
2261
331
163
  5
43E1
331
127
  5
225F
331
138
  5
43D7
331
125
  5
225D
331
136
  5
2266
331
123
  5
225B
331
134
  5
2264
331
132
  5
2262
331
128
  5
2260
331
139
  5
43E0
331
137
  5
2267
331
126
  5
225E
331
124
  5
225C
331
135
  5
2265
331
133
  5
2263
  0
DIMASSOC
  5
4BF9
102
{ACAD_REACTORS
330
4BF8
102
}
330
4BF8
100
AcDbDimAssoc
330
4BF7
 90
        3
 70
     0
 71
     0
  1
AcDbOsnapPointRef
 72
    13
331
4BB9
 73
     2
 91
        0
 40
0.0
 10
0.0
 20
0.0
 30
2.000000000000000E+50
 75
     0
  1
AcDbOsnapPointRef
 72
    13
331
4BBE
 73
     2
 91
        0
 40
0.0
 10
0.0
 20
0.0
 30
2.000000000000000E+50
 75
     0
  0
DIMASSOC
  5
4BFC
102
{ACAD_REACTORS
330
4BFB
102
}
330
4BFB
100
AcDbDimAssoc
330
4BFA
 90
        3
 70
     0
 71
     0
  1
AcDbOsnapPointRef
 72
     1
331
4BCC
 73
     2
 91
        0
 40
1.0
 10
0.0
 20
0.0
 30
2.000000000000000E+50
 75
     0
  1
AcDbOsnapPointRef
 72
     1
331
4BF6
 73
     2
 91
        0
 40
1.0
 10
0.0
 20
0.0
 30
2.000000000000000E+50
 75
     0
  0
DIMASSOC
  5
4BFF
102
{ACAD_REACTORS
330
4BFE
102
}
330
4BFE
100
AcDbDimAssoc
330
4BFD
 90
        3
 70
     0
 71
     0
  1
AcDbOsnapPointRef
 72
     1
331
4BF6
 73
     2
 91
        0
 40
1.0
 10
0.0
 20
0.0
 30
2.000000000000000E+50
 75
     0
  1
AcDbOsnapPointRef
 72
    13
331
4BBE
 73
     2
 91
        0
 40
0.0
 10
0.0
 20
0.0
 30
2.000000000000000E+50
 75
     0
  0
DIMASSOC
  5
4C03
102
{ACAD_REACTORS
330
4C02
102
}
330
4C02
100
AcDbDimAssoc
330
4C01
 90
        3
 70
     0
 71
     0
  1
AcDbOsnapPointRef
 72
    13
331
4BBE
 73
     2
 91
        0
 40
0.0
 10
0.0
 20
0.0
 30
2.000000000000000E+50
 75
     0
  1
AcDbOsnapPointRef
 72
    13
331
4BBF
 73
     2
 91
        0
 40
0.0
 10
0.0
 20
0.0
 30
2.000000000000000E+50
 75
     0
  0
DIMASSOC
  5
4C06
102
{ACAD_REACTORS
330
4C05
102
}
330
4C05
100
AcDbDimAssoc
330
4C04
 90
        3
 70
     0
 71
     0
  1
AcDbOsnapPointRef
 72
    13
331
4BF6
 73
     2
 91
        0
 40
0.0
 10
0.0
 20
0.0
 30
2.000000000000000E+50
 75
     0
  1
AcDbOsnapPointRef
 72
    13
331
4BBF
 73
     2
 91
        0
 40
0.0
 10
0.0
 20
0.0
 30
2.000000000000000E+50
 75
     0
  0
DIMASSOC
  5
4C09
102
{ACAD_REACTORS
330
4C08
102
}
330
4C08
100
AcDbDimAssoc
330
4C07
 90
        3
 70
     0
 71
     0
  1
AcDbOsnapPointRef
 72
    13
331
4BC1
 73
     2
 91
        0
 40
0.0
 10
0.0
 20
0.0
 30
2.000000000000000E+50
 75
     0
  1
AcDbOsnapPointRef
 72
    13
331
4BF6
 73
     2
 91
        0
 40
0.0
 10
0.0
 20
0.0
 30
2.000000000000000E+50
 75
     0
  0
DIMASSOC
  5
4C0C
102
{ACAD_REACTORS
330
4C0B
102
}
330
4C0B
100
AcDbDimAssoc
330
4C0A
 90
        3
 70
     0
 71
     0
  1
AcDbOsnapPointRef
 72
    13
331
4BBC
 73
     2
 91
        0
 40
0.0
 10
0.0
 20
0.0
 30
2.000000000000000E+50
 75
     0
  1
AcDbOsnapPointRef
 72
    13
331
4BC1
 73
     2
 91
        0
 40
0.0
 10
0.0
 20
0.0
 30
2.000000000000000E+50
 75
     0
  0
DIMASSOC
  5
4C0F
102
{ACAD_REACTORS
330
4C0E
102
}
330
4C0E
100
AcDbDimAssoc
330
4C0D
 90
        3
 70
     0
 71
     0
  1
AcDbOsnapPointRef
 72
    13
331
4BCC
 73
     2
 91
        0
 40
0.0
 10
0.0
 20
0.0
 30
2.000000000000000E+50
 75
     0
  1
AcDbOsnapPointRef
 72
    13
331
4BBC
 73
     2
 91
        0
 40
0.0
 10
0.0
 20
0.0
 30
2.000000000000000E+50
 75
     0
  0
DIMASSOC
  5
4C15
102
{ACAD_REACTORS
330
4C14
102
}
330
4C14
100
AcDbDimAssoc
330
4C13
 90
        3
 70
     0
 71
     0
  1
AcDbOsnapPointRef
 72
    13
331
4BF3
 73
     2
 91
        0
 40
0.0
 10
0.0
 20
0.0
 30
2.000000000000000E+50
 75
     0
  1
AcDbOsnapPointRef
 72
    13
331
4BF1
 73
     2
 91
        0
 40
0.0
 10
0.0
 20
0.0
 30
2.000000000000000E+50
 75
     0
  0
DIMASSOC
  5
4C18
102
{ACAD_REACTORS
330
4C17
102
}
330
4C17
100
AcDbDimAssoc
330
4C16
 90
        3
 70
     0
 71
     0
  1
AcDbOsnapPointRef
 72
    13
331
4BF2
 73
     2
 91
        0
 40
0.0
 10
0.0
 20
0.0
 30
2.000000000000000E+50
 75
     0
  1
AcDbOsnapPointRef
 72
    13
331
4BF3
 73
     2
 91
        0
 40
0.0
 10
0.0
 20
0.0
 30
2.000000000000000E+50
 75
     0
  0
DIMASSOC
  5
4C1B
102
{ACAD_REACTORS
330
4C1A
102
}
330
4C1A
100
AcDbDimAssoc
330
4C19
 90
        3
 70
     0
 71
     0
  1
AcDbOsnapPointRef
 72
    13
331
4BEC
 73
     2
 91
        0
 40
0.0
 10
0.0
 20
0.0
 30
2.000000000000000E+50
 75
     0
  1
AcDbOsnapPointRef
 72
    13
331
4BF2
 73
     2
 91
        0
 40
0.0
 10
0.0
 20
0.0
 30
2.000000000000000E+50
 75
     0
  0
DIMASSOC
  5
4C20
102
{ACAD_REACTORS
330
4C1F
102
}
330
4C1F
100
AcDbDimAssoc
330
4C1E
 90
        3
 70
     0
 71
     0
  1
AcDbOsnapPointRef
 72
    13
331
4BEC
 73
     2
 91
        0
 40
0.0
 10
0.0
 20
0.0
 30
2.000000000000000E+50
 75
     0
  1
AcDbOsnapPointRef
 72
    13
331
4BE7
 73
     2
 91
        0
 40
0.0
 10
0.0
 20
0.0
 30
2.000000000000000E+50
 75
     0
  0
DIMASSOC
  5
4C23
102
{ACAD_REACTORS
330
4C22
102
}
330
4C22
100
AcDbDimAssoc
330
4C21
 90
        3
 70
     0
 71
     0
  1
AcDbOsnapPointRef
 72
    13
331
4BEF
 73
     2
 91
        0
 40
0.0
 10
0.0
 20
0.0
 30
2.000000000000000E+50
 75
     0
  1
AcDbOsnapPointRef
 72
    13
331
4BEA
 73
     2
 91
        0
 40
0.0
 10
0.0
 20
0.0
 30
2.000000000000000E+50
 75
     0
  0
DIMASSOC
  5
4C26
102
{ACAD_REACTORS
330
4C25
102
}
330
4C25
100
AcDbDimAssoc
330
4C24
 90
        3
 70
     0
 71
     0
  1
AcDbOsnapPointRef
 72
    13
331
4BED
 73
     2
 91
        0
 40
0.0
 10
0.0
 20
0.0
 30
2.000000000000000E+50
 75
     0
  1
AcDbOsnapPointRef
 72
    13
331
4BEF
 73
     2
 91
        0
 40
0.0
 10
0.0
 20
0.0
 30
2.000000000000000E+50
 75
     0
  0
DIMASSOC
  5
4C2A
102
{ACAD_REACTORS
330
4C29
102
}
330
4C29
100
AcDbDimAssoc
330
4C28
 90
        1
 70
     0
 71
     0
  1
AcDbOsnapPointRef
 72
    13
331
4BEA
 73
     2
 91
        0
 40
0.0
 10
0.0
 20
0.0
 30
2.000000000000000E+50
 75
     0
  0
DIMASSOC
  5
4C2D
102
{ACAD_REACTORS
330
4C2C
102
}
330
4C2C
100
AcDbDimAssoc
330
4C2B
 90
        3
 70
     0
 71
     0
  1
AcDbOsnapPointRef
 72
    13
331
4BE9
 73
     2
 91
        0
 40
0.0
 10
0.0
 20
0.0
 30
2.000000000000000E+50
 75
     0
  1
AcDbOsnapPointRef
 72
    13
331
4BE8
 73
     2
 91
        0
 40
0.0
 10
0.0
 20
0.0
 30
2.000000000000000E+50
 75
     0
  0
DIMASSOC
  5
4C30
102
{ACAD_REACTORS
330
4C2F
102
}
330
4C2F
100
AcDbDimAssoc
330
4C2E
 90
        3
 70
     0
 71
     0
  1
AcDbOsnapPointRef
 72
    13
331
4BE8
 73
     2
 91
        0
 40
0.0
 10
0.0
 20
0.0
 30
2.000000000000000E+50
 75
     0
  1
AcDbOsnapPointRef
 72
    13
331
4BE7
 73
     2
 91
        0
 40
0.0
 10
0.0
 20
0.0
 30
2.000000000000000E+50
 75
     0
  0
DIMASSOC
  5
4C3A
102
{ACAD_REACTORS
330
4C39
102
}
330
4C39
100
AcDbDimAssoc
330
4C38
 90
        3
 70
     0
 71
     0
  1
AcDbOsnapPointRef
 72
    13
331
4BB2
 73
     2
 91
        0
 40
0.0
 10
0.0
 20
0.0
 30
2.000000000000000E+50
 75
     0
  1
AcDbOsnapPointRef
 72
    13
331
4BB1
 73
     2
 91
        0
 40
0.0
 10
0.0
 20
0.0
 30
2.000000000000000E+50
 75
     0
  0
DIMASSOC
  5
4C3D
102
{ACAD_REACTORS
330
4C3C
102
}
330
4C3C
100
AcDbDimAssoc
330
4C3B
 90
        3
 70
     0
 71
     0
  1
AcDbOsnapPointRef
 72
    13
331
4BB1
 73
     2
 91
        0
 40
0.0
 10
0.0
 20
0.0
 30
2.000000000000000E+50
 75
     0
  1
AcDbOsnapPointRef
 72
    13
331
4BB0
 73
     2
 91
        0
 40
0.0
 10
0.0
 20
0.0
 30
2.000000000000000E+50
 75
     0
  0
DIMASSOC
  5
4C40
102
{ACAD_REACTORS
330
4C3F
102
}
330
4C3F
100
AcDbDimAssoc
330
4C3E
 90
        3
 70
     0
 71
     0
  1
AcDbOsnapPointRef
 72
    13
331
4BB0
 73
     2
 91
        0
 40
0.0
 10
0.0
 20
0.0
 30
2.000000000000000E+50
 75
     0
  1
AcDbOsnapPointRef
 72
    13
331
4BAF
 73
     2
 91
        0
 40
0.0
 10
0.0
 20
0.0
 30
2.000000000000000E+50
 75
     0
  0
DIMASSOC
  5
4C45
102
{ACAD_REACTORS
330
4C44
102
}
330
4C44
100
AcDbDimAssoc
330
4C43
 90
        1
 70
     0
 71
     0
  1
AcDbOsnapPointRef
 72
    13
331
4BB5
 73
     2
 91
        0
 40
0.0
 10
0.0
 20
0.0
 30
2.000000000000000E+50
 75
     0
  0
DIMASSOC
  5
4C48
102
{ACAD_REACTORS
330
4C47
102
}
330
4C47
100
AcDbDimAssoc
330
4C46
 90
        2
 70
     0
 71
     0
  1
AcDbOsnapPointRef
 72
    13
331
4BB4
 73
     2
 91
        0
 40
0.0
 10
0.0
 20
0.0
 30
2.000000000000000E+50
 75
     0
  0
DIMASSOC
  5
4C4B
102
{ACAD_REACTORS
330
4C4A
102
}
330
4C4A
100
AcDbDimAssoc
330
4C49
 90
        3
 70
     0
 71
     0
  1
AcDbOsnapPointRef
 72
     1
331
4B9C
 73
     2
 91
        3
 40
1.0
 10
0.0
 20
0.0
 30
2.000000000000000E+50
 75
     0
  1
AcDbOsnapPointRef
 72
    13
331
4BA4
 73
     2
 91
        0
 40
0.0
 10
0.0
 20
0.0
 30
2.000000000000000E+50
 75
     0
  0
DIMASSOC
  5
4C4E
102
{ACAD_REACTORS
330
4C4D
102
}
330
4C4D
100
AcDbDimAssoc
330
4C4C
 90
        3
 70
     0
 71
     0
  1
AcDbOsnapPointRef
 72
    13
331
4BA4
 73
     2
 91
        0
 40
0.0
 10
0.0
 20
0.0
 30
2.000000000000000E+50
 75
     0
  1
AcDbOsnapPointRef
 72
    13
331
4BA6
 73
     2
 91
        0
 40
0.0
 10
0.0
 20
0.0
 30
2.000000000000000E+50
 75
     0
  0
DIMASSOC
  5
4C51
102
{ACAD_REACTORS
330
4C50
102
}
330
4C50
100
AcDbDimAssoc
330
4C4F
 90
        3
 70
     0
 71
     0
  1
AcDbOsnapPointRef
 72
    13
331
4BA6
 73
     2
 91
        0
 40
0.0
 10
0.0
 20
0.0
 30
2.000000000000000E+50
 75
     0
  1
AcDbOsnapPointRef
 72
     1
331
4B9C
 73
     2
 91
        2
 40
1.0
 10
0.0
 20
0.0
 30
2.000000000000000E+50
 75
     0
  0
DIMASSOC
  5
4C54
102
{ACAD_REACTORS
330
4C53
102
}
330
4C53
100
AcDbDimAssoc
330
4C52
 90
        3
 70
     0
 71
     0
  1
AcDbOsnapPointRef
 72
    13
331
4BA7
 73
     2
 91
        0
 40
0.0
 10
0.0
 20
0.0
 30
2.000000000000000E+50
 75
     0
  1
AcDbOsnapPointRef
 72
     1
331
4B9C
 73
     2
 91
        2
 40
1.0
 10
0.0
 20
0.0
 30
2.000000000000000E+50
 75
     0
  0
DIMASSOC
  5
4C57
102
{ACAD_REACTORS
330
4C56
102
}
330
4C56
100
AcDbDimAssoc
330
4C55
 90
        3
 70
     0
 71
     0
  1
AcDbOsnapPointRef
 72
     1
331
4BA5
 73
     2
 91
        0
 40
1.0
 10
0.0
 20
0.0
 30
2.000000000000000E+50
 75
     0
  1
AcDbOsnapPointRef
 72
    13
331
4BA7
 73
     2
 91
        0
 40
0.0
 10
0.0
 20
0.0
 30
2.000000000000000E+50
 75
     0
  0
DIMASSOC
  5
4C5A
102
{ACAD_REACTORS
330
4C59
102
}
330
4C59
100
AcDbDimAssoc
330
4C58
 90
        3
 70
     0
 71
     0
  1
AcDbOsnapPointRef
 72
     1
331
4BA5
 73
     2
 91
        0
 40
1.0
 10
0.0
 20
0.0
 30
2.000000000000000E+50
 75
     0
  1
AcDbOsnapPointRef
 72
     1
331
4B9C
 73
     2
 91
        1
 40
1.0
 10
0.0
 20
0.0
 30
2.000000000000000E+50
 75
     0
  0
DIMASSOC
  5
4C5D
102
{ACAD_REACTORS
330
4C5C
102
}
330
4C5C
100
AcDbDimAssoc
330
4C5B
 90
        3
 70
     0
 71
     0
  1
AcDbOsnapPointRef
 72
    13
331
4B9C
 73
     2
 91
        1
 40
0.0
 10
0.0
 20
0.0
 30
2.000000000000000E+50
 75
     0
  1
AcDbOsnapPointRef
 72
     1
331
4B9C
 73
     2
 91
        1
 40
1.0
 10
0.0
 20
0.0
 30
2.000000000000000E+50
 75
     0
  0
DIMASSOC
  5
4C60
102
{ACAD_REACTORS
330
4C5F
102
}
330
4C5F
100
AcDbDimAssoc
330
4C5E
 90
        1
 70
     0
 71
     0
  1
AcDbOsnapPointRef
 72
    13
331
4BE7
 73
     2
 91
        0
 40
0.0
 10
0.0
 20
0.0
 30
2.000000000000000E+50
 75
     0
  0
DIMASSOC
  5
4C89
102
{ACAD_REACTORS
330
4C88
102
}
330
4C88
100
AcDbDimAssoc
330
4C87
 90
        3
 70
     0
 71
     0
  1
AcDbOsnapPointRef
 72
    13
331
4BB5
 73
     2
 91
        0
 40
0.0
 10
0.0
 20
0.0
 30
2.000000000000000E+50
 75
     0
  1
AcDbOsnapPointRef
 72
    13
331
4BB4
 73
     2
 91
        0
 40
0.0
 10
0.0
 20
0.0
 30
2.000000000000000E+50
 75
     0
  0
XRECORD
  5
5638
102
{ACAD_REACTORS
330
5637
102
}
330
5637
100
AcDbXrecord
280
     1
 40
1.25
  0
XRECORD
  5
5639
102
{ACAD_REACTORS
330
5637
102
}
330
5637
100
AcDbXrecord
280
     1
 40
1.570796326794896
  0
LAYOUT
  5
22
102
{ACAD_XDICTIONARY
360
5608
102
}
102
{ACAD_REACTORS
330
1A
102
}
330
1A
100
AcDbPlotSettings
  1

  2
RICOH imagio Neo 353D RPCS
  4
A3
  6

 40
5.873749732971191
 41
5.873747825622558
 42
5.873748779296875
 43
5.873748779296875
 44
296.9259948730469
 45
419.9466552734374
 46
-5.910751819610595
 47
-5.900420665740966
 48
82.80008844952817
 49
88.90916338651733
140
4282.800088449529
141
3058.909163386517
142
1.0
143
10.0
 70
 11956
 72
     1
 73
     1
 74
     4
  7
monochrome.ctb
 75
    20
147
0.1
148
-82.80008844952817
149
-88.90916338651733
100
AcDbLayout
  1
Model
 70
     1
 71
     0
 10
0.0
 20
0.0
 11
12.0
 21
9.0
 12
0.0
 22
0.0
 32
0.0
 14
0.0
 24
0.0
 34
0.0
 15
0.0
 25
0.0
 35
0.0
146
0.0
 13
0.0
 23
0.0
 33
0.0
 16
1.0
 26
0.0
 36
0.0
 17
0.0
 27
1.0
 37
0.0
 76
     0
330
1F
331
5599
1001
ACAD_PSEXT
1000
RICOH imagio Neo 353D RPCS
1000
RICOH imagio Neo 353D RPCS
1000
IP_200.100.10.111
1000
RPCS Driver (Windows 2000/XP/Server 2003/2008/Vista/7)
1070
     0
  0
LAYOUT
  5
D3
102
{ACAD_XDICTIONARY
360
563C
102
}
102
{ACAD_REACTORS
330
1A
102
}
330
1A
100
AcDbPlotSettings
  1

  2
C:\Documents and Settings\basas\Application Data\Autodesk\AutoCAD 2005\R16.1\enu\plotters\Default Windows System Printer.pc3
  4

  6

 40
0.0
 41
0.0
 42
0.0
 43
0.0
 44
0.0
 45
0.0
 46
0.0
 47
0.0
 48
0.0
 49
0.0
140
0.0
141
0.0
142
1.0
143
1.0
 70
   688
 72
     0
 73
     0
 74
     5
  7
monochrome.ctb
 75
    16
147
1.0
148
0.0
149
0.0
100
AcDbLayout
  1
レイアウト1
 70
     1
 71
     1
 10
0.0
 20
0.0
 11
12.0
 21
9.0
 12
0.0
 22
0.0
 32
0.0
 14
0.0
 24
0.0
 34
0.0
 15
0.0
 25
0.0
 35
0.0
146
0.0
 13
0.0
 23
0.0
 33
0.0
 16
1.0
 26
0.0
 36
0.0
 17
0.0
 27
1.0
 37
0.0
 76
     0
330
D2
  0
LAYOUT
  5
D7
102
{ACAD_XDICTIONARY
360
563E
102
}
102
{ACAD_REACTORS
330
1A
102
}
330
1A
100
AcDbPlotSettings
  1

  2
C:\Documents and Settings\basas\Application Data\Autodesk\AutoCAD 2005\R16.1\enu\plotters\Default Windows System Printer.pc3
  4

  6

 40
0.0
 41
0.0
 42
0.0
 43
0.0
 44
0.0
 45
0.0
 46
0.0
 47
0.0
 48
0.0
 49
0.0
140
0.0
141
0.0
142
1.0
143
1.0
 70
   688
 72
     0
 73
     0
 74
     5
  7
monochrome.ctb
 75
    16
147
1.0
148
0.0
149
0.0
100
AcDbLayout
  1
レイアウト2
 70
     1
 71
     2
 10
0.0
 20
0.0
 11
12.0
 21
9.0
 12
0.0
 22
0.0
 32
0.0
 14
0.0
 24
0.0
 34
0.0
 15
0.0
 25
0.0
 35
0.0
146
0.0
 13
0.0
 23
0.0
 33
0.0
 16
1.0
 26
0.0
 36
0.0
 17
0.0
 27
1.0
 37
0.0
 76
     0
330
D6
  0
MATERIAL
  5
55A3
102
{ACAD_XDICTIONARY
360
55A4
102
}
102
{ACAD_REACTORS
330
6A
102
}
330
6A
100
AcDbMaterial
  1
ByBlock
 72
     0
 43
0.0008202099737533
 43
0.0
 43
0.0
 43
0.0
 43
0.0
 43
0.0008202099737533
 43
0.0
 43
0.0
 43
0.0
 43
0.0
 43
1.0
 43
0.0
 43
0.0
 43
0.0
 43
0.0
 43
1.0
 77
     0
 47
0.0008202099737533
 47
0.0
 47
0.0
 47
0.0
 47
0.0
 47
0.0008202099737533
 47
0.0
 47
0.0
 47
0.0
 47
0.0
 47
1.0
 47
0.0
 47
0.0
 47
0.0
 47
0.0
 47
1.0
171
     0
 49
0.0008202099737533
 49
0.0
 49
0.0
 49
0.0
 49
0.0
 49
0.0008202099737533
 49
0.0
 49
0.0
 49
0.0
 49
0.0
 49
1.0
 49
0.0
 49
0.0
 49
0.0
 49
0.0
 49
1.0
175
     0
142
0.0008202099737533
142
0.0
142
0.0
142
0.0
142
0.0
142
0.0008202099737533
142
0.0
142
0.0
142
0.0
142
0.0
142
1.0
142
0.0
142
0.0
142
0.0
142
0.0
142
1.0
179
     0
144
0.0008202099737533
144
0.0
144
0.0
144
0.0
144
0.0
144
0.0008202099737533
144
0.0
144
0.0
144
0.0
144
0.0
144
1.0
144
0.0
144
0.0
144
0.0
144
0.0
144
1.0
147
0.0008202099737533
147
0.0
147
0.0
147
0.0
147
0.0
147
0.0008202099737533
147
0.0
147
0.0
147
0.0
147
0.0
147
1.0
147
0.0
147
0.0
147
0.0
147
0.0
147
1.0
  0
MATERIAL
  5
559B
102
{ACAD_XDICTIONARY
360
559C
102
}
102
{ACAD_REACTORS
330
6A
102
}
330
6A
100
AcDbMaterial
  1
ByLayer
 72
     0
 43
0.0008202099737533
 43
0.0
 43
0.0
 43
0.0
 43
0.0
 43
0.0008202099737533
 43
0.0
 43
0.0
 43
0.0
 43
0.0
 43
1.0
 43
0.0
 43
0.0
 43
0.0
 43
0.0
 43
1.0
 77
     0
 47
0.0008202099737533
 47
0.0
 47
0.0
 47
0.0
 47
0.0
 47
0.0008202099737533
 47
0.0
 47
0.0
 47
0.0
 47
0.0
 47
1.0
 47
0.0
 47
0.0
 47
0.0
 47
0.0
 47
1.0
171
     0
 49
0.0008202099737533
 49
0.0
 49
0.0
 49
0.0
 49
0.0
 49
0.0008202099737533
 49
0.0
 49
0.0
 49
0.0
 49
0.0
 49
1.0
 49
0.0
 49
0.0
 49
0.0
 49
0.0
 49
1.0
175
     0
142
0.0008202099737533
142
0.0
142
0.0
142
0.0
142
0.0
142
0.0008202099737533
142
0.0
142
0.0
142
0.0
142
0.0
142
1.0
142
0.0
142
0.0
142
0.0
142
0.0
142
1.0
179
     0
144
0.0008202099737533
144
0.0
144
0.0
144
0.0
144
0.0
144
0.0008202099737533
144
0.0
144
0.0
144
0.0
144
0.0
144
1.0
144
0.0
144
0.0
144
0.0
144
0.0
144
1.0
147
0.0008202099737533
147
0.0
147
0.0
147
0.0
147
0.0
147
0.0008202099737533
147
0.0
147
0.0
147
0.0
147
0.0
147
1.0
147
0.0
147
0.0
147
0.0
147
0.0
147
1.0
  0
MATERIAL
  5
55AB
102
{ACAD_XDICTIONARY
360
55AC
102
}
102
{ACAD_REACTORS
330
6A
102
}
330
6A
100
AcDbMaterial
  1
Global
 72
     0
 43
0.0008202099737533
 43
0.0
 43
0.0
 43
0.0
 43
0.0
 43
0.0008202099737533
 43
0.0
 43
0.0
 43
0.0
 43
0.0
 43
1.0
 43
0.0
 43
0.0
 43
0.0
 43
0.0
 43
1.0
 77
     0
 47
0.0008202099737533
 47
0.0
 47
0.0
 47
0.0
 47
0.0
 47
0.0008202099737533
 47
0.0
 47
0.0
 47
0.0
 47
0.0
 47
1.0
 47
0.0
 47
0.0
 47
0.0
 47
0.0
 47
1.0
171
     0
 49
0.0008202099737533
 49
0.0
 49
0.0
 49
0.0
 49
0.0
 49
0.0008202099737533
 49
0.0
 49
0.0
 49
0.0
 49
0.0
 49
1.0
 49
0.0
 49
0.0
 49
0.0
 49
0.0
 49
1.0
175
     0
142
0.0008202099737533
142
0.0
142
0.0
142
0.0
142
0.0
142
0.0008202099737533
142
0.0
142
0.0
142
0.0
142
0.0
142
1.0
142
0.0
142
0.0
142
0.0
142
0.0
142
1.0
179
     0
144
0.0008202099737533
144
0.0
144
0.0
144
0.0
144
0.0
144
0.0008202099737533
144
0.0
144
0.0
144
0.0
144
0.0
144
1.0
144
0.0
144
0.0
144
0.0
144
0.0
144
1.0
147
0.0008202099737533
147
0.0
147
0.0
147
0.0
147
0.0
147
0.0008202099737533
147
0.0
147
0.0
147
0.0
147
0.0
147
1.0
147
0.0
147
0.0
147
0.0
147
0.0
147
1.0
  0
MLEADERSTYLE
  5
55DF
102
{ACAD_XDICTIONARY
360
5633
102
}
102
{ACAD_REACTORS
330
55DE
102
}
330
55DE
100
AcDbMLeaderStyle
170
     2
171
     1
172
     0
 90
        2
 40
0.0
 41
0.0
173
     1
 91
-1056964608
340
14
 92
       -2
290
     1
 42
2.0
291
     1
 43
0.36
  3
Standard
 44
4.0
300

342
11
174
     1
178
     6
175
     1
176
     0
 93
-1056964608
 45
4.0
292
     0
297
     0
 46
4.0
 94
-1056964608
 47
1.0
 49
1.0
140
1.0
293
     1
141
0.0
294
     1
177
     0
142
1.0
295
     0
296
     0
143
0.125
1001
ACAD_MLEADERVER
1070
     2
  0
MLINESTYLE
  5
18
102
{ACAD_REACTORS
330
17
102
}
330
17
100
AcDbMlineStyle
  2
STANDARD
 70
     0
  3

 62
   256
 51
90.0
 52
90.0
 71
     2
 49
0.5
 62
   256
  6
BYLAYER
 49
-0.5
 62
   256
  6
BYLAYER
  0
ACDBPLACEHOLDER
  5
F
102
{ACAD_REACTORS
330
E
102
}
330
E
  0
SCALE
  5
55CD
102
{ACAD_REACTORS
330
55CC
102
}
330
55CC
100
AcDbScale
 70
     0
300
1:1
140
1.0
141
1.0
290
     1
  0
SCALE
  5
55CE
102
{ACAD_REACTORS
330
55CC
102
}
330
55CC
100
AcDbScale
 70
     0
300
1:2
140
1.0
141
2.0
290
     0
  0
SCALE
  5
55CF
102
{ACAD_REACTORS
330
55CC
102
}
330
55CC
100
AcDbScale
 70
     0
300
1:4
140
1.0
141
4.0
290
     0
  0
SCALE
  5
55D0
102
{ACAD_REACTORS
330
55CC
102
}
330
55CC
100
AcDbScale
 70
     0
300
1:5
140
1.0
141
5.0
290
     0
  0
SCALE
  5
55D1
102
{ACAD_REACTORS
330
55CC
102
}
330
55CC
100
AcDbScale
 70
     0
300
1:8
140
1.0
141
8.0
290
     0
  0
SCALE
  5
55D2
102
{ACAD_REACTORS
330
55CC
102
}
330
55CC
100
AcDbScale
 70
     0
300
1:10
140
1.0
141
10.0
290
     0
  0
SCALE
  5
55D3
102
{ACAD_REACTORS
330
55CC
102
}
330
55CC
100
AcDbScale
 70
     0
300
1:16
140
1.0
141
16.0
290
     0
  0
SCALE
  5
55D4
102
{ACAD_REACTORS
330
55CC
102
}
330
55CC
100
AcDbScale
 70
     0
300
1:20
140
1.0
141
20.0
290
     0
  0
SCALE
  5
55D5
102
{ACAD_REACTORS
330
55CC
102
}
330
55CC
100
AcDbScale
 70
     0
300
1:30
140
1.0
141
30.0
290
     0
  0
SCALE
  5
55D6
102
{ACAD_REACTORS
330
55CC
102
}
330
55CC
100
AcDbScale
 70
     0
300
1:40
140
1.0
141
40.0
290
     0
  0
SCALE
  5
55D7
102
{ACAD_REACTORS
330
55CC
102
}
330
55CC
100
AcDbScale
 70
     0
300
1:50
140
1.0
141
50.0
290
     0
  0
SCALE
  5
55D8
102
{ACAD_REACTORS
330
55CC
102
}
330
55CC
100
AcDbScale
 70
     0
300
1:100
140
1.0
141
100.0
290
     0
  0
SCALE
  5
55D9
102
{ACAD_REACTORS
330
55CC
102
}
330
55CC
100
AcDbScale
 70
     0
300
2:1
140
2.0
141
1.0
290
     0
  0
SCALE
  5
55DA
102
{ACAD_REACTORS
330
55CC
102
}
330
55CC
100
AcDbScale
 70
     0
300
4:1
140
4.0
141
1.0
290
     0
  0
SCALE
  5
55DB
102
{ACAD_REACTORS
330
55CC
102
}
330
55CC
100
AcDbScale
 70
     0
300
8:1
140
8.0
141
1.0
290
     0
  0
SCALE
  5
55DC
102
{ACAD_REACTORS
330
55CC
102
}
330
55CC
100
AcDbScale
 70
     0
300
10:1
140
10.0
141
1.0
290
     0
  0
SCALE
  5
55DD
102
{ACAD_REACTORS
330
55CC
102
}
330
55CC
100
AcDbScale
 70
     0
300
100:1
140
100.0
141
1.0
290
     0
  0
TABLESTYLE
  5
7F
102
{ACAD_XDICTIONARY
360
5631
102
}
102
{ACAD_REACTORS
330
7E
102
}
330
7E
100
AcDbTableStyle
  3
Standard
 70
     0
 71
     0
 40
1.5
 41
1.5
280
     0
281
     0
  7
Standard
140
4.5
170
     2
 62
     0
 63
     7
283
     0
274
    -2
284
     1
 64
     0
275
    -2
285
     1
 65
     0
276
    -2
286
     1
 66
     0
277
    -2
287
     1
 67
     0
278
    -2
288
     1
 68
     0
279
    -2
289
     1
 69
     0
  7
Standard
140
6.0
170
     5
 62
     0
 63
     7
283
     0
274
    -2
284
     1
 64
     0
275
    -2
285
     1
 65
     0
276
    -2
286
     1
 66
     0
277
    -2
287
     1
 67
     0
278
    -2
288
     1
 68
     0
279
    -2
289
     1
 69
     0
  7
Standard
140
4.5
170
     5
 62
     0
 63
     7
283
     0
274
    -2
284
     1
 64
     0
275
    -2
285
     1
 65
     0
276
    -2
286
     1
 66
     0
277
    -2
287
     1
 67
     0
278
    -2
288
     1
 68
     0
279
    -2
289
     1
 69
     0
  0
VISUALSTYLE
  5
55B9
102
{ACAD_XDICTIONARY
360
564D
102
}
102
{ACAD_REACTORS
330
55B3
102
}
330
55B3
100
AcDbVisualStyle
  2
2dWireframe
 70
     4
 71
     0
 72
     2
 73
     0
 90
        0
 40
-0.6
 41
-30.0
 62
     5
 63
     7
 74
     1
 91
        4
 64
     7
 65
   257
 75
     1
175
     1
 42
1.0
 92
        0
 66
   257
 43
1.0
 76
     1
 77
     6
 78
     2
 67
     7
 79
     5
170
     0
171
     0
290
     0
174
     0
 93
        1
 44
0.0
173
     0
291
     0
 45
0.0
1001
ACAD
1000
AcDbSavedByObjectVersion
1070
     0
  0
VISUALSTYLE
  5
55B8
102
{ACAD_XDICTIONARY
360
564B
102
}
102
{ACAD_REACTORS
330
55B3
102
}
330
55B3
100
AcDbVisualStyle
  2
Basic
 70
     7
 71
     1
 72
     0
 73
     1
 90
        0
 40
-0.6
 41
-30.0
 62
     5
 63
     7
 74
     0
 91
        4
 64
     7
 65
   257
 75
     1
175
     1
 42
1.0
 92
        8
 66
     7
 43
1.0
 76
     1
 77
     6
 78
     2
 67
     7
 79
     5
170
     0
171
     0
290
     0
174
     0
 93
        1
 44
0.0
173
     0
291
     1
 45
0.0
1001
ACAD
1000
AcDbSavedByObjectVersion
1070
     0
  0
VISUALSTYLE
  5
55BF
102
{ACAD_XDICTIONARY
360
5659
102
}
102
{ACAD_REACTORS
330
55B3
102
}
330
55B3
100
AcDbVisualStyle
  2
Brighten
 70
    12
 71
     2
 72
     2
 73
     0
 90
        0
 40
-0.6
 41
-30.0
 62
     5
 63
     7
 74
     1
 91
        4
 64
     7
 65
   257
 75
     1
175
     1
 42
1.0
 92
        8
 66
     7
 43
1.0
 76
     1
 77
     6
 78
     2
 67
     7
 79
     5
170
     0
171
     0
290
     0
174
     0
 93
        1
 44
50.0
173
     0
291
     1
 45
0.0
1001
ACAD
1000
AcDbSavedByObjectVersion
1070
     0
  0
VISUALSTYLE
  5
55C3
102
{ACAD_XDICTIONARY
360
5661
102
}
102
{ACAD_REACTORS
330
55B3
102
}
330
55B3
100
AcDbVisualStyle
  2
ColorChange
 70
    16
 71
     2
 72
     2
 73
     3
 90
        0
 40
-0.6
 41
-30.0
 62
     5
 63
     8
 74
     1
 91
        4
 64
     7
 65
   257
 75
     1
175
     1
 42
1.0
 92
        8
 66
     8
 43
1.0
 76
     1
 77
     6
 78
     2
 67
     7
 79
     5
170
     0
171
     0
290
     0
174
     0
 93
        1
 44
0.0
173
     0
291
     1
 45
0.0
1001
ACAD
1000
AcDbSavedByObjectVersion
1070
     0
  0
VISUALSTYLE
  5
55BC
102
{ACAD_XDICTIONARY
360
5653
102
}
102
{ACAD_REACTORS
330
55B3
102
}
330
55B3
100
AcDbVisualStyle
  2
Conceptual
 70
     9
 71
     3
 72
     2
 73
     0
 90
        0
 40
-0.6
 41
-30.0
 62
     5
 63
     7
 74
     2
 91
        2
 64
     7
 65
   257
 75
     1
175
     1
 42
179.0
 92
        8
 66
     7
 43
1.0
 76
     1
 77
     6
 78
     2
 67
     7
 79
     3
170
     0
171
     0
290
     0
174
     0
 93
        1
 44
0.0
173
     0
291
     0
 45
0.0
1001
ACAD
1000
AcDbSavedByObjectVersion
1070
     0
  0
VISUALSTYLE
  5
55BE
102
{ACAD_XDICTIONARY
360
5657
102
}
102
{ACAD_REACTORS
330
55B3
102
}
330
55B3
100
AcDbVisualStyle
  2
Dim
 70
    11
 71
     2
 72
     2
 73
     0
 90
        0
 40
-0.6
 41
-30.0
 62
     5
 63
     7
 74
     1
 91
        4
 64
     7
 65
   257
 75
     1
175
     1
 42
1.0
 92
        8
 66
     7
 43
1.0
 76
     1
 77
     6
 78
     2
 67
     7
 79
     5
170
     0
171
     0
290
     0
174
     0
 93
        1
 44
-50.0
173
     0
291
     1
 45
0.0
1001
ACAD
1000
AcDbSavedByObjectVersion
1070
     0
  0
VISUALSTYLE
  5
55CB
102
{ACAD_XDICTIONARY
360
5671
102
}
102
{ACAD_REACTORS
330
55B3
102
}
330
55B3
100
AcDbVisualStyle
  2
EdgeColorOff
 70
    22
 71
     2
 72
     2
 73
     0
 90
        0
 40
-0.6
 41
-30.0
 62
     5
 63
     7
 74
     1
 91
        4
 64
     7
 65
   257
 75
     1
175
     1
 42
1.0
 92
        8
 66
     7
 43
1.0
 76
     1
 77
     6
 78
     2
 67
     7
 79
     5
170
     0
171
     0
290
     0
174
     0
 93
        1
 44
0.0
173
     0
291
     1
 45
0.0
1001
ACAD
1000
AcDbSavedByObjectVersion
1070
     0
  0
VISUALSTYLE
  5
55C2
102
{ACAD_XDICTIONARY
360
565F
102
}
102
{ACAD_REACTORS
330
55B3
102
}
330
55B3
100
AcDbVisualStyle
  2
Facepattern
 70
    15
 71
     2
 72
     2
 73
     0
 90
        0
 40
-0.6
 41
-30.0
 62
     5
 63
     7
 74
     1
 91
        4
 64
     7
 65
   257
 75
     1
175
     1
 42
1.0
 92
        8
 66
     7
 43
1.0
 76
     1
 77
     6
 78
     2
 67
     7
 79
     5
170
     0
171
     0
290
     0
174
     0
 93
        1
 44
0.0
173
     0
291
     1
 45
0.0
1001
ACAD
1000
AcDbSavedByObjectVersion
1070
     0
  0
VISUALSTYLE
  5
55B4
102
{ACAD_XDICTIONARY
360
5643
102
}
102
{ACAD_REACTORS
330
55B3
102
}
330
55B3
100
AcDbVisualStyle
  2
Flat
 70
     0
 71
     2
 72
     1
 73
     1
 90
        2
 40
-0.6
 41
30.0
 62
     5
 63
     7
 74
     0
 91
        0
 64
     7
 65
   257
 75
     1
175
     1
 42
1.0
 92
        8
 66
     7
 43
1.0
 76
     1
 77
     6
 78
     2
 67
     7
 79
     5
170
     0
171
     0
290
     0
174
     0
 93
       13
 44
0.0
173
     0
291
     1
 45
0.0
1001
ACAD
1000
AcDbSavedByObjectVersion
1070
     0
  0
VISUALSTYLE
  5
55B5
102
{ACAD_XDICTIONARY
360
5645
102
}
102
{ACAD_REACTORS
330
55B3
102
}
330
55B3
100
AcDbVisualStyle
  2
FlatWithEdges
 70
     1
 71
     2
 72
     1
 73
     1
 90
        2
 40
-0.6
 41
30.0
 62
     5
 63
     7
 74
     1
 91
        0
 64
     7
 65
   257
 75
     1
175
     1
 42
1.0
 92
        0
 66
   257
 43
1.0
 76
     1
 77
     6
 78
     2
 67
     7
 79
     5
170
     0
171
     0
290
     0
174
     0
 93
       13
 44
0.0
173
     0
291
     1
 45
0.0
1001
ACAD
1000
AcDbSavedByObjectVersion
1070
     0
  0
VISUALSTYLE
  5
55B6
102
{ACAD_XDICTIONARY
360
5647
102
}
102
{ACAD_REACTORS
330
55B3
102
}
330
55B3
100
AcDbVisualStyle
  2
Gouraud
 70
     2
 71
     2
 72
     2
 73
     1
 90
        2
 40
-0.6
 41
30.0
 62
     5
 63
     7
 74
     0
 91
        0
 64
     7
 65
   257
 75
     1
175
     1
 42
1.0
 92
        0
 66
     7
 43
1.0
 76
     1
 77
     6
 78
     2
 67
     7
 79
     5
170
     0
171
     0
290
     0
174
     0
 93
       13
 44
0.0
173
     0
291
     1
 45
0.0
1001
ACAD
1000
AcDbSavedByObjectVersion
1070
     0
  0
VISUALSTYLE
  5
55B7
102
{ACAD_XDICTIONARY
360
5649
102
}
102
{ACAD_REACTORS
330
55B3
102
}
330
55B3
100
AcDbVisualStyle
  2
GouraudWithEdges
 70
     3
 71
     2
 72
     2
 73
     1
 90
        2
 40
-0.6
 41
30.0
 62
     5
 63
     7
 74
     1
 91
        0
 64
     7
 65
   257
 75
     1
175
     1
 42
1.0
 92
        0
 66
   257
 43
1.0
 76
     1
 77
     6
 78
     2
 67
     7
 79
     5
170
     0
171
     0
290
     0
174
     0
 93
       13
 44
0.0
173
     0
291
     1
 45
0.0
1001
ACAD
1000
AcDbSavedByObjectVersion
1070
     0
  0
VISUALSTYLE
  5
55BB
102
{ACAD_XDICTIONARY
360
5651
102
}
102
{ACAD_REACTORS
330
55B3
102
}
330
55B3
100
AcDbVisualStyle
  2
Hidden
 70
     6
 71
     1
 72
     2
 73
     2
 90
        0
 40
-0.6
 41
-30.0
 62
     5
 63
     7
 74
     2
 91
        2
 64
     7
 65
   257
 75
     2
175
     1
 42
40.0
 92
        0
 66
   257
 43
1.0
 76
     1
 77
     6
 78
     2
 67
     7
 79
     3
170
     0
171
     0
290
     0
174
     0
 93
        1
 44
0.0
173
     0
291
     0
 45
0.0
1001
ACAD
1000
AcDbSavedByObjectVersion
1070
     0
  0
VISUALSTYLE
  5
55C9
102
{ACAD_XDICTIONARY
360
566D
102
}
102
{ACAD_REACTORS
330
55B3
102
}
330
55B3
100
AcDbVisualStyle
  2
JitterOff
 70
    20
 71
     2
 72
     2
 73
     0
 90
        0
 40
-0.6
 41
-30.0
 62
     5
 63
     7
 74
     1
 91
        4
 64
     7
 65
   257
 75
     1
175
     1
 42
1.0
 92
       10
 66
     7
 43
1.0
 76
     1
 77
     6
 78
     2
 67
     7
 79
     5
170
     0
171
     0
290
     0
174
     0
 93
        1
 44
0.0
173
     0
291
     1
 45
0.0
1001
ACAD
1000
AcDbSavedByObjectVersion
1070
     0
  0
VISUALSTYLE
  5
55C1
102
{ACAD_XDICTIONARY
360
565D
102
}
102
{ACAD_REACTORS
330
55B3
102
}
330
55B3
100
AcDbVisualStyle
  2
Linepattern
 70
    14
 71
     2
 72
     2
 73
     0
 90
        0
 40
-0.6
 41
-30.0
 62
     5
 63
     7
 74
     1
 91
        4
 64
     7
 65
   257
 75
     7
175
     7
 42
1.0
 92
        8
 66
     7
 43
1.0
 76
     1
 77
     6
 78
     2
 67
     7
 79
     5
170
     0
171
     0
290
     0
174
     0
 93
        1
 44
0.0
173
     0
291
     1
 45
0.0
1001
ACAD
1000
AcDbSavedByObjectVersion
1070
     0
  0
VISUALSTYLE
  5
55CA
102
{ACAD_XDICTIONARY
360
566F
102
}
102
{ACAD_REACTORS
330
55B3
102
}
330
55B3
100
AcDbVisualStyle
  2
OverhangOff
 70
    21
 71
     2
 72
     2
 73
     0
 90
        0
 40
-0.6
 41
-30.0
 62
     5
 63
     7
 74
     1
 91
        4
 64
     7
 65
   257
 75
     1
175
     1
 42
1.0
 92
        9
 66
     7
 43
1.0
 76
     1
 77
     6
 78
     2
 67
     7
 79
     5
170
     0
171
     0
290
     0
174
     0
 93
        1
 44
0.0
173
     0
291
     1
 45
0.0
1001
ACAD
1000
AcDbSavedByObjectVersion
1070
     0
  0
VISUALSTYLE
  5
55BD
102
{ACAD_XDICTIONARY
360
5655
102
}
102
{ACAD_REACTORS
330
55B3
102
}
330
55B3
100
AcDbVisualStyle
  2
Realistic
 70
     8
 71
     2
 72
     3
 73
     0
 90
        2
 40
-0.6
 41
30.0
 62
     5
 63
     7
 74
     0
 91
        0
 64
     7
 65
   257
 75
     1
175
     1
 42
1.0
 92
        8
 66
   257
 43
1.0
 76
     1
 77
     6
 78
     2
 67
     7
 79
     3
170
     0
171
     0
290
     0
174
     0
 93
       13
 44
0.0
173
     0
291
     0
 45
0.0
1001
ACAD
1000
AcDbSavedByObjectVersion
1070
     0
  0
VISUALSTYLE
  5
55C8
102
{ACAD_XDICTIONARY
360
566B
102
}
102
{ACAD_REACTORS
330
55B3
102
}
330
55B3
100
AcDbVisualStyle
  2
Shaded
 70
    27
 71
     2
 72
     2
 73
     1
 90
        2
 40
-0.6
 41
30.0
 62
     5
 63
     7
 74
     0
 91
        4
 64
     7
 65
   257
 75
     1
175
     1
 42
1.0
 92
        8
 66
   257
 43
1.0
 76
     1
 77
     6
 78
     2
 67
     8
 79
     3
170
     0
171
     0
290
     0
174
     0
 93
        5
 44
0.0
173
     0
291
     0
 45
0.0
1001
ACAD
1000
AcDbSavedByObjectVersion
1070
     0
  0
VISUALSTYLE
  5
55C7
102
{ACAD_XDICTIONARY
360
5669
102
}
102
{ACAD_REACTORS
330
55B3
102
}
330
55B3
100
AcDbVisualStyle
  2
Shaded with edges
 70
    26
 71
     2
 72
     2
 73
     1
 90
        2
 40
-0.6
 41
30.0
 62
     5
 63
     7
 74
     1
 91
       10
 64
     7
 65
   257
 75
     2
175
     1
 42
1.0
 92
        8
 66
   257
 43
1.0
 76
     1
 77
     6
 78
     2
 67
     7
 79
     3
170
     0
171
     0
290
     0
174
     0
 93
        5
 44
0.0
173
     0
291
     0
 45
0.0
1001
ACAD
1000
AcDbSavedByObjectVersion
1070
     0
  0
VISUALSTYLE
  5
55C4
102
{ACAD_XDICTIONARY
360
5663
102
}
102
{ACAD_REACTORS
330
55B3
102
}
330
55B3
100
AcDbVisualStyle
  2
Shades of Gray
 70
    23
 71
     2
 72
     2
 73
     3
 90
        0
 40
-0.6
 41
-30.0
 62
     5
 63
     7
 74
     2
 91
        2
 64
     7
 65
     7
 75
     1
175
     1
 42
40.0
 92
        8
 66
     7
 43
1.0
 76
     1
 77
     6
 78
     2
 67
     7
 79
     3
170
     0
171
     0
290
     0
174
     0
 93
        1
 44
0.0
173
     0
291
     0
 45
0.0
1001
ACAD
1000
AcDbSavedByObjectVersion
1070
     0
  0
VISUALSTYLE
  5
55C5
102
{ACAD_XDICTIONARY
360
5665
102
}
102
{ACAD_REACTORS
330
55B3
102
}
330
55B3
100
AcDbVisualStyle
  2
Sketchy
 70
    24
 71
     1
 72
     2
 73
     2
 90
        0
 40
-0.6
 41
-30.0
 62
     5
 63
     7
 74
     2
 91
        2
 64
     7
 65
     7
 75
     1
175
     1
 42
40.0
 92
       11
 66
     7
 43
1.0
 76
     1
 77
     6
 78
     2
 67
     7
 79
     6
170
     0
171
     0
290
     0
174
     0
 93
        1
 44
0.0
173
     0
291
     0
 45
0.0
1001
ACAD
1000
AcDbSavedByObjectVersion
1070
     0
  0
VISUALSTYLE
  5
55C0
102
{ACAD_XDICTIONARY
360
565B
102
}
102
{ACAD_REACTORS
330
55B3
102
}
330
55B3
100
AcDbVisualStyle
  2
Thicken
 70
    13
 71
     2
 72
     2
 73
     0
 90
        0
 40
-0.6
 41
-30.0
 62
     5
 63
     7
 74
     1
 91
        4
 64
     7
 65
   257
 75
     1
175
     1
 42
1.0
 92
       12
 66
     7
 43
1.0
 76
     1
 77
     6
 78
     2
 67
     7
 79
     5
170
     0
171
     0
290
     0
174
     0
 93
        1
 44
0.0
173
     0
291
     1
 45
0.0
1001
ACAD
1000
AcDbSavedByObjectVersion
1070
     0
  0
VISUALSTYLE
  5
55BA
102
{ACAD_XDICTIONARY
360
564F
102
}
102
{ACAD_REACTORS
330
55B3
102
}
330
55B3
100
AcDbVisualStyle
  2
Wireframe
 70
     5
 71
     0
 72
     2
 73
     0
 90
        0
 40
-0.6
 41
-30.0
 62
     5
 63
     7
 74
     1
 91
        4
 64
     7
 65
   257
 75
     1
175
     1
 42
1.0
 92
        0
 66
   257
 43
1.0
 76
     1
 77
     6
 78
     2
 67
     7
 79
     3
170
     0
171
     0
290
     0
174
     0
 93
        1
 44
0.0
173
     0
291
     0
 45
0.0
1001
ACAD
1000
AcDbSavedByObjectVersion
1070
     0
  0
VISUALSTYLE
  5
55C6
102
{ACAD_XDICTIONARY
360
5667
102
}
102
{ACAD_REACTORS
330
55B3
102
}
330
55B3
100
AcDbVisualStyle
  2
X-Ray
 70
    25
 71
     2
 72
     2
 73
     1
 90
        1
 40
0.5
 41
-30.0
 62
     5
 63
     7
 74
     1
 91
        0
 64
     7
 65
   257
 75
     1
175
     1
 42
1.0
 92
        8
 66
     7
 43
1.0
 76
     1
 77
     6
 78
     2
 67
     7
 79
     3
170
     0
171
     0
290
     0
174
     0
 93
       13
 44
0.0
173
     0
291
     0
 45
0.0
1001
ACAD
1000
AcDbSavedByObjectVersion
1070
     0
  0
DICTIONARYVAR
  5
560F
102
{ACAD_REACTORS
330
5E
102
}
330
5E
100
DictionaryVariables
280
     0
  1
1:1
  0
DICTIONARYVAR
  5
560D
102
{ACAD_REACTORS
330
5E
102
}
330
5E
100
DictionaryVariables
280
     0
  1
STANDARD
  0
DICTIONARYVAR
  5
84
102
{ACAD_REACTORS
330
5E
102
}
330
5E
100
DictionaryVariables
280
     0
  1
STANDARD
  0
DICTIONARYVAR
  5
5F
102
{ACAD_REACTORS
330
5E
102
}
330
5E
100
DictionaryVariables
280
     0
  1
2
  0
DICTIONARYVAR
  5
63
102
{ACAD_REACTORS
330
5E
102
}
330
5E
100
DictionaryVariables
280
     0
  1
1
  0
DICTIONARYVAR
  5
562F
102
{ACAD_REACTORS
330
5E
102
}
330
5E
100
DictionaryVariables
280
     0
  1
0
  0
DICTIONARYVAR
  5
5611
102
{ACAD_REACTORS
330
5E
102
}
330
5E
100
DictionaryVariables
280
     0
  1
1
  0
DICTIONARYVAR
  5
5612
102
{ACAD_REACTORS
330
5E
102
}
330
5E
100
DictionaryVariables
280
     0
  1
15
  0
DICTIONARYVAR
  5
5610
102
{ACAD_REACTORS
330
5E
102
}
330
5E
100
DictionaryVariables
280
     0
  1
0
  0
DICTIONARYVAR
  5
560E
102
{ACAD_REACTORS
330
5E
102
}
330
5E
100
DictionaryVariables
280
     0
  1
0
  0
DICTIONARYVAR
  5
562E
102
{ACAD_REACTORS
330
5E
102
}
330
5E
100
DictionaryVariables
280
     0
  1
127
  0
DICTIONARYVAR
  5
5630
102
{ACAD_REACTORS
330
5E
102
}
330
5E
100
DictionaryVariables
280
     0
  1
0
  0
DICTIONARY
  5
5608
330
22
100
AcDbDictionary
280
     1
281
     1
  3
ACAD_XREC_ROUNDTRIP
360
563A
  3
ADSK_XREC_LAYOUTTHUMBNAIL
360
5609
  0
DICTIONARY
  5
563C
330
D3
100
AcDbDictionary
280
     1
281
     1
  3
ACAD_XREC_ROUNDTRIP
360
563D
  0
DICTIONARY
  5
563E
330
D7
100
AcDbDictionary
280
     1
281
     1
  3
ACAD_XREC_ROUNDTRIP
360
563F
  0
DICTIONARY
  5
55A4
330
55A3
100
AcDbDictionary
280
     1
281
     1
  3
ACAD_XREC_ROUNDTRIP
360
5641
  3
BUMPTILE
360
55A6
  3
DIFFUSETILE
360
55A5
  3
OPACITYTILE
360
55A9
  3
REFLECTIONTILE
360
55A8
  3
REFRACTIONTILE
360
55AA
  3
SPECULARTILE
360
55A7
  0
DICTIONARY
  5
559C
330
559B
100
AcDbDictionary
280
     1
281
     1
  3
ACAD_XREC_ROUNDTRIP
360
5640
  3
BUMPTILE
360
559E
  3
DIFFUSETILE
360
559D
  3
OPACITYTILE
360
55A1
  3
REFLECTIONTILE
360
55A0
  3
REFRACTIONTILE
360
55A2
  3
SPECULARTILE
360
559F
  0
DICTIONARY
  5
55AC
330
55AB
100
AcDbDictionary
280
     1
281
     1
  3
ACAD_XREC_ROUNDTRIP
360
5642
  3
BUMPTILE
360
55AE
  3
DIFFUSETILE
360
55AD
  3
OPACITYTILE
360
55B1
  3
REFLECTIONTILE
360
55B0
  3
REFRACTIONTILE
360
55B2
  3
SPECULARTILE
360
55AF
  0
DICTIONARY
  5
5633
330
55DF
100
AcDbDictionary
280
     1
281
     1
  3
ACAD_XREC_ROUNDTRIP
360
5634
  0
DICTIONARY
  5
5631
330
7F
100
AcDbDictionary
280
     1
281
     1
  3
ACAD_ROUNDTRIP_2008_TABLESTYLE_CELLSTYLEMAP
360
5632
  3
ACAD_XREC_ROUNDTRIP
360
563B
  0
DICTIONARY
  5
564D
330
55B9
100
AcDbDictionary
280
     1
281
     1
  3
ACAD_XREC_ROUNDTRIP
360
564E
  0
DICTIONARY
  5
564B
330
55B8
100
AcDbDictionary
280
     1
281
     1
  3
ACAD_XREC_ROUNDTRIP
360
564C
  0
DICTIONARY
  5
5659
330
55BF
100
AcDbDictionary
280
     1
281
     1
  3
ACAD_XREC_ROUNDTRIP
360
565A
  0
DICTIONARY
  5
5661
330
55C3
100
AcDbDictionary
280
     1
281
     1
  3
ACAD_XREC_ROUNDTRIP
360
5662
  0
DICTIONARY
  5
5653
330
55BC
100
AcDbDictionary
280
     1
281
     1
  3
ACAD_XREC_ROUNDTRIP
360
5654
  0
DICTIONARY
  5
5657
330
55BE
100
AcDbDictionary
280
     1
281
     1
  3
ACAD_XREC_ROUNDTRIP
360
5658
  0
DICTIONARY
  5
5671
330
55CB
100
AcDbDictionary
280
     1
281
     1
  3
ACAD_XREC_ROUNDTRIP
360
5672
  0
DICTIONARY
  5
565F
330
55C2
100
AcDbDictionary
280
     1
281
     1
  3
ACAD_XREC_ROUNDTRIP
360
5660
  0
DICTIONARY
  5
5643
330
55B4
100
AcDbDictionary
280
     1
281
     1
  3
ACAD_XREC_ROUNDTRIP
360
5644
  0
DICTIONARY
  5
5645
330
55B5
100
AcDbDictionary
280
     1
281
     1
  3
ACAD_XREC_ROUNDTRIP
360
5646
  0
DICTIONARY
  5
5647
330
55B6
100
AcDbDictionary
280
     1
281
     1
  3
ACAD_XREC_ROUNDTRIP
360
5648
  0
DICTIONARY
  5
5649
330
55B7
100
AcDbDictionary
280
     1
281
     1
  3
ACAD_XREC_ROUNDTRIP
360
564A
  0
DICTIONARY
  5
5651
330
55BB
100
AcDbDictionary
280
     1
281
     1
  3
ACAD_XREC_ROUNDTRIP
360
5652
  0
DICTIONARY
  5
566D
330
55C9
100
AcDbDictionary
280
     1
281
     1
  3
ACAD_XREC_ROUNDTRIP
360
566E
  0
DICTIONARY
  5
565D
330
55C1
100
AcDbDictionary
280
     1
281
     1
  3
ACAD_XREC_ROUNDTRIP
360
565E
  0
DICTIONARY
  5
566F
330
55CA
100
AcDbDictionary
280
     1
281
     1
  3
ACAD_XREC_ROUNDTRIP
360
5670
  0
DICTIONARY
  5
5655
330
55BD
100
AcDbDictionary
280
     1
281
     1
  3
ACAD_XREC_ROUNDTRIP
360
5656
  0
DICTIONARY
  5
566B
330
55C8
100
AcDbDictionary
280
     1
281
     1
  3
ACAD_XREC_ROUNDTRIP
360
566C
  0
DICTIONARY
  5
5669
330
55C7
100
AcDbDictionary
280
     1
281
     1
  3
ACAD_XREC_ROUNDTRIP
360
566A
  0
DICTIONARY
  5
5663
330
55C4
100
AcDbDictionary
280
     1
281
     1
  3
ACAD_XREC_ROUNDTRIP
360
5664
  0
DICTIONARY
  5
5665
330
55C5
100
AcDbDictionary
280
     1
281
     1
  3
ACAD_XREC_ROUNDTRIP
360
5666
  0
DICTIONARY
  5
565B
330
55C0
100
AcDbDictionary
280
     1
281
     1
  3
ACAD_XREC_ROUNDTRIP
360
565C
  0
DICTIONARY
  5
564F
330
55BA
100
AcDbDictionary
280
     1
281
     1
  3
ACAD_XREC_ROUNDTRIP
360
5650
  0
DICTIONARY
  5
5667
330
55C6
100
AcDbDictionary
280
     1
281
     1
  3
ACAD_XREC_ROUNDTRIP
360
5668
  0
XRECORD
  5
563A
102
{ACAD_REACTORS
330
5608
102
}
330
5608
100
AcDbXrecord
280
     1
102
SHADEPLOT
 70
     0
102
SHADEPLOTRESLEVEL
 70
     2
102
SHADEPLOTCUSTOMDPI
 70
   300
  0
XRECORD
  5
5609
102
{ACAD_REACTORS
330
5608
102
}
330
5608
100
AcDbXrecord
280
     1
310
28000000000100009E0000000100080000000000009E0000000000000000000000010000000000003028210000000000C8C8C8000000000000000000000000000000000000000000000000000000000000000000330000006600000099000000CC000000FF00000000330000333300006633000099330000CC330000FF3300
310
0000660000336600006666000099660000CC660000FF66000000990000339900006699000099990000CC990000FF99000000CC000033CC000066CC000099CC0000CCCC0000FFCC000000FF000033FF000066FF000099FF0000CCFF0000FFFF000000003300330033006600330099003300CC003300FF003300003333003333
310
33006633330099333300CC333300FF33330000663300336633006666330099663300CC663300FF66330000993300339933006699330099993300CC993300FF99330000CC330033CC330066CC330099CC3300CCCC3300FFCC330000FF330033FF330066FF330099FF3300CCFF3300FFFF330000006600330066006600660099
310
006600CC006600FF00660000336600333366006633660099336600CC336600FF33660000666600336666006666660099666600CC666600FF66660000996600339966006699660099996600CC996600FF99660000CC660033CC660066CC660099CC6600CCCC6600FFCC660000FF660033FF660066FF660099FF6600CCFF6600
310
FFFF660000009900330099006600990099009900CC009900FF00990000339900333399006633990099339900CC339900FF33990000669900336699006666990099669900CC669900FF66990000999900339999006699990099999900CC999900FF99990000CC990033CC990066CC990099CC9900CCCC9900FFCC990000FF99
310
0033FF990066FF990099FF9900CCFF9900FFFF99000000CC003300CC006600CC009900CC00CC00CC00FF00CC000033CC003333CC006633CC009933CC00CC33CC00FF33CC000066CC003366CC006666CC009966CC00CC66CC00FF66CC000099CC003399CC006699CC009999CC00CC99CC00FF99CC0000CCCC0033CCCC0066CC
310
CC0099CCCC00CCCCCC00FFCCCC0000FFCC0033FFCC0066FFCC0099FFCC00CCFFCC00FFFFCC000000FF003300FF006600FF009900FF00CC00FF00FF00FF000033FF003333FF006633FF009933FF00CC33FF00FF33FF000066FF003366FF006666FF009966FF00CC66FF00FF66FF000099FF003399FF006699FF009999FF00CC
310
99FF00FF99FF0000CCFF0033CCFF0066CCFF0099CCFF00CCCCFF00FFCCFF0000FFFF0033FFFF0066FFFF0099FFFF00CCFFFF00FFFFFF00000000000D0D0D001A1A1A00282828003535350043434300505050005D5D5D006B6B6B00787878008686860093939300A1A1A100AEAEAE00BBBBBB00C9C9C900D6D6D600E4E4E400
310
F1F1F100FFFFFF000000000000000000000000000000000000000000000000000000000000000000000000000000000000000000000000000000000000000000000000000000000000000000000000000000000000000000000000000000000000000000000000000000000000000000000000000000000000000000000000
310
00000000000000000000000000000000000000000000000000000000000000000000000000000000000000000000000000000000000000000000000000000000000000000000000000000000000000000000000000000000000000000000000000000000000000000000000000000000000000000000000000000000000000
310
00000000000000000000000000000000000000000000000000000000000000000000000000000000000000000000000000000000000000000000000000000000000000BEBEBEBEBEBEBEBEBEBEBEBEBEBEBEBEBEBEBEBEBEBEBEBEBEBEBEBEBEBEBEBEBEBEBEBEBEBEBEBEBEBEBEBEBEBEBEBEBEBEBEBEBEBEBEBEBEBEBEBE
310
BEBEBEBEBEBEBEBEBEBEBEBEBEBEBEBEBEBEBEBEBEBEBEBEBEBEBEBEBEBEBEBEBEBEBEBEBEBEBEBEBEBEBEBEBEBEBEBEBEBEBEBEBEBEBEBEBEBEBEBEBEBEBEBEBEBEBEBEBEBEBEBEBEBEBEBEBEBEBEBEBEBEBEBEBEBEBEBEBEBEBEBEBEBEBEBEBEBEBEBEBEBEBEBEBEBEBEBEBEBEBEBEBEBEBEBEBEBEBEBEBEBEBEBEBEBEBE
310
BEBEBEBEBEBEBEBEBEBEBEBEBEBEBEBEBEBEBEBEBEBEBEBEBEBEBEBEBEBEBEBEBEBEBE00000000000000000000000000000000000000000000000000000000000000000000BE000000000000000000000000000000000000000000000000000000000000000000000000000000000000000000000000000000000000000000
310
00000000000000000000000000000000000000000000000000000000000000000000000000000000000000000000000000000000000000000000000000000000000000000000000000000000000000000000000000000000000000000000000000000000000000000000000000000000000000000000000000000000000000
310
000000000000000000000000000000000000000000000000000000000000000000000000BE00000000000000000000000000000000000000000000000000000000000000000000BE00000000000000000000000000000000000000000000000000000000000000000000000000000000000000000000000000000000000000
310
00000000000000000000000000000000000000000000000000000000000000000000000000000000000000000000000000000000000000000000000000000000000000000000000000000000000000000000000000000000000000000000000000000000000000000000000000000000000000000000000000000000000000
310
0000000000000000000000000000000000000000000000000000000000000000000000000000BE00000000000000000000000000000000000000000000000000000000000000000000BE0000000000000000000000000000000000000000000000000000000000000000000000000000000000000000000000000000000000
310
00000000000000000000000000000000000000000000000000000000000000000000000000000000000000000000000000000000000000000000000000000000000000000000000000000000000000000000000000000000000000000000000000000000000000000000000000000000000000000000000000000000000000
310
00000000000000000000000000000000000000000000000000000000000000000000000000000000BE00000000000000000000000000000000000000000000000000000000000000000000BE000000000000000000000000000000000000000000000000000000000000000000000000000000000000000000000000000000
310
00000000000000000000000000000000000000000000000000000000000000000000000000000000000000000000000000000000000000000000000000000000000000000000000000000000000000000000000000000000000000000000000000000000000000000000000000000000000000000000000000000000000000
310
000000000000000000000000000000000000000000000000000000000000000000000000000000000000BE00000000000000000000000000000000000000000000000000000000000000000000BE000000000000000000F5F5F5F5F5F5F5F5F5F5F5F5F5F5F5F5F5F5F5F5F5F5F5F5F5F5F5F5F5F5F5F5F5F5F5F5F5F5F5F5
310
F5F5F5F5F5F5F5F5F5F5F5F5F5F5F5F5F5F5F5F5F5F5F5F5F5F5F5F5F5F5F5F5F5F5F5F5F5F5F5F5F5F5F5F5F5F5F5F5F5F5F5F5F5F5F5F5F5F5F5F5F5F5F5F5F5F5F5F5F5F5F5F5F5F5F5F5F5F5F5F5F5F5F5F5F5F5F5F5F5F5F5F5F5F5F5F5F5F5F5F5F5F5F5F5F5F5F5F5F5F5F5F5F5F5F5F5F5F5F5F5F5F5F5F5F5F5F5
310
F5F5F5F5F5F5F5F5F5F5F5F5F5F5F5F5F5F5F5F5F5F5F5F5F5F5F5F5F5F5F5F5F5F5F5F5F5F5F5F500000000BE00000000000000000000000000000000000000000000000000000000000000000000BE000000000000000000F500000000000000000000000000000000000000000000000000000000000000000000000000
310
00000000000000000000000000000000000000000000000000000000000000000000000000000000000000000000000000000000000000000000000000000000000000000000000000000000000000000000000000000000000000000000000000000000000000000000000000000000000000F50000F5F5F50000F5F5F5F5
310
F5F5F5F5F5F5F5F5F5F5F5F5F5F5F5F5F5F5F5F5F5F5F5F5F5F5F5F5F5F5F5F5F5F5F5F5F5F5F50000F500000000BE00000000000000000000000000000000000000000000000000000000000000000000BE000000000000000000F50000000000000000000000000000000000000000000000000000000000000000000000
310
000000000000000000000000000000000000000000000000000000000000000000000000000000000000000000000000000000000000000000000000000000000000000000000000000000000000000000000000000000000000000000000000000000000000000000000000000000000000000000F500F5F5F5F5F5F5F5F5
310
F5F5F5F5F5F5F5F5F5F5F5F5F5F5F5F5F5F5F5F5F5F5F5F5F5F5F5F5F5F5F5F5F5F5F5F5F5F5F5F5F50000F500000000BE00000000000000000000000000000000000000000000000000000000000000000000BE000000000000000000F5000000000000000000000000000000000000000000000000000000000000000000
310
0000000000000000000000000000000000000000000000000000000000000000000000000000000000000000000000000000000000000000000000000000000000000000000000000000000000000000000000000000000000000000000000000000000000000000000000000000000000000000000000F5F5F5F5F5F5F5F5
310
F5F5F5F5F5F5F5F5F5F5F5F5F5F5F5F5F5F5F5F5F5F5F5F5F5F5F5F5F5F5F5F5F5F5F500000000000000000000F500000000BE00000000000000000000000000000000000000000000000000000000000000000000BE000000000000000000F500000000000000000000000000000000000000000000000000000000000000
310
00000000000000000000000000000000000000000000000000000000000000000000000000000000000000000000000000000000000000000000000000000000000000000000000000000000000000000000000000000000000000000000000000000000000000000000000000000000000000000000000000F5F5F5F5F5F5
310
F5F5F5F5F5F5F5F5F5F5F5F5F5F5F5F5F5F5F5F5F5F5F5F5F5F5F5F5F5F5F5F5F5F5F5F5F500000000000000000000F500000000BE00000000000000000000000000000000000000000000000000000000000000000000BE000000000000000000F50000000000000000000000000000000000000000000000000000000000
310
000000000000000000000000000000000000000000000000000000000000000000000000000000000000000000000000000000000000000000000000000000000000000000000000000000000000000000000000000000000000000000000000000000000000000000000000000000000000000000000000000000F5F5F5F5
310
F5F5F5F5F5F5F5F5F5F5F5F5F5F5F5F5F5F5F5F5F5F5F5F5F5F5F5F5F5F5F5F5F5F5F5F5F5F5F500000000000000000000F500000000BE00000000000000000000000000000000000000000000000000000000000000000000BE000000000000000000F5000000000000000000000000000000000000000000000000000000
310
0000000000000000000000000000000000000000000000000000000000000000000000000000000000000000000000000000000000000000000000000000000000000000000000000000000000000000000000000000000000000000000000000000000000000000000000000000000000000000000000000000000000F500
310
F5F5F5F5F500F5F5F5F5F5F5F5F5F5F5F5F5F5F5F5F5F5F5F5F5F5F5F5F5F5F5F5F5F5F5F5F5F5F5F500000000000000000000F500000000BE00000000000000000000000000000000000000000000000000000000000000000000BE000000000000000000F500000000000000000000000000000000000000000000000000
310
00000000000000000000000000000000000000000000000000000000000000000000000000000000000000000000000000000000000000000000000000000000000000000000000000000000000000000000000000000000000000000000000000000000000000000000000000000000000000000000000000000000000000
310
F5000000F5F50000000000000000000000000000000000000000000000000000000000000000000000000000000000000000000000F500000000BE00000000000000000000000000000000000000000000000000000000000000000000BE000000000000000000F50000000000000000000000000000000000000000000000
310
00000000000000000000000000000000000000000000000000000000000000000000000000000000000000000000000000000000000000000000000000000000000000000000000000000000000000000000000000000000000000000000000000000000000000000000000000000000000000000000000000000000000000
310
0000F5F5F5F5F5F5F5F5F5F5F5F5F5F5F5F5F5F5F5F5F5F5F5F5F5F5F5F5F5F5F5F5F5F5F5F5F5F5F5F5F5F5F5F5F5F5F5F5F5F5F5F5F5F500000000BE00000000000000000000000000000000000000000000000000000000000000000000BE000000000000000000F5000000000000000000000000000000000000000000
310
00000000000000000000000000000000000000000000000000000000000000000000000000000000000000000000000000000000000000000000000000000000000000000000000000000000000000000000000000000000000000000000000000000000000000000000000000000000000000000000000000000000000000
310
00000000F500F5F5F5F50000F500000000000000F5F500F500000000F5F50000F5F5F5F50000000000000000F5000000000000000000000000F500000000BE00000000000000000000000000000000000000000000000000000000000000000000BE000000000000000000F500000000000000000000000000000000000000
310
00000000000000000000000000000000000000000000000000000000000000000000000000000000000000000000000000000000000000000000000000000000000000000000000000000000000000000000000000000000000000000000000000000000000000000000000000000000000000000000000000000000000000
310
000000000000F500F5F5F5F50000F5000000000000F5F5F5F5F5000000F5F5F5F5F5F5F5F5F5F500000000000000F5000000000000000000000000F500000000BE00000000000000000000000000000000000000000000000000000000000000000000BE000000000000000000F50000000000000000000000000000000000
310
00000000000000000000000000000000000000000000000000000000000000000000000000000000000000000000000000000000000000000000000000000000000000000000000000000000000000000000000000000000000000000000000000000000000000000000000000000000000000000000000000000000000000
310
0000000000000000F500000000000000F500000000000000F5F5F5F5000000F5F5F50000F5F5F5F5F500000000000000F5000000000000000000000000F500000000BE00000000000000000000000000000000000000000000000000000000000000000000BE000000000000000000F5000000000000000000000000000000
310
00000000000000000000000000000000000000000000000000000000000000000000000000000000000000000000000000000000000000000000000000000000000000000000000000000000000000000000000000000000000000000000000000000000000000000000000000000000000000000000000000000000000000
310
00000000000000000000F500000000000000F500000000000000000000000000000000000000000000000000000000000000F5000000000000000000000000F500000000BE00000000000000000000000000000000000000000000000000000000000000000000BE000000000000000000F500000000000000000000000000
310
00000000000000000000000000000000000000000000000000000000000000000000000000000000000000000000000000000000000000000000000000000000000000000000000000000000000000000000000000000000000000000000000000000000000000000000000000000000000000000000000000000000000000
310
000000000000000000000000F5F5F5F5F5F5F5F5F5F5F5F5F5F5F5F5F5F5F5F5F5F5F5F5F5F5F5F5F5F5F5F5F5F5F5F5F5F5F5F5F5F5F5F5F5F5F5F5F5F5F5F5F5F500000000BE00000000000000000000000000000000000000000000000000000000000000000000BE000000000000000000F50000000000000000000000
310
00000000000000000000000000000000000000000000000000000000000000000000000000000000000000000000000000000000000000000000000000000000000000000000000000000000000000000000000000000000000000000000000000000000000000000000000000000000000000000000000000000000000000
310
0000000000000000000000000000F500000000000000F500000000000000000000000000000000000000000000000000000000000000F500000000F500000000000000F500000000BE00000000000000000000000000000000000000000000000000000000000000000000BE000000000000000000F5000000000000000000
310
00000000000000000000000000000000000000000000000000000000000000000000000000000000000000000000000000000000000000000000000000000000000000000000000000000000000000000000000000000000000000000000000000000000000000000000000000000000000000000000000000000000000000
310
00000000000000000000000000000000F5F5F5F5F5F5F500F50000000000000000F5F5F5F5F5F5F5F5F500F5F5F5F5F50000000000000000F5F5F5F500F500F5F5F5F5F500F500000000BE00000000000000000000000000000000000000000000000000000000000000000000BE000000000000000000F500000000000000
310
00000000000000000000000000000000000000000000000000000000000000000000000000000000000000000000000000000000000000000000000000000000000000000000000000000000000000000000000000000000000000000000000000000000000000000000000000000000000000000000000000000000000000
310
000000000000000000000000000000000000F5F5F5F5F5F5F500F50000000000000000F5F5F5F5F5F5F5F5F500F5F5F5F5F50000000000000000F5F5F5F500F500F5F5F5F5F500F500000000BE00000000000000000000000000000000000000000000000000000000000000000000BE000000000000000000F50000000000
310
00000000000000000000000000000000000000000000000000000000000000000000000000000000000000000000000000000000000000000000000000000000000000000000000000000000000000000000000000000000000000000000000000000000000000000000000000000000000000000000000000000000000000
310
0000000000000000000000000000000000000000F500000000000000F50000000000000000F5F500F5F500F500000000F5F5F5000000000000000000F500000000F500000000000000F500000000BE00000000000000000000000000000000000000000000000000000000000000000000BE000000000000000000F5000000
310
00000000000000000000000000000000000000000000000000000000000000000000000000000000000000000000000000000000000000000000000000000000000000000000000000000000000000000000000000000000000000000000000000000000000000000000000000000000000000000000000000000000000000
310
00000000000000000000000000000000000000000000F5F5F5F5F5F5F5F5F5F5F5F5F5F5F5F5F5F5F5F5F5F5F5F5F5F5F5F5F5F5F5F5F5F5F5F5F5F5F5F5F5F5F5F5F5F5F5F5F5F5F5F5F5F500000000BE00000000000000000000000000000000000000000000000000000000000000000000BE000000000000000000F500
310
00000000000000000000000000000000000000000000000000000000000000000000000000000000000000000000000000000000000000000000000000000000000000000000000000000000000000000000000000000000000000000000000000000000000000000000000000000000000000000000000000000000000000
310
0000000000000000000000000000000000000000000000000000000000000000000000000000000000000000000000000000000000000000000000000000000000000000000000000000000000F500000000BE00000000000000000000000000000000000000000000000000000000000000000000BE000000000000000000
310
F5000000000000000000000000000000000000000000000000000000000000000000000000000000000000000000000000000000000000000000000000000000000000000000000000000000000000000000000000000000000000000000000000000000000000000000000000000000000000000000000000000000000000
310
00000000000000000000000000000000000000000000000000000000000000000000000000000000000000000000000000000000000000000000000000000000000000000000000000000000000000F500000000BE00000000000000000000000000000000000000000000000000000000000000000000BE00000000000000
310
0000F5000000000000000000000000000000000000000000000000F5F500F5F500000000000000000000000000000000000000000000000000000000000000000000000000000000000000000000000000000000000000000000000000000000000000000000F50000F5000000000000000000000000000000000000000000
310
000000000000000000000000000000000000000000000000000000000000000000000000000000000000000000000000000000000000000000000000000000000000000000000000000000000000000000F500000000BE00000000000000000000000000000000000000000000000000000000000000000000BE0000000000
310
00000000F50000000000000000000000000000000000000000000000F5F5F5F5F500F5000000000000000000000000000000000000000000000000000000000000000000000000000000000000000000000000000000000000000000000000000000000000000000F5F5F5F5F5F50000000000000000000000000000000000
310
0000000000000000000000000000000000000000000000000000000000000000000000000000000000000000000000000000000000000000000000000000000000000000000000000000000000000000000000F500000000BE00000000000000000000000000000000000000000000000000000000000000000000BE000000
310
000000000000F50000000000000000000000000000000000000000000000F5F500000000F50000000000000000000000000000000000000000000000000000000000000000000000000000000000000000000000000000000000000000000000000000000000000000F5000000F5F5F5000000000000000000000000000000
310
00000000000000000000000000000000000000000000000000000000000000000000000000000000000000000000000000000000000000000000000000000000000000000000000000000000000000000000000000F500000000BE00000000000000000000000000000000000000000000000000000000000000000000BE00
310
0000000000000000F500000000000000000000000000000000000000000000F5F50000F5F5F500F500000000000000000000000000000000000000000000000000000000000000F5F5F5F50000000000000000000000000000000000000000000000000000000000000000F5F5F5F500F5F500000000000000000000000000
310
000000000000000000000000000000000000000000000000000000000000000000000000000000000000000000000000000000000000000000000000000000000000000000000000000000000000000000000000000000F500000000BE00000000000000000000000000000000000000000000000000000000000000000000
310
BE000000000000000000F5000000000000000000000000000000000000000000F500000000F5F5F5F5F5F5F5F5F5F5F5F5F5F5F5F5F5F5F5F5F5F5F5F5F5F5F5F5F5F5F5F5F5F5F5F5F5F5F5F5F5F5F5F5F5F5F5F5F5F5F5F5F5F5F5F5F5F5F5F5F5F5F5F5F5F5F5F5F5F5F5F5F5F5F5F5000000F5F5000000000000000000
310
0000000000000000000000000000000000000000000000000000000000000000000000000000000000000000000000000000000000000000000000000000000000000000000000000000000000000000000000F5F500000000F500000000BE0000000000000000000000000000000000000000000000000000000000000000
310
0000BE000000000000000000F500000000000000000000000000000000000000000000F5000000F500F50000F50000000000000000000000000000000000000000000000000000000000000000000000000000000000000000000000000000000000000000000000000000000000F500F500F500000000F500000000000000
310
000000000000000000000000000000000000000000000000000000000000000000000000000000000000000000000000000000000000000000000000000000000000000000000000F5F5F5F5F5F5F5F5F5F5F5F5F5F5F500000000F500000000BE000000000000000000000000000000000000000000000000000000000000
310
00000000BE000000000000000000F500000000000000000000000000000000000000000000F5000000F500F50000F5000000000000000000000000000000000000000000000000000000000000F5F5F5F5000000000000000000000000000000000000000000000000000000000000F50000F500F5000000F5000000000000
310
0000000000000000000000000000000000000000000000000000000000000000000000000000000000000000000000000000000000000000000000000000000000000000000000000000F5F5F5F5F5F5F5F5F5F5F5F5F5F50000000000F500000000BE00000000000000000000000000000000000000000000000000000000
310
000000000000BE000000000000000000F50000000000000000000000000000000000000000000000F50000F500F5000000F500F5000000000000000000000000000000000000000000000000000000F5F5F5F5000000000000000000000000000000000000000000000000000000F50000F50000F500F50000F5F500000000
310
0000000000000000000000000000000000000000000000000000000000000000000000000000000000000000000000000000000000000000000000000000000000000000000000000000000000000000000000000000000000000000000000F500000000BE0000000000000000000000000000000000000000000000000000
310
0000000000000000BE000000000000000000F50000000000000000000000000000000000000000000000F50000F500F5000000F500F5F5F5F5F5F5F5F5F5F5F5F5F5F5F5F5F5F5F5F5F5F5F5F5F5F5F5F5F5F5F5F5F5F5F5F5F5F5F5F5F5F5F5F5F5F5F5F5F5F5F5F5F5F5F5F5F5F5F5F500F5000000F500F50000F5F50000
310
00000000000000000000000000000000000000000000000000000000000000000000000000000000000000000000000000000000000000000000000000000000000000000000000000000000000000000000000000000000000000000000000000F500000000BE000000000000000000000000000000000000000000000000
310
00000000000000000000BE000000000000000000F5000000000000000000000000000000000000000000000000F500F500F500000000F5F5000000000000000000000000000000000000000000000000000000002D0000000000000000000000000000000000000000000000000000000000F500F5000000F500F50000F5F5
310
000000000000000000000000000000000000000000000000000000000000000000000000000000000000000000000000000000000000000000000000000000000000000000000000000000000000000000000000000000000000000000000000000000F500000000BE00000000000000000000000000000000000000000000
310
000000000000000000000000BE000000000000000000F5000000000000000000000000000000000000000000000000F500F500F5F5F5F5F5F5F5F5F5F5F5F5F5F5F5F5F5F5F5F5F5F5F5F5F5F5F5F5F5F5F5F5F5F5F5F5F5F5F5F5F5F5F5F5F5F5F5F5F5F5F5F5F5F5F5F5F5F5F5F5F5F5F5F5F5F5F5F5F5F5F5F5F5F5F5F5
310
F5F5F5F500000000000000000000000000000000000000000000000000000000000000000000000000000000000000000000000000000000000000000000000000000000000000000000000000000000000000000000000000000000000000000000000000F500000000BE0000000000000000000000000000000000000000
310
0000000000000000000000000000BE000000000000000000F500000000000000000000000000000000000000000000000000F5F500F50000000000F5000000000000000000000000000000000000000000000000000000002D0000000000000000000000000000000000000000000000000000000000F50000000000F500F5
310
00F5F500F50000000000000000000000000000000000000000000000000000000000000000000000000000000000000000000000000000000000000000000000000000000000000000000000000000000000000000000000000000000000000000000000000000F500000000BE000000000000000000000000000000000000
310
00000000000000000000000000000000BE000000000000000000F500000000000000000000000000000000000000000000000000F50000F5000000000000000000000000000000000000000000000000000000000000000000002D0000000000000000000000000000000000000000000000000000000000000000000000F5
310
0000F500F5F5F5F5F5000000000000000000000000000000000000000000000000000000000000000000000000000000000000000000000000000000000000000000000000000000000000000000000000000000000000000000000000000000000000000000000000F500000000BE00000000000000000000000000000000
310
000000000000000000000000000000000000BE000000000000000000F50000000000000000000000000000000000000000000000000000F5F5F500000000F51515151515151515151515151515151515151515151515151515151515151515151515151515151515151515151515151515151515151515151515F515000000
310
00F5F5F5F5F5F5F5F5F5F5000000000000000000000000000000000000000000000000000000000000000000000000000000000000000000000000000000000000000000000000000000000000000000000000000000000000000000000000000000000000000000000000F500000000BE0000000000000000000000000000
310
0000000000000000000000000000000000000000BE000000000000000000F50000000000000000000000000000000000000000000000000000F5000000000015F500000000000000000000000000000000000000000000000000000000002D0000000000000000000000000000000000000000000000000000000000F51515
310
0000000000F50000F500F5F5F5000000000000000000000000000000000000000000000000000000000000000000000000000000000000000000000000000000000000000000000000000000000000000000000000000000000000000000000000000000000000000000000000F500000000BE000000000000000000000000
310
00000000000000000000000000000000000000000000BE000000000000000000F50000000000000000000000000000000000000000000000000000F5000000001500F500000000000000000000000000000000000000000000000000000000002D0000000000000000000000000000000000000000000000000000000000F5
310
001515000000F5F50000F500F50000000000000000000000000000000000000000000000000000000000000000000000000000000000000000000000000000000000000000000000000000000000000000000000000000000000000000000000000000000000000000000000000000F500000000BE00000000000000000000
310
000000000000000000000000000000000000000000000000BE000000000000000000F50000000000000000000000000000000000000000000000000000F5F5F5F5F5F5F5F5F5F5F5F5F5F5F5F5F5F5F5F5F5F5F5F5F5F5F5F5F5F5F5F5F5F5F5F5F5F5F5F5F5F5F5F5F5F5F5F5F5F5F5F5F5F5F5F5F5F5F5F5F5F5F5F5F5F5
310
F5F5F5F5F5F5F5F5F5F5F5F5F5F5F5F500000000000000000000000000000000000000000000000000000000000000000000000000000000000000000000000000000000000000000000000000000000000000000000000000000000000000000000000000000000000000000000000000F500000000BE0000000000000000
310
0000000000000000000000000000000000000000000000000000BE000000000000000000F50000000000000000000000000000000000000000000000000000F500000000F500F500000000000000000000000000000000000000000000000000000000002D0000000000000000000000000000000000000000000000000000
310
000000F50000F500000000F50000F5F5000000000000000000000000000000000000000000000000000000000000000000000000000000000000000000000000000000000000000000000000000000000000000000000000000000000000000000000000000000000000000000000000000000F500000000BE000000000000
310
00000000000000000000000000000000000000000000000000000000BE000000000000000000F50000000000000000000000000000000000000000000000000000F500000000F500F5000000000000000000000000000000000000000000000000000000000000000000000000000000000000000000000000000000000000
310
0000000000F50000F500000000F50000F5F5000000000000000000000000000000000000000000000000000000000000000000000000000000000000000000000000000000000000000000000000000000000000000000000000000000000000000000000000000000000000000000000000000000F500000000BE00000000
310
000000000000000000000000000000000000000000000000000000000000BE000000000000000000F50000000000000000000000000000000000000000000000000000F5F5F5F5F5F5F5F5F5F5F5F5F5F5F5F5F5F5F5F5F5F5F5F5F5F5F5F5F5F5F5F5F5F5F5F5F5F5F5F5F5F5F5F5F5F5F5F5F5F5F5F5F5F5F5F5F5F5F5F5
310
F5F5F5F5F5F5F5F5F5F5F5F5F5F5F5F50000F500000000000000000000000000000000000000000000000000000000000000000000000000000000000000000000000000000000000000000000000000000000000000000000000000000000000000000000000000000000000000000000000000000000F500000000BE0000
310
0000000000000000000000000000000000000000000000000000000000000000BE000000000000000000F50000000000000000000000000000000000000000000000000000F5F5F5F500F5F5F500000000000000000000000000000000000000000000000000000000F5F5F5F5000000000000000000000000000000000000
310
00000000000000000000F5F5F500F5F500F500000000000000000000000000000000000000000000000000000000000000000000000000000000000000000000000000000000000000000000000000000000000000000000000000000000000000000000000000000000000000000000000000000000000000F500000000BE
310
00000000000000000000000000000000000000000000000000000000000000000000BE000000000000000000F50000000000000000000000000000000000000000000000000000F5F5F5F500F5F5F500000000000000000000000000000000000000000000000000000000F5F5F5F500000000000000000000000000000000
310
000000000000000000000000F5F5F500F5F500F500000000000000000000000000000000000000000000000000000000000000000000000000000000000000000000000000000000000000000000000000000000000000000000000000000000000000000000000000000000000000000000000000000000000000F5000000
310
00BE00000000000000000000000000000000000000000000000000000000000000000000BE000000000000000000F50000000000000000000000000000000000000000000000000000F5F5F5F5F5F5F5F5F5F5F5F5F5F5F5F5F5F5F5F5F5F5F5F5F5F5F5F5F5F5F5F5F5F5F5F5F5F5F5F5F5F5F5F5F5F5F5F5F5F5F5F5F5F5
310
F5F5F5F5F5F5F5F5F5F5F5F5F5F5F5F5F5F5F5F5F5F500000000000000000000000000000000000000000000000000000000000000000000000000000000000000000000000000000000000000000000000000000000000000000000000000000000000000000000000000000000000000000000000000000000000000F500
310
000000BE00000000000000000000000000000000000000000000000000000000000000000000BE000000000000000000F50000000000000000000000000000000000000000000000000000000000000000000000000000000000000000000000000000000000000000000000000000F5F5F5F5000000000000000000000000
310
00000000000000000000000000000000000000000000000000000000000000000000000000000000000000000000000000000000000000000000000000000000000000000000000000000000000000000000000000000000000000000000000000000000000000000000000000000000000000000000000000000000000000
310
F500000000BE00000000000000000000000000000000000000000000000000000000000000000000BE000000000000000000F500000000000000000000000000000000000000000000000000000000000000000000000000000000000000000000000000000000000000000000000000000000000000000000000000000000
310
00000000000000000000000000000000000000000000000000000000000000000000000000000000000000000000000000000000000000000000000000000000000000000000000000000000000000000000000000000000000000000000000000000000000000000000000000000000000000000000000000000000000000
310
0000F500000000BE00000000000000000000000000000000000000000000000000000000000000000000BE000000000000000000F500000000000000000000000000000000000000000000000000000000000000000000000000000000000000000000000000000000000000000000F5F500F5F500F5F5F5F5F5F500000000
310
00000000000000000000000000000000000000000000000000000000000000000000000000000000000000000000000000000000000000000000000000000000000000000000000000000000000000000000000000000000000000000000000000000000000000000000000000000000000000000000000000000000000000
310
00000000F500000000BE00000000000000000000000000000000000000000000000000000000000000000000BE000000000000000000F500000000000000000000000000000000000000000000000000000000000000000000000000000000000000000000000000000000000000000000F5F5F5F5F5F5F5F5F5F5F5F50000
310
00000000000000000000000000000000000000000000000000000000000000000000000000000000000000000000000000000000000000000000000000000000000000000000000000000000000000000000000000000000000000000000000000000000000000000000000000000000000000000000000000000000000000
310
000000000000F500000000BE00000000000000000000000000000000000000000000000000000000000000000000BE000000000000000000F5000000000000000000000000000000000000000000000000000000000000000000000000000000000000000000000000000000000000000000000000000000F5F5F5F5F5F5F5
310
00000000000000000000000000000000000000000000000000000000000000000000000000000000000000000000000000000000000000000000000000000000000000000000000000000000000000000000000000000000000000000000000000000000000000000000000000000000000000000000000000000000000000
310
0000000000000000F500000000BE00000000000000000000000000000000000000000000000000000000000000000000BE000000000000000000F50000000000000000000000000000000000000000000000000000000000000000000000000000000000000000000000000000000000000000000000000000000000000000
310
00000000000000000000000000000000000000000000000000000000000000000000000000000000000000000000000000000000000000000000000000000000000000000000000000000000000000000000000000000000000000000000000000000000000000000000000000000000000000000000000000000000000000
310
00000000000000000000F500000000BE00000000000000000000000000000000000000000000000000000000000000000000BE000000000000000000F5000000000000000000000000000000000000000000000000000000000000000000000000000000000000000000000000000000000000000000000000000000000000
310
00000000000000000000000000000000000000000000000000000000000000000000000000000000000000000000000000000000000000000000000000000000000000000000000000000000000000000000000000000000000000000000000000000000000000000000000000000000000000000000000000000000000000
310
000000000000000000000000F500000000BE00000000000000000000000000000000000000000000000000000000000000000000BE000000000000000000F500000000000000000000000000000000000000000000000000000000000000000000000000000000000000000000000000000000000000000000000000000000
310
00000000000000000000000000000000000000000000000000000000000000000000000000000000000000000000000000000000000000000000000000000000000000000000000000000000000000000000000000000000000000000000000000000000000000000000000000000000000000000000000000000000000000
310
0000000000000000000000000000F500000000BE00000000000000000000000000000000000000000000000000000000000000000000BE000000000000000000F50000000000000000000000000000000000000000000000000000000000000000000000000000000000000000000000000000000000000000000000000000
310
00000000000000000000000000000000000000000000000000000000000000000000000000000000000000000000000000000000000000000000000000000000000000000000000000000000000000000000000000000000000000000000000000000000000000000000000000000000000000000000000000000000000000
310
00000000000000000000000000000000F500000000BE00000000000000000000000000000000000000000000000000000000000000000000BE000000000000000000F500000000000000000000000000000000000000000000000000000000F5F5000000000000000000000000000000000000000000000000000000000000
310
0000F5F5F5F50000000000000000000000000000000000000000000000000000000000000000F5F5000000000000000000000000000000000000000000000000000000000000000000000000000000000000000000000000000000000000000000000000000000000000000000000000000000000000000000000000000000
310
000000000000000000000000000000000000F500000000BE00000000000000000000000000000000000000000000000000000000000000000000BE000000000000000000F500000000000000000000000000000000000000000000000000000000F5F500000000000000000000000000000000000000000000000000000000
310
00000000F5F5F5F50000000000000000000000000000000000000000000000000000000000000000F5F500000000000000000000000000000000000000000000000000000000000000000000000000000000000000000000000000000000000000000000000000000000000000000000000000000000000000000000000000
310
0000000000000000000000000000000000000000F500000000BE00000000000000000000000000000000000000000000000000000000000000000000BE000000000000000000F5000000000000000000000000000000000000000000000000000000F5F5F5F5F5F5F5F5F5F5F5F5F5F5F5F5F5F5F5F5F5F5F5F5F5F5F5F5F5
310
F5F5F5F5F5F5F5F5F5F5F5F5F5F5F5F5F5F5F5F5F5F5F5F5F5F5F5F5F5F5F5F5F5F5F5F5F5F5F5F5F5F5F5F5F500000000000000000000000000000000000000000000000000000000000000000000000000000000000000000000000000000000000000000000000000000000000000000000000000000000000000000000
310
00000000000000000000000000000000000000000000F500000000BE00000000000000000000000000000000000000000000000000000000000000000000BE000000000000000000F500000000000000000000000000000000000000000000000000000000F500000000000000000000000000000000000000000000000000
310
0000000000000000002D00000000000000000000000000000000000000000000000000000000000000000000F5F5000000000000000000000000000000000000000000000000000000000000000000000000000000000000000000000000000000000000000000000000000000000000000000000000000000000000000000
310
000000000000000000000000000000000000000000000000F500000000BE00000000000000000000000000000000000000000000000000000000000000000000BE000000000000000000F500000000000000000000000000000000000000000000000000000000F50000000000000000000000000000000000000000000000
310
00000000000000000000002D0000000000000000000000000000000000000000000000000000000000000000000000F500000000000000000000000000000000000000000000000000000000000000000000000000000000000000000000000000000000000000000000000000000000000000000000000000000000000000
310
0000000000000000000000000000000000000000000000000000F500000000BE00000000000000000000000000000000000000000000000000000000000000000000BE000000000000000000F500000000000000000000000000000000000000000000000000000000F5F5F5F5F5F5F5F5F5F5F5F5F5F5F5F5F5F5F5F5F5F5
310
F5F5F5F5F5F5F5F5F5F5F5F5F5F5F5F5F5F5F5F5F5F5F5F5F5F5F5F5F5F5F5F5F5F5F5F5F5F5F5F5F5F5F5F5F5F5F5F5F5F5F5F5F5F5F5000000000000000000000000000000000000000000000000000000000000000000000000000000000000000000000000000000000000000000000000000000000000000000000000
310
00000000000000000000000000000000000000000000000000000000F500000000BE00000000000000000000000000000000000000000000000000000000000000000000BE000000000000000000F500000000000000000000000000000000000000000000000000000000F500000000000000000000000000000000000000
310
0000000000000000000000000000002D00000000000000000000000000000000000000000000000000000000000000000000F5F500000000F5F5000000000000000000000000000000000000000000000000000000000000000000000000000000000000000000000000000000000000000000000000000000000000000000
310
000000000000000000000000000000000000000000000000000000000000F500000000BE00000000000000000000000000000000000000000000000000000000000000000000BE000000000000000000F500000000000000000000000000000000000000000000000000000000F50000F5F5F5F5F5F5F5F5F5F5F5F5F5F5F5
310
F5F5F5F5F5F5F5F5F5F5F5F5F5F5F5F5F5F5F5F5F5F5F5F5F5F5F5F5F5F5F5F5F5F5F5F5F5F5F5F5F5F5F5F5F5F5F5F5F5F5F500F5F500000000F5F500000000000000000000000000000000000000000000000000000000000000000000000000000000000000000000000000000000000000000000000000000000000000
310
0000000000000000000000000000000000000000000000000000000000000000F500000000BE00000000000000000000000000000000000000000000000000000000000000000000BE000000000000000000F500000000000000000000000000000000000000000000000000000000F50000F5F5F5F5F5F5F5F5F5F5F5F5F5
310
F5F5F5F5F5F5F5F5F5F5F5F5F5F5F5F5F5F5F5F5F5F5F5F5F5F5F5F5F5F5F5F5F5F5F5F5F5F5F5F5F5F5F5F5F5F5F5F5F5F5F500F50000F500000000F5F50000000000000000000000000000000000000000000000000000000000000000000000000000000000000000000000000000000000000000000000000000000000
310
00000000000000000000000000000000000000000000000000000000000000000000F500000000BE00000000000000000000000000000000000000000000000000000000000000000000BE000000000000000000F500000000000000000000000000000000000000000000000000000000F50000F500F50000000000000000
310
0000000000000000000000000000000000000000002D0000000000000000000000000000000000000000000000000000000000F50000F50000F500000000F5F5000000000000000000000000000000000000000000000000000000000000000000000000000000000000000000000000000000000000000000000000000000
310
000000000000000000000000000000000000000000000000000000000000000000000000F500000000BE00000000000000000000000000000000000000000000000000000000000000000000BE000000000000000000F50000000000000000000000000000000000000000000000000000F5F5F50000F500F5000000000000
310
00000000000000000000000000000000000000000000002D0000000000000000000000000000000000000000000000000000000000F50000F50000F5F5F5F5F5F5F500000000000000000000000000000000000000000000000000000000000000000000000000000000000000000000000000000000000000000000000000
310
0000000000000000000000000000000000000000000000000000000000000000000000000000F500000000BE00000000000000000000000000000000000000000000000000000000000000000000BE000000000000000000F50000000000000000000000000000000000000000000000000000F500150000F500F500000000
310
000000000000000000000000000000000000000000000000002D0000000000000000000000000000000000000000000000000000000000F50000F500001500F50000F5000000000000000000000000000000000000000000000000000000000000000000000000000000000000000000000000000000000000000000000000
310
00000000000000000000000000000000000000000000000000000000000000000000000000000000F500000000BE00000000000000000000000000000000000000000000000000000000000000000000BE000000000000000000F50000000000000000000000000000000000000000000000000000F500150000F500F50000
310
0000000000000000000000000000000000000000000000000000002D0000000000000000000000000000000000000000000000000000000000F50000F500001500F50000F500000000000000000000000000000000000000000000000000000000000000000000000000000000000000000000000000000000000000000000
310
000000000000000000000000000000000000000000000000000000000000000000000000000000000000F500000000BE00000000000000000000000000000000000000000000000000000000000000000000BE000000000000000000F50000000000000000000000000000000000000000000000000000F500150000F500F5
310
00000000000000000000000000000000000000000000000000000000002D0000000000000000000000000000000000000000000000000000000000F50000F500001500F50000F50000000000000000000000000000000000000000000000000000000000000000000000000000000000000000000000000000000000000000
310
0000000000000000000000000000000000000000000000000000000000000000000000000000000000000000F500000000BE00000000000000000000000000000000000000000000000000000000000000000000BE000000000000000000F50000000000000000000000000000000000000000000000000000F500150000F5
310
00F500000000000000000000000000000000000000000000000000000000002D0000000000000000000000000000000000000000000000000000000000F50000F500001500F50000F5000000000000000000000000000000000000000000000000000000000000000000000000000000000000000000000000000000000000
310
00000000000000000000000000000000000000000000000000000000000000000000000000000000000000000000F500000000BE00000000000000000000000000000000000000000000000000000000000000000000BE000000000000000000F50000000000000000000000000000000000000000000000000000F5001500
310
00F500F500000000000000000000000000000000000000000000000000000000002D0000000000000000000000000000000000000000000000000000000000F50000F500001500F50000F500000000000000000000000000000000000000000000000000000000000000000000000000000000000000000000000000000000
310
000000000000000000000000000000000000000000000000000000000000000000000000000000000000000000000000F500000000BE00000000000000000000000000000000000000000000000000000000000000000000BE000000000000000000F50000000000000000000000000000000000000000000000000000F500
310
150000F500F500000000000000000000000000000000000000000000000000000000002D0000000000000000000000000000000000000000000000000000000000F50000F500001500F50000F5F500000000000000000000000000000000000000000000000000000000000000000000000000000000000000000000000000
310
0000000000000000000000000000000000000000000000000000000000000000000000000000000000000000000000000000F500000000BE00000000000000000000000000000000000000000000000000000000000000000000BE000000000000000000F50000000000000000000000000000000000000000000000000000
310
F500150000F500F500000000000000000000000000000000000000000000000000000000002D0000000000000000000000000000000000000000000000000000000000F50000F500001500F50000F5F50000000000000000000000000000000000000000000000000000000000000000000000000000000000000000000000
310
00000000000000000000000000000000000000000000000000000000000000000000000000000000000000000000000000000000F500000000BE00000000000000000000000000000000000000000000000000000000000000000000BE000000000000000000F5000000000000000000000000000000000000000000000000
310
0000F500150000F500F500000000000000000000000000000000000000000000000000000000002D0000000000000000000000000000000000000000000000000000000000F50000F500001500F50000F5F5000000000000000000000000000000000000000000000000000000000000000000000000000000000000000000
310
000000000000000000000000000000000000000000000000000000000000000000000000000000000000000000000000000000000000F500000000BE00000000000000000000000000000000000000000000000000000000000000000000BE000000000000000000F500000000000000000000000000000000000000000000
310
00000000F500150000F500F500000000000000000000000000000000000000000000000000000000002D0000000000000000000000000000000000000000000000000000000000F50000F500001500F50000F5F500000000000000000000000000000000000000000000000000000000000000000000000000000000000000
310
0000000000000000000000000000000000000000000000000000000000000000000000000000000000000000000000000000000000000000F500000000BE00000000000000000000000000000000000000000000000000000000000000000000BE000000000000000000F50000000000000000000000000000000000000000
310
000000000000F500150000F500F500000000000000000000000000000000000000000000000000000000002D0000000000000000000000000000000000000000000000000000000000F50000F500001500F50000F5000000000000000000000000000000000000000000000000000000000000000000000000000000000000
310
00000000000000000000000000000000000000000000000000000000000000000000000000000000000000000000000000000000000000000000F500000000BE00000000000000000000000000000000000000000000000000000000000000000000BE000000000000000000F5000000000000000000000000000000000000
310
0000000000000000F500150000F500F500000000000000000000000000000000000000000000000000000000002D0000000000000000000000000000000000000000000000000000000000F50000F500001500F50000F500000000000000000000000000000000000000000000000000000000000000000000000000000000
310
000000000000000000000000000000000000000000000000000000000000000000000000000000000000000000000000000000000000000000000000F500000000BE00000000000000000000000000000000000000000000000000000000000000000000BE000000000000000000F500000000000000000000000000000000
310
00000000000000000000F500150000F500F5F5F5F5F5F5F5F5F5F5F5F5F5F5F5F5F5F5F5F5F5F5F5F5F5F5F5F5F5F5F5F5F5F5F5F5F5F5F5F5F5F5F5F5F5F5F5F5F5F5F5F5F5F5F5F5F5F5F5F5F5F500F500001500F50000F50000000000000000000000000000000000000000000000000000000000000000000000000000
310
0000000000000000000000000000000000000000000000000000000000000000000000000000000000000000000000000000000000000000000000000000F500000000BE00000000000000000000000000000000000000000000000000000000000000000000BE000000000000000000F50000000000000000000000000000
310
000000000000000000000000F500150000F5F5F5F5F5F5F5F5F5F5F5F5F5F5F5F5F5F5F5F5F5F5F5F5F5F5F5F5F5F5F5F5F5F5F5F5F5F5F5F5F5F5F5F5F5F5F5F5F5F5F5F5F5F5F5F5F5F5F5F5F5F5F5F5F5F500001500F50000F5000000000000000000000000000000000000000000000000000000000000000000000000
310
00000000000000000000000000000000000000000000000000000000000000000000000000000000000000000000000000000000000000000000000000000000F500000000BE00000000000000000000000000000000000000000000000000000000000000000000BE000000000000000000F5000000000000000000000000
310
0000000000000000000000000000F50015000000000000000000000000000000000000000000000000000000000000000000002D00000000000000000000000000000000000000000000000000000000000000000000001500F50000F500000000000000000000000000000000000000000000000000000000000000000000
310
000000000000000000000000000000000000000000000000000000000000000000000000000000000000000000000000000000000000000000000000000000000000F500000000BE00000000000000000000000000000000000000000000000000000000000000000000BE000000000000000000F500000000000000000000
310
00000000000000000000000000000000F50015000000000000000000000000000000000000000000000000000000000000000000002D00000000000000000000000000000000000000000000000000000000000000000000001500F50000F50000000000000000000000000000000000000000000000000000000000000000
310
0000000000000000000000000000000000000000000000000000000000000000000000000000000000000000000000000000000000000000000000000000000000000000F500000000BE00000000000000000000000000000000000000000000000000000000000000000000BE000000000000000000F50000000000000000
310
000000000000000000000000000000000000F5F515F5F5F5F5F5F5F5F5F5F5F5F5F5F5F5F5F5F5F5F5F5F5F5F5F5F5F5F5F5F5F5F5F5F5F5F5F5F5F5F5F5F5F5F5F5F5F5F5F5F5F5F5F5F5F5F5F5F5F5F5F5F5F5F5F5F5F5F5F5F515F5F5F5F5F5000000000000000000000000000000000000000000000000000000000000
310
00000000000000000000000000000000000000000000000000000000000000000000000000000000000000000000000000000000000000000000000000000000000000000000F500000000BE00000000000000000000000000000000000000000000000000000000000000000000BE000000000000000000F5000000000000
310
0000000000000000000000000000000000000000F50000000000000000000000000000000000000000000000000000000000000000000000002D00000000000000000000000000000000000000000000000000000000000000000000000000F500000000000000000000000000000000000000000000000000000000000000
310
000000000000000000000000000000000000000000000000000000000000000000000000000000000000000000000000000000000000000000000000000000000000000000000000F500000000BE00000000000000000000000000000000000000000000000000000000000000000000BE000000000000000000F500000000
310
00000000000000000000000000000000000000000000F50000000000000000000000000000000000000000000000000000000000000000000000000000000000000000000000000000000000000000000000000000000000000000000000000000F50000000000000000000000000000000000000000000000000000000000
310
0000000000000000000000000000000000000000000000000000000000000000000000000000000000000000000000000000000000000000000000000000000000000000000000000000F500000000BE00000000000000000000000000000000000000000000000000000000000000000000BE000000000000000000F50000
310
000000000000000000000000000000000000000000000000F50000000000000000000000000000000000000000000000000000000000000000000000000000000000000000000000000000000000000000000000000000000000000000000000000000F5000000000000000000000000000000000000000000000000000000
310
00000000000000000000000000000000000000000000000000000000000000000000000000000000000000000000000000000000000000000000000000000000000000000000000000000000F500000000BE00000000000000000000000000000000000000000000000000000000000000000000BE000000000000000000F5
310
0000000000000000000000000000000000000000000000000000F50000000000000000000000000000000000000000000000000000000000000000000000000000000000000000000000000000000000000000000000000000000000000000000000000000F500000000000000000000000000000000000000000000000000
310
000000000000000000000000000000000000000000000000000000000000000000000000000000000000000000000000000000000000000000000000000000000000000000000000000000000000F500000000BE00000000000000000000000000000000000000000000000000000000000000000000BE0000000000000000
310
00F50000000000000000000000000000000000000000000000000000F5F5F5F5F5F5F5F5F5F5F5F5F5F5F5F5F5F5F5F5F5F5F5F5F5F5F5F5F5F5F5F5F5F5F5F5F5F5F5F5F5F5F5F5F5F5F5F5F5F5F5F5F5F5F5F5F5F5F5F5F5F5F5F5F5F5F5F5F5F5F5F5F5F5F5F50000000000000000000000000000000000000000000000
310
0000000000000000000000000000000000000000000000000000000000000000000000000000000000000000000000000000000000000000000000000000000000000000000000000000000000000000F500000000BE00000000000000000000000000000000000000000000000000000000000000000000BE000000000000
310
000000F50000000000000000000000000000000000000000000000000000000000000000000000000000000000000000000000000000000000000000000000000000F5F5F5F5000000000000000000000000000000000000000000000000000000000000000000000000000000000000000000000000000000000000000000
310
00000000000000000000000000000000000000000000000000000000000000000000000000000000000000000000000000000000000000000000000000000000000000000000000000000000000000000000F500000000BE00000000000000000000000000000000000000000000000000000000000000000000BE00000000
310
0000000000F500000000000000000000000000000000000000000000000000000000000000000000000000000000000000000000000000000000000000000000000000000000000000000000000000000000000000000000000000000000000000000000000000000000000000000000000000000000000000000000000000
310
000000000000000000000000000000000000000000000000000000000000000000000000000000000000000000000000000000000000000000000000000000000000000000000000000000000000000000000000F500000000BE00000000000000000000000000000000000000000000000000000000000000000000BE0000
310
00000000000000F50000000000000000000000000000000000000000000000000000000000000000000000000000000000000000000000000000000000000000000000000000000000000000000000000000000000000000000000000000000000000000000000000000000000000000000000000000000000000000000000
310
0000000000000000000000000000000000000000000000000000000000000000000000000000000000000000000000000000000000000000000000000000000000000000000000000000000000000000000000000000F500000000BE00000000000000000000000000000000000000000000000000000000000000000000BE
310
000000000000000000F500000000000000000000000000000000000000000000000000000000000000000000000000000000000000000000000000000000000000000000000000F5F5F5F5F5F50000000000000000000000000000000000000000000000000000000000000000000000000000000000000000000000000000
310
00000000000000000000000000000000000000000000000000000000000000000000000000000000000000000000000000000000000000000000000000000000000000000000000000000000000000000000000000000000F500000000BE000000000000000000000000000000000000000000000000000000000000000000
310
00BE000000000000000000F500000000000000000000000000000000000000000000000000000000000000000000000000000000000000000000000000000000000000000000000000F5F5F5F5F5F5000000000000000000000000000000000000000000000000000000000000000000000000000000000000000000000000
310
000000000000000000000000000000000000000000000000000000000000000000000000000000000000000000000000000000000000000000000000000000000000000000000000000000000000000000000000000000000000F500000000BE00000000000000000000000000000000000000000000000000000000000000
310
000000BE000000000000000000F500000000000000000000000000000000000000000000000000000000000000000000000000000000000000000000000000000000000000000000000000F5F5F5F5F5F500000000000000000000000000000000000000000000000000000000000000000000000000000000000000000000
310
0000000000000000000000000000000000000000000000000000000000000000000000000000000000000000000000000000000000000000000000000000000000000000000000000000000000000000000000000000000000000000F500000000BE0000000000000000000000000000000000000000000000000000000000
310
0000000000BE000000000000000000F5000000000000000000000000000000000000000000000000000000000000000000000000000000000000000000000000000000000000000000000000000000000000000000000000000000000000000000000000000000000000000000000000000000000000000000000000000000
310
00000000000000000000000000000000000000000000000000000000000000000000000000000000000000000000000000000000000000000000000000000000000000000000000000000000000000000000000000000000000000000000F500000000BE000000000000000000000000000000000000000000000000000000
310
00000000000000BE000000000000000000F500000000000000000000000000000000000000000000000000000000000000000000000000000000000000000000000000000000000000000000000000000000000000000000000000000000000000000000000000000000000000000000000000000000000000000000000000
310
000000000000000000000000000000000000000000000000000000000000000000000000000000000000000000000000000000000000000000000000000000000000000000000000000000000000000000000000000000000000000000000000F500000000BE00000000000000000000000000000000000000000000000000
310
000000000000000000BE000000000000000000F50000000000000000000000000000000000000000000000000000000000000000000000000000000000000000000000000000000000000000000000000000000000000000000000000000000000000000000000000000000000000000000000000000000000000000000000
310
0000000000000000000000000000000000000000000000000000000000000000000000000000000000000000000000000000000000000000000000000000000000000000000000000000000000000000000000000000000000000000000000000000F500000000BE0000000000000000000000000000000000000000000000
310
0000000000000000000000BE000000000000000000F5000000000000000000000000000000000000000000000000000000000000000000000000000000000000000000000000000000000000000000000000000000000000000000000000000000000000000000000000000000000000000000000000000000000000000000
310
00000000000000000000000000000000000000000000000000000000000000000000000000000000000000000000000000000000000000000000000000000000000000000000000000000000000000000000000000000000000000000000000000000000F500000000BE000000000000000000000000000000000000000000
310
00000000000000000000000000BE000000000000000000F500000000000000000000000000000000000000000000000000000000000000000000000000000000000000000000000000000000000000000000000000000000000000000000000000000000000000000000000000000000000000000000000000000000000000
310
0000000000000000000000000000000000000000000000000000F5F5F5000000000000000000000000000000000000F5F5F500000000000000000000000000000000000000000000000000000000000000000000000000000000000000000000000000000000F500000000BE00000000000000000000000000000000000000
310
000000000000000000000000000000BE000000000000000000F50000000000000000000000000000000000000000000000000000000000000000000000000000000000000000000000000000000000000000000000000000000000000000000000000000000000000000000000000000000000000000000000000000000000
310
0000000000000000000000000000000000000000000000000000F5F5F5F5F5F5000000000000000000000000000000F5F5F5F5F5F5F50000000000000000000000000000000000000000000000000000000000000000000000000000000000000000000000000000F500000000BE0000000000000000000000000000000000
310
0000000000000000000000000000000000BE000000000000000000F5000000000000000000000000000000000000000000000000000000000000000000000000000000000000000000000000000000000000000000000000000000000000000000000000000000000000000000000000000000000000000000000000000000
310
0000000000000000000000000000000000000000000000000000F5F5F5F5F5F5F5F5000000000000000000000000000000F5F5F5F5F5F5F50000000000000000000000000000000000000000000000000000000000000000000000000000000000000000000000000000F500000000BE000000000000000000000000000000
310
00000000000000000000000000000000000000BE000000000000000000F500000000000000000000000000000000000000000000000000000000F5F50000000000000000000000000000000000000000000000000000000000000000F5F5F5F500000000000000000000000000000000000000000000000000000000000000
310
00F5F5000000000000000000000000000000000000000000000000F5F5F5F50000F5F5F5000000000000000000000000000000F50000000000F50000000000000000000000000000000000000000000000000000000000000000000000000000000000000000000000000000F500000000BE00000000000000000000000000
310
000000000000000000000000000000000000000000BE000000000000000000F5000000000000000000000000000000000000000000000000000000F5F5F5F5F5F5F5F5F5F5F5F5F5F5F5F5F5F5F5F5F5F5F5F5F5F5F5F5F5F5F5F5F5F5F5F5F5F5F5F5F5F5F5F5F5F5F5F5F5F5F5F5F5F5F5F5F5F5F5F5F5F5F5F5F5F5F5F5
310
F5F5F5F5F5F50000000000000000000000000000000000000000000000F5F5F5F5F5F5F5F5F50000F5000000000000000000000000F50000000000F50000000000000000000000000000000000000000000000000000000000000000000000000000000000000000000000000000F500000000BE0000000000000000000000
310
0000000000000000000000000000000000000000000000BE000000000000000000F500000000000000000000000000000000000000000000000000000000F50000000000000000000000000000000000000000000000000000000000000000000000F500000000000000000000000000000000000000000000000000000000
310
0000000000F5F5000000000000000000000000000000000000000000000000000000F50000F500F50000F5F5F500000000000000000000F50000000000F50000000000000000000000000000000000000000000000000000000000000000000000000000000000000000000000000000F500000000BE000000000000000000
310
00000000000000000000000000000000000000000000000000BE000000000000000000F500000000000000000000000000000000000000000000000000000000F500000000000000000000000000000000000000000000000000000000000000000000F5F5F500000000000000000000000000000000000000000000000000
310
00000000000000F5F5000000000000000000000000000000000000000000000000000000F50000F500F50000F5F5F500000000000000000000F50000000000F50000000000000000000000000000000000000000000000000000000000000000000000000000000000000000000000000000F500000000BE00000000000000
310
000000000000000000000000000000000000000000000000000000BE000000000000000000F500000000000000000000000000000000000000000000000000000000F5F5F5F5F5F5F5F5F5F5F5F5F5F5F5F5F5F5F5F5F5F5F5F5F5F5F5F5F5F5F5F5F5F5F5F5F5F5F5F5F5F5F5F5F5F5F5F5F5F5F5F5F5F5F5F5F5F5F5F5F5
310
F5F5F5F5F5F5F5F5F5F5F5F5F5F5F5F5F5F5F500000000000000000000000000000000000000F5F5F5F5F5F500F5F5000000000000000000000000F5F5F5F5F5F5F5F5F5000000000000000000000000000000000000000000000000000000000000000000000000000000000000000000000000F500000000BE0000000000
310
0000000000000000000000000000000000000000000000000000000000BE000000000000000000F500000000000000000000000000000000000000000000000000000000F5000000000000000000000000000000000000000000000000000000000000000000002D0000000000000000000000000000000000000000000000
310
0000000000000000000000F5F5000000000000F5F500000000000000000000000000000000000000F500000000F50000F5000000000000000000000000F50000000000F500F5000000000000000000000000000000000000000000000000000000000000000000000000000000000000000000000000F500000000BE000000
310
00000000000000000000000000000000000000000000000000000000000000BE000000000000000000F500000000000000000000000000000000000000000000000000000000F5000000000000000000000000000000000000000000000000000000000000000000002D000000000000000000000000000000000000000000
310
000000000000000000000000F5F5F500000000000000F5F5000000000000000000000000000000000000F500000000F50000F5F5F500000000000000000000F50000000000F500F5F5F500000000000000000000000000000000000000000000000000000000000000000000000000000000000000000000F500000000BE00
310
000000000000000000000000000000000000000000000000000000000000000000BE000000000000000000F500000000000000000000000000000000000000000000000000000000F5000000000000000000000000000000000000000000000000000000000000000000002D00000000000000000000000000000000000000
310
0000000000000000000000000000F5F5F5F5F5F5F5000000F5F5000000000000000000000000000000000000F500000000F500F5F5F5F500000000000000000000F50000000000F500F5F5F500000000000000000000000000000000000000000000000000000000000000000000000000000000000000000000F500000000
310
BE00000000000000000000000000000000000000000000000000000000000000000000BE000000000000000000F500000000000000000000000000000000000000000000000000000000F5000000000000000000000000000000000000000000000000000000000000000000002D0000000000000000000000000000000000
310
000000000000000000000000000000000000F5F500F500000000F5F5000000000000000000000000000000000000F50000F5F5F5F5F5F5F5F500000000000000000000F50000000000F500F5F50000000000000000000000000000000000000000000000000000000000000000000000000000000000000000000000F50000
310
0000BE00000000000000000000000000000000000000000000000000000000000000000000BE000000000000000000F50000000000000000000000000000000000000000000000000000F5F5F5000000000000000000000000000000000000000000000000000000000000000000002D000000000000000000000000000000
310
0000000000000000000000000000000000000000F5F5F5F5F5F5F5F5F5F5000000000000000000000000000000000000F50000F500000000F5000000000000000000000000F5F5F5F5F5F5F5F5F5F5F500000000000000000000000000000000000000000000000000000000000000000000000000000000000000000000F5
310
00000000BE00000000000000000000000000000000000000000000000000000000000000000000BE000000000000000000F50000000000000000000000000000000000000000000000000000F500F5000000000000000000000000000000000000000000000000000000000000000000002D00000000000000000000000000
310
000000000000000000000000000000000000000000001500F500000000F5F5F5000000000000000000000000000000000000F50000F500000000F5000000000000000000000000F50000F50000F500F5F500000000000000000000000000000000000000000000000000000000000000000000000000000000000000000000
310
00F500000000BE00000000000000000000000000000000000000000000000000000000000000000000BE000000000000000000F50000000000000000000000000000000000000000000000000000F500F5000000000000000000000000000000000000000000000000000000000000000000002D0000000000000000000000
310
0000000000000000000000000000000000000000000000001500F50000000000F500000000000000000000000000000000000000F50000F500000000F5000000000000000000000000F50000F50000F500F5000000000000000000000000000000000000000000000000000000000000000000000000000000000000000000
310
000000F500000000BE00000000000000000000000000000000000000000000000000000000000000000000BE000000000000000000F50000000000000000000000000000000000000000000000000000F500F5000000000000000000000000000000000000000000000000000000000000000000002D000000000000000000
310
00000000000000000000000000000000000000000000000000001500F50000000000F500000000000000000000000000000000000000F50000F500000000F5000000000000000000000000F50000F50000F500F500000000000000000000000000000000000000000000000000000000000000000000000000000000000000
310
0000000000F500000000BE00000000000000000000000000000000000000000000000000000000000000000000BE000000000000000000F50000000000000000000000000000000000000000000000000000F500F5000000000000000000000000000000000000000000000000000000000000000000002D00000000000000
310
000000000000000000000000000000000000000000000000000000001500F50000000000F500000000000000000000000000000000000000F50000F500000000F5F5F500000000000000000000F50000F50000F500F50000000000000000000000000000000000000000000000000000000000000000000000000000000000
310
00000000000000F500000000BE00000000000000000000000000000000000000000000000000000000000000000000BE000000000000000000F50000000000000000000000000000000000000000000000000000F500F5000000000000000000000000000000000000000000000000000000000000000000002D0000000000
310
0000000000000000000000000000000000000000000000000000000000001500F50000000000F500000000000000000000000000000000000000F50000F500000000F5F5F500000000000000000000F50000F50000F500F5000000000000000000000000000000000000000000000000000000000000000000000000000000
310
000000000000000000F500000000BE00000000000000000000000000000000000000000000000000000000000000000000BE000000000000000000F50000000000000000000000000000000000000000000000000000F500F5000000000000000000000000000000000000000000000000000000000000000000002D000000
310
00000000000000000000000000000000000000000000000000000000000000001500F50000000000F500000000000000000000000000000000000000F50000F500000000F5F5F500000000000000000000F50000F50000F500F500000000000000000000000000000000000000000000000000000000000000000000000000
310
0000000000000000000000F500000000BE00000000000000000000000000000000000000000000000000000000000000000000BE000000000000000000F50000000000000000000000000000000000000000000000F5F500F500F5000000000000000000000000000000000000000000000000000000000000000000002D00
310
000000000000000000000000000000000000000000000000000000000000000000001500F5F5F5000000F5F5000000000000000000000000000000000000F50000F500000000F5F5F500000000000000000000F50000F50000F500F5F5F5000000000000000000000000000000000000000000000000000000000000000000
310
00000000000000000000000000F500000000BE00000000000000000000000000000000000000000000000000000000000000000000BE000000000000000000F50000000000000000000000000000000000000000000000F5F5F5F500F500000000000000000000000000000000000000000000000000000000000000000000
310
2D00000000000000000000000000000000000000000000000000000000000000000000001500F5F5F5F50000F5F5000000000000000000000000000000000000F50000F500000000F5000000000000000000000000F50000F50000F500F5F5F500000000000000000000000000000000000000000000000000000000000000
310
000000000000000000000000000000F500000000BE00000000000000000000000000000000000000000000000000000000000000000000BE000000000000000000F50000000000000000000000000000000000000000000000000000F500F50000000000000000000000000000000000000000000000000000000000000000
310
00002D00000000000000000000000000000000000000000000000000000000000000000000001500F50000000000F5F5000000000000000000000000000000000000F50000F500000000F5000000000000000000000000F50000F50000F500F5F5F50000000000000000000000000000000000000000000000000000000000
310
0000000000000000000000000000000000F500000000BE00000000000000000000000000000000000000000000000000000000000000000000BE000000000000000000F50000000000000000000000000000000000000000000000000000F500F5000000000000000000000000000000000000000000000000000000000000
310
000000002D00000000000000000000000000000000000000000000000000000000000000000000001500F50000000000F5F5000000000000000000000000000000000000F50000F500000000F5000000000000000000000000F50000F50000F500F5F500000000000000000000000000000000000000000000000000000000
310
00000000000000000000000000000000000000F500000000BE00000000000000000000000000000000000000000000000000000000000000000000BE000000000000000000F50000000000000000000000000000000000000000000000000000F500F500000000000000000000000000000000000000000000000000000000
310
0000000000002D00000000000000000000000000000000000000000000000000000000000000000000001500F50000000000F500000000000000000000000000000000000000F50000F500000000F5000000000000000000000000F50000F50000F500F5000000000000000000000000000000000000000000000000000000
310
000000000000000000000000000000000000000000F500000000BE00000000000000000000000000000000000000000000000000000000000000000000BE000000000000000000F50000000000000000000000000000000000000000000000000000F500F50000000000000000000000000000000000000000000000000000
310
00000000000000002D00000000000000000000000000000000000000000000000000000000000000000000001500F50000000000F500000000000000000000000000000000000000F50000F5F5F5F5F5F5F5F500000000000000000000F50000F50000F500F500000000000000000000000000000000000000000000000000
310
0000000000000000000000000000000000000000000000F500000000BE00000000000000000000000000000000000000000000000000000000000000000000BE000000000000000000F50000000000000000000000000000000000000000000000000000F500F5000000000000000000000000000000000000000000000000
310
000000000000000000002D00000000000000000000000000000000000000000000000000000000000000000000001500F50000000000F500000000000000000000000000000000000000F5000000F5F500F5F5F5F500000000000000000000F50000F50000F500F50000000000000000000000000000000000000000000000
310
00000000000000000000000000000000000000000000000000F500000000BE00000000000000000000000000000000000000000000000000000000000000000000BE000000000000000000F50000000000000000000000000000000000000000000000000000F500F500000000000000000000000000000000000000000000
310
0000000000000000000000002D00000000000000000000000000000000000000000000000000000000000000000000001500F50000000000F500000000000000000000000000000000000000F500000000F50000F5F5F500000000000000000000F50000F50000F500F5000000000000000000000000000000000000000000
310
000000000000000000000000000000000000000000000000000000F500000000BE00000000000000000000000000000000000000000000000000000000000000000000BE000000000000000000F50000000000000000000000000000000000000000000000000000F500F50000000000000000000000000000000000000000
310
00000000000000000000000000002D00000000000000000000000000000000000000000000000000000000000000000000001500F50000000000F500000000000000000000000000000000000000F500000000F50000F5000000000000000000000000F50000F50000F500F500000000000000000000000000000000000000
310
0000000000000000000000000000000000000000000000000000000000F500000000BE00000000000000000000000000000000000000000000000000000000000000000000BE000000000000000000F50000000000000000000000000000000000000000000000000000F5F5F5F5F5F5F5F5F5F5F5F5F5F5F5F5F5F5F5F5F5
310
F5F5F5F5F5F5F5F5F5F5F5F5F5F5F5F5F5F5F5F5F5F5F5F5F5F5F5F5F5F5F5F5F5F5F5F5F5F5F5F5F5F5F5F5F5F5F5F5F5F5F5F5F5F5F5F5F5F5F5F5F500000000000000000000000000000000000000F5F5F5F5F5F500F5F5000000000000000000000000F5F5F5F5F5F5F5F5F50000000000000000000000000000000000
310
00000000000000000000000000000000000000000000000000000000000000F500000000BE00000000000000000000000000000000000000000000000000000000000000000000BE000000000000000000F5000000000000000000000000000000000000000000000000000000000000000000000000000000000000000000
310
000000000000000000000000000000000000F5F5F5000000000000000000000000000000000000000000000000000000000000000000000000000000000000000000000000000000000000000000000000000000000000000000F5F5F500000000000000000000000000000000000000000000000000000000000000000000
310
000000000000000000000000000000000000000000000000000000000000000000F500000000BE00000000000000000000000000000000000000000000000000000000000000000000BE000000000000000000F50000000000000000000000000000000000000000000000000000F500F50000000000000000000000000000
310
00000000000000000000000000000000000000002DF500000000000000000000000000000000000000000000000000000000000000000000F500F5000000000000000000000000000000000000000000000000000000000000000000F5F5F500000000000000000000F50000F50000F5000000000000000000000000000000
310
0000000000000000000000000000000000000000000000000000000000000000000000F500000000BE00000000000000000000000000000000000000000000000000000000000000000000BE000000000000000000F50000000000000000000000000000000000000000000000000000F5F5F5F5F5F5F5F5F5F5F5F5F5F5F5
310
F5F5F5F5F5F5F5F5F5F5F5F5F5F5F5F5F5F5F5F5F5F5F5F5F5F5F5F5F5F5F5F5F5F5F5F5F5F5F5F5F5F5F5F5F5F5F5F5F5F5F5F5F5F5F5F5F5F5F5F5F5000000000000000000000000000000000000000000000000000000000000000000F5F5F500000000000000F5F5F5F5F5F5F5F5F5F5F5F5F500000000000000000000
310
00000000000000000000000000000000000000000000000000000000000000000000000000F500000000BE00000000000000000000000000000000000000000000000000000000000000000000BE000000000000000000F50000000000000000000000000000000000000000000000000000F5F5F500000000000000000000
310
0000000000000000000000000000000000000000000000F5F5F5F5000000000000000000000000000000000000000000000000000000000000000000F5F5F500000000000000000000000000000000000000000000000000000000000000000000000000000000000000F5F5F50000F5F5000000F5F5000000000000000000
310
000000000000000000000000000000000000000000000000000000000000000000000000000000F500000000BE00000000000000000000000000000000000000000000000000000000000000000000BE000000000000000000F50000000000000000000000000000000000000000000000000000F5F5F5F5F5F5F5F5F5F5F5
310
F5F5F5F5F5F5F5F5F5F5F5F5F5F5F5F5F5F5F5F5F5F5F5F5F5F5F5F5F5F5F5F5F5F5F5F5F5F5F5F5F5F5F5F5F5F5F5F5F5F5F5F5F5F5F5F5F5F5F5F5F5F5F5F5F50000000000000000000000000000000000000000000000000000000000000000000000000000000000000000000000000000000000000000000000000000
310
0000000000000000000000000000000000000000000000000000000000000000000000000000000000F500000000BE00000000000000000000000000000000000000000000000000000000000000000000BE000000000000000000F50000000000000000000000000000000000000000000000000000F50000000000000000
310
000000000000000000000000000000000000000000000000000000F5F5F5F50000000000000000000000000000000000000000000000000000000000000000000000F5000000000000000000000000000000000000000000000000000000000000000000000000000000000000000000000000000000000000000000000000
310
00000000000000000000000000000000000000000000000000000000000000000000000000000000000000F500000000BE00000000000000000000000000000000000000000000000000000000000000000000BE000000000000000000F5000000000000000000000000000000000000000000000000000000000000000000
310
0000000000000000000000000000000000000000000000000000000000F5F5F5F500000000000000000000000000000000000000000000000000000000000000000000000000000000000000000000000000000000000000000000000000000000000000000000000000000000000000000000000000000000000000000000
310
000000000000000000000000000000000000000000000000000000000000000000000000000000000000000000F500000000BE00000000000000000000000000000000000000000000000000000000000000000000BE000000000000000000F500000000000000000000000000000000000000000000000000000000000000
310
00000000000000000000000000000000000000000000000000000000000000000000000000000000000000000000000000000000000000000000000000000000000000000000000000000000000000000000000000000000000000000000000000000000000000000000000000000000000000000000000000000000000000
310
0000000000000000000000000000000000000000000000000000000000000000000000000000000000000000000000F500000000BE00000000000000000000000000000000000000000000000000000000000000000000BE000000000000000000F50000000000000000000000000000000000000000000000000000000000
310
00000000000000000000000000000000000000000000000000000000000000000000000000000000000000000000000000000000000000000000000000000000000000000000000000000000000000000000000000000000000000000000000000000000000000000000000000000000000000000000000000000000000000
310
00000000000000000000000000000000000000000000000000000000000000000000000000000000000000000000000000F500000000BE00000000000000000000000000000000000000000000000000000000000000000000BE000000000000000000F5000000000000000000000000000000000000000000000000000000
310
00000000000000000000000000000000000000000000000000000000000000000000F5F5F5F5F5F500000000000000000000000000000000000000000000000000000000000000000000000000000000000000000000000000000000000000000000F5F500F5F500F5F5F5F50000000000000000000000000000F5F5F5F5F5
310
000000000000000000000000000000000000000000000000000000000000000000000000000000000000000000000000000000F500000000BE00000000000000000000000000000000000000000000000000000000000000000000BE000000000000000000F500000000000000000000000000000000000000000000000000
310
000000000000000000000000000000000000000000000000000000000000000000000000F5F5F5F5F5F500000000000000000000000000000000000000000000000000000000000000000000000000000000000000000000000000000000000000000000F5F5F5F5F5F5F5F5F5F500000000000000000000000000F5F5F5F5
310
F5F5000000000000000000000000000000000000000000000000000000000000000000000000000000000000000000000000000000F500000000BE00000000000000000000000000000000000000000000000000000000000000000000BE000000000000000000F50000000000000000000000000000000000000000000000
310
00000000000000000000000000000000000000000000000000000000000000000000000000000000000000000000000000000000000000000000000000000000000000000000000000000000000000000000000000000000000000000000000000000000000000000000000000000000000000000000000000000000000000
310
00000000000000000000000000000000000000000000000000000000000000000000000000000000000000000000000000000000000000F500000000BE00000000000000000000000000000000000000000000000000000000000000000000BE000000000000000000F5000000000000000000000000000000000000000000
310
00000000000000000000000000000000000000000000000000000000000000000000000000000000000000000000000000000000000000000000000000000000000000000000000000000000000000000000000000000000000000000000000000000000000000000000000000000000000000000000000000000000000000
310
000000000000000000000000000000000000000000000000000000000000000000000000000000000000000000000000000000000000000000F500000000BE00000000000000000000000000000000000000000000000000000000000000000000BE000000000000000000F500000000000000000000000000000000000000
310
00000000000000000000000000000000000000000000000000000000000000000000000000000000000000000000000000000000000000000000000000000000000000000000000000000000000000000000000000000000000000000000000000000000000000000000000000000000000000000000000000000000000000
310
0000000000000000000000000000000000000000000000000000000000000000000000000000000000000000000000000000000000000000000000F500000000BE00000000000000000000000000000000000000000000000000000000000000000000BE000000000000000000F50000000000000000000000000000000000
310
00000000000000000000000000000000000000000000000000000000000000000000000000000000000000000000000000000000000000000000000000000000000000000000000000000000000000000000000000000000000000000000000000000000000000000000000000000000000000000000000000000000000000
310
00000000000000000000000000000000000000000000000000000000000000000000000000000000000000000000000000000000000000000000000000F500000000BE00000000000000000000000000000000000000000000000000000000000000000000BE000000000000000000F5000000000000000000000000000000
310
00000000000000000000000000000000000000000000000000000000000000000000000000000000000000000000000000000000000000000000000000000000000000000000000000000000000000000000000000000000000000000000000000000000000000000000000000000000000000000000000000000000000000
310
000000000000000000000000000000000000000000000000000000000000000000000000000000000000000000000000000000000000000000000000000000F500000000BE00000000000000000000000000000000000000000000000000000000000000000000BE000000000000000000F500000000000000000000000000
310
00000000000000000000000000000000000000000000000000000000000000000000000000000000000000000000000000000000000000000000000000000000000000000000000000000000000000000000000000000000000000000000000000000000000000000000000000000000000000000000000000000000000000
310
0000000000000000000000000000000000000000000000000000000000000000000000000000000000000000000000000000000000000000000000000000000000F500000000BE00000000000000000000000000000000000000000000000000000000000000000000BE000000000000000000F50000000000000000000000
310
00000000000000000000000000000000000000000000000000000000000000000000000000000000000000000000000000000000000000000000000000000000000000000000000000000000000000000000000000000000000000000000000000000000000000000000000000000000000000000000000000000000000000
310
00000000000000000000000000000000000000000000000000000000000000000000000000000000000000000000000000000000000000000000000000000000000000F500000000BE00000000000000000000000000000000000000000000000000000000000000000000BE000000000000000000F5000000000000000000
310
00000000000000000000000000000000000000000000000000000000000000000000000000000000000000000000000000000000000000000000000000000000000000000000000000000000000000000000000000000000000000000000000000000000000000000000000000000000000000000000000000000000000000
310
000000000000000000000000000000000000000000000000000000000000000000000000000000000000000000000000000000000000000000000000000000000000000000F500000000BE00000000000000000000000000000000000000000000000000000000000000000000BE000000000000000000F500000000000000
310
00000000000000000000000000000000000000000000000000000000000000000000000000000000000000000000000000000000000000000000000000000000000000000000000000000000000000000000000000000000000000000000000000000000000000000000000000000000000000000000000000000000000000
310
0000000000000000000000000000000000000000000000000000000000000000000000000000000000000000000000000000000000000000000000000000000000000000000000F500000000BE00000000000000000000000000000000000000000000000000000000000000000000BE000000000000000000F50000000000
310
00000000000000000000000000000000000000000000000000000000000000000000000000000000000000000000000000000000000000000000000000000000000000000000000000000000000000000000000000000000000000000000000000000000000000000000000000000000000000000000000000000000000000
310
00000000000000000000000000000000000000000000000000000000000000000000000000000000000000000000000000000000000000000000000000000000000000000000000000F500000000BE00000000000000000000000000000000000000000000000000000000000000000000BE000000000000000000F5F5F5F5
310
F5F5F5F5F5F5F5F5F5F5F5F5F5F5F5F5F5F5F5F5F5F5F5F5F5F5F5F5F5F5F5F5F5F5F5F5F5F5F5F5F5F5F5F5F5F5F5F5F5F5F5F5F5F5F5F5F5F5F5F5F5F5F5F5F5F5F5F5F5F5F5F5F5F5F5F5F5F5F5F5F5F5F5F5F5F5F5F5F5F5F5F5F5F5F5F5F5F5F5F5F5F5F5F5F5F5F5F5F5F5F5F5F5F5F5F5F5F5F5F5F5F5F5F5F5F5F5
310
F5F5F5F5F5F5F5F5F5F5F5F5F5F5F5F5F5F5F5F5F5F5F5F5F5F5F5F5F5F5F5F5F5F5F5F5F5F5F5F5F5F5F5F5F5F5F5F5F5F5F5F5F5F5F5F5F5F5F5F5F5F5F5F5F5F5F5F5F5F5F5F5F5F5F5F500000000BE00000000000000000000000000000000000000000000000000000000000000000000BE0000000000000000000000
310
00000000000000000000000000000000000000000000000000000000000000000000000000000000000000000000000000000000000000000000000000000000000000000000000000000000000000000000000000000000000000000000000000000000000000000000000000000000000000000000000000000000000000
310
00000000000000000000000000000000000000000000000000000000000000000000000000000000000000000000000000000000000000000000000000000000000000000000000000000000000000000000BE00000000000000000000000000000000000000000000000000000000000000000000BE000000000000000000
310
00000000000000000000000000000000000000000000000000000000000000000000000000000000000000000000000000000000000000000000000000000000000000000000000000000000000000000000000000000000000000000000000000000000000000000000000000000000000000000000000000000000000000
310
000000000000000000000000000000000000000000000000000000000000000000000000000000000000000000000000000000000000000000000000000000000000000000000000000000000000000000000000BE00000000000000000000000000000000000000000000000000000000000000000000BE00000000000000
310
00000000000000000000000000000000000000000000000000000000000000000000000000000000000000000000000000000000000000000000000000000000000000000000000000000000000000000000000000000000000000000000000000000000000000000000000000000000000000000000000000000000000000
310
0000000000000000000000000000000000000000000000000000000000000000000000000000000000000000000000000000000000000000000000000000000000000000000000000000000000000000000000000000BE00000000000000000000000000000000000000000000000000000000000000000000BE0000000000
310
00000000000000000000000000000000000000000000000000000000000000000000000000000000000000000000000000000000000000000000000000000000000000000000000000000000000000000000000000000000000000000000000000000000000000000000000000000000000000000000000000000000000000
310
00000000000000000000000000000000000000000000000000000000000000000000000000000000000000000000000000000000000000000000000000000000000000000000000000000000000000000000000000000000BE00000000000000000000000000000000000000000000000000000000000000000000BEBEBEBE
310
BEBEBEBEBEBEBEBEBEBEBEBEBEBEBEBEBEBEBEBEBEBEBEBEBEBEBEBEBEBEBEBEBEBEBEBEBEBEBEBEBEBEBEBEBEBEBEBEBEBEBEBEBEBEBEBEBEBEBEBEBEBEBEBEBEBEBEBEBEBEBEBEBEBEBEBEBEBEBEBEBEBEBEBEBEBEBEBEBEBEBEBEBEBEBEBEBEBEBEBEBEBEBEBEBEBEBEBEBEBEBEBEBEBEBEBEBEBEBEBEBEBEBEBEBEBEBE
310
BEBEBEBEBEBEBEBEBEBEBEBEBEBEBEBEBEBEBEBEBEBEBEBEBEBEBEBEBEBEBEBEBEBEBEBEBEBEBEBEBEBEBEBEBEBEBEBEBEBEBEBEBEBEBEBEBEBEBEBEBEBEBEBEBEBEBEBEBEBEBEBEBEBEBEBEBEBEBEBEBEBEBEBEBEBEBEBEBEBEBE000000000000000000000000000000000000000000000000000000000000000000000000
310
00000000000000000000000000000000000000000000000000000000000000000000000000000000000000000000000000000000000000000000000000000000000000000000000000000000000000000000000000000000000000000000000000000000000000000000000000000000000000000000000000000000000000
310
0000000000000000000000000000000000000000000000000000000000000000000000000000000000000000000000000000000000000000000000000000000000000000000000000000000000000000000000000000000000000000000000000000000000000000000000000000
  0
XRECORD
  5
563D
102
{ACAD_REACTORS
330
563C
102
}
330
563C
100
AcDbXrecord
280
     1
102
SHADEPLOT
 70
     0
102
SHADEPLOTRESLEVEL
 70
     2
102
SHADEPLOTCUSTOMDPI
 70
   300
  0
XRECORD
  5
563F
102
{ACAD_REACTORS
330
563E
102
}
330
563E
100
AcDbXrecord
280
     1
102
SHADEPLOT
 70
     0
102
SHADEPLOTRESLEVEL
 70
     2
102
SHADEPLOTCUSTOMDPI
 70
   300
  0
XRECORD
  5
5641
102
{ACAD_REACTORS
330
55A4
102
}
330
55A4
100
AcDbXrecord
280
     1
102
MATERIAL
148
0.0
149
0.0
149
0.0
 93
        0
 94
      127
282
     0
 72
     0
 77
     0
171
     0
175
     0
179
     0
273
     0
  0
XRECORD
  5
55A6
102
{ACAD_REACTORS
330
55A4
102
}
330
55A4
100
AcDbXrecord
280
     1
270
     1
271
     1
  0
XRECORD
  5
55A5
102
{ACAD_REACTORS
330
55A4
102
}
330
55A4
100
AcDbXrecord
280
     1
270
     1
271
     1
  0
XRECORD
  5
55A9
102
{ACAD_REACTORS
330
55A4
102
}
330
55A4
100
AcDbXrecord
280
     1
270
     1
271
     1
  0
XRECORD
  5
55A8
102
{ACAD_REACTORS
330
55A4
102
}
330
55A4
100
AcDbXrecord
280
     1
270
     1
271
     1
  0
XRECORD
  5
55AA
102
{ACAD_REACTORS
330
55A4
102
}
330
55A4
100
AcDbXrecord
280
     1
270
     1
271
     1
  0
XRECORD
  5
55A7
102
{ACAD_REACTORS
330
55A4
102
}
330
55A4
100
AcDbXrecord
280
     1
270
     1
271
     1
  0
XRECORD
  5
5640
102
{ACAD_REACTORS
330
559C
102
}
330
559C
100
AcDbXrecord
280
     1
102
MATERIAL
148
0.0
149
0.0
149
0.0
 93
        0
 94
      127
282
     0
 72
     0
 77
     0
171
     0
175
     0
179
     0
273
     0
  0
XRECORD
  5
559E
102
{ACAD_REACTORS
330
559C
102
}
330
559C
100
AcDbXrecord
280
     1
270
     1
271
     1
  0
XRECORD
  5
559D
102
{ACAD_REACTORS
330
559C
102
}
330
559C
100
AcDbXrecord
280
     1
270
     1
271
     1
  0
XRECORD
  5
55A1
102
{ACAD_REACTORS
330
559C
102
}
330
559C
100
AcDbXrecord
280
     1
270
     1
271
     1
  0
XRECORD
  5
55A0
102
{ACAD_REACTORS
330
559C
102
}
330
559C
100
AcDbXrecord
280
     1
270
     1
271
     1
  0
XRECORD
  5
55A2
102
{ACAD_REACTORS
330
559C
102
}
330
559C
100
AcDbXrecord
280
     1
270
     1
271
     1
  0
XRECORD
  5
559F
102
{ACAD_REACTORS
330
559C
102
}
330
559C
100
AcDbXrecord
280
     1
270
     1
271
     1
  0
XRECORD
  5
5642
102
{ACAD_REACTORS
330
55AC
102
}
330
55AC
100
AcDbXrecord
280
     1
102
MATERIAL
148
0.0
149
0.0
149
0.0
 93
        0
 94
      127
282
     0
 72
     0
 77
     0
171
     0
175
     0
179
     0
273
     0
  0
XRECORD
  5
55AE
102
{ACAD_REACTORS
330
55AC
102
}
330
55AC
100
AcDbXrecord
280
     1
270
     1
271
     1
  0
XRECORD
  5
55AD
102
{ACAD_REACTORS
330
55AC
102
}
330
55AC
100
AcDbXrecord
280
     1
270
     1
271
     1
  0
XRECORD
  5
55B1
102
{ACAD_REACTORS
330
55AC
102
}
330
55AC
100
AcDbXrecord
280
     1
270
     1
271
     1
  0
XRECORD
  5
55B0
102
{ACAD_REACTORS
330
55AC
102
}
330
55AC
100
AcDbXrecord
280
     1
270
     1
271
     1
  0
XRECORD
  5
55B2
102
{ACAD_REACTORS
330
55AC
102
}
330
55AC
100
AcDbXrecord
280
     1
270
     1
271
     1
  0
XRECORD
  5
55AF
102
{ACAD_REACTORS
330
55AC
102
}
330
55AC
100
AcDbXrecord
280
     1
270
     1
271
     1
  0
XRECORD
  5
5634
102
{ACAD_REACTORS
330
5633
102
}
330
5633
100
AcDbXrecord
280
     1
102
ACAD_ROUNDTRIP_2012_MLEADER_STYLE
298
     1
  0
CELLSTYLEMAP
  5
5632
102
{ACAD_REACTORS
330
5631
102
}
330
5631
100
AcDbCellStyleMap
 90
        3
300
CELLSTYLE
  1
TABLEFORMAT_BEGIN
 90
        5
170
     1
 91
        0
 92
    32768
 62
   257
 93
        1
300
CONTENTFORMAT
  1
CONTENTFORMAT_BEGIN
 90
        0
 91
        0
 92
        4
 93
        0
300

 40
0.0
140
1.0
 94
        5
 62
     0
340
11
144
6.0
309
CONTENTFORMAT_END
171
     1
301
MARGIN
  1
CELLMARGIN_BEGIN
 40
1.5
 40
1.5
 40
1.5
 40
1.5
 40
0.18
 40
0.18
309
CELLMARGIN_END
 94
        6
 95
        1
302
GRIDFORMAT
  1
GRIDFORMAT_BEGIN
 90
        0
 91
        1
 62
     0
 92
       -2
340
0
 93
        0
 40
0.045
309
GRIDFORMAT_END
 95
        2
302
GRIDFORMAT
  1
GRIDFORMAT_BEGIN
 90
        0
 91
        1
 62
     0
 92
       -2
340
0
 93
        0
 40
0.045
309
GRIDFORMAT_END
 95
        4
302
GRIDFORMAT
  1
GRIDFORMAT_BEGIN
 90
        0
 91
        1
 62
     0
 92
       -2
340
0
 93
        0
 40
0.045
309
GRIDFORMAT_END
 95
        8
302
GRIDFORMAT
  1
GRIDFORMAT_BEGIN
 90
        0
 91
        1
 62
     0
 92
       -2
340
0
 93
        0
 40
0.045
309
GRIDFORMAT_END
 95
       16
302
GRIDFORMAT
  1
GRIDFORMAT_BEGIN
 90
        0
 91
        1
 62
     0
 92
       -2
340
0
 93
        0
 40
0.045
309
GRIDFORMAT_END
 95
       32
302
GRIDFORMAT
  1
GRIDFORMAT_BEGIN
 90
        0
 91
        1
 62
     0
 92
       -2
340
0
 93
        0
 40
0.045
309
GRIDFORMAT_END
309
TABLEFORMAT_END
  1
CELLSTYLE_BEGIN
 90
        1
 91
        1
300
_TITLE
309
CELLSTYLE_END
300
CELLSTYLE
  1
TABLEFORMAT_BEGIN
 90
        5
170
     1
 91
        0
 92
        0
 62
   257
 93
        1
300
CONTENTFORMAT
  1
CONTENTFORMAT_BEGIN
 90
        0
 91
        0
 92
        4
 93
        0
300

 40
0.0
140
1.0
 94
        5
 62
     0
340
11
144
4.5
309
CONTENTFORMAT_END
171
     1
301
MARGIN
  1
CELLMARGIN_BEGIN
 40
1.5
 40
1.5
 40
1.5
 40
1.5
 40
0.18
 40
0.18
309
CELLMARGIN_END
 94
        6
 95
        1
302
GRIDFORMAT
  1
GRIDFORMAT_BEGIN
 90
        0
 91
        1
 62
     0
 92
       -2
340
0
 93
        0
 40
0.045
309
GRIDFORMAT_END
 95
        2
302
GRIDFORMAT
  1
GRIDFORMAT_BEGIN
 90
        0
 91
        1
 62
     0
 92
       -2
340
0
 93
        0
 40
0.045
309
GRIDFORMAT_END
 95
        4
302
GRIDFORMAT
  1
GRIDFORMAT_BEGIN
 90
        0
 91
        1
 62
     0
 92
       -2
340
0
 93
        0
 40
0.045
309
GRIDFORMAT_END
 95
        8
302
GRIDFORMAT
  1
GRIDFORMAT_BEGIN
 90
        0
 91
        1
 62
     0
 92
       -2
340
0
 93
        0
 40
0.045
309
GRIDFORMAT_END
 95
       16
302
GRIDFORMAT
  1
GRIDFORMAT_BEGIN
 90
        0
 91
        1
 62
     0
 92
       -2
340
0
 93
        0
 40
0.045
309
GRIDFORMAT_END
 95
       32
302
GRIDFORMAT
  1
GRIDFORMAT_BEGIN
 90
        0
 91
        1
 62
     0
 92
       -2
340
0
 93
        0
 40
0.045
309
GRIDFORMAT_END
309
TABLEFORMAT_END
  1
CELLSTYLE_BEGIN
 90
        2
 91
        1
300
_HEADER
309
CELLSTYLE_END
300
CELLSTYLE
  1
TABLEFORMAT_BEGIN
 90
        5
170
     1
 91
        0
 92
        0
 62
   257
 93
        1
300
CONTENTFORMAT
  1
CONTENTFORMAT_BEGIN
 90
        0
 91
        0
 92
        4
 93
        0
300

 40
0.0
140
1.0
 94
        2
 62
     0
340
11
144
4.5
309
CONTENTFORMAT_END
171
     1
301
MARGIN
  1
CELLMARGIN_BEGIN
 40
1.5
 40
1.5
 40
1.5
 40
1.5
 40
0.18
 40
0.18
309
CELLMARGIN_END
 94
        6
 95
        1
302
GRIDFORMAT
  1
GRIDFORMAT_BEGIN
 90
        0
 91
        1
 62
     0
 92
       -2
340
0
 93
        0
 40
0.045
309
GRIDFORMAT_END
 95
        2
302
GRIDFORMAT
  1
GRIDFORMAT_BEGIN
 90
        0
 91
        1
 62
     0
 92
       -2
340
0
 93
        0
 40
0.045
309
GRIDFORMAT_END
 95
        4
302
GRIDFORMAT
  1
GRIDFORMAT_BEGIN
 90
        0
 91
        1
 62
     0
 92
       -2
340
0
 93
        0
 40
0.045
309
GRIDFORMAT_END
 95
        8
302
GRIDFORMAT
  1
GRIDFORMAT_BEGIN
 90
        0
 91
        1
 62
     0
 92
       -2
340
0
 93
        0
 40
0.045
309
GRIDFORMAT_END
 95
       16
302
GRIDFORMAT
  1
GRIDFORMAT_BEGIN
 90
        0
 91
        1
 62
     0
 92
       -2
340
0
 93
        0
 40
0.045
309
GRIDFORMAT_END
 95
       32
302
GRIDFORMAT
  1
GRIDFORMAT_BEGIN
 90
        0
 91
        1
 62
     0
 92
       -2
340
0
 93
        0
 40
0.045
309
GRIDFORMAT_END
309
TABLEFORMAT_END
  1
CELLSTYLE_BEGIN
 90
        3
 91
        2
300
_DATA
309
CELLSTYLE_END
  0
XRECORD
  5
563B
102
{ACAD_REACTORS
330
5631
102
}
330
5631
100
AcDbXrecord
280
     1
102
ACAD_ROUNDTRIP_PRE2007_TABLESTYLE
 90
        4
 91
        0
  1

 92
        4
 93
        0
  2

 94
        4
 95
        0
  3

  0
XRECORD
  5
564E
102
{ACAD_REACTORS
330
564D
102
}
330
564D
100
AcDbXrecord
280
     1
102
RTVSPropertyOp0
 70
     1
102
RTVSPropertyOp1
 70
     1
102
RTVSPropertyOp2
 70
     1
102
RTVSPropertyOp3
 70
     1
102
RTVSPropertyOp4
 70
     1
102
RTVSPropertyOp5
 70
     1
102
RTVSPropertyOp6
 70
     1
102
RTVSPropertyOp7
 70
     1
102
RTVSPropertyOp8
 70
     1
102
RTVSPropertyOp9
 70
     1
102
RTVSPropertyOp10
 70
     1
102
RTVSPropertyOp11
 70
     1
102
RTVSPropertyOp12
 70
     1
102
RTVSPropertyOp13
 70
     1
102
RTVSPropertyOp14
 70
     1
102
RTVSPropertyOp15
 70
     1
102
RTVSPropertyOp16
 70
     1
102
RTVSPropertyOp17
 70
     1
102
RTVSPropertyOp18
 70
     1
102
RTVSPropertyOp19
 70
     1
102
RTVSPropertyOp20
 70
     1
102
RTVSPropertyOp21
 70
     1
102
RTVSPropertyOp22
 70
     1
102
RTVSPropertyOp23
 70
     1
102
RTVSPropertyOp24
 70
     1
102
RTVSPropertyOp25
 70
     1
102
RTVSPropertyOp26
 70
     1
102
RTVSPropertyOp27
 70
     1
102
RTVSPropertyOp28
 70
     1
102
RTVSPropertyOp29
 70
     1
102
RTVSPropertyOp30
 70
     1
102
RTVSPropertyOp31
 70
     1
102
RTVSPropertyOp32
 70
     1
  0
XRECORD
  5
564C
102
{ACAD_REACTORS
330
564B
102
}
330
564B
100
AcDbXrecord
280
     1
102
RTVSPropertyOp0
 70
     1
102
RTVSPropertyOp1
 70
     1
102
RTVSPropertyOp2
 70
     1
102
RTVSPropertyOp3
 70
     1
102
RTVSPropertyOp4
 70
     1
102
RTVSPropertyOp5
 70
     1
102
RTVSPropertyOp6
 70
     1
102
RTVSPropertyOp7
 70
     1
102
RTVSPropertyOp8
 70
     1
102
RTVSPropertyOp9
 70
     1
102
RTVSPropertyOp10
 70
     1
102
RTVSPropertyOp11
 70
     1
102
RTVSPropertyOp12
 70
     1
102
RTVSPropertyOp13
 70
     1
102
RTVSPropertyOp14
 70
     1
102
RTVSPropertyOp15
 70
     1
102
RTVSPropertyOp16
 70
     1
102
RTVSPropertyOp17
 70
     1
102
RTVSPropertyOp18
 70
     1
102
RTVSPropertyOp19
 70
     1
102
RTVSPropertyOp20
 70
     1
102
RTVSPropertyOp21
 70
     1
102
RTVSPropertyOp22
 70
     1
102
RTVSPropertyOp23
 70
     1
102
RTVSPropertyOp24
 70
     1
102
RTVSPropertyOp25
 70
     1
102
RTVSPropertyOp26
 70
     1
102
RTVSPropertyOp27
 70
     1
102
RTVSPropertyOp28
 70
     1
102
RTVSPropertyOp29
 70
     1
102
RTVSPropertyOp30
 70
     1
102
RTVSPropertyOp31
 70
     1
102
RTVSPropertyOp32
 70
     1
  0
XRECORD
  5
565A
102
{ACAD_REACTORS
330
5659
102
}
330
5659
100
AcDbXrecord
280
     1
102
RTVSPropertyOp0
 70
     1
102
RTVSPropertyOp1
 70
     1
102
RTVSPropertyOp2
 70
     1
102
RTVSPropertyOp3
 70
     1
102
RTVSPropertyOp4
 70
     1
102
RTVSPropertyOp5
 70
     1
102
RTVSPropertyOp6
 70
     1
102
RTVSPropertyOp7
 70
     1
102
RTVSPropertyOp8
 70
     1
102
RTVSPropertyOp9
 70
     1
102
RTVSPropertyOp10
 70
     1
102
RTVSPropertyOp11
 70
     1
102
RTVSPropertyOp12
 70
     1
102
RTVSPropertyOp13
 70
     1
102
RTVSPropertyOp14
 70
     1
102
RTVSPropertyOp15
 70
     1
102
RTVSPropertyOp16
 70
     1
102
RTVSPropertyOp17
 70
     1
102
RTVSPropertyOp18
 70
     1
102
RTVSPropertyOp19
 70
     1
102
RTVSPropertyOp20
 70
     1
102
RTVSPropertyOp21
 70
     1
102
RTVSPropertyOp22
 70
     1
102
RTVSPropertyOp23
 70
     1
102
RTVSPropertyOp24
 70
     1
102
RTVSPropertyOp25
 70
     1
102
RTVSPropertyOp26
 70
     1
102
RTVSPropertyOp27
 70
     1
102
RTVSPropertyOp28
 70
     1
102
RTVSPropertyOp29
 70
     1
102
RTVSPropertyOp30
 70
     1
102
RTVSPropertyOp31
 70
     1
102
RTVSPropertyOp32
 70
     1
  0
XRECORD
  5
5662
102
{ACAD_REACTORS
330
5661
102
}
330
5661
100
AcDbXrecord
280
     1
102
RTVSPropertyOp0
 70
     1
102
RTVSPropertyOp1
 70
     1
102
RTVSPropertyOp2
 70
     1
102
RTVSPropertyOp3
 70
     1
102
RTVSPropertyOp4
 70
     1
102
RTVSPropertyOp5
 70
     1
102
RTVSPropertyOp6
 70
     1
102
RTVSPropertyOp7
 70
     1
102
RTVSPropertyOp8
 70
     1
102
RTVSPropertyOp9
 70
     1
102
RTVSPropertyOp10
 70
     1
102
RTVSPropertyOp11
 70
     1
102
RTVSPropertyOp12
 70
     1
102
RTVSPropertyOp13
 70
     1
102
RTVSPropertyOp14
 70
     1
102
RTVSPropertyOp15
 70
     1
102
RTVSPropertyOp16
 70
     1
102
RTVSPropertyOp17
 70
     1
102
RTVSPropertyOp18
 70
     1
102
RTVSPropertyOp19
 70
     1
102
RTVSPropertyOp20
 70
     1
102
RTVSPropertyOp21
 70
     1
102
RTVSPropertyOp22
 70
     1
102
RTVSPropertyOp23
 70
     1
102
RTVSPropertyOp24
 70
     1
102
RTVSPropertyOp25
 70
     1
102
RTVSPropertyOp26
 70
     1
102
RTVSPropertyOp27
 70
     1
102
RTVSPropertyOp28
 70
     1
102
RTVSPropertyOp29
 70
     1
102
RTVSPropertyOp30
 70
     1
102
RTVSPropertyOp31
 70
     1
102
RTVSPropertyOp32
 70
     1
  0
XRECORD
  5
5654
102
{ACAD_REACTORS
330
5653
102
}
330
5653
100
AcDbXrecord
280
     1
102
RTVSPropertyOp0
 70
     1
102
RTVSPropertyOp1
 70
     1
102
RTVSPropertyOp2
 70
     1
102
RTVSPropertyOp3
 70
     1
102
RTVSPropertyOp4
 70
     1
102
RTVSPropertyOp5
 70
     1
102
RTVSPropertyOp6
 70
     1
102
RTVSPropertyOp7
 70
     1
102
RTVSPropertyOp8
 70
     1
102
RTVSPropertyOp9
 70
     1
102
RTVSPropertyOp10
 70
     1
102
RTVSPropertyOp11
 70
     1
102
RTVSPropertyOp12
 70
     1
102
RTVSPropertyOp13
 70
     1
102
RTVSPropertyOp14
 70
     1
102
RTVSPropertyOp15
 70
     1
102
RTVSPropertyOp16
 70
     1
102
RTVSPropertyOp17
 70
     1
102
RTVSPropertyOp18
 70
     1
102
RTVSPropertyOp19
 70
     1
102
RTVSPropertyOp20
 70
     1
102
RTVSPropertyOp21
 70
     1
102
RTVSPropertyOp22
 70
     1
102
RTVSPropertyOp23
 70
     1
102
RTVSPropertyOp24
 70
     1
102
RTVSPropertyOp25
 70
     1
102
RTVSPropertyOp26
 70
     1
102
RTVSPropertyOp27
 70
     1
102
RTVSPropertyOp28
 70
     1
102
RTVSPropertyOp29
 70
     1
102
RTVSPropertyOp30
 70
     1
102
RTVSPropertyOp31
 70
     1
102
RTVSPropertyOp32
 70
     1
  0
XRECORD
  5
5658
102
{ACAD_REACTORS
330
5657
102
}
330
5657
100
AcDbXrecord
280
     1
102
RTVSPropertyOp0
 70
     1
102
RTVSPropertyOp1
 70
     1
102
RTVSPropertyOp2
 70
     1
102
RTVSPropertyOp3
 70
     1
102
RTVSPropertyOp4
 70
     1
102
RTVSPropertyOp5
 70
     1
102
RTVSPropertyOp6
 70
     1
102
RTVSPropertyOp7
 70
     1
102
RTVSPropertyOp8
 70
     1
102
RTVSPropertyOp9
 70
     1
102
RTVSPropertyOp10
 70
     1
102
RTVSPropertyOp11
 70
     1
102
RTVSPropertyOp12
 70
     1
102
RTVSPropertyOp13
 70
     1
102
RTVSPropertyOp14
 70
     1
102
RTVSPropertyOp15
 70
     1
102
RTVSPropertyOp16
 70
     1
102
RTVSPropertyOp17
 70
     1
102
RTVSPropertyOp18
 70
     1
102
RTVSPropertyOp19
 70
     1
102
RTVSPropertyOp20
 70
     1
102
RTVSPropertyOp21
 70
     1
102
RTVSPropertyOp22
 70
     1
102
RTVSPropertyOp23
 70
     1
102
RTVSPropertyOp24
 70
     1
102
RTVSPropertyOp25
 70
     1
102
RTVSPropertyOp26
 70
     1
102
RTVSPropertyOp27
 70
     1
102
RTVSPropertyOp28
 70
     1
102
RTVSPropertyOp29
 70
     1
102
RTVSPropertyOp30
 70
     1
102
RTVSPropertyOp31
 70
     1
102
RTVSPropertyOp32
 70
     1
  0
XRECORD
  5
5672
102
{ACAD_REACTORS
330
5671
102
}
330
5671
100
AcDbXrecord
280
     1
102
RTVSPropertyOp0
 70
     0
102
RTVSPropertyOp1
 70
     0
102
RTVSPropertyOp2
 70
     0
102
RTVSPropertyOp3
 70
     0
102
RTVSPropertyOp4
 70
     0
102
RTVSPropertyOp5
 70
     0
102
RTVSPropertyOp6
 70
     0
102
RTVSPropertyOp7
 70
     0
102
RTVSPropertyOp8
 70
     0
102
RTVSPropertyOp9
 70
     0
102
RTVSPropertyOp10
 70
     0
102
RTVSPropertyOp11
 70
     0
102
RTVSPropertyOp12
 70
     0
102
RTVSPropertyOp13
 70
     0
102
RTVSPropertyOp14
 70
     2
102
RTVSPropertyOp15
 70
     0
102
RTVSPropertyOp16
 70
     0
102
RTVSPropertyOp17
 70
     0
102
RTVSPropertyOp18
 70
     0
102
RTVSPropertyOp19
 70
     0
102
RTVSPropertyOp20
 70
     0
102
RTVSPropertyOp21
 70
     0
102
RTVSPropertyOp22
 70
     0
102
RTVSPropertyOp23
 70
     0
102
RTVSPropertyOp24
 70
     0
102
RTVSPropertyOp25
 70
     0
102
RTVSPropertyOp26
 70
     0
102
RTVSPropertyOp27
 70
     0
102
RTVSPropertyOp28
 70
     1
102
RTVSPropertyOp29
 70
     1
102
RTVSPropertyOp30
 70
     1
102
RTVSPropertyOp31
 70
     1
102
RTVSPropertyOp32
 70
     1
  0
XRECORD
  5
5660
102
{ACAD_REACTORS
330
565F
102
}
330
565F
100
AcDbXrecord
280
     1
102
RTVSPropertyOp0
 70
     1
102
RTVSPropertyOp1
 70
     1
102
RTVSPropertyOp2
 70
     1
102
RTVSPropertyOp3
 70
     1
102
RTVSPropertyOp4
 70
     1
102
RTVSPropertyOp5
 70
     1
102
RTVSPropertyOp6
 70
     1
102
RTVSPropertyOp7
 70
     1
102
RTVSPropertyOp8
 70
     1
102
RTVSPropertyOp9
 70
     1
102
RTVSPropertyOp10
 70
     1
102
RTVSPropertyOp11
 70
     1
102
RTVSPropertyOp12
 70
     1
102
RTVSPropertyOp13
 70
     1
102
RTVSPropertyOp14
 70
     1
102
RTVSPropertyOp15
 70
     1
102
RTVSPropertyOp16
 70
     1
102
RTVSPropertyOp17
 70
     1
102
RTVSPropertyOp18
 70
     1
102
RTVSPropertyOp19
 70
     1
102
RTVSPropertyOp20
 70
     1
102
RTVSPropertyOp21
 70
     1
102
RTVSPropertyOp22
 70
     1
102
RTVSPropertyOp23
 70
     1
102
RTVSPropertyOp24
 70
     1
102
RTVSPropertyOp25
 70
     1
102
RTVSPropertyOp26
 70
     1
102
RTVSPropertyOp27
 70
     1
102
RTVSPropertyOp28
 70
     1
102
RTVSPropertyOp29
 70
     1
102
RTVSPropertyOp30
 70
     1
102
RTVSPropertyOp31
 70
     1
102
RTVSPropertyOp32
 70
     1
  0
XRECORD
  5
5644
102
{ACAD_REACTORS
330
5643
102
}
330
5643
100
AcDbXrecord
280
     1
102
RTVSPropertyOp0
 70
     1
102
RTVSPropertyOp1
 70
     1
102
RTVSPropertyOp2
 70
     1
102
RTVSPropertyOp3
 70
     1
102
RTVSPropertyOp4
 70
     1
102
RTVSPropertyOp5
 70
     1
102
RTVSPropertyOp6
 70
     1
102
RTVSPropertyOp7
 70
     1
102
RTVSPropertyOp8
 70
     1
102
RTVSPropertyOp9
 70
     1
102
RTVSPropertyOp10
 70
     1
102
RTVSPropertyOp11
 70
     1
102
RTVSPropertyOp12
 70
     1
102
RTVSPropertyOp13
 70
     1
102
RTVSPropertyOp14
 70
     1
102
RTVSPropertyOp15
 70
     1
102
RTVSPropertyOp16
 70
     1
102
RTVSPropertyOp17
 70
     1
102
RTVSPropertyOp18
 70
     1
102
RTVSPropertyOp19
 70
     1
102
RTVSPropertyOp20
 70
     1
102
RTVSPropertyOp21
 70
     1
102
RTVSPropertyOp22
 70
     1
102
RTVSPropertyOp23
 70
     1
102
RTVSPropertyOp24
 70
     1
102
RTVSPropertyOp25
 70
     1
102
RTVSPropertyOp26
 70
     1
102
RTVSPropertyOp27
 70
     1
102
RTVSPropertyOp28
 70
     1
102
RTVSPropertyOp29
 70
     1
102
RTVSPropertyOp30
 70
     1
102
RTVSPropertyOp31
 70
     1
102
RTVSPropertyOp32
 70
     1
  0
XRECORD
  5
5646
102
{ACAD_REACTORS
330
5645
102
}
330
5645
100
AcDbXrecord
280
     1
102
RTVSPropertyOp0
 70
     1
102
RTVSPropertyOp1
 70
     1
102
RTVSPropertyOp2
 70
     1
102
RTVSPropertyOp3
 70
     1
102
RTVSPropertyOp4
 70
     1
102
RTVSPropertyOp5
 70
     1
102
RTVSPropertyOp6
 70
     1
102
RTVSPropertyOp7
 70
     1
102
RTVSPropertyOp8
 70
     1
102
RTVSPropertyOp9
 70
     1
102
RTVSPropertyOp10
 70
     1
102
RTVSPropertyOp11
 70
     1
102
RTVSPropertyOp12
 70
     1
102
RTVSPropertyOp13
 70
     1
102
RTVSPropertyOp14
 70
     1
102
RTVSPropertyOp15
 70
     1
102
RTVSPropertyOp16
 70
     1
102
RTVSPropertyOp17
 70
     1
102
RTVSPropertyOp18
 70
     1
102
RTVSPropertyOp19
 70
     1
102
RTVSPropertyOp20
 70
     1
102
RTVSPropertyOp21
 70
     1
102
RTVSPropertyOp22
 70
     1
102
RTVSPropertyOp23
 70
     1
102
RTVSPropertyOp24
 70
     1
102
RTVSPropertyOp25
 70
     1
102
RTVSPropertyOp26
 70
     1
102
RTVSPropertyOp27
 70
     1
102
RTVSPropertyOp28
 70
     1
102
RTVSPropertyOp29
 70
     1
102
RTVSPropertyOp30
 70
     1
102
RTVSPropertyOp31
 70
     1
102
RTVSPropertyOp32
 70
     1
  0
XRECORD
  5
5648
102
{ACAD_REACTORS
330
5647
102
}
330
5647
100
AcDbXrecord
280
     1
102
RTVSPropertyOp0
 70
     1
102
RTVSPropertyOp1
 70
     1
102
RTVSPropertyOp2
 70
     1
102
RTVSPropertyOp3
 70
     1
102
RTVSPropertyOp4
 70
     1
102
RTVSPropertyOp5
 70
     1
102
RTVSPropertyOp6
 70
     1
102
RTVSPropertyOp7
 70
     1
102
RTVSPropertyOp8
 70
     1
102
RTVSPropertyOp9
 70
     1
102
RTVSPropertyOp10
 70
     1
102
RTVSPropertyOp11
 70
     1
102
RTVSPropertyOp12
 70
     1
102
RTVSPropertyOp13
 70
     1
102
RTVSPropertyOp14
 70
     1
102
RTVSPropertyOp15
 70
     1
102
RTVSPropertyOp16
 70
     1
102
RTVSPropertyOp17
 70
     1
102
RTVSPropertyOp18
 70
     1
102
RTVSPropertyOp19
 70
     1
102
RTVSPropertyOp20
 70
     1
102
RTVSPropertyOp21
 70
     1
102
RTVSPropertyOp22
 70
     1
102
RTVSPropertyOp23
 70
     1
102
RTVSPropertyOp24
 70
     1
102
RTVSPropertyOp25
 70
     1
102
RTVSPropertyOp26
 70
     1
102
RTVSPropertyOp27
 70
     1
102
RTVSPropertyOp28
 70
     1
102
RTVSPropertyOp29
 70
     1
102
RTVSPropertyOp30
 70
     1
102
RTVSPropertyOp31
 70
     1
102
RTVSPropertyOp32
 70
     1
  0
XRECORD
  5
564A
102
{ACAD_REACTORS
330
5649
102
}
330
5649
100
AcDbXrecord
280
     1
102
RTVSPropertyOp0
 70
     1
102
RTVSPropertyOp1
 70
     1
102
RTVSPropertyOp2
 70
     1
102
RTVSPropertyOp3
 70
     1
102
RTVSPropertyOp4
 70
     1
102
RTVSPropertyOp5
 70
     1
102
RTVSPropertyOp6
 70
     1
102
RTVSPropertyOp7
 70
     1
102
RTVSPropertyOp8
 70
     1
102
RTVSPropertyOp9
 70
     1
102
RTVSPropertyOp10
 70
     1
102
RTVSPropertyOp11
 70
     1
102
RTVSPropertyOp12
 70
     1
102
RTVSPropertyOp13
 70
     1
102
RTVSPropertyOp14
 70
     1
102
RTVSPropertyOp15
 70
     1
102
RTVSPropertyOp16
 70
     1
102
RTVSPropertyOp17
 70
     1
102
RTVSPropertyOp18
 70
     1
102
RTVSPropertyOp19
 70
     1
102
RTVSPropertyOp20
 70
     1
102
RTVSPropertyOp21
 70
     1
102
RTVSPropertyOp22
 70
     1
102
RTVSPropertyOp23
 70
     1
102
RTVSPropertyOp24
 70
     1
102
RTVSPropertyOp25
 70
     1
102
RTVSPropertyOp26
 70
     1
102
RTVSPropertyOp27
 70
     1
102
RTVSPropertyOp28
 70
     1
102
RTVSPropertyOp29
 70
     1
102
RTVSPropertyOp30
 70
     1
102
RTVSPropertyOp31
 70
     1
102
RTVSPropertyOp32
 70
     1
  0
XRECORD
  5
5652
102
{ACAD_REACTORS
330
5651
102
}
330
5651
100
AcDbXrecord
280
     1
102
RTVSPropertyOp0
 70
     1
102
RTVSPropertyOp1
 70
     1
102
RTVSPropertyOp2
 70
     1
102
RTVSPropertyOp3
 70
     1
102
RTVSPropertyOp4
 70
     1
102
RTVSPropertyOp5
 70
     1
102
RTVSPropertyOp6
 70
     1
102
RTVSPropertyOp7
 70
     1
102
RTVSPropertyOp8
 70
     1
102
RTVSPropertyOp9
 70
     1
102
RTVSPropertyOp10
 70
     1
102
RTVSPropertyOp11
 70
     1
102
RTVSPropertyOp12
 70
     1
102
RTVSPropertyOp13
 70
     1
102
RTVSPropertyOp14
 70
     1
102
RTVSPropertyOp15
 70
     1
102
RTVSPropertyOp16
 70
     1
102
RTVSPropertyOp17
 70
     1
102
RTVSPropertyOp18
 70
     1
102
RTVSPropertyOp19
 70
     1
102
RTVSPropertyOp20
 70
     1
102
RTVSPropertyOp21
 70
     1
102
RTVSPropertyOp22
 70
     1
102
RTVSPropertyOp23
 70
     1
102
RTVSPropertyOp24
 70
     1
102
RTVSPropertyOp25
 70
     1
102
RTVSPropertyOp26
 70
     1
102
RTVSPropertyOp27
 70
     1
102
RTVSPropertyOp28
 70
     1
102
RTVSPropertyOp29
 70
     1
102
RTVSPropertyOp30
 70
     1
102
RTVSPropertyOp31
 70
     1
102
RTVSPropertyOp32
 70
     1
  0
XRECORD
  5
566E
102
{ACAD_REACTORS
330
566D
102
}
330
566D
100
AcDbXrecord
280
     1
102
RTVSPropertyOp0
 70
     0
102
RTVSPropertyOp1
 70
     0
102
RTVSPropertyOp2
 70
     0
102
RTVSPropertyOp3
 70
     0
102
RTVSPropertyOp4
 70
     0
102
RTVSPropertyOp5
 70
     0
102
RTVSPropertyOp6
 70
     0
102
RTVSPropertyOp7
 70
     0
102
RTVSPropertyOp8
 70
     0
102
RTVSPropertyOp9
 70
     0
102
RTVSPropertyOp10
 70
     0
102
RTVSPropertyOp11
 70
     0
102
RTVSPropertyOp12
 70
     0
102
RTVSPropertyOp13
 70
     0
102
RTVSPropertyOp14
 70
     2
102
RTVSPropertyOp15
 70
     0
102
RTVSPropertyOp16
 70
     0
102
RTVSPropertyOp17
 70
     0
102
RTVSPropertyOp18
 70
     0
102
RTVSPropertyOp19
 70
     0
102
RTVSPropertyOp20
 70
     0
102
RTVSPropertyOp21
 70
     0
102
RTVSPropertyOp22
 70
     0
102
RTVSPropertyOp23
 70
     0
102
RTVSPropertyOp24
 70
     0
102
RTVSPropertyOp25
 70
     0
102
RTVSPropertyOp26
 70
     0
102
RTVSPropertyOp27
 70
     0
102
RTVSPropertyOp28
 70
     1
102
RTVSPropertyOp29
 70
     1
102
RTVSPropertyOp30
 70
     1
102
RTVSPropertyOp31
 70
     1
102
RTVSPropertyOp32
 70
     1
  0
XRECORD
  5
565E
102
{ACAD_REACTORS
330
565D
102
}
330
565D
100
AcDbXrecord
280
     1
102
RTVSPropertyOp0
 70
     1
102
RTVSPropertyOp1
 70
     1
102
RTVSPropertyOp2
 70
     1
102
RTVSPropertyOp3
 70
     1
102
RTVSPropertyOp4
 70
     1
102
RTVSPropertyOp5
 70
     1
102
RTVSPropertyOp6
 70
     1
102
RTVSPropertyOp7
 70
     1
102
RTVSPropertyOp8
 70
     1
102
RTVSPropertyOp9
 70
     1
102
RTVSPropertyOp10
 70
     1
102
RTVSPropertyOp11
 70
     1
102
RTVSPropertyOp12
 70
     1
102
RTVSPropertyOp13
 70
     1
102
RTVSPropertyOp14
 70
     1
102
RTVSPropertyOp15
 70
     1
102
RTVSPropertyOp16
 70
     1
102
RTVSPropertyOp17
 70
     1
102
RTVSPropertyOp18
 70
     1
102
RTVSPropertyOp19
 70
     1
102
RTVSPropertyOp20
 70
     1
102
RTVSPropertyOp21
 70
     1
102
RTVSPropertyOp22
 70
     1
102
RTVSPropertyOp23
 70
     1
102
RTVSPropertyOp24
 70
     1
102
RTVSPropertyOp25
 70
     1
102
RTVSPropertyOp26
 70
     1
102
RTVSPropertyOp27
 70
     1
102
RTVSPropertyOp28
 70
     1
102
RTVSPropertyOp29
 70
     1
102
RTVSPropertyOp30
 70
     1
102
RTVSPropertyOp31
 70
     1
102
RTVSPropertyOp32
 70
     1
  0
XRECORD
  5
5670
102
{ACAD_REACTORS
330
566F
102
}
330
566F
100
AcDbXrecord
280
     1
102
RTVSPropertyOp0
 70
     0
102
RTVSPropertyOp1
 70
     0
102
RTVSPropertyOp2
 70
     0
102
RTVSPropertyOp3
 70
     0
102
RTVSPropertyOp4
 70
     0
102
RTVSPropertyOp5
 70
     0
102
RTVSPropertyOp6
 70
     0
102
RTVSPropertyOp7
 70
     0
102
RTVSPropertyOp8
 70
     0
102
RTVSPropertyOp9
 70
     0
102
RTVSPropertyOp10
 70
     0
102
RTVSPropertyOp11
 70
     0
102
RTVSPropertyOp12
 70
     0
102
RTVSPropertyOp13
 70
     0
102
RTVSPropertyOp14
 70
     2
102
RTVSPropertyOp15
 70
     0
102
RTVSPropertyOp16
 70
     0
102
RTVSPropertyOp17
 70
     0
102
RTVSPropertyOp18
 70
     0
102
RTVSPropertyOp19
 70
     0
102
RTVSPropertyOp20
 70
     0
102
RTVSPropertyOp21
 70
     0
102
RTVSPropertyOp22
 70
     0
102
RTVSPropertyOp23
 70
     0
102
RTVSPropertyOp24
 70
     0
102
RTVSPropertyOp25
 70
     0
102
RTVSPropertyOp26
 70
     0
102
RTVSPropertyOp27
 70
     0
102
RTVSPropertyOp28
 70
     1
102
RTVSPropertyOp29
 70
     1
102
RTVSPropertyOp30
 70
     1
102
RTVSPropertyOp31
 70
     1
102
RTVSPropertyOp32
 70
     1
  0
XRECORD
  5
5656
102
{ACAD_REACTORS
330
5655
102
}
330
5655
100
AcDbXrecord
280
     1
102
RTVSPropertyOp0
 70
     1
102
RTVSPropertyOp1
 70
     1
102
RTVSPropertyOp2
 70
     1
102
RTVSPropertyOp3
 70
     1
102
RTVSPropertyOp4
 70
     1
102
RTVSPropertyOp5
 70
     1
102
RTVSPropertyOp6
 70
     1
102
RTVSPropertyOp7
 70
     1
102
RTVSPropertyOp8
 70
     1
102
RTVSPropertyOp9
 70
     1
102
RTVSPropertyOp10
 70
     1
102
RTVSPropertyOp11
 70
     1
102
RTVSPropertyOp12
 70
     1
102
RTVSPropertyOp13
 70
     1
102
RTVSPropertyOp14
 70
     1
102
RTVSPropertyOp15
 70
     1
102
RTVSPropertyOp16
 70
     1
102
RTVSPropertyOp17
 70
     1
102
RTVSPropertyOp18
 70
     1
102
RTVSPropertyOp19
 70
     1
102
RTVSPropertyOp20
 70
     1
102
RTVSPropertyOp21
 70
     1
102
RTVSPropertyOp22
 70
     1
102
RTVSPropertyOp23
 70
     1
102
RTVSPropertyOp24
 70
     1
102
RTVSPropertyOp25
 70
     1
102
RTVSPropertyOp26
 70
     1
102
RTVSPropertyOp27
 70
     1
102
RTVSPropertyOp28
 70
     1
102
RTVSPropertyOp29
 70
     1
102
RTVSPropertyOp30
 70
     1
102
RTVSPropertyOp31
 70
     1
102
RTVSPropertyOp32
 70
     1
  0
XRECORD
  5
566C
102
{ACAD_REACTORS
330
566B
102
}
330
566B
100
AcDbXrecord
280
     1
102
RTVSPropertyOp0
 70
     1
102
RTVSPropertyOp1
 70
     1
102
RTVSPropertyOp2
 70
     1
102
RTVSPropertyOp3
 70
     1
102
RTVSPropertyOp4
 70
     1
102
RTVSPropertyOp5
 70
     1
102
RTVSPropertyOp6
 70
     1
102
RTVSPropertyOp7
 70
     1
102
RTVSPropertyOp8
 70
     1
102
RTVSPropertyOp9
 70
     1
102
RTVSPropertyOp10
 70
     1
102
RTVSPropertyOp11
 70
     1
102
RTVSPropertyOp12
 70
     1
102
RTVSPropertyOp13
 70
     1
102
RTVSPropertyOp14
 70
     1
102
RTVSPropertyOp15
 70
     1
102
RTVSPropertyOp16
 70
     1
102
RTVSPropertyOp17
 70
     1
102
RTVSPropertyOp18
 70
     1
102
RTVSPropertyOp19
 70
     1
102
RTVSPropertyOp20
 70
     1
102
RTVSPropertyOp21
 70
     1
102
RTVSPropertyOp22
 70
     1
102
RTVSPropertyOp23
 70
     1
102
RTVSPropertyOp24
 70
     1
102
RTVSPropertyOp25
 70
     1
102
RTVSPropertyOp26
 70
     1
102
RTVSPropertyOp27
 70
     1
102
RTVSPropertyOp28
 70
     1
102
RTVSPropertyOp29
 70
     1
102
RTVSPropertyOp30
 70
     1
102
RTVSPropertyOp31
 70
     1
102
RTVSPropertyOp32
 70
     1
  0
XRECORD
  5
566A
102
{ACAD_REACTORS
330
5669
102
}
330
5669
100
AcDbXrecord
280
     1
102
RTVSPropertyOp0
 70
     1
102
RTVSPropertyOp1
 70
     1
102
RTVSPropertyOp2
 70
     1
102
RTVSPropertyOp3
 70
     1
102
RTVSPropertyOp4
 70
     1
102
RTVSPropertyOp5
 70
     1
102
RTVSPropertyOp6
 70
     1
102
RTVSPropertyOp7
 70
     1
102
RTVSPropertyOp8
 70
     1
102
RTVSPropertyOp9
 70
     1
102
RTVSPropertyOp10
 70
     1
102
RTVSPropertyOp11
 70
     1
102
RTVSPropertyOp12
 70
     1
102
RTVSPropertyOp13
 70
     1
102
RTVSPropertyOp14
 70
     1
102
RTVSPropertyOp15
 70
     1
102
RTVSPropertyOp16
 70
     1
102
RTVSPropertyOp17
 70
     1
102
RTVSPropertyOp18
 70
     1
102
RTVSPropertyOp19
 70
     1
102
RTVSPropertyOp20
 70
     1
102
RTVSPropertyOp21
 70
     1
102
RTVSPropertyOp22
 70
     1
102
RTVSPropertyOp23
 70
     1
102
RTVSPropertyOp24
 70
     1
102
RTVSPropertyOp25
 70
     1
102
RTVSPropertyOp26
 70
     1
102
RTVSPropertyOp27
 70
     1
102
RTVSPropertyOp28
 70
     1
102
RTVSPropertyOp29
 70
     1
102
RTVSPropertyOp30
 70
     1
102
RTVSPropertyOp31
 70
     1
102
RTVSPropertyOp32
 70
     1
  0
XRECORD
  5
5664
102
{ACAD_REACTORS
330
5663
102
}
330
5663
100
AcDbXrecord
280
     1
102
RTVSPropertyOp0
 70
     1
102
RTVSPropertyOp1
 70
     1
102
RTVSPropertyOp2
 70
     1
102
RTVSPropertyOp3
 70
     1
102
RTVSPropertyOp4
 70
     1
102
RTVSPropertyOp5
 70
     1
102
RTVSPropertyOp6
 70
     1
102
RTVSPropertyOp7
 70
     1
102
RTVSPropertyOp8
 70
     1
102
RTVSPropertyOp9
 70
     1
102
RTVSPropertyOp10
 70
     1
102
RTVSPropertyOp11
 70
     1
102
RTVSPropertyOp12
 70
     1
102
RTVSPropertyOp13
 70
     1
102
RTVSPropertyOp14
 70
     1
102
RTVSPropertyOp15
 70
     1
102
RTVSPropertyOp16
 70
     1
102
RTVSPropertyOp17
 70
     1
102
RTVSPropertyOp18
 70
     1
102
RTVSPropertyOp19
 70
     1
102
RTVSPropertyOp20
 70
     1
102
RTVSPropertyOp21
 70
     1
102
RTVSPropertyOp22
 70
     1
102
RTVSPropertyOp23
 70
     1
102
RTVSPropertyOp24
 70
     1
102
RTVSPropertyOp25
 70
     1
102
RTVSPropertyOp26
 70
     1
102
RTVSPropertyOp27
 70
     1
102
RTVSPropertyOp28
 70
     1
102
RTVSPropertyOp29
 70
     1
102
RTVSPropertyOp30
 70
     1
102
RTVSPropertyOp31
 70
     1
102
RTVSPropertyOp32
 70
     1
  0
XRECORD
  5
5666
102
{ACAD_REACTORS
330
5665
102
}
330
5665
100
AcDbXrecord
280
     1
102
RTVSPropertyOp0
 70
     1
102
RTVSPropertyOp1
 70
     1
102
RTVSPropertyOp2
 70
     1
102
RTVSPropertyOp3
 70
     1
102
RTVSPropertyOp4
 70
     1
102
RTVSPropertyOp5
 70
     1
102
RTVSPropertyOp6
 70
     1
102
RTVSPropertyOp7
 70
     1
102
RTVSPropertyOp8
 70
     1
102
RTVSPropertyOp9
 70
     1
102
RTVSPropertyOp10
 70
     1
102
RTVSPropertyOp11
 70
     1
102
RTVSPropertyOp12
 70
     1
102
RTVSPropertyOp13
 70
     1
102
RTVSPropertyOp14
 70
     1
102
RTVSPropertyOp15
 70
     1
102
RTVSPropertyOp16
 70
     1
102
RTVSPropertyOp17
 70
     1
102
RTVSPropertyOp18
 70
     1
102
RTVSPropertyOp19
 70
     1
102
RTVSPropertyOp20
 70
     1
102
RTVSPropertyOp21
 70
     1
102
RTVSPropertyOp22
 70
     1
102
RTVSPropertyOp23
 70
     1
102
RTVSPropertyOp24
 70
     1
102
RTVSPropertyOp25
 70
     1
102
RTVSPropertyOp26
 70
     1
102
RTVSPropertyOp27
 70
     1
102
RTVSPropertyOp28
 70
     1
102
RTVSPropertyOp29
 70
     1
102
RTVSPropertyOp30
 70
     1
102
RTVSPropertyOp31
 70
     1
102
RTVSPropertyOp32
 70
     1
  0
XRECORD
  5
565C
102
{ACAD_REACTORS
330
565B
102
}
330
565B
100
AcDbXrecord
280
     1
102
RTVSPropertyOp0
 70
     1
102
RTVSPropertyOp1
 70
     1
102
RTVSPropertyOp2
 70
     1
102
RTVSPropertyOp3
 70
     1
102
RTVSPropertyOp4
 70
     1
102
RTVSPropertyOp5
 70
     1
102
RTVSPropertyOp6
 70
     1
102
RTVSPropertyOp7
 70
     1
102
RTVSPropertyOp8
 70
     1
102
RTVSPropertyOp9
 70
     1
102
RTVSPropertyOp10
 70
     1
102
RTVSPropertyOp11
 70
     1
102
RTVSPropertyOp12
 70
     1
102
RTVSPropertyOp13
 70
     1
102
RTVSPropertyOp14
 70
     1
102
RTVSPropertyOp15
 70
     1
102
RTVSPropertyOp16
 70
     1
102
RTVSPropertyOp17
 70
     1
102
RTVSPropertyOp18
 70
     1
102
RTVSPropertyOp19
 70
     1
102
RTVSPropertyOp20
 70
     1
102
RTVSPropertyOp21
 70
     1
102
RTVSPropertyOp22
 70
     1
102
RTVSPropertyOp23
 70
     1
102
RTVSPropertyOp24
 70
     1
102
RTVSPropertyOp25
 70
     1
102
RTVSPropertyOp26
 70
     1
102
RTVSPropertyOp27
 70
     1
102
RTVSPropertyOp28
 70
     1
102
RTVSPropertyOp29
 70
     1
102
RTVSPropertyOp30
 70
     1
102
RTVSPropertyOp31
 70
     1
102
RTVSPropertyOp32
 70
     1
  0
XRECORD
  5
5650
102
{ACAD_REACTORS
330
564F
102
}
330
564F
100
AcDbXrecord
280
     1
102
RTVSPropertyOp0
 70
     1
102
RTVSPropertyOp1
 70
     1
102
RTVSPropertyOp2
 70
     1
102
RTVSPropertyOp3
 70
     1
102
RTVSPropertyOp4
 70
     1
102
RTVSPropertyOp5
 70
     1
102
RTVSPropertyOp6
 70
     1
102
RTVSPropertyOp7
 70
     1
102
RTVSPropertyOp8
 70
     1
102
RTVSPropertyOp9
 70
     1
102
RTVSPropertyOp10
 70
     1
102
RTVSPropertyOp11
 70
     1
102
RTVSPropertyOp12
 70
     1
102
RTVSPropertyOp13
 70
     1
102
RTVSPropertyOp14
 70
     1
102
RTVSPropertyOp15
 70
     1
102
RTVSPropertyOp16
 70
     1
102
RTVSPropertyOp17
 70
     1
102
RTVSPropertyOp18
 70
     1
102
RTVSPropertyOp19
 70
     1
102
RTVSPropertyOp20
 70
     1
102
RTVSPropertyOp21
 70
     1
102
RTVSPropertyOp22
 70
     1
102
RTVSPropertyOp23
 70
     1
102
RTVSPropertyOp24
 70
     1
102
RTVSPropertyOp25
 70
     1
102
RTVSPropertyOp26
 70
     1
102
RTVSPropertyOp27
 70
     1
102
RTVSPropertyOp28
 70
     1
102
RTVSPropertyOp29
 70
     1
102
RTVSPropertyOp30
 70
     1
102
RTVSPropertyOp31
 70
     1
102
RTVSPropertyOp32
 70
     1
  0
XRECORD
  5
5668
102
{ACAD_REACTORS
330
5667
102
}
330
5667
100
AcDbXrecord
280
     1
102
RTVSPropertyOp0
 70
     1
102
RTVSPropertyOp1
 70
     1
102
RTVSPropertyOp2
 70
     1
102
RTVSPropertyOp3
 70
     1
102
RTVSPropertyOp4
 70
     1
102
RTVSPropertyOp5
 70
     1
102
RTVSPropertyOp6
 70
     1
102
RTVSPropertyOp7
 70
     1
102
RTVSPropertyOp8
 70
     1
102
RTVSPropertyOp9
 70
     1
102
RTVSPropertyOp10
 70
     1
102
RTVSPropertyOp11
 70
     1
102
RTVSPropertyOp12
 70
     1
102
RTVSPropertyOp13
 70
     1
102
RTVSPropertyOp14
 70
     1
102
RTVSPropertyOp15
 70
     1
102
RTVSPropertyOp16
 70
     1
102
RTVSPropertyOp17
 70
     1
102
RTVSPropertyOp18
 70
     1
102
RTVSPropertyOp19
 70
     1
102
RTVSPropertyOp20
 70
     1
102
RTVSPropertyOp21
 70
     1
102
RTVSPropertyOp22
 70
     1
102
RTVSPropertyOp23
 70
     1
102
RTVSPropertyOp24
 70
     1
102
RTVSPropertyOp25
 70
     1
102
RTVSPropertyOp26
 70
     1
102
RTVSPropertyOp27
 70
     1
102
RTVSPropertyOp28
 70
     1
102
RTVSPropertyOp29
 70
     1
102
RTVSPropertyOp30
 70
     1
102
RTVSPropertyOp31
 70
     1
102
RTVSPropertyOp32
 70
     1
  0
ENDSEC
  0
EOF
