  0
SECTION
  2
HEADER
  9
$ACADVER
  1
AC1015
  9
$ACADMAINTVER
 70
    20
  9
$DWGCODEPAGE
  3
ANSI_932
  9
$INSBASE
 10
0.0
 20
0.0
 30
0.0
  9
$EXTMIN
 10
82.47970277864988
 20
88.68260494782317
 30
-0.000000000000013
  9
$EXTMAX
 10
4282.800108009689
 20
3058.909177218346
 30
0.0000000000000023
  9
$LIMMIN
 10
82.80008844952817
 20
88.90916338651733
  9
$LIMMAX
 10
502.8000884495281
 20
385.9091633865173
  9
$ORTHOMODE
 70
     0
  9
$REGENMODE
 70
     1
  9
$FILLMODE
 70
     1
  9
$QTEXTMODE
 70
     0
  9
$MIRRTEXT
 70
     0
  9
$LTSCALE
 40
1.0
  9
$ATTMODE
 70
     1
  9
$TEXTSIZE
 40
2.5
  9
$TRACEWID
 40
1.0
  9
$TEXTSTYLE
  7
Standard
  9
$CLAYER
  8
0
  9
$CELTYPE
  6
ByLayer
  9
$CECOLOR
 62
   256
  9
$CELTSCALE
 40
1.0
  9
$DISPSILH
 70
     0
  9
$DIMSCALE
 40
1.0
  9
$DIMASZ
 40
2.5
  9
$DIMEXO
 40
0.625
  9
$DIMDLI
 40
3.75
  9
$DIMRND
 40
0.0
  9
$DIMDLE
 40
0.0
  9
$DIMEXE
 40
1.25
  9
$DIMTP
 40
0.0
  9
$DIMTM
 40
0.0
  9
$DIMTXT
 40
2.5
  9
$DIMCEN
 40
2.5
  9
$DIMTSZ
 40
0.0
  9
$DIMTOL
 70
     0
  9
$DIMLIM
 70
     0
  9
$DIMTIH
 70
     0
  9
$DIMTOH
 70
     0
  9
$DIMSE1
 70
     0
  9
$DIMSE2
 70
     0
  9
$DIMTAD
 70
     2
  9
$DIMZIN
 70
     8
  9
$DIMBLK
  1

  9
$DIMASO
 70
     1
  9
$DIMSHO
 70
     1
  9
$DIMPOST
  1

  9
$DIMAPOST
  1

  9
$DIMALT
 70
     0
  9
$DIMALTD
 70
     3
  9
$DIMALTF
 40
0.03937007874016
  9
$DIMLFAC
 40
1.0
  9
$DIMTOFL
 70
     1
  9
$DIMTVP
 40
0.0
  9
$DIMTIX
 70
     0
  9
$DIMSOXD
 70
     0
  9
$DIMSAH
 70
     0
  9
$DIMBLK1
  1

  9
$DIMBLK2
  1

  9
$DIMSTYLE
  2
ISO-25
  9
$DIMCLRD
 70
     0
  9
$DIMCLRE
 70
     0
  9
$DIMCLRT
 70
     0
  9
$DIMTFAC
 40
1.0
  9
$DIMGAP
 40
0.625
  9
$DIMJUST
 70
     0
  9
$DIMSD1
 70
     0
  9
$DIMSD2
 70
     0
  9
$DIMTOLJ
 70
     0
  9
$DIMTZIN
 70
     8
  9
$DIMALTZ
 70
     0
  9
$DIMALTTZ
 70
     0
  9
$DIMUPT
 70
     0
  9
$DIMDEC
 70
     2
  9
$DIMTDEC
 70
     2
  9
$DIMALTU
 70
     2
  9
$DIMALTTD
 70
     3
  9
$DIMTXSTY
  7
Standard
  9
$DIMAUNIT
 70
     0
  9
$DIMADEC
 70
     0
  9
$DIMALTRND
 40
0.0
  9
$DIMAZIN
 70
     0
  9
$DIMDSEP
 70
    44
  9
$DIMATFIT
 70
     3
  9
$DIMFRAC
 70
     0
  9
$DIMLDRBLK
  1

  9
$DIMLUNIT
 70
     2
  9
$DIMLWD
 70
    -2
  9
$DIMLWE
 70
    -2
  9
$DIMTMOVE
 70
     0
  9
$LUNITS
 70
     2
  9
$LUPREC
 70
     4
  9
$SKETCHINC
 40
1.0
  9
$FILLETRAD
 40
0.0
  9
$AUNITS
 70
     0
  9
$AUPREC
 70
     0
  9
$MENU
  1
.
  9
$ELEVATION
 40
0.0
  9
$PELEVATION
 40
0.0
  9
$THICKNESS
 40
0.0
  9
$LIMCHECK
 70
     0
  9
$CHAMFERA
 40
0.0
  9
$CHAMFERB
 40
0.0
  9
$CHAMFERC
 40
0.0
  9
$CHAMFERD
 40
0.0
  9
$SKPOLY
 70
     0
  9
$TDCREATE
 40
2454427.395492431
  9
$TDUCREATE
 40
2454427.020492431
  9
$TDUPDATE
 40
2457014.684649213
  9
$TDUUPDATE
 40
2457014.309649213
  9
$TDINDWG
 40
0.2590394097
  9
$TDUSRTIMER
 40
0.2590394097
  9
$USRTIMER
 70
     1
  9
$ANGBASE
 50
0.0
  9
$ANGDIR
 70
     0
  9
$PDMODE
 70
     0
  9
$PDSIZE
 40
0.0
  9
$PLINEWID
 40
0.0
  9
$SPLFRAME
 70
     0
  9
$SPLINETYPE
 70
     6
  9
$SPLINESEGS
 70
     8
  9
$HANDSEED
  5
4DAB
  9
$SURFTAB1
 70
     6
  9
$SURFTAB2
 70
     6
  9
$SURFTYPE
 70
     6
  9
$SURFU
 70
     6
  9
$SURFV
 70
     6
  9
$UCSBASE
  2

  9
$UCSNAME
  2

  9
$UCSORG
 10
0.0
 20
0.0
 30
0.0
  9
$UCSXDIR
 10
1.0
 20
0.0
 30
0.0
  9
$UCSYDIR
 10
0.0
 20
1.0
 30
0.0
  9
$UCSORTHOREF
  2

  9
$UCSORTHOVIEW
 70
     0
  9
$UCSORGTOP
 10
0.0
 20
0.0
 30
0.0
  9
$UCSORGBOTTOM
 10
0.0
 20
0.0
 30
0.0
  9
$UCSORGLEFT
 10
0.0
 20
0.0
 30
0.0
  9
$UCSORGRIGHT
 10
0.0
 20
0.0
 30
0.0
  9
$UCSORGFRONT
 10
0.0
 20
0.0
 30
0.0
  9
$UCSORGBACK
 10
0.0
 20
0.0
 30
0.0
  9
$PUCSBASE
  2

  9
$PUCSNAME
  2

  9
$PUCSORG
 10
0.0
 20
0.0
 30
0.0
  9
$PUCSXDIR
 10
1.0
 20
0.0
 30
0.0
  9
$PUCSYDIR
 10
0.0
 20
1.0
 30
0.0
  9
$PUCSORTHOREF
  2

  9
$PUCSORTHOVIEW
 70
     0
  9
$PUCSORGTOP
 10
0.0
 20
0.0
 30
0.0
  9
$PUCSORGBOTTOM
 10
0.0
 20
0.0
 30
0.0
  9
$PUCSORGLEFT
 10
0.0
 20
0.0
 30
0.0
  9
$PUCSORGRIGHT
 10
0.0
 20
0.0
 30
0.0
  9
$PUCSORGFRONT
 10
0.0
 20
0.0
 30
0.0
  9
$PUCSORGBACK
 10
0.0
 20
0.0
 30
0.0
  9
$USERI1
 70
     0
  9
$USERI2
 70
     0
  9
$USERI3
 70
     0
  9
$USERI4
 70
     0
  9
$USERI5
 70
     0
  9
$USERR1
 40
0.0
  9
$USERR2
 40
0.0
  9
$USERR3
 40
0.0
  9
$USERR4
 40
0.0
  9
$USERR5
 40
0.0
  9
$WORLDVIEW
 70
     1
  9
$SHADEDGE
 70
     3
  9
$SHADEDIF
 70
    70
  9
$TILEMODE
 70
     1
  9
$MAXACTVP
 70
    64
  9
$PINSBASE
 10
0.0
 20
0.0
 30
0.0
  9
$PLIMCHECK
 70
     0
  9
$PEXTMIN
 10
0.0
 20
0.0
 30
0.0
  9
$PEXTMAX
 10
0.0
 20
0.0
 30
0.0
  9
$PLIMMIN
 10
0.0
 20
0.0
  9
$PLIMMAX
 10
12.0
 20
9.0
  9
$UNITMODE
 70
     0
  9
$VISRETAIN
 70
     1
  9
$PLINEGEN
 70
     0
  9
$PSLTSCALE
 70
     1
  9
$TREEDEPTH
 70
  3020
  9
$CMLSTYLE
  2
Standard
  9
$CMLJUST
 70
     0
  9
$CMLSCALE
 40
20.0
  9
$PROXYGRAPHICS
 70
     1
  9
$MEASUREMENT
 70
     1
  9
$CELWEIGHT
370
    -1
  9
$ENDCAPS
280
     0
  9
$JOINSTYLE
280
     0
  9
$LWDISPLAY
290
     0
  9
$INSUNITS
 70
     4
  9
$HYPERLINKBASE
  1

  9
$STYLESHEET
  1
monochrome.ctb
  9
$XEDIT
290
     1
  9
$CEPSNTYPE
380
     0
  9
$PSTYLEMODE
290
     1
  9
$FINGERPRINTGUID
  2
{4ECE4D8E-F13A-40A1-9A46-5F0BA8809353}
  9
$VERSIONGUID
  2
{AE14316A-E003-4711-92AD-E0A9E5E7E560}
  9
$EXTNAMES
290
     1
  9
$PSVPSCALE
 40
0.0
  9
$OLESTARTUP
290
     0
  0
ENDSEC
  0
SECTION
  2
CLASSES
  0
CLASS
  1
ACDBDICTIONARYWDFLT
  2
AcDbDictionaryWithDefault
  3
ObjectDBX Classes
 90
        0
280
     0
281
     0
  0
CLASS
  1
DICTIONARYVAR
  2
AcDbDictionaryVar
  3
ObjectDBX Classes
 90
        0
280
     0
281
     0
  0
CLASS
  1
TABLESTYLE
  2
AcDbTableStyle
  3
ObjectDBX Classes
 90
     4095
280
     0
281
     0
  0
CLASS
  1
SORTENTSTABLE
  2
AcDbSortentsTable
  3
ObjectDBX Classes
 90
        0
280
     0
281
     0
  0
CLASS
  1
DIMASSOC
  2
AcDbDimAssoc
  3
"AcDbDimAssoc|Product Desc:     AcDim ARX App For Dimension|Company:          Autodesk, Inc.|WEB Address:      www.autodesk.com"
 90
        0
280
     0
281
     0
  0
CLASS
  1
MATERIAL
  2
AcDbMaterial
  3
ObjectDBX Classes
 90
     1153
280
     0
281
     0
  0
CLASS
  1
VISUALSTYLE
  2
AcDbVisualStyle
  3
ObjectDBX Classes
 90
     4095
280
     0
281
     0
  0
CLASS
  1
SCALE
  2
AcDbScale
  3
ObjectDBX Classes
 90
     1153
280
     0
281
     0
  0
CLASS
  1
MLEADERSTYLE
  2
AcDbMLeaderStyle
  3
ACDB_MLEADERSTYLE_CLASS
 90
     4095
280
     0
281
     0
  0
CLASS
  1
CELLSTYLEMAP
  2
AcDbCellStyleMap
  3
ObjectDBX Classes
 90
     1152
280
     0
281
     0
  0
CLASS
  1
ACDBPLACEHOLDER
  2
AcDbPlaceHolder
  3
ObjectDBX Classes
 90
        0
280
     0
281
     0
  0
CLASS
  1
LAYOUT
  2
AcDbLayout
  3
ObjectDBX Classes
 90
        0
280
     0
281
     0
  0
ENDSEC
  0
SECTION
  2
TABLES
  0
TABLE
  2
VPORT
  5
8
330
0
100
AcDbSymbolTable
 70
     1
  0
VPORT
  5
4CC5
330
8
100
AcDbSymbolTableRecord
100
AcDbViewportTableRecord
  2
*Active
 70
     0
 10
0.0
 20
0.0
 11
1.0
 21
1.0
 12
2182.639905394169
 22
1573.795891083084
 13
0.0
 23
0.0
 14
10.0
 24
10.0
 15
10.0
 25
10.0
 16
0.0
 26
0.0
 36
1.0
 17
0.0
 27
0.0
 37
0.0
 40
2993.34117594578
 41
1.633766233766233
 42
50.0
 43
0.0
 44
0.0
 50
0.0
 51
0.0
 71
     0
 72
  1000
 73
     1
 74
     3
 75
     0
 76
     0
 77
     0
 78
     0
281
     0
 65
     1
110
0.0
120
0.0
130
0.0
111
1.0
121
0.0
131
0.0
112
0.0
122
1.0
132
0.0
 79
     0
146
0.0
1001
ACAD_NAV_VCDISPLAY
1070
     3
  0
ENDTAB
  0
TABLE
  2
LTYPE
  5
5
330
0
100
AcDbSymbolTable
 70
     4
  0
LTYPE
  5
14
330
5
100
AcDbSymbolTableRecord
100
AcDbLinetypeTableRecord
  2
ByBlock
 70
     0
  3

 72
    65
 73
     0
 40
0.0
  0
LTYPE
  5
15
330
5
100
AcDbSymbolTableRecord
100
AcDbLinetypeTableRecord
  2
ByLayer
 70
     0
  3

 72
    65
 73
     0
 40
0.0
  0
LTYPE
  5
16
330
5
100
AcDbSymbolTableRecord
100
AcDbLinetypeTableRecord
  2
Continuous
 70
     0
  3
Solid line
 72
    65
 73
     0
 40
0.0
  0
LTYPE
  5
14E
330
5
100
AcDbSymbolTableRecord
100
AcDbLinetypeTableRecord
  2
CENTER
 70
     0
  3
Center ____ _ ____ _ ____ _ ____ _ ____ _ ____
 72
    65
 73
     4
 40
50.8
 49
31.75
 74
     0
 49
-6.349999999999999
 74
     0
 49
6.349999999999999
 74
     0
 49
-6.349999999999999
 74
     0
  0
LTYPE
  5
1A6
330
5
100
AcDbSymbolTableRecord
100
AcDbLinetypeTableRecord
  2
DASHED
 70
     0
  3
Dashed __ __ __ __ __ __ __ __ __ __ __ __ __ _
 72
    65
 73
     2
 40
19.05
 49
12.7
 74
     0
 49
-6.349999999999999
 74
     0
  0
LTYPE
  5
1CC
330
5
100
AcDbSymbolTableRecord
100
AcDbLinetypeTableRecord
  2
FENCELINE1
 70
     0
  3
Fenceline circle ----0-----0----0-----0----0---
 72
    65
 73
     4
 40
36.83
 49
6.349999999999999
 74
     0
 49
-2.54
 74
     4
 75
   133
340
14D
 46
2.54
 50
0.0
 44
-2.54
 45
0.0
 49
-2.54
 74
     0
 49
25.4
 74
     0
  0
ENDTAB
  0
TABLE
  2
LAYER
  5
2
102
{ACAD_XDICTIONARY
360
101
102
}
330
0
100
AcDbSymbolTable
 70
    14
  0
LAYER
  5
10
102
{ACAD_XDICTIONARY
360
4D15
102
}
330
2
100
AcDbSymbolTableRecord
100
AcDbLayerTableRecord
  2
0
 70
     0
 62
     7
  6
Continuous
370
    -3
390
F
  0
LAYER
  5
FC
102
{ACAD_XDICTIONARY
360
4D17
102
}
330
2
100
AcDbSymbolTableRecord
100
AcDbLayerTableRecord
  2
題
 70
     0
 62
     7
  6
Continuous
370
    -3
390
F
1001
AcAecLayerStandard
1000

1000

  0
LAYER
  5
FD
330
2
100
AcDbSymbolTableRecord
100
AcDbLayerTableRecord
  2
DEFPOINTS
 70
     0
 62
     1
  6
Continuous
290
     0
370
    -3
390
F
1001
AcAecLayerStandard
1000

1000

  0
LAYER
  5
FE
102
{ACAD_XDICTIONARY
360
4D19
102
}
330
2
100
AcDbSymbolTableRecord
100
AcDbLayerTableRecord
  2
マーク
 70
     0
 62
   160
  6
Continuous
370
    -3
390
F
  0
LAYER
  5
FF
102
{ACAD_XDICTIONARY
360
4D1B
102
}
330
2
100
AcDbSymbolTableRecord
100
AcDbLayerTableRecord
  2
図
 70
     0
 62
     7
  6
Continuous
370
    -3
390
F
1001
AcAecLayerStandard
1000

1000

  0
LAYER
  5
14B
102
{ACAD_XDICTIONARY
360
4D1D
102
}
330
2
100
AcDbSymbolTableRecord
100
AcDbLayerTableRecord
  2
センター
 70
     0
 62
     4
  6
CENTER
370
    15
390
F
1001
AcAecLayerStandard
1000

1000

  0
LAYER
  5
14F
102
{ACAD_XDICTIONARY
360
4D1F
102
}
330
2
100
AcDbSymbolTableRecord
100
AcDbLayerTableRecord
  2
補助
 70
     0
 62
     2
  6
Continuous
370
     9
390
F
1001
AcAecLayerStandard
1000

1000

  0
LAYER
  5
1A4
102
{ACAD_XDICTIONARY
360
4D21
102
}
330
2
100
AcDbSymbolTableRecord
100
AcDbLayerTableRecord
  2
寸法
 70
     0
 62
     7
  6
Continuous
370
    15
390
F
1001
AcAecLayerStandard
1000

1000

  0
LAYER
  5
1A5
102
{ACAD_XDICTIONARY
360
4D23
102
}
330
2
100
AcDbSymbolTableRecord
100
AcDbLayerTableRecord
  2
影
 70
     0
 62
   160
  6
DASHED
370
    15
390
F
1001
AcAecLayerStandard
1000

1000

  0
LAYER
  5
1747
102
{ACAD_XDICTIONARY
360
4D25
102
}
330
2
100
AcDbSymbolTableRecord
100
AcDbLayerTableRecord
  2
図文字
 70
     0
 62
     7
  6
Continuous
370
    -3
390
F
1001
AcAecLayerStandard
1000

1000

  0
LAYER
  5
1749
102
{ACAD_XDICTIONARY
360
4D27
102
}
330
2
100
AcDbSymbolTableRecord
100
AcDbLayerTableRecord
  2
鉄板
 70
     0
 62
     6
  6
Continuous
370
    -3
390
F
1001
AcAecLayerStandard
1000

1000

  0
LAYER
  5
47FA
102
{ACAD_XDICTIONARY
360
4D29
102
}
330
2
100
AcDbSymbolTableRecord
100
AcDbLayerTableRecord
  2
全体文字
 70
     0
 62
     7
  6
Continuous
370
    -3
390
F
1001
AcAecLayerStandard
1000

1000

  0
LAYER
  5
47FB
102
{ACAD_XDICTIONARY
360
4D2B
102
}
330
2
100
AcDbSymbolTableRecord
100
AcDbLayerTableRecord
  2
鉄筋D
 70
     0
 62
     3
  6
FENCELINE1
370
     9
390
F
1001
AcAecLayerStandard
1000

1000

  0
LAYER
  5
47FC
102
{ACAD_XDICTIONARY
360
4D2D
102
}
330
2
100
AcDbSymbolTableRecord
100
AcDbLayerTableRecord
  2
鉄筋\U+03C6
 70
     0
 62
     3
  6
Continuous
370
     9
390
F
1001
AcAecLayerStandard
1000

1000

  0
ENDTAB
  0
TABLE
  2
STYLE
  5
3
330
0
100
AcDbSymbolTable
 70
     2
  0
STYLE
  5
11
330
3
100
AcDbSymbolTableRecord
100
AcDbTextStyleTableRecord
  2
Standard
 70
     0
 40
0.0
 41
1.0
 50
0.0
 71
     0
 42
2.5
  3
txt.shx
  4
extfont2.shx
  0
STYLE
  5
14D
330
3
100
AcDbSymbolTableRecord
100
AcDbTextStyleTableRecord
  2

 70
     1
 40
0.0
 41
1.0
 50
0.0
 71
     0
 42
2.5
  3
ltypeshp.shx
  4

  0
ENDTAB
  0
TABLE
  2
VIEW
  5
6
330
0
100
AcDbSymbolTable
 70
     0
  0
ENDTAB
  0
TABLE
  2
UCS
  5
7
330
0
100
AcDbSymbolTable
 70
     0
  0
ENDTAB
  0
TABLE
  2
APPID
  5
9
330
0
100
AcDbSymbolTable
 70
    14
  0
APPID
  5
12
330
9
100
AcDbSymbolTableRecord
100
AcDbRegAppTableRecord
  2
ACAD
 70
     0
  0
APPID
  5
9E
330
9
100
AcDbSymbolTableRecord
100
AcDbRegAppTableRecord
  2
ACAD_PSEXT
 70
     0
  0
APPID
  5
100
330
9
100
AcDbSymbolTableRecord
100
AcDbRegAppTableRecord
  2
AcAecLayerStandard
 70
     0
  0
APPID
  5
1B6
330
9
100
AcDbSymbolTableRecord
100
AcDbRegAppTableRecord
  2
ACAD_EXEMPT_FROM_CAD_STANDARDS
 70
     0
  0
APPID
  5
E2E
330
9
100
AcDbSymbolTableRecord
100
AcDbRegAppTableRecord
  2
ACAD_DSTYLE_DIMTEXT_FILL
 70
     0
  0
APPID
  5
E2F
330
9
100
AcDbSymbolTableRecord
100
AcDbRegAppTableRecord
  2
ACAD_DSTYLE_DIMEXT_LENGTH
 70
     0
  0
APPID
  5
E30
330
9
100
AcDbSymbolTableRecord
100
AcDbRegAppTableRecord
  2
ACAD_DSTYLE_DIMEXT_ENABLED
 70
     0
  0
APPID
  5
E31
330
9
100
AcDbSymbolTableRecord
100
AcDbRegAppTableRecord
  2
ACAD_DSTYLE_DIM_LINETYPE
 70
     0
  0
APPID
  5
E32
330
9
100
AcDbSymbolTableRecord
100
AcDbRegAppTableRecord
  2
ACAD_DSTYLE_DIM_EXT1_LINETYPE
 70
     0
  0
APPID
  5
E33
330
9
100
AcDbSymbolTableRecord
100
AcDbRegAppTableRecord
  2
ACAD_DSTYLE_DIM_EXT2_LINETYPE
 70
     0
  0
APPID
  5
EEF
330
9
100
AcDbSymbolTableRecord
100
AcDbRegAppTableRecord
  2
ACAD_DSTYLE_DIMJOGGED_JOGANGLE_SYMBOL
 70
     0
  0
APPID
  5
F53
330
9
100
AcDbSymbolTableRecord
100
AcDbRegAppTableRecord
  2
ACAD_DSTYLE_DIMARC_LENGTH_SYMBOL
 70
     0
  0
APPID
  5
4D38
330
9
100
AcDbSymbolTableRecord
100
AcDbRegAppTableRecord
  2
ACAD_NAV_VCDISPLAY
 70
     0
  0
APPID
  5
4DAA
330
9
100
AcDbSymbolTableRecord
100
AcDbRegAppTableRecord
  2
ACAD_MLEADERVER
 70
     0
  0
ENDTAB
  0
TABLE
  2
DIMSTYLE
  5
A
330
0
100
AcDbSymbolTable
 70
     1
100
AcDbDimStyleTable
 71
     1
340
27
  0
DIMSTYLE
105
27
102
{ACAD_REACTORS
330
495D
330
4960
330
4963
330
4968
330
496B
330
496C
330
496D
330
4970
330
4973
330
4974
330
4977
330
497A
330
4984
330
4987
330
4988
330
498B
330
498C
330
498D
330
498E
330
4991
330
4992
330
4993
330
4994
330
4997
330
499A
330
49C7
330
49DB
330
49DC
330
49DD
330
49F2
330
49FC
330
4A06
330
4A09
330
4A11
330
4A1D
330
4A1E
102
}
330
A
100
AcDbSymbolTableRecord
100
AcDbDimStyleTableRecord
  2
ISO-25
 70
     0
 41
2.5
 42
0.625
 43
3.75
 44
1.25
 73
     0
 74
     0
 77
     2
 78
     8
140
2.5
141
2.5
143
0.03937007874016
147
0.625
171
     3
172
     1
271
     2
272
     2
274
     3
278
    44
283
     0
284
     8
340
11
1001
ACAD_DSTYLE_DIMEXT_LENGTH
1070
   378
1040
1.25
1001
ACAD_DSTYLE_DIMJOGGED_JOGANGLE_SYMBOL
1070
   384
1040
1.570796326794896
  0
ENDTAB
  0
TABLE
  2
BLOCK_RECORD
  5
1
330
0
100
AcDbSymbolTable
 70
    40
  0
BLOCK_RECORD
  5
1F
102
{ACAD_XDICTIONARY
360
C0A
102
}
330
1
100
AcDbSymbolTableRecord
100
AcDbBlockTableRecord
  2
*Model_Space
340
22
  0
BLOCK_RECORD
  5
D2
330
1
100
AcDbSymbolTableRecord
100
AcDbBlockTableRecord
  2
*Paper_Space
340
D3
  0
BLOCK_RECORD
  5
D6
330
1
100
AcDbSymbolTableRecord
100
AcDbBlockTableRecord
  2
*Paper_Space0
340
D7
  0
BLOCK_RECORD
  5
F3
330
1
100
AcDbSymbolTableRecord
100
AcDbBlockTableRecord
  2
AI9-BLK1
340
0
102
{BLKREFS
331
123
102
}
  0
BLOCK_RECORD
  5
F7
330
1
100
AcDbSymbolTableRecord
100
AcDbBlockTableRecord
  2
AI9-BLK2
340
0
102
{BLKREFS
331
F5
102
}
  0
BLOCK_RECORD
  5
10D7
330
1
100
AcDbSymbolTableRecord
100
AcDbBlockTableRecord
  2
_Open30
340
0
  0
BLOCK_RECORD
  5
4A23
330
1
100
AcDbSymbolTableRecord
100
AcDbBlockTableRecord
  2
*D4
340
0
  0
BLOCK_RECORD
  5
4A2F
330
1
100
AcDbSymbolTableRecord
100
AcDbBlockTableRecord
  2
*D5
340
0
  0
BLOCK_RECORD
  5
4A3B
330
1
100
AcDbSymbolTableRecord
100
AcDbBlockTableRecord
  2
*D6
340
0
  0
BLOCK_RECORD
  5
4A47
330
1
100
AcDbSymbolTableRecord
100
AcDbBlockTableRecord
  2
*D7
340
0
  0
BLOCK_RECORD
  5
4A55
330
1
100
AcDbSymbolTableRecord
100
AcDbBlockTableRecord
  2
*D8
340
0
  0
BLOCK_RECORD
  5
4A63
330
1
100
AcDbSymbolTableRecord
100
AcDbBlockTableRecord
  2
*D9
340
0
  0
BLOCK_RECORD
  5
4A70
330
1
100
AcDbSymbolTableRecord
100
AcDbBlockTableRecord
  2
*D10
340
0
  0
BLOCK_RECORD
  5
4A7D
330
1
100
AcDbSymbolTableRecord
100
AcDbBlockTableRecord
  2
*D11
340
0
  0
BLOCK_RECORD
  5
4A8A
330
1
100
AcDbSymbolTableRecord
100
AcDbBlockTableRecord
  2
*D12
340
0
  0
BLOCK_RECORD
  5
4A98
330
1
100
AcDbSymbolTableRecord
100
AcDbBlockTableRecord
  2
*D13
340
0
  0
BLOCK_RECORD
  5
4AA5
330
1
100
AcDbSymbolTableRecord
100
AcDbBlockTableRecord
  2
*D14
340
0
  0
BLOCK_RECORD
  5
4AB1
330
1
100
AcDbSymbolTableRecord
100
AcDbBlockTableRecord
  2
*D15
340
0
  0
BLOCK_RECORD
  5
4ABD
330
1
100
AcDbSymbolTableRecord
100
AcDbBlockTableRecord
  2
*D16
340
0
  0
BLOCK_RECORD
  5
4AC9
330
1
100
AcDbSymbolTableRecord
100
AcDbBlockTableRecord
  2
*D17
340
0
  0
BLOCK_RECORD
  5
4AD5
330
1
100
AcDbSymbolTableRecord
100
AcDbBlockTableRecord
  2
*D18
340
0
  0
BLOCK_RECORD
  5
4AE1
330
1
100
AcDbSymbolTableRecord
100
AcDbBlockTableRecord
  2
*D19
340
0
  0
BLOCK_RECORD
  5
4AED
330
1
100
AcDbSymbolTableRecord
100
AcDbBlockTableRecord
  2
*D20
340
0
  0
BLOCK_RECORD
  5
4AF9
330
1
100
AcDbSymbolTableRecord
100
AcDbBlockTableRecord
  2
*D21
340
0
  0
BLOCK_RECORD
  5
4B05
330
1
100
AcDbSymbolTableRecord
100
AcDbBlockTableRecord
  2
*D22
340
0
  0
BLOCK_RECORD
  5
4B11
330
1
100
AcDbSymbolTableRecord
100
AcDbBlockTableRecord
  2
*D23
340
0
  0
BLOCK_RECORD
  5
4B1D
330
1
100
AcDbSymbolTableRecord
100
AcDbBlockTableRecord
  2
*D24
340
0
  0
BLOCK_RECORD
  5
4B3B
330
1
100
AcDbSymbolTableRecord
100
AcDbBlockTableRecord
  2
*D25
340
0
  0
BLOCK_RECORD
  5
4B47
330
1
100
AcDbSymbolTableRecord
100
AcDbBlockTableRecord
  2
*D26
340
0
  0
BLOCK_RECORD
  5
4B5C
330
1
100
AcDbSymbolTableRecord
100
AcDbBlockTableRecord
  2
*D27
340
0
  0
BLOCK_RECORD
  5
4B69
330
1
100
AcDbSymbolTableRecord
100
AcDbBlockTableRecord
  2
*D28
340
0
  0
BLOCK_RECORD
  5
4B77
330
1
100
AcDbSymbolTableRecord
100
AcDbBlockTableRecord
  2
*D29
340
0
  0
BLOCK_RECORD
  5
4B84
330
1
100
AcDbSymbolTableRecord
100
AcDbBlockTableRecord
  2
*D30
340
0
  0
BLOCK_RECORD
  5
4B9B
330
1
100
AcDbSymbolTableRecord
100
AcDbBlockTableRecord
  2
*D31
340
0
  0
BLOCK_RECORD
  5
4BC7
330
1
100
AcDbSymbolTableRecord
100
AcDbBlockTableRecord
  2
*D32
340
0
  0
BLOCK_RECORD
  5
4BF2
330
1
100
AcDbSymbolTableRecord
100
AcDbBlockTableRecord
  2
*D33
340
0
  0
BLOCK_RECORD
  5
4BFE
330
1
100
AcDbSymbolTableRecord
100
AcDbBlockTableRecord
  2
*D34
340
0
  0
BLOCK_RECORD
  5
4C0A
330
1
100
AcDbSymbolTableRecord
100
AcDbBlockTableRecord
  2
*D35
340
0
  0
BLOCK_RECORD
  5
4C3A
330
1
100
AcDbSymbolTableRecord
100
AcDbBlockTableRecord
  2
*D36
340
0
  0
BLOCK_RECORD
  5
4C46
330
1
100
AcDbSymbolTableRecord
100
AcDbBlockTableRecord
  2
*D37
340
0
  0
BLOCK_RECORD
  5
4C52
330
1
100
AcDbSymbolTableRecord
100
AcDbBlockTableRecord
  2
*D38
340
0
  0
BLOCK_RECORD
  5
4C5E
330
1
100
AcDbSymbolTableRecord
100
AcDbBlockTableRecord
  2
*D39
340
0
  0
ENDTAB
  0
ENDSEC
  0
SECTION
  2
BLOCKS
  0
BLOCK
  5
20
330
1F
100
AcDbEntity
  8
0
100
AcDbBlockBegin
  2
*Model_Space
 70
     0
 10
0.0
 20
0.0
 30
0.0
  3
*Model_Space
  1

  0
ENDBLK
  5
21
330
1F
100
AcDbEntity
  8
0
100
AcDbBlockEnd
  0
BLOCK
  5
D4
330
D2
100
AcDbEntity
 67
     1
  8
0
100
AcDbBlockBegin
  2
*Paper_Space
 70
     0
 10
0.0
 20
0.0
 30
0.0
  3
*Paper_Space
  1

  0
ENDBLK
  5
D5
330
D2
100
AcDbEntity
 67
     1
  8
0
100
AcDbBlockEnd
  0
BLOCK
  5
D8
330
D6
100
AcDbEntity
 67
     1
  8
0
100
AcDbBlockBegin
  2
*Paper_Space0
 70
     0
 10
0.0
 20
0.0
 30
0.0
  3
*Paper_Space0
  1

  0
ENDBLK
  5
D9
330
D6
100
AcDbEntity
 67
     1
  8
0
100
AcDbBlockEnd
  0
BLOCK
  5
F4
330
F3
100
AcDbEntity
  8
マーク
 62
     7
100
AcDbBlockBegin
  2
AI9-BLK1
 70
     0
 10
0.0
 20
0.0
 30
0.0
  3
AI9-BLK1
  1

  0
INSERT
  5
F5
330
F3
100
AcDbEntity
  8
マーク
 62
     7
100
AcDbBlockReference
  2
AI9-BLK2
 10
0.0
 20
0.0
 30
0.0
  0
ENDBLK
  5
F6
330
F3
100
AcDbEntity
  8
マーク
100
AcDbBlockEnd
  0
BLOCK
  5
F8
330
F7
100
AcDbEntity
  8
マーク
 62
     7
100
AcDbBlockBegin
  2
AI9-BLK2
 70
     0
 10
0.0
 20
0.0
 30
0.0
  3
AI9-BLK2
  1

  0
HATCH
  5
F9
330
F7
100
AcDbEntity
  8
マーク
 62
     7
100
AcDbHatch
 10
0.0
 20
0.0
 30
0.0
210
0.0
220
0.0
230
1.0
  2
SOLID
 70
     1
 71
     0
 91
        1
 92
        1
 93
        1
 72
     4
 94
        3
 73
     0
 74
     0
 95
       59
 96
       55
 40
0.0
 40
0.0
 40
0.0
 40
0.0
 40
1.0
 40
1.0
 40
1.0
 40
2.0
 40
2.0
 40
2.0
 40
3.0
 40
3.0
 40
3.0
 40
4.0
 40
4.0
 40
4.0
 40
5.0
 40
5.0
 40
5.0
 40
6.0
 40
6.0
 40
6.0
 40
7.0
 40
7.0
 40
7.0
 40
8.0
 40
8.0
 40
8.0
 40
9.0
 40
9.0
 40
9.0
 40
10.0
 40
10.0
 40
10.0
 40
11.0
 40
11.0
 40
11.0
 40
12.0
 40
12.0
 40
12.0
 40
13.0
 40
13.0
 40
13.0
 40
14.0
 40
14.0
 40
14.0
 40
15.0
 40
15.0
 40
15.0
 40
16.0
 40
16.0
 40
16.0
 40
17.0
 40
17.0
 40
17.0
 40
18.0
 40
18.0
 40
18.0
 40
18.0
 10
19.11183946397569
 20
10.62743055555555
 10
19.11183946397569
 20
10.62743055555555
 10
19.13285454644097
 20
10.66274278428819
 10
19.13285454644097
 20
10.66274278428819
 10
19.61275634765625
 20
10.33804253472222
 10
20.1877427842882
 20
10.15114610460069
 10
20.80854899088542
 20
10.15114610460069
 10
22.46667344835069
 20
10.15114610460069
 10
23.81060519748264
 20
11.49525010850694
 10
23.81060519748264
 20
13.1497572157118
 10
23.81060519748264
 20
14.20102810329861
 10
23.26731363932291
 20
15.12879231770833
 10
22.44910346137153
 20
15.66502143012153
 10
22.44910346137153
 20
15.66502143012153
 10
22.45599365234375
 20
15.67914632161458
 10
22.45599365234375
 20
15.67914632161458
 10
22.45599365234375
 20
15.67914632161458
 10
-18.13102077907986
 20
42.28561876085069
 10
-18.13102077907986
 20
42.28561876085069
 10
-12.56770833333333
 20
44.67754855685764
 10
-6.436471896701387
 20
46.0004652235243
 10
0.0017225477430556
 20
46.0004652235243
 10
25.40533989800347
 20
46.0004652235243
 10
46.0004652235243
 20
25.40533989800347
 10
46.0004652235243
 20
0.0017225477430556
 10
46.0004652235243
 20
-14.73036702473958
 10
39.07547878689236
 20
-27.84308946397569
 10
28.30507676866319
 20
-36.26393636067708
 10
28.30507676866319
 20
-36.26393636067708
 10
1.067118326822916
 20
-19.00607503255208
 10
1.067118326822916
 20
-19.00607503255208
 10
1.416451009114583
 20
-18.86482611762152
 10
1.761994086371527
 20
-18.72357720269097
 10
2.107881673177083
 20
-18.57922770182291
 10
5.145077853732638
 20
-17.27732611762152
 10
7.381978352864583
 20
-15.23817409939236
 10
8.923314073350693
 20
-12.3032972547743
 10
10.4367445203993
 20
-9.410450575086803
 10
11.01896565755208
 20
-6.288160536024305
 10
10.21832546657986
 20
-3.092145453559027
 10
9.308131239149304
 20
0.53795166015625
 10
7.399548339843748
 20
3.974089898003471
 10
5.371076117621527
 20
6.95495876736111
 10
4.340992567274304
 20
8.468389214409722
 10
3.278869628906249
 20
10.03470187717014
 10
2.926091851128472
 20
11.85147298177083
 10
2.552298990885416
 20
13.76005588107639
 10
3.416673448350694
 20
16.33888210720486
 10
5.554355197482638
 20
16.90336100260416
 10
7.286549207899304
 20
17.35845811631944
 10
9.106937662760415
 20
16.76228434244791
 10
10.6909925672743
 20
16.05311143663194
 10
10.6909925672743
 20
16.05311143663194
 10
19.11183946397569
 20
10.62743055555555
 10
19.11183946397569
 20
10.62743055555555
 97
        0
 75
     2
 76
     1
 98
        1
 10
0.0
 20
0.0
  0
HATCH
  5
FA
330
F7
100
AcDbEntity
  8
マーク
 62
     7
100
AcDbHatch
 10
0.0
 20
0.0
 30
0.0
210
0.0
220
0.0
230
1.0
  2
SOLID
 70
     1
 71
     0
 91
        1
 92
        1
 93
        1
 72
     4
 94
        3
 73
     0
 74
     0
 95
       68
 96
       64
 40
0.0
 40
0.0
 40
0.0
 40
0.0
 40
1.0
 40
1.0
 40
1.0
 40
2.0
 40
2.0
 40
2.0
 40
3.0
 40
3.0
 40
3.0
 40
4.0
 40
4.0
 40
4.0
 40
5.0
 40
5.0
 40
5.0
 40
6.0
 40
6.0
 40
6.0
 40
7.0
 40
7.0
 40
7.0
 40
8.0
 40
8.0
 40
8.0
 40
9.0
 40
9.0
 40
9.0
 40
10.0
 40
10.0
 40
10.0
 40
11.0
 40
11.0
 40
11.0
 40
12.0
 40
12.0
 40
12.0
 40
13.0
 40
13.0
 40
13.0
 40
14.0
 40
14.0
 40
14.0
 40
15.0
 40
15.0
 40
15.0
 40
16.0
 40
16.0
 40
16.0
 40
17.0
 40
17.0
 40
17.0
 40
18.0
 40
18.0
 40
18.0
 40
19.0
 40
19.0
 40
19.0
 40
20.0
 40
20.0
 40
20.0
 40
21.0
 40
21.0
 40
21.0
 40
21.0
 10
-23.28161078559027
 20
-10.57454833984375
 10
-23.28161078559027
 20
-10.57454833984375
 10
22.7522718641493
 20
-39.98911810980903
 10
22.7522718641493
 20
-39.98911810980903
 10
16.0426038953993
 20
-43.81696370442708
 10
8.278047688802082
 20
-46.0004652235243
 10
0.0017225477430556
 20
-46.0004652235243
 10
-25.40533989800347
 20
-46.0004652235243
 10
-46.0004652235243
 20
-25.40533989800347
 10
-46.0004652235243
 20
0.0017225477430556
 10
-46.0004652235243
 20
16.32820231119791
 10
-37.49504123263888
 20
30.66875678168403
 10
-24.6715345594618
 20
38.8319105360243
 10
-24.6715345594618
 20
38.8319105360243
 10
-0.4709445529513889
 20
23.24268120659722
 10
-0.4709445529513889
 20
23.24268120659722
 10
-0.4709445529513889
 20
23.24268120659722
 10
-0.5345065646701388
 20
23.14397922092014
 10
-0.5345065646701388
 20
23.14397922092014
 10
-2.495971679687499
 20
22.2654798719618
 10
-4.446756998697916
 20
21.18251410590278
 10
-5.77673611111111
 20
19.44325764973958
 10
-7.515992567274304
 20
17.1679443359375
 10
-7.216097005208332
 20
14.03514675564236
 10
-6.394097222222221
 20
11.46700032552083
 10
-5.882672797309027
 20
9.868992784288193
 10
-5.145250108506943
 20
8.344882541232637
 10
-4.309297688802082
 20
6.89139675564236
 10
-3.501422797309027
 20
5.487348090277777
 10
-2.591228569878472
 20
4.15047878689236
 10
-1.677589246961805
 20
2.816882324218749
 10
-0.7250203450520833
 20
1.434020996093749
 10
0.2451185438368055
 20
0.0475423177083333
 10
1.028188747829861
 20
-1.441255696614583
 10
1.811603461371527
 20
-2.926436360677083
 10
2.421729871961805
 20
-4.549076334635416
 10
2.488909233940971
 20
-6.242340766059027
 10
2.555744086371527
 20
-7.847410753038193
 10
2.097201877170138
 20
-9.456270345052082
 10
1.084688313802083
 20
-10.71924235026041
 10
0.0687296549479167
 20
-11.98221435546875
 10
-1.413005913628472
 20
-12.77940945095486
 10
-3.003951009114583
 20
-13.04054768880208
 10
-4.732527669270832
 20
-13.31925591362847
 10
-6.475229220920137
 20
-12.97336832682291
 10
-8.143861219618054
 20
-12.51482611762152
 10
-8.588450792100694
 20
-12.39493679470486
 10
-9.025805664062499
 20
-12.25713297526041
 10
-9.470395236545137
 20
-12.13379855685764
 10
-9.470395236545137
 20
-12.13379855685764
 10
-9.558589680989582
 20
-12.27504747178819
 10
-9.558589680989582
 20
-12.27504747178819
 10
-9.558589680989582
 20
-12.27504747178819
 10
-19.96553412543402
 20
-5.684924316406249
 10
-19.96553412543402
 20
-5.684924316406249
 10
-20.50520833333333
 20
-5.159547254774304
 10
-21.24263102213542
 20
-4.838464355468749
 10
-22.05395100911458
 20
-4.838464355468749
 10
-23.70845811631944
 20
-4.838464355468749
 10
-25.05256212022569
 20
-6.182396104600694
 10
-25.05256212022569
 20
-7.840520562065971
 10
-25.05256212022569
 20
-9.057672797309026
 10
-24.32581922743056
 20
-10.10532633463541
 10
-23.28161078559027
 20
-10.57454833984375
 97
        0
 75
     2
 76
     1
 98
        1
 10
0.0
 20
0.0
  0
ENDBLK
  5
FB
330
F7
100
AcDbEntity
  8
マーク
100
AcDbBlockEnd
  0
BLOCK
  5
10DB
330
10D7
100
AcDbEntity
  8
0
100
AcDbBlockBegin
  2
_Open30
 70
     0
 10
0.0
 20
0.0
 30
0.0
  3
_Open30
  1

  0
LINE
  5
10D8
330
10D7
100
AcDbEntity
  8
0
  6
ByBlock
 62
     0
370
    -2
100
AcDbLine
 10
-1.0
 20
0.26794919
 30
0.0
 11
0.0
 21
0.0
 31
0.0
  0
LINE
  5
10D9
330
10D7
100
AcDbEntity
  8
0
  6
ByBlock
 62
     0
370
    -2
100
AcDbLine
 10
0.0
 20
0.0
 30
0.0
 11
-1.0
 21
-0.26794919
 31
0.0
  0
LINE
  5
10DA
330
10D7
100
AcDbEntity
  8
0
  6
ByBlock
 62
     0
370
    -2
100
AcDbLine
 10
0.0
 20
0.0
 30
0.0
 11
-1.0
 21
0.0
 31
0.0
  0
ENDBLK
  5
10DC
330
10D7
100
AcDbEntity
  8
0
100
AcDbBlockEnd
  0
BLOCK
  5
4A2D
330
4A23
100
AcDbEntity
  8
0
100
AcDbBlockBegin
  2
*D4
 70
     1
 10
0.0
 20
0.0
 30
0.0
  3
*D4
  1

  0
LINE
  5
4B29
330
4A23
100
AcDbEntity
  8
寸法
 62
     0
370
    -2
100
AcDbLine
 10
2118.300088449528
 20
918.9091633865169
 30
0.0
 11
2118.300088449528
 21
963.7888117376665
 31
0.0
  0
LINE
  5
4B2A
330
4A23
100
AcDbEntity
  8
寸法
 62
     0
370
    -2
100
AcDbLine
 10
2063.300088449528
 20
863.9091633865168
 30
0.0
 11
2063.300088449528
 21
963.7888117376665
 31
0.0
  0
LINE
  5
4B2B
330
4A23
100
AcDbEntity
  8
寸法
 62
     0
370
    -2
100
AcDbLine
 10
2108.300088449528
 20
958.7888117376664
 30
0.0
 11
2073.300088449528
 21
958.7888117376664
 31
0.0
  0
SOLID
  5
4B2C
330
4A23
100
AcDbEntity
  8
寸法
 62
     0
100
AcDbTrace
 10
2108.300088449528
 20
960.4554784043331
 30
0.0
 11
2108.300088449528
 21
957.1221450709998
 31
0.0
 12
2118.300088449528
 22
958.7888117376664
 32
0.0
 13
2118.300088449528
 23
958.7888117376664
 33
0.0
  0
SOLID
  5
4B2D
330
4A23
100
AcDbEntity
  8
寸法
 62
     0
100
AcDbTrace
 10
2073.300088449528
 20
960.4554784043331
 30
0.0
 11
2073.300088449528
 21
957.1221450709998
 31
0.0
 12
2063.300088449528
 22
958.7888117376664
 32
0.0
 13
2063.300088449528
 23
958.7888117376664
 33
0.0
  0
MTEXT
  5
4B2E
330
4A23
100
AcDbEntity
  8
寸法
 62
     0
100
AcDbMText
 10
2093.336826287314
 20
978.7888117376665
 30
0.0
 40
20.0
 41
0.0
 71
     5
 72
     1
  1
55
 73
     1
 44
1.0
1001
ACAD
1000
MTEXTBEGIN
1070
    73
1070
     1
1070
    44
1040
1.0
1070
    74
1070
     0
1000
MTEXTEND
  0
POINT
  5
4B2F
330
4A23
100
AcDbEntity
  8
DEFPOINTS
 62
     0
100
AcDbPoint
 10
2118.300088449528
 20
888.9091633865168
 30
0.0
  0
POINT
  5
4B30
330
4A23
100
AcDbEntity
  8
DEFPOINTS
 62
     0
100
AcDbPoint
 10
2063.300088449528
 20
833.9091633865168
 30
0.0
  0
POINT
  5
4B31
330
4A23
100
AcDbEntity
  8
DEFPOINTS
 62
     0
100
AcDbPoint
 10
2063.300088449528
 20
958.7888117376664
 30
0.0
  0
ENDBLK
  5
4A2E
330
4A23
100
AcDbEntity
  8
0
100
AcDbBlockEnd
  0
BLOCK
  5
4A39
330
4A2F
100
AcDbEntity
  8
0
100
AcDbBlockBegin
  2
*D5
 70
     1
 10
0.0
 20
0.0
 30
0.0
  3
*D5
  1

  0
LINE
  5
4B32
330
4A2F
100
AcDbEntity
  8
寸法
 62
     0
370
    -2
100
AcDbLine
 10
2208.300088449528
 20
918.9091633865169
 30
0.0
 11
2208.300088449528
 21
963.7888117376665
 31
0.0
  0
LINE
  5
4B33
330
4A2F
100
AcDbEntity
  8
寸法
 62
     0
370
    -2
100
AcDbLine
 10
2118.300088449528
 20
918.9091633865169
 30
0.0
 11
2118.300088449528
 21
963.7888117376665
 31
0.0
  0
LINE
  5
4B34
330
4A2F
100
AcDbEntity
  8
寸法
 62
     0
370
    -2
100
AcDbLine
 10
2198.300088449528
 20
958.7888117376664
 30
0.0
 11
2128.300088449528
 21
958.7888117376664
 31
0.0
  0
SOLID
  5
4B35
330
4A2F
100
AcDbEntity
  8
寸法
 62
     0
100
AcDbTrace
 10
2198.300088449528
 20
960.4554784043331
 30
0.0
 11
2198.300088449528
 21
957.1221450709998
 31
0.0
 12
2208.300088449528
 22
958.7888117376664
 32
0.0
 13
2208.300088449528
 23
958.7888117376664
 33
0.0
  0
SOLID
  5
4B36
330
4A2F
100
AcDbEntity
  8
寸法
 62
     0
100
AcDbTrace
 10
2128.300088449528
 20
960.4554784043331
 30
0.0
 11
2128.300088449528
 21
957.1221450709998
 31
0.0
 12
2118.300088449528
 22
958.7888117376664
 32
0.0
 13
2118.300088449528
 23
958.7888117376664
 33
0.0
  0
MTEXT
  5
4B37
330
4A2F
100
AcDbEntity
  8
寸法
 62
     0
100
AcDbMText
 10
2163.300088449528
 20
978.7888117376665
 30
0.0
 40
20.0
 41
0.0
 71
     5
 72
     1
  1
90
 73
     1
 44
1.0
1001
ACAD
1000
MTEXTBEGIN
1070
    73
1070
     1
1070
    44
1040
1.0
1070
    74
1070
     0
1000
MTEXTEND
  0
POINT
  5
4B38
330
4A2F
100
AcDbEntity
  8
DEFPOINTS
 62
     0
100
AcDbPoint
 10
2208.300088449528
 20
888.9091633865168
 30
0.0
  0
POINT
  5
4B39
330
4A2F
100
AcDbEntity
  8
DEFPOINTS
 62
     0
100
AcDbPoint
 10
2118.300088449528
 20
888.9091633865168
 30
0.0
  0
POINT
  5
4B3A
330
4A2F
100
AcDbEntity
  8
DEFPOINTS
 62
     0
100
AcDbPoint
 10
2118.300088449528
 20
958.7888117376664
 30
0.0
  0
ENDBLK
  5
4A3A
330
4A2F
100
AcDbEntity
  8
0
100
AcDbBlockEnd
  0
BLOCK
  5
4A45
330
4A3B
100
AcDbEntity
  8
0
100
AcDbBlockBegin
  2
*D6
 70
     1
 10
0.0
 20
0.0
 30
0.0
  3
*D6
  1

  0
LINE
  5
4B53
330
4A3B
100
AcDbEntity
  8
寸法
 62
     0
370
    -2
100
AcDbLine
 10
2208.300088449528
 20
808.9091633865168
 30
0.0
 11
2208.300088449528
 21
680.1537596384182
 31
0.0
  0
LINE
  5
4B54
330
4A3B
100
AcDbEntity
  8
寸法
 62
     0
370
    -2
100
AcDbLine
 10
2165.300088449528
 20
758.9091633865169
 30
0.0
 11
2165.300088449528
 21
680.1537596384182
 31
0.0
  0
LINE
  5
4B55
330
4A3B
100
AcDbEntity
  8
寸法
 62
     0
370
    -2
100
AcDbLine
 10
2198.300088449528
 20
685.1537596384182
 30
0.0
 11
2175.300088449528
 21
685.1537596384182
 31
0.0
  0
SOLID
  5
4B56
330
4A3B
100
AcDbEntity
  8
寸法
 62
     0
100
AcDbTrace
 10
2198.300088449528
 20
686.8204263050849
 30
0.0
 11
2198.300088449528
 21
683.4870929717516
 31
0.0
 12
2208.300088449528
 22
685.1537596384182
 32
0.0
 13
2208.300088449528
 23
685.1537596384182
 33
0.0
  0
SOLID
  5
4B57
330
4A3B
100
AcDbEntity
  8
寸法
 62
     0
100
AcDbTrace
 10
2175.300088449528
 20
686.8204263050849
 30
0.0
 11
2175.300088449528
 21
683.4870929717516
 31
0.0
 12
2165.300088449528
 22
685.1537596384182
 32
0.0
 13
2165.300088449528
 23
685.1537596384182
 33
0.0
  0
MTEXT
  5
4B58
330
4A3B
100
AcDbEntity
  8
寸法
 62
     0
100
AcDbMText
 10
2186.800088449528
 20
665.1537596384182
 30
0.0
 40
20.0
 41
0.0
 71
     5
 72
     1
  1
43
 73
     1
 44
1.0
1001
ACAD
1000
MTEXTBEGIN
1070
    73
1070
     1
1070
    44
1040
1.0
1070
    74
1070
     0
1000
MTEXTEND
  0
POINT
  5
4B59
330
4A3B
100
AcDbEntity
  8
DEFPOINTS
 62
     0
100
AcDbPoint
 10
2208.300088449528
 20
838.9091633865168
 30
0.0
  0
POINT
  5
4B5A
330
4A3B
100
AcDbEntity
  8
DEFPOINTS
 62
     0
100
AcDbPoint
 10
2165.300088449528
 20
788.9091633865168
 30
0.0
  0
POINT
  5
4B5B
330
4A3B
100
AcDbEntity
  8
DEFPOINTS
 62
     0
100
AcDbPoint
 10
2165.300088449528
 20
685.1537596384182
 30
0.0
  0
ENDBLK
  5
4A46
330
4A3B
100
AcDbEntity
  8
0
100
AcDbBlockEnd
  0
BLOCK
  5
4A53
330
4A47
100
AcDbEntity
  8
0
100
AcDbBlockBegin
  2
*D7
 70
     1
 10
0.0
 20
0.0
 30
0.0
  3
*D7
  1

  0
LINE
  5
4B90
330
4A47
100
AcDbEntity
  8
寸法
 62
     0
370
    -2
100
AcDbLine
 10
2783.800088449528
 20
2478.909163386517
 30
0.0
 11
2863.800088449529
 21
2478.909163386517
 31
0.0
  0
LINE
  5
4B91
330
4A47
100
AcDbEntity
  8
寸法
 62
     0
370
    -2
100
AcDbLine
 10
2838.800088449529
 20
2498.909163386517
 30
0.0
 11
2863.800088449529
 21
2498.909163386517
 31
0.0
  0
LINE
  5
4B92
330
4A47
100
AcDbEntity
  8
寸法
 62
     0
370
    -2
100
AcDbLine
 10
2858.800088449529
 20
2468.909163386517
 30
0.0
 11
2858.800088449529
 21
2458.909163386517
 31
0.0
  0
LINE
  5
4B93
330
4A47
100
AcDbEntity
  8
寸法
 62
     0
370
    -2
100
AcDbLine
 10
2858.800088449529
 20
2508.909163386517
 30
0.0
 11
2858.800088449529
 21
2518.909163386517
 31
0.0
  0
LINE
  5
4B94
330
4A47
100
AcDbEntity
  8
寸法
 62
     0
370
    -2
100
AcDbLine
 10
2858.800088449529
 20
2478.909163386517
 30
0.0
 11
2858.800088449529
 21
2498.909163386517
 31
0.0
  0
SOLID
  5
4B95
330
4A47
100
AcDbEntity
  8
寸法
 62
     0
100
AcDbTrace
 10
2857.133421782862
 20
2468.909163386517
 30
0.0
 11
2860.466755116195
 21
2468.909163386517
 31
0.0
 12
2858.800088449529
 22
2478.909163386517
 32
0.0
 13
2858.800088449529
 23
2478.909163386517
 33
0.0
  0
SOLID
  5
4B96
330
4A47
100
AcDbEntity
  8
寸法
 62
     0
100
AcDbTrace
 10
2857.133421782862
 20
2508.909163386517
 30
0.0
 11
2860.466755116195
 21
2508.909163386517
 31
0.0
 12
2858.800088449529
 22
2498.909163386517
 32
0.0
 13
2858.800088449529
 23
2498.909163386517
 33
0.0
  0
MTEXT
  5
4B97
330
4A47
100
AcDbEntity
  8
寸法
 62
     0
100
AcDbMText
 10
2878.800088449528
 20
2488.909163386518
 30
0.0
 40
20.0
 41
0.0
 71
     5
 72
     1
  1
20
 11
0.0000000000000001
 21
1.0
 31
0.0
 73
     1
 44
1.0
1001
ACAD
1000
MTEXTBEGIN
1070
    73
1070
     1
1070
    44
1040
1.0
1070
    74
1070
     0
1000
MTEXTEND
  0
POINT
  5
4B98
330
4A47
100
AcDbEntity
  8
DEFPOINTS
 62
     0
100
AcDbPoint
 10
2753.800088449529
 20
2478.909163386517
 30
0.0
  0
POINT
  5
4B99
330
4A47
100
AcDbEntity
  8
DEFPOINTS
 62
     0
100
AcDbPoint
 10
2808.800088449528
 20
2498.909163386517
 30
0.0
  0
POINT
  5
4B9A
330
4A47
100
AcDbEntity
  8
DEFPOINTS
 62
     0
100
AcDbPoint
 10
2858.800088449529
 20
2498.909163386517
 30
0.0
  0
ENDBLK
  5
4A54
330
4A47
100
AcDbEntity
  8
0
100
AcDbBlockEnd
  0
BLOCK
  5
4A61
330
4A55
100
AcDbEntity
  8
0
100
AcDbBlockBegin
  2
*D8
 70
     1
 10
0.0
 20
0.0
 30
0.0
  3
*D8
  1

  0
LINE
  5
4BA8
330
4A55
100
AcDbEntity
  8
寸法
 62
     0
370
    -2
100
AcDbLine
 10
2783.800088449528
 20
2299.909163386517
 30
0.0
 11
2863.800088449529
 21
2299.909163386517
 31
0.0
  0
LINE
  5
4BA9
330
4A55
100
AcDbEntity
  8
寸法
 62
     0
370
    -2
100
AcDbLine
 10
2838.800088449529
 20
2279.909163386517
 30
0.0
 11
2863.800088449529
 21
2279.909163386517
 31
0.0
  0
LINE
  5
4BAA
330
4A55
100
AcDbEntity
  8
寸法
 62
     0
370
    -2
100
AcDbLine
 10
2858.800088449529
 20
2309.909163386517
 30
0.0
 11
2858.800088449529
 21
2319.909163386517
 31
0.0
  0
LINE
  5
4BAB
330
4A55
100
AcDbEntity
  8
寸法
 62
     0
370
    -2
100
AcDbLine
 10
2858.800088449529
 20
2269.909163386517
 30
0.0
 11
2858.800088449529
 21
2259.909163386517
 31
0.0
  0
LINE
  5
4BAC
330
4A55
100
AcDbEntity
  8
寸法
 62
     0
370
    -2
100
AcDbLine
 10
2858.800088449529
 20
2299.909163386517
 30
0.0
 11
2858.800088449529
 21
2279.909163386517
 31
0.0
  0
SOLID
  5
4BAD
330
4A55
100
AcDbEntity
  8
寸法
 62
     0
100
AcDbTrace
 10
2857.133421782863
 20
2309.909163386517
 30
0.0
 11
2860.466755116196
 21
2309.909163386517
 31
0.0
 12
2858.800088449529
 22
2299.909163386517
 32
0.0
 13
2858.800088449529
 23
2299.909163386517
 33
0.0
  0
SOLID
  5
4BAE
330
4A55
100
AcDbEntity
  8
寸法
 62
     0
100
AcDbTrace
 10
2857.133421782863
 20
2269.909163386517
 30
0.0
 11
2860.466755116196
 21
2269.909163386517
 31
0.0
 12
2858.800088449529
 22
2279.909163386517
 32
0.0
 13
2858.800088449529
 23
2279.909163386517
 33
0.0
  0
MTEXT
  5
4BAF
330
4A55
100
AcDbEntity
  8
寸法
 62
     0
100
AcDbMText
 10
2878.800088449528
 20
2289.909163386517
 30
0.0
 40
20.0
 41
0.0
 71
     5
 72
     1
  1
20
 11
0.0000000000000001
 21
1.0
 31
0.0
 73
     1
 44
1.0
1001
ACAD
1000
MTEXTBEGIN
1070
    73
1070
     1
1070
    44
1040
1.0
1070
    74
1070
     0
1000
MTEXTEND
  0
POINT
  5
4BB0
330
4A55
100
AcDbEntity
  8
DEFPOINTS
 62
     0
100
AcDbPoint
 10
2753.800088449529
 20
2299.909163386517
 30
0.0
  0
POINT
  5
4BB1
330
4A55
100
AcDbEntity
  8
DEFPOINTS
 62
     0
100
AcDbPoint
 10
2808.800088449528
 20
2279.909163386517
 30
0.0
  0
POINT
  5
4BB2
330
4A55
100
AcDbEntity
  8
DEFPOINTS
 62
     0
100
AcDbPoint
 10
2858.800088449529
 20
2279.909163386517
 30
0.0
  0
ENDBLK
  5
4A62
330
4A55
100
AcDbEntity
  8
0
100
AcDbBlockEnd
  0
BLOCK
  5
4A6E
330
4A63
100
AcDbEntity
  8
0
100
AcDbBlockBegin
  2
*D9
 70
     1
 10
0.0
 20
0.0
 30
0.0
  3
*D9
  1

  0
LINE
  5
4BB3
330
4A63
100
AcDbEntity
  8
寸法
 62
     0
370
    -2
100
AcDbLine
 10
2838.800088449529
 20
2279.909163386517
 30
0.0
 11
2863.800088449528
 21
2279.909163386517
 31
0.0
  0
LINE
  5
4BB4
330
4A63
100
AcDbEntity
  8
寸法
 62
     0
370
    -2
100
AcDbLine
 10
2838.800088449529
 20
2239.909163386517
 30
0.0
 11
2863.800088449528
 21
2239.909163386517
 31
0.0
  0
LINE
  5
4BB5
330
4A63
100
AcDbEntity
  8
寸法
 62
     0
370
    -2
100
AcDbLine
 10
2858.800088449529
 20
2269.909163386517
 30
0.0
 11
2858.800088449529
 21
2249.909163386517
 31
0.0
  0
LINE
  5
4BB6
330
4A63
100
AcDbEntity
  8
寸法
 62
     0
370
    -2
100
AcDbLine
 10
2858.800088449529
 20
2239.909163386517
 30
0.0
 11
2858.800088449529
 21
2179.909163386517
 31
0.0
  0
SOLID
  5
4BB7
330
4A63
100
AcDbEntity
  8
寸法
 62
     0
100
AcDbTrace
 10
2857.133421782862
 20
2269.909163386517
 30
0.0
 11
2860.466755116195
 21
2269.909163386517
 31
0.0
 12
2858.800088449529
 22
2279.909163386517
 32
0.0
 13
2858.800088449529
 23
2279.909163386517
 33
0.0
  0
SOLID
  5
4BB8
330
4A63
100
AcDbEntity
  8
寸法
 62
     0
100
AcDbTrace
 10
2857.133421782862
 20
2249.909163386517
 30
0.0
 11
2860.466755116195
 21
2249.909163386517
 31
0.0
 12
2858.800088449529
 22
2239.909163386517
 32
0.0
 13
2858.800088449529
 23
2239.909163386517
 33
0.0
  0
MTEXT
  5
4BB9
330
4A63
100
AcDbEntity
  8
寸法
 62
     0
100
AcDbMText
 10
2878.800088449528
 20
2204.909163386517
 30
0.0
 40
20.0
 41
0.0
 71
     5
 72
     1
  1
40
 11
0.0000000000000001
 21
1.0
 31
0.0
 73
     1
 44
1.0
1001
ACAD
1000
MTEXTBEGIN
1070
    73
1070
     1
1070
    44
1040
1.0
1070
    74
1070
     0
1000
MTEXTEND
  0
POINT
  5
4BBA
330
4A63
100
AcDbEntity
  8
DEFPOINTS
 62
     0
100
AcDbPoint
 10
2808.800088449528
 20
2279.909163386517
 30
0.0
  0
POINT
  5
4BBB
330
4A63
100
AcDbEntity
  8
DEFPOINTS
 62
     0
100
AcDbPoint
 10
2808.800088449528
 20
2239.909163386517
 30
0.0
  0
POINT
  5
4BBC
330
4A63
100
AcDbEntity
  8
DEFPOINTS
 62
     0
100
AcDbPoint
 10
2858.800088449529
 20
2239.909163386517
 30
0.0
  0
ENDBLK
  5
4A6F
330
4A63
100
AcDbEntity
  8
0
100
AcDbBlockEnd
  0
BLOCK
  5
4A7B
330
4A70
100
AcDbEntity
  8
0
100
AcDbBlockBegin
  2
*D10
 70
     1
 10
0.0
 20
0.0
 30
0.0
  3
*D10
  1

  0
LINE
  5
4BBD
330
4A70
100
AcDbEntity
  8
寸法
 62
     0
370
    -2
100
AcDbLine
 10
2708.800088449529
 20
2209.909163386517
 30
0.0
 11
2708.800088449529
 21
2166.509853848806
 31
0.0
  0
LINE
  5
4BBE
330
4A70
100
AcDbEntity
  8
寸法
 62
     0
370
    -2
100
AcDbLine
 10
2753.800088449529
 20
2209.909163386517
 30
0.0
 11
2753.800088449529
 21
2166.509853848806
 31
0.0
  0
LINE
  5
4BBF
330
4A70
100
AcDbEntity
  8
寸法
 62
     0
370
    -2
100
AcDbLine
 10
2743.800088449528
 20
2171.509853848806
 30
0.0
 11
2718.800088449528
 21
2171.509853848806
 31
0.0
  0
LINE
  5
4BC0
330
4A70
100
AcDbEntity
  8
寸法
 62
     0
370
    -2
100
AcDbLine
 10
2708.800088449529
 20
2171.509853848806
 30
0.0
 11
2645.466755116195
 21
2171.509853848806
 31
0.0
  0
SOLID
  5
4BC1
330
4A70
100
AcDbEntity
  8
寸法
 62
     0
100
AcDbTrace
 10
2743.800088449528
 20
2173.176520515473
 30
0.0
 11
2743.800088449528
 21
2169.84318718214
 31
0.0
 12
2753.800088449529
 22
2171.509853848806
 32
0.0
 13
2753.800088449529
 23
2171.509853848806
 33
0.0
  0
SOLID
  5
4BC2
330
4A70
100
AcDbEntity
  8
寸法
 62
     0
100
AcDbTrace
 10
2718.800088449528
 20
2173.176520515473
 30
0.0
 11
2718.800088449528
 21
2169.84318718214
 31
0.0
 12
2708.800088449529
 22
2171.509853848806
 32
0.0
 13
2708.800088449529
 23
2171.509853848806
 33
0.0
  0
MTEXT
  5
4BC3
330
4A70
100
AcDbEntity
  8
寸法
 62
     0
100
AcDbMText
 10
2672.133421782862
 20
2151.509853848806
 30
0.0
 40
20.0
 41
0.0
 71
     5
 72
     1
  1
45
 73
     1
 44
1.0
1001
ACAD
1000
MTEXTBEGIN
1070
    73
1070
     1
1070
    44
1040
1.0
1070
    74
1070
     0
1000
MTEXTEND
  0
POINT
  5
4BC4
330
4A70
100
AcDbEntity
  8
DEFPOINTS
 62
     0
100
AcDbPoint
 10
2708.800088449529
 20
2239.909163386517
 30
0.0
  0
POINT
  5
4BC5
330
4A70
100
AcDbEntity
  8
DEFPOINTS
 62
     0
100
AcDbPoint
 10
2753.800088449529
 20
2239.909163386517
 30
0.0
  0
POINT
  5
4BC6
330
4A70
100
AcDbEntity
  8
DEFPOINTS
 62
     0
100
AcDbPoint
 10
2753.800088449529
 20
2171.509853848806
 30
0.0
  0
ENDBLK
  5
4A7C
330
4A70
100
AcDbEntity
  8
0
100
AcDbBlockEnd
  0
BLOCK
  5
4A88
330
4A7D
100
AcDbEntity
  8
0
100
AcDbBlockBegin
  2
*D11
 70
     1
 10
0.0
 20
0.0
 30
0.0
  3
*D11
  1

  0
LINE
  5
4BD3
330
4A7D
100
AcDbEntity
  8
寸法
 62
     0
370
    -2
100
AcDbLine
 10
3108.800088449529
 20
2209.909163386517
 30
0.0
 11
3108.800088449529
 21
2166.509853848806
 31
0.0
  0
LINE
  5
4BD4
330
4A7D
100
AcDbEntity
  8
寸法
 62
     0
370
    -2
100
AcDbLine
 10
3153.800088449528
 20
2209.909163386517
 30
0.0
 11
3153.800088449528
 21
2166.509853848806
 31
0.0
  0
LINE
  5
4BD5
330
4A7D
100
AcDbEntity
  8
寸法
 62
     0
370
    -2
100
AcDbLine
 10
3143.800088449528
 20
2171.509853848806
 30
0.0
 11
3118.800088449528
 21
2171.509853848806
 31
0.0
  0
LINE
  5
4BD6
330
4A7D
100
AcDbEntity
  8
寸法
 62
     0
370
    -2
100
AcDbLine
 10
3108.800088449529
 20
2171.509853848806
 30
0.0
 11
3045.466755116195
 21
2171.509853848806
 31
0.0
  0
SOLID
  5
4BD7
330
4A7D
100
AcDbEntity
  8
寸法
 62
     0
100
AcDbTrace
 10
3143.800088449528
 20
2173.176520515473
 30
0.0
 11
3143.800088449528
 21
2169.84318718214
 31
0.0
 12
3153.800088449528
 22
2171.509853848806
 32
0.0
 13
3153.800088449528
 23
2171.509853848806
 33
0.0
  0
SOLID
  5
4BD8
330
4A7D
100
AcDbEntity
  8
寸法
 62
     0
100
AcDbTrace
 10
3118.800088449528
 20
2173.176520515473
 30
0.0
 11
3118.800088449528
 21
2169.84318718214
 31
0.0
 12
3108.800088449529
 22
2171.509853848806
 32
0.0
 13
3108.800088449529
 23
2171.509853848806
 33
0.0
  0
MTEXT
  5
4BD9
330
4A7D
100
AcDbEntity
  8
寸法
 62
     0
100
AcDbMText
 10
3072.133421782862
 20
2151.509853848806
 30
0.0
 40
20.0
 41
0.0
 71
     5
 72
     1
  1
45
 73
     1
 44
1.0
1001
ACAD
1000
MTEXTBEGIN
1070
    73
1070
     1
1070
    44
1040
1.0
1070
    74
1070
     0
1000
MTEXTEND
  0
POINT
  5
4BDA
330
4A7D
100
AcDbEntity
  8
DEFPOINTS
 62
     0
100
AcDbPoint
 10
3108.800088449529
 20
2239.909163386517
 30
0.0
  0
POINT
  5
4BDB
330
4A7D
100
AcDbEntity
  8
DEFPOINTS
 62
     0
100
AcDbPoint
 10
3153.800088449528
 20
2239.909163386517
 30
0.0
  0
POINT
  5
4BDC
330
4A7D
100
AcDbEntity
  8
DEFPOINTS
 62
     0
100
AcDbPoint
 10
3153.800088449528
 20
2171.509853848806
 30
0.0
  0
ENDBLK
  5
4A89
330
4A7D
100
AcDbEntity
  8
0
100
AcDbBlockEnd
  0
BLOCK
  5
4A96
330
4A8A
100
AcDbEntity
  8
0
100
AcDbBlockBegin
  2
*D12
 70
     1
 10
0.0
 20
0.0
 30
0.0
  3
*D12
  1

  0
LINE
  5
4BDD
330
4A8A
100
AcDbEntity
  8
寸法
 62
     0
370
    -2
100
AcDbLine
 10
3153.800088449528
 20
2209.909163386517
 30
0.0
 11
3153.800088449528
 21
2166.509853848806
 31
0.0
  0
LINE
  5
4BDE
330
4A8A
100
AcDbEntity
  8
寸法
 62
     0
370
    -2
100
AcDbLine
 10
3158.800088449528
 20
2209.909163386517
 30
0.0
 11
3158.800088449528
 21
2166.509853848806
 31
0.0
  0
LINE
  5
4BDF
330
4A8A
100
AcDbEntity
  8
寸法
 62
     0
370
    -2
100
AcDbLine
 10
3143.800088449528
 20
2171.509853848806
 30
0.0
 11
3133.800088449528
 21
2171.509853848806
 31
0.0
  0
LINE
  5
4BE0
330
4A8A
100
AcDbEntity
  8
寸法
 62
     0
370
    -2
100
AcDbLine
 10
3168.800088449528
 20
2171.509853848806
 30
0.0
 11
3178.800088449528
 21
2171.509853848806
 31
0.0
  0
LINE
  5
4BE1
330
4A8A
100
AcDbEntity
  8
寸法
 62
     0
370
    -2
100
AcDbLine
 10
3153.800088449528
 20
2171.509853848806
 30
0.0
 11
3158.800088449528
 21
2171.509853848806
 31
0.0
  0
SOLID
  5
4BE2
330
4A8A
100
AcDbEntity
  8
寸法
 62
     0
100
AcDbTrace
 10
3143.800088449528
 20
2173.176520515473
 30
0.0
 11
3143.800088449528
 21
2169.84318718214
 31
0.0
 12
3153.800088449528
 22
2171.509853848806
 32
0.0
 13
3153.800088449528
 23
2171.509853848806
 33
0.0
  0
SOLID
  5
4BE3
330
4A8A
100
AcDbEntity
  8
寸法
 62
     0
100
AcDbTrace
 10
3168.800088449528
 20
2173.176520515473
 30
0.0
 11
3168.800088449528
 21
2169.84318718214
 31
0.0
 12
3158.800088449528
 22
2171.509853848806
 32
0.0
 13
3158.800088449528
 23
2171.509853848806
 33
0.0
  0
MTEXT
  5
4BE4
330
4A8A
100
AcDbEntity
  8
寸法
 62
     0
100
AcDbMText
 10
3156.300088449528
 20
2151.509853848806
 30
0.0
 40
20.0
 41
0.0
 71
     5
 72
     1
  1
5
 73
     1
 44
1.0
1001
ACAD
1000
MTEXTBEGIN
1070
    73
1070
     1
1070
    44
1040
1.0
1070
    74
1070
     0
1000
MTEXTEND
  0
POINT
  5
4BE5
330
4A8A
100
AcDbEntity
  8
DEFPOINTS
 62
     0
100
AcDbPoint
 10
3153.800088449528
 20
2239.909163386517
 30
0.0
  0
POINT
  5
4BE6
330
4A8A
100
AcDbEntity
  8
DEFPOINTS
 62
     0
100
AcDbPoint
 10
3158.800088449528
 20
2239.909163386517
 30
0.0
  0
POINT
  5
4BE7
330
4A8A
100
AcDbEntity
  8
DEFPOINTS
 62
     0
100
AcDbPoint
 10
3158.800088449528
 20
2171.509853848806
 30
0.0
  0
ENDBLK
  5
4A97
330
4A8A
100
AcDbEntity
  8
0
100
AcDbBlockEnd
  0
BLOCK
  5
4AA3
330
4A98
100
AcDbEntity
  8
0
100
AcDbBlockBegin
  2
*D13
 70
     1
 10
0.0
 20
0.0
 30
0.0
  3
*D13
  1

  0
LINE
  5
4BE8
330
4A98
100
AcDbEntity
  8
寸法
 62
     0
370
    -2
100
AcDbLine
 10
3158.800088449528
 20
2209.909163386517
 30
0.0
 11
3158.800088449528
 21
2166.509853848806
 31
0.0
  0
LINE
  5
4BE9
330
4A98
100
AcDbEntity
  8
寸法
 62
     0
370
    -2
100
AcDbLine
 10
3208.800088449528
 20
2209.909163386517
 30
0.0
 11
3208.800088449528
 21
2166.509853848806
 31
0.0
  0
LINE
  5
4BEA
330
4A98
100
AcDbEntity
  8
寸法
 62
     0
370
    -2
100
AcDbLine
 10
3168.800088449528
 20
2171.509853848806
 30
0.0
 11
3198.800088449528
 21
2171.509853848806
 31
0.0
  0
LINE
  5
4BEB
330
4A98
100
AcDbEntity
  8
寸法
 62
     0
370
    -2
100
AcDbLine
 10
3208.800088449528
 20
2171.509853848806
 30
0.0
 11
3268.800088449528
 21
2171.509853848806
 31
0.0
  0
SOLID
  5
4BEC
330
4A98
100
AcDbEntity
  8
寸法
 62
     0
100
AcDbTrace
 10
3168.800088449528
 20
2173.176520515473
 30
0.0
 11
3168.800088449528
 21
2169.84318718214
 31
0.0
 12
3158.800088449528
 22
2171.509853848806
 32
0.0
 13
3158.800088449528
 23
2171.509853848806
 33
0.0
  0
SOLID
  5
4BED
330
4A98
100
AcDbEntity
  8
寸法
 62
     0
100
AcDbTrace
 10
3198.800088449528
 20
2173.176520515473
 30
0.0
 11
3198.800088449528
 21
2169.84318718214
 31
0.0
 12
3208.800088449528
 22
2171.509853848806
 32
0.0
 13
3208.800088449528
 23
2171.509853848806
 33
0.0
  0
MTEXT
  5
4BEE
330
4A98
100
AcDbEntity
  8
寸法
 62
     0
100
AcDbMText
 10
3243.800088449528
 20
2151.509853848806
 30
0.0
 40
20.0
 41
0.0
 71
     5
 72
     1
  1
50
 73
     1
 44
1.0
1001
ACAD
1000
MTEXTBEGIN
1070
    73
1070
     1
1070
    44
1040
1.0
1070
    74
1070
     0
1000
MTEXTEND
  0
POINT
  5
4BEF
330
4A98
100
AcDbEntity
  8
DEFPOINTS
 62
     0
100
AcDbPoint
 10
3158.800088449528
 20
2239.909163386517
 30
0.0
  0
POINT
  5
4BF0
330
4A98
100
AcDbEntity
  8
DEFPOINTS
 62
     0
100
AcDbPoint
 10
3208.800088449528
 20
2239.909163386517
 30
0.0
  0
POINT
  5
4BF1
330
4A98
100
AcDbEntity
  8
DEFPOINTS
 62
     0
100
AcDbPoint
 10
3208.800088449528
 20
2171.509853848806
 30
0.0
  0
ENDBLK
  5
4AA4
330
4A98
100
AcDbEntity
  8
0
100
AcDbBlockEnd
  0
BLOCK
  5
4AAF
330
4AA5
100
AcDbEntity
  8
0
100
AcDbBlockBegin
  2
*D14
 70
     1
 10
0.0
 20
0.0
 30
0.0
  3
*D14
  1

  0
LINE
  5
4C16
330
4AA5
100
AcDbEntity
  8
寸法
 62
     0
370
    -2
100
AcDbLine
 10
826.3000884495282
 20
2568.909163386517
 30
0.0
 11
826.3000884495282
 21
2594.24438039825
 31
0.0
  0
LINE
  5
4C17
330
4AA5
100
AcDbEntity
  8
寸法
 62
     0
370
    -2
100
AcDbLine
 10
783.3000884495281
 20
2568.909163386517
 30
0.0
 11
783.3000884495281
 21
2594.24438039825
 31
0.0
  0
LINE
  5
4C18
330
4AA5
100
AcDbEntity
  8
寸法
 62
     0
370
    -2
100
AcDbLine
 10
816.3000884495282
 20
2589.24438039825
 30
0.0
 11
793.3000884495282
 21
2589.24438039825
 31
0.0
  0
SOLID
  5
4C19
330
4AA5
100
AcDbEntity
  8
寸法
 62
     0
100
AcDbTrace
 10
816.3000884495282
 20
2590.911047064917
 30
0.0
 11
816.3000884495282
 21
2587.577713731584
 31
0.0
 12
826.3000884495282
 22
2589.24438039825
 32
0.0
 13
826.3000884495282
 23
2589.24438039825
 33
0.0
  0
SOLID
  5
4C1A
330
4AA5
100
AcDbEntity
  8
寸法
 62
     0
100
AcDbTrace
 10
793.3000884495282
 20
2590.911047064917
 30
0.0
 11
793.3000884495282
 21
2587.577713731584
 31
0.0
 12
783.3000884495281
 22
2589.24438039825
 32
0.0
 13
783.3000884495281
 23
2589.24438039825
 33
0.0
  0
MTEXT
  5
4C1B
330
4AA5
100
AcDbEntity
  8
寸法
 62
     0
100
AcDbMText
 10
804.8000884495282
 20
2609.24438039825
 30
0.0
 40
20.0
 41
0.0
 71
     5
 72
     1
  1
43
 73
     1
 44
1.0
1001
ACAD
1000
MTEXTBEGIN
1070
    73
1070
     1
1070
    44
1040
1.0
1070
    74
1070
     0
1000
MTEXTEND
  0
POINT
  5
4C1C
330
4AA5
100
AcDbEntity
  8
DEFPOINTS
 62
     0
100
AcDbPoint
 10
826.3000884495282
 20
2538.909163386517
 30
0.0
  0
POINT
  5
4C1D
330
4AA5
100
AcDbEntity
  8
DEFPOINTS
 62
     0
100
AcDbPoint
 10
783.3000884495281
 20
2538.909163386517
 30
0.0
  0
POINT
  5
4C1E
330
4AA5
100
AcDbEntity
  8
DEFPOINTS
 62
     0
100
AcDbPoint
 10
783.3000884495281
 20
2589.24438039825
 30
0.0
  0
ENDBLK
  5
4AB0
330
4AA5
100
AcDbEntity
  8
0
100
AcDbBlockEnd
  0
BLOCK
  5
4ABB
330
4AB1
100
AcDbEntity
  8
0
100
AcDbBlockBegin
  2
*D15
 70
     1
 10
0.0
 20
0.0
 30
0.0
  3
*D15
  1

  0
LINE
  5
4C1F
330
4AB1
100
AcDbEntity
  8
寸法
 62
     0
370
    -2
100
AcDbLine
 10
873.3000884495281
 20
918.9091633865169
 30
0.0
 11
873.3000884495281
 21
963.7888117376665
 31
0.0
  0
LINE
  5
4C20
330
4AB1
100
AcDbEntity
  8
寸法
 62
     0
370
    -2
100
AcDbLine
 10
928.3000884495281
 20
863.9091633865168
 30
0.0
 11
928.3000884495281
 21
963.7888117376665
 31
0.0
  0
LINE
  5
4C21
330
4AB1
100
AcDbEntity
  8
寸法
 62
     0
370
    -2
100
AcDbLine
 10
883.3000884495282
 20
958.7888117376664
 30
0.0
 11
918.3000884495282
 21
958.7888117376664
 31
0.0
  0
SOLID
  5
4C22
330
4AB1
100
AcDbEntity
  8
寸法
 62
     0
100
AcDbTrace
 10
883.3000884495282
 20
960.4554784043331
 30
0.0
 11
883.3000884495282
 21
957.1221450709998
 31
0.0
 12
873.3000884495281
 22
958.7888117376664
 32
0.0
 13
873.3000884495281
 23
958.7888117376664
 33
0.0
  0
SOLID
  5
4C23
330
4AB1
100
AcDbEntity
  8
寸法
 62
     0
100
AcDbTrace
 10
918.3000884495282
 20
960.4554784043331
 30
0.0
 11
918.3000884495282
 21
957.1221450709998
 31
0.0
 12
928.3000884495281
 22
958.7888117376664
 32
0.0
 13
928.3000884495281
 23
958.7888117376664
 33
0.0
  0
MTEXT
  5
4C24
330
4AB1
100
AcDbEntity
  8
寸法
 62
     0
100
AcDbMText
 10
898.2633506117421
 20
978.7888117376665
 30
0.0
 40
20.0
 41
0.0
 71
     5
 72
     1
  1
55
 73
     1
 44
1.0
1001
ACAD
1000
MTEXTBEGIN
1070
    73
1070
     1
1070
    44
1040
1.0
1070
    74
1070
     0
1000
MTEXTEND
  0
POINT
  5
4C25
330
4AB1
100
AcDbEntity
  8
DEFPOINTS
 62
     0
100
AcDbPoint
 10
873.3000884495281
 20
888.9091633865168
 30
0.0
  0
POINT
  5
4C26
330
4AB1
100
AcDbEntity
  8
DEFPOINTS
 62
     0
100
AcDbPoint
 10
928.3000884495281
 20
833.9091633865168
 30
0.0
  0
POINT
  5
4C27
330
4AB1
100
AcDbEntity
  8
DEFPOINTS
 62
     0
100
AcDbPoint
 10
928.3000884495281
 20
958.7888117376664
 30
0.0
  0
ENDBLK
  5
4ABC
330
4AB1
100
AcDbEntity
  8
0
100
AcDbBlockEnd
  0
BLOCK
  5
4AC7
330
4ABD
100
AcDbEntity
  8
0
100
AcDbBlockBegin
  2
*D16
 70
     1
 10
0.0
 20
0.0
 30
0.0
  3
*D16
  1

  0
LINE
  5
4C28
330
4ABD
100
AcDbEntity
  8
寸法
 62
     0
370
    -2
100
AcDbLine
 10
783.3000884495281
 20
918.9091633865169
 30
0.0
 11
783.3000884495281
 21
963.7888117376665
 31
0.0
  0
LINE
  5
4C29
330
4ABD
100
AcDbEntity
  8
寸法
 62
     0
370
    -2
100
AcDbLine
 10
873.3000884495281
 20
918.9091633865169
 30
0.0
 11
873.3000884495281
 21
963.7888117376665
 31
0.0
  0
LINE
  5
4C2A
330
4ABD
100
AcDbEntity
  8
寸法
 62
     0
370
    -2
100
AcDbLine
 10
793.3000884495282
 20
958.7888117376664
 30
0.0
 11
863.3000884495281
 21
958.7888117376664
 31
0.0
  0
SOLID
  5
4C2B
330
4ABD
100
AcDbEntity
  8
寸法
 62
     0
100
AcDbTrace
 10
793.3000884495282
 20
960.4554784043331
 30
0.0
 11
793.3000884495282
 21
957.1221450709998
 31
0.0
 12
783.3000884495281
 22
958.7888117376664
 32
0.0
 13
783.3000884495281
 23
958.7888117376664
 33
0.0
  0
SOLID
  5
4C2C
330
4ABD
100
AcDbEntity
  8
寸法
 62
     0
100
AcDbTrace
 10
863.3000884495281
 20
960.4554784043331
 30
0.0
 11
863.3000884495281
 21
957.1221450709998
 31
0.0
 12
873.3000884495281
 22
958.7888117376664
 32
0.0
 13
873.3000884495281
 23
958.7888117376664
 33
0.0
  0
MTEXT
  5
4C2D
330
4ABD
100
AcDbEntity
  8
寸法
 62
     0
100
AcDbMText
 10
828.3000884495281
 20
978.7888117376665
 30
0.0
 40
20.0
 41
0.0
 71
     5
 72
     1
  1
90
 73
     1
 44
1.0
1001
ACAD
1000
MTEXTBEGIN
1070
    73
1070
     1
1070
    44
1040
1.0
1070
    74
1070
     0
1000
MTEXTEND
  0
POINT
  5
4C2E
330
4ABD
100
AcDbEntity
  8
DEFPOINTS
 62
     0
100
AcDbPoint
 10
783.3000884495281
 20
888.9091633865168
 30
0.0
  0
POINT
  5
4C2F
330
4ABD
100
AcDbEntity
  8
DEFPOINTS
 62
     0
100
AcDbPoint
 10
873.3000884495281
 20
888.9091633865168
 30
0.0
  0
POINT
  5
4C30
330
4ABD
100
AcDbEntity
  8
DEFPOINTS
 62
     0
100
AcDbPoint
 10
873.3000884495281
 20
958.7888117376664
 30
0.0
  0
ENDBLK
  5
4AC8
330
4ABD
100
AcDbEntity
  8
0
100
AcDbBlockEnd
  0
BLOCK
  5
4AD3
330
4AC9
100
AcDbEntity
  8
0
100
AcDbBlockBegin
  2
*D17
 70
     1
 10
0.0
 20
0.0
 30
0.0
  3
*D17
  1

  0
LINE
  5
4C31
330
4AC9
100
AcDbEntity
  8
寸法
 62
     0
370
    -2
100
AcDbLine
 10
783.3000884495281
 20
808.9091633865168
 30
0.0
 11
783.3000884495281
 21
680.1537596384182
 31
0.0
  0
LINE
  5
4C32
330
4AC9
100
AcDbEntity
  8
寸法
 62
     0
370
    -2
100
AcDbLine
 10
826.3000884495282
 20
758.9091633865169
 30
0.0
 11
826.3000884495282
 21
680.1537596384182
 31
0.0
  0
LINE
  5
4C33
330
4AC9
100
AcDbEntity
  8
寸法
 62
     0
370
    -2
100
AcDbLine
 10
793.3000884495282
 20
685.1537596384182
 30
0.0
 11
816.3000884495282
 21
685.1537596384182
 31
0.0
  0
SOLID
  5
4C34
330
4AC9
100
AcDbEntity
  8
寸法
 62
     0
100
AcDbTrace
 10
793.3000884495282
 20
686.8204263050849
 30
0.0
 11
793.3000884495282
 21
683.4870929717516
 31
0.0
 12
783.3000884495281
 22
685.1537596384182
 32
0.0
 13
783.3000884495281
 23
685.1537596384182
 33
0.0
  0
SOLID
  5
4C35
330
4AC9
100
AcDbEntity
  8
寸法
 62
     0
100
AcDbTrace
 10
816.3000884495282
 20
686.8204263050849
 30
0.0
 11
816.3000884495282
 21
683.4870929717516
 31
0.0
 12
826.3000884495282
 22
685.1537596384182
 32
0.0
 13
826.3000884495282
 23
685.1537596384182
 33
0.0
  0
MTEXT
  5
4C36
330
4AC9
100
AcDbEntity
  8
寸法
 62
     0
100
AcDbMText
 10
804.8000884495282
 20
665.1537596384182
 30
0.0
 40
20.0
 41
0.0
 71
     5
 72
     1
  1
43
 73
     1
 44
1.0
1001
ACAD
1000
MTEXTBEGIN
1070
    73
1070
     1
1070
    44
1040
1.0
1070
    74
1070
     0
1000
MTEXTEND
  0
POINT
  5
4C37
330
4AC9
100
AcDbEntity
  8
DEFPOINTS
 62
     0
100
AcDbPoint
 10
783.3000884495281
 20
838.9091633865168
 30
0.0
  0
POINT
  5
4C38
330
4AC9
100
AcDbEntity
  8
DEFPOINTS
 62
     0
100
AcDbPoint
 10
826.3000884495282
 20
788.9091633865168
 30
0.0
  0
POINT
  5
4C39
330
4AC9
100
AcDbEntity
  8
DEFPOINTS
 62
     0
100
AcDbPoint
 10
826.3000884495282
 20
685.1537596384182
 30
0.0
  0
ENDBLK
  5
4AD4
330
4AC9
100
AcDbEntity
  8
0
100
AcDbBlockEnd
  0
BLOCK
  5
4ADF
330
4AD5
100
AcDbEntity
  8
0
100
AcDbBlockBegin
  2
*D18
 70
     1
 10
0.0
 20
0.0
 30
0.0
  3
*D18
  1

  0
LINE
  5
4C6A
330
4AD5
100
AcDbEntity
  8
寸法
 62
     0
370
    -2
100
AcDbLine
 10
2238.300088449529
 20
2538.909163386517
 30
0.0
 11
2321.672115329845
 21
2538.909163386517
 31
0.0
  0
LINE
  5
4C6B
330
4AD5
100
AcDbEntity
  8
寸法
 62
     0
370
    -2
100
AcDbLine
 10
2238.300088449529
 20
2239.909163386517
 30
0.0
 11
2321.672115329845
 21
2239.909163386517
 31
0.0
  0
LINE
  5
4C6C
330
4AD5
100
AcDbEntity
  8
寸法
 62
     0
370
    -2
100
AcDbLine
 10
2316.672115329845
 20
2528.909163386517
 30
0.0
 11
2316.672115329845
 21
2249.909163386517
 31
0.0
  0
SOLID
  5
4C6D
330
4AD5
100
AcDbEntity
  8
寸法
 62
     0
100
AcDbTrace
 10
2315.005448663178
 20
2528.909163386517
 30
0.0
 11
2318.338781996512
 21
2528.909163386517
 31
0.0
 12
2316.672115329845
 22
2538.909163386517
 32
0.0
 13
2316.672115329845
 23
2538.909163386517
 33
0.0
  0
SOLID
  5
4C6E
330
4AD5
100
AcDbEntity
  8
寸法
 62
     0
100
AcDbTrace
 10
2315.005448663178
 20
2249.909163386517
 30
0.0
 11
2318.338781996512
 21
2249.909163386517
 31
0.0
 12
2316.672115329845
 22
2239.909163386517
 32
0.0
 13
2316.672115329845
 23
2239.909163386517
 33
0.0
  0
MTEXT
  5
4C6F
330
4AD5
100
AcDbEntity
  8
寸法
 62
     0
100
AcDbMText
 10
2336.672115329845
 20
2389.409163386517
 30
0.0
 40
20.0
 41
0.0
 71
     5
 72
     1
  1
299
 11
0.0000000000000001
 21
1.0
 31
0.0
 73
     1
 44
1.0
1001
ACAD
1000
MTEXTBEGIN
1070
    73
1070
     1
1070
    44
1040
1.0
1070
    74
1070
     0
1000
MTEXTEND
  0
POINT
  5
4C70
330
4AD5
100
AcDbEntity
  8
DEFPOINTS
 62
     0
100
AcDbPoint
 10
2208.300088449529
 20
2538.909163386517
 30
0.0
  0
POINT
  5
4C71
330
4AD5
100
AcDbEntity
  8
DEFPOINTS
 62
     0
100
AcDbPoint
 10
2208.300088449529
 20
2239.909163386517
 30
0.0
  0
POINT
  5
4C72
330
4AD5
100
AcDbEntity
  8
DEFPOINTS
 62
     0
100
AcDbPoint
 10
2316.672115329845
 20
2239.909163386517
 30
0.0
  0
ENDBLK
  5
4AE0
330
4AD5
100
AcDbEntity
  8
0
100
AcDbBlockEnd
  0
BLOCK
  5
4AEB
330
4AE1
100
AcDbEntity
  8
0
100
AcDbBlockBegin
  2
*D19
 70
     1
 10
0.0
 20
0.0
 30
0.0
  3
*D19
  1

  0
LINE
  5
4C73
330
4AE1
100
AcDbEntity
  8
寸法
 62
     0
370
    -2
100
AcDbLine
 10
783.3000884495281
 20
1718.909163386516
 30
0.0
 11
783.3000884495281
 21
1793.45085461361
 31
0.0
  0
LINE
  5
4C74
330
4AE1
100
AcDbEntity
  8
寸法
 62
     0
370
    -2
100
AcDbLine
 10
2208.300088449528
 20
1718.909163386516
 30
0.0
 11
2208.300088449528
 21
1793.45085461361
 31
0.0
  0
LINE
  5
4C75
330
4AE1
100
AcDbEntity
  8
寸法
 62
     0
370
    -2
100
AcDbLine
 10
793.3000884495282
 20
1788.45085461361
 30
0.0
 11
2198.300088449528
 21
1788.45085461361
 31
0.0
  0
SOLID
  5
4C76
330
4AE1
100
AcDbEntity
  8
寸法
 62
     0
100
AcDbTrace
 10
793.3000884495282
 20
1790.117521280276
 30
0.0
 11
793.3000884495282
 21
1786.784187946943
 31
0.0
 12
783.3000884495281
 22
1788.45085461361
 32
0.0
 13
783.3000884495281
 23
1788.45085461361
 33
0.0
  0
SOLID
  5
4C77
330
4AE1
100
AcDbEntity
  8
寸法
 62
     0
100
AcDbTrace
 10
2198.300088449528
 20
1790.117521280276
 30
0.0
 11
2198.300088449528
 21
1786.784187946943
 31
0.0
 12
2208.300088449528
 22
1788.45085461361
 32
0.0
 13
2208.300088449528
 23
1788.45085461361
 33
0.0
  0
MTEXT
  5
4C78
330
4AE1
100
AcDbEntity
  8
寸法
 62
     0
100
AcDbMText
 10
1495.800088449528
 20
1808.45085461361
 30
0.0
 40
20.0
 41
0.0
 71
     5
 72
     1
  1
1425
 73
     1
 44
1.0
1001
ACAD
1000
MTEXTBEGIN
1070
    73
1070
     1
1070
    44
1040
1.0
1070
    74
1070
     0
1000
MTEXTEND
  0
POINT
  5
4C79
330
4AE1
100
AcDbEntity
  8
DEFPOINTS
 62
     0
100
AcDbPoint
 10
783.3000884495281
 20
1688.909163386517
 30
0.0
  0
POINT
  5
4C7A
330
4AE1
100
AcDbEntity
  8
DEFPOINTS
 62
     0
100
AcDbPoint
 10
2208.300088449528
 20
1688.909163386517
 30
0.0
  0
POINT
  5
4C7B
330
4AE1
100
AcDbEntity
  8
DEFPOINTS
 62
     0
100
AcDbPoint
 10
2208.300088449528
 20
1788.45085461361
 30
0.0
  0
ENDBLK
  5
4AEC
330
4AE1
100
AcDbEntity
  8
0
100
AcDbBlockEnd
  0
BLOCK
  5
4AF7
330
4AED
100
AcDbEntity
  8
0
100
AcDbBlockBegin
  2
*D20
 70
     1
 10
0.0
 20
0.0
 30
0.0
  3
*D20
  1

  0
LINE
  5
4C7C
330
4AED
100
AcDbEntity
  8
寸法
 62
     0
370
    -2
100
AcDbLine
 10
2238.300088449529
 20
1688.909163386517
 30
0.0
 11
2321.672115329845
 21
1688.909163386517
 31
0.0
  0
LINE
  5
4C7D
330
4AED
100
AcDbEntity
  8
寸法
 62
     0
370
    -2
100
AcDbLine
 10
2238.300088449529
 20
1389.909163386517
 30
0.0
 11
2321.672115329845
 21
1389.909163386517
 31
0.0
  0
LINE
  5
4C7E
330
4AED
100
AcDbEntity
  8
寸法
 62
     0
370
    -2
100
AcDbLine
 10
2316.672115329845
 20
1678.909163386517
 30
0.0
 11
2316.672115329845
 21
1399.909163386517
 31
0.0
  0
SOLID
  5
4C7F
330
4AED
100
AcDbEntity
  8
寸法
 62
     0
100
AcDbTrace
 10
2315.005448663178
 20
1678.909163386517
 30
0.0
 11
2318.338781996512
 21
1678.909163386517
 31
0.0
 12
2316.672115329845
 22
1688.909163386517
 32
0.0
 13
2316.672115329845
 23
1688.909163386517
 33
0.0
  0
SOLID
  5
4C80
330
4AED
100
AcDbEntity
  8
寸法
 62
     0
100
AcDbTrace
 10
2315.005448663178
 20
1399.909163386517
 30
0.0
 11
2318.338781996512
 21
1399.909163386517
 31
0.0
 12
2316.672115329845
 22
1389.909163386517
 32
0.0
 13
2316.672115329845
 23
1389.909163386517
 33
0.0
  0
MTEXT
  5
4C81
330
4AED
100
AcDbEntity
  8
寸法
 62
     0
100
AcDbMText
 10
2336.672115329845
 20
1539.409163386517
 30
0.0
 40
20.0
 41
0.0
 71
     5
 72
     1
  1
299
 11
0.0000000000000001
 21
1.0
 31
0.0
 73
     1
 44
1.0
1001
ACAD
1000
MTEXTBEGIN
1070
    73
1070
     1
1070
    44
1040
1.0
1070
    74
1070
     0
1000
MTEXTEND
  0
POINT
  5
4C82
330
4AED
100
AcDbEntity
  8
DEFPOINTS
 62
     0
100
AcDbPoint
 10
2208.300088449529
 20
1688.909163386517
 30
0.0
  0
POINT
  5
4C83
330
4AED
100
AcDbEntity
  8
DEFPOINTS
 62
     0
100
AcDbPoint
 10
2208.300088449529
 20
1389.909163386517
 30
0.0
  0
POINT
  5
4C84
330
4AED
100
AcDbEntity
  8
DEFPOINTS
 62
     0
100
AcDbPoint
 10
2316.672115329845
 20
1389.909163386517
 30
0.0
  0
ENDBLK
  5
4AF8
330
4AED
100
AcDbEntity
  8
0
100
AcDbBlockEnd
  0
BLOCK
  5
4B03
330
4AF9
100
AcDbEntity
  8
0
100
AcDbBlockBegin
  2
*D21
 70
     1
 10
0.0
 20
0.0
 30
0.0
  3
*D21
  1

  0
LINE
  5
4AFA
330
4AF9
100
AcDbEntity
  8
寸法
 62
     0
370
    -2
100
AcDbLine
 10
783.3000884495281
 20
2568.909163386517
 30
0.0
 11
783.3000884495281
 21
2643.45085461361
 31
0.0
  0
LINE
  5
4AFB
330
4AF9
100
AcDbEntity
  8
寸法
 62
     0
370
    -2
100
AcDbLine
 10
2208.300088449528
 20
2568.909163386517
 30
0.0
 11
2208.300088449528
 21
2643.45085461361
 31
0.0
  0
LINE
  5
4AFC
330
4AF9
100
AcDbEntity
  8
寸法
 62
     0
370
    -2
100
AcDbLine
 10
793.3000884495282
 20
2638.45085461361
 30
0.0
 11
2198.300088449528
 21
2638.45085461361
 31
0.0
  0
SOLID
  5
4AFD
330
4AF9
100
AcDbEntity
  8
寸法
 62
     0
100
AcDbTrace
 10
793.3000884495282
 20
2640.117521280277
 30
0.0
 11
793.3000884495282
 21
2636.784187946944
 31
0.0
 12
783.3000884495281
 22
2638.45085461361
 32
0.0
 13
783.3000884495281
 23
2638.45085461361
 33
0.0
  0
SOLID
  5
4AFE
330
4AF9
100
AcDbEntity
  8
寸法
 62
     0
100
AcDbTrace
 10
2198.300088449528
 20
2640.117521280277
 30
0.0
 11
2198.300088449528
 21
2636.784187946944
 31
0.0
 12
2208.300088449528
 22
2638.45085461361
 32
0.0
 13
2208.300088449528
 23
2638.45085461361
 33
0.0
  0
MTEXT
  5
4AFF
330
4AF9
100
AcDbEntity
  8
寸法
 62
     0
100
AcDbMText
 10
1495.800088449528
 20
2658.45085461361
 30
0.0
 40
20.0
 41
0.0
 71
     5
 72
     1
  1
1425
 73
     1
 44
1.0
1001
ACAD
1000
MTEXTBEGIN
1070
    73
1070
     1
1070
    44
1040
1.0
1070
    74
1070
     0
1000
MTEXTEND
  0
POINT
  5
4B00
330
4AF9
100
AcDbEntity
  8
DEFPOINTS
 62
     0
100
AcDbPoint
 10
783.3000884495281
 20
2538.909163386517
 30
0.0
  0
POINT
  5
4B01
330
4AF9
100
AcDbEntity
  8
DEFPOINTS
 62
     0
100
AcDbPoint
 10
2208.300088449528
 20
2538.909163386517
 30
0.0
  0
POINT
  5
4B02
330
4AF9
100
AcDbEntity
  8
DEFPOINTS
 62
     0
100
AcDbPoint
 10
2208.300088449528
 20
2638.45085461361
 30
0.0
  0
ENDBLK
  5
4B04
330
4AF9
100
AcDbEntity
  8
0
100
AcDbBlockEnd
  0
BLOCK
  5
4B0F
330
4B05
100
AcDbEntity
  8
0
100
AcDbBlockBegin
  2
*D22
 70
     1
 10
0.0
 20
0.0
 30
0.0
  3
*D22
  1

  0
LINE
  5
4B06
330
4B05
100
AcDbEntity
  8
寸法
 62
     0
370
    -2
100
AcDbLine
 10
826.3000884495282
 20
2568.909163386517
 30
0.0
 11
826.3000884495282
 21
2594.24438039825
 31
0.0
  0
LINE
  5
4B07
330
4B05
100
AcDbEntity
  8
寸法
 62
     0
370
    -2
100
AcDbLine
 10
2165.300088449528
 20
2568.909163386517
 30
0.0
 11
2165.300088449528
 21
2594.24438039825
 31
0.0
  0
LINE
  5
4B08
330
4B05
100
AcDbEntity
  8
寸法
 62
     0
370
    -2
100
AcDbLine
 10
836.3000884495281
 20
2589.24438039825
 30
0.0
 11
2155.300088449529
 21
2589.24438039825
 31
0.0
  0
SOLID
  5
4B09
330
4B05
100
AcDbEntity
  8
寸法
 62
     0
100
AcDbTrace
 10
836.3000884495281
 20
2590.911047064917
 30
0.0
 11
836.3000884495281
 21
2587.577713731584
 31
0.0
 12
826.3000884495282
 22
2589.24438039825
 32
0.0
 13
826.3000884495282
 23
2589.24438039825
 33
0.0
  0
SOLID
  5
4B0A
330
4B05
100
AcDbEntity
  8
寸法
 62
     0
100
AcDbTrace
 10
2155.300088449529
 20
2590.911047064917
 30
0.0
 11
2155.300088449529
 21
2587.577713731584
 31
0.0
 12
2165.300088449528
 22
2589.24438039825
 32
0.0
 13
2165.300088449528
 23
2589.24438039825
 33
0.0
  0
MTEXT
  5
4B0B
330
4B05
100
AcDbEntity
  8
寸法
 62
     0
100
AcDbMText
 10
1495.800088449528
 20
2609.24438039825
 30
0.0
 40
20.0
 41
0.0
 71
     5
 72
     1
  1
1339
 73
     1
 44
1.0
1001
ACAD
1000
MTEXTBEGIN
1070
    73
1070
     1
1070
    44
1040
1.0
1070
    74
1070
     0
1000
MTEXTEND
  0
POINT
  5
4B0C
330
4B05
100
AcDbEntity
  8
DEFPOINTS
 62
     0
100
AcDbPoint
 10
826.3000884495282
 20
2538.909163386517
 30
0.0
  0
POINT
  5
4B0D
330
4B05
100
AcDbEntity
  8
DEFPOINTS
 62
     0
100
AcDbPoint
 10
2165.300088449528
 20
2538.909163386517
 30
0.0
  0
POINT
  5
4B0E
330
4B05
100
AcDbEntity
  8
DEFPOINTS
 62
     0
100
AcDbPoint
 10
2165.300088449528
 20
2589.24438039825
 30
0.0
  0
ENDBLK
  5
4B10
330
4B05
100
AcDbEntity
  8
0
100
AcDbBlockEnd
  0
BLOCK
  5
4B1B
330
4B11
100
AcDbEntity
  8
0
100
AcDbBlockBegin
  2
*D23
 70
     1
 10
0.0
 20
0.0
 30
0.0
  3
*D23
  1

  0
LINE
  5
4B12
330
4B11
100
AcDbEntity
  8
寸法
 62
     0
370
    -2
100
AcDbLine
 10
2165.300088449528
 20
2568.909163386517
 30
0.0
 11
2165.300088449528
 21
2594.24438039825
 31
0.0
  0
LINE
  5
4B13
330
4B11
100
AcDbEntity
  8
寸法
 62
     0
370
    -2
100
AcDbLine
 10
2208.300088449528
 20
2568.909163386517
 30
0.0
 11
2208.300088449528
 21
2594.24438039825
 31
0.0
  0
LINE
  5
4B14
330
4B11
100
AcDbEntity
  8
寸法
 62
     0
370
    -2
100
AcDbLine
 10
2175.300088449528
 20
2589.24438039825
 30
0.0
 11
2198.300088449528
 21
2589.24438039825
 31
0.0
  0
SOLID
  5
4B15
330
4B11
100
AcDbEntity
  8
寸法
 62
     0
100
AcDbTrace
 10
2175.300088449528
 20
2590.911047064917
 30
0.0
 11
2175.300088449528
 21
2587.577713731584
 31
0.0
 12
2165.300088449528
 22
2589.24438039825
 32
0.0
 13
2165.300088449528
 23
2589.24438039825
 33
0.0
  0
SOLID
  5
4B16
330
4B11
100
AcDbEntity
  8
寸法
 62
     0
100
AcDbTrace
 10
2198.300088449528
 20
2590.911047064917
 30
0.0
 11
2198.300088449528
 21
2587.577713731584
 31
0.0
 12
2208.300088449528
 22
2589.24438039825
 32
0.0
 13
2208.300088449528
 23
2589.24438039825
 33
0.0
  0
MTEXT
  5
4B17
330
4B11
100
AcDbEntity
  8
寸法
 62
     0
100
AcDbMText
 10
2186.800088449528
 20
2609.24438039825
 30
0.0
 40
20.0
 41
0.0
 71
     5
 72
     1
  1
43
 73
     1
 44
1.0
1001
ACAD
1000
MTEXTBEGIN
1070
    73
1070
     1
1070
    44
1040
1.0
1070
    74
1070
     0
1000
MTEXTEND
  0
POINT
  5
4B18
330
4B11
100
AcDbEntity
  8
DEFPOINTS
 62
     0
100
AcDbPoint
 10
2165.300088449528
 20
2538.909163386517
 30
0.0
  0
POINT
  5
4B19
330
4B11
100
AcDbEntity
  8
DEFPOINTS
 62
     0
100
AcDbPoint
 10
2208.300088449528
 20
2538.909163386517
 30
0.0
  0
POINT
  5
4B1A
330
4B11
100
AcDbEntity
  8
DEFPOINTS
 62
     0
100
AcDbPoint
 10
2208.300088449528
 20
2589.24438039825
 30
0.0
  0
ENDBLK
  5
4B1C
330
4B11
100
AcDbEntity
  8
0
100
AcDbBlockEnd
  0
BLOCK
  5
4B27
330
4B1D
100
AcDbEntity
  8
0
100
AcDbBlockBegin
  2
*D24
 70
     1
 10
0.0
 20
0.0
 30
0.0
  3
*D24
  1

  0
LINE
  5
4B1E
330
4B1D
100
AcDbEntity
  8
寸法
 62
     0
370
    -2
100
AcDbLine
 10
928.3000884495281
 20
863.9091633865168
 30
0.0
 11
928.3000884495281
 21
963.788811737667
 31
0.0
  0
LINE
  5
4B1F
330
4B1D
100
AcDbEntity
  8
寸法
 62
     0
370
    -2
100
AcDbLine
 10
2063.300088449528
 20
863.9091633865168
 30
0.0
 11
2063.300088449528
 21
963.788811737667
 31
0.0
  0
LINE
  5
4B20
330
4B1D
100
AcDbEntity
  8
寸法
 62
     0
370
    -2
100
AcDbLine
 10
938.3000884495281
 20
958.7888117376669
 30
0.0
 11
2053.300088449528
 21
958.7888117376669
 31
0.0
  0
SOLID
  5
4B21
330
4B1D
100
AcDbEntity
  8
寸法
 62
     0
100
AcDbTrace
 10
938.3000884495281
 20
960.4554784043335
 30
0.0
 11
938.3000884495281
 21
957.1221450710003
 31
0.0
 12
928.3000884495281
 22
958.7888117376669
 32
0.0
 13
928.3000884495281
 23
958.7888117376669
 33
0.0
  0
SOLID
  5
4B22
330
4B1D
100
AcDbEntity
  8
寸法
 62
     0
100
AcDbTrace
 10
2053.300088449528
 20
960.4554784043335
 30
0.0
 11
2053.300088449528
 21
957.1221450710003
 31
0.0
 12
2063.300088449528
 22
958.7888117376669
 32
0.0
 13
2063.300088449528
 23
958.7888117376669
 33
0.0
  0
MTEXT
  5
4B23
330
4B1D
100
AcDbEntity
  8
寸法
 62
     0
100
AcDbMText
 10
1495.800088449528
 20
978.7888117376668
 30
0.0
 40
20.0
 41
0.0
 71
     5
 72
     1
  1
1135
 73
     1
 44
1.0
1001
ACAD
1000
MTEXTBEGIN
1070
    73
1070
     1
1070
    44
1040
1.0
1070
    74
1070
     0
1000
MTEXTEND
  0
POINT
  5
4B24
330
4B1D
100
AcDbEntity
  8
DEFPOINTS
 62
     0
100
AcDbPoint
 10
928.3000884495281
 20
833.9091633865168
 30
0.0
  0
POINT
  5
4B25
330
4B1D
100
AcDbEntity
  8
DEFPOINTS
 62
     0
100
AcDbPoint
 10
2063.300088449528
 20
833.9091633865168
 30
0.0
  0
POINT
  5
4B26
330
4B1D
100
AcDbEntity
  8
DEFPOINTS
 62
     0
100
AcDbPoint
 10
2063.300088449528
 20
958.7888117376669
 30
0.0
  0
ENDBLK
  5
4B28
330
4B1D
100
AcDbEntity
  8
0
100
AcDbBlockEnd
  0
BLOCK
  5
4B45
330
4B3B
100
AcDbEntity
  8
0
100
AcDbBlockBegin
  2
*D25
 70
     1
 10
0.0
 20
0.0
 30
0.0
  3
*D25
  1

  0
LINE
  5
4B3C
330
4B3B
100
AcDbEntity
  8
寸法
 62
     0
370
    -2
100
AcDbLine
 10
783.3000884495281
 20
918.9091633865169
 30
0.0
 11
783.3000884495281
 21
1010.430697582415
 31
0.0
  0
LINE
  5
4B3D
330
4B3B
100
AcDbEntity
  8
寸法
 62
     0
370
    -2
100
AcDbLine
 10
2208.300088449528
 20
918.9091633865169
 30
0.0
 11
2208.300088449528
 21
1010.430697582415
 31
0.0
  0
LINE
  5
4B3E
330
4B3B
100
AcDbEntity
  8
寸法
 62
     0
370
    -2
100
AcDbLine
 10
793.3000884495282
 20
1005.430697582415
 30
0.0
 11
2198.300088449528
 21
1005.430697582415
 31
0.0
  0
SOLID
  5
4B3F
330
4B3B
100
AcDbEntity
  8
寸法
 62
     0
100
AcDbTrace
 10
793.3000884495282
 20
1007.097364249082
 30
0.0
 11
793.3000884495282
 21
1003.764030915749
 31
0.0
 12
783.3000884495281
 22
1005.430697582415
 32
0.0
 13
783.3000884495281
 23
1005.430697582415
 33
0.0
  0
SOLID
  5
4B40
330
4B3B
100
AcDbEntity
  8
寸法
 62
     0
100
AcDbTrace
 10
2198.300088449528
 20
1007.097364249082
 30
0.0
 11
2198.300088449528
 21
1003.764030915749
 31
0.0
 12
2208.300088449528
 22
1005.430697582415
 32
0.0
 13
2208.300088449528
 23
1005.430697582415
 33
0.0
  0
MTEXT
  5
4B41
330
4B3B
100
AcDbEntity
  8
寸法
 62
     0
100
AcDbMText
 10
1495.800088449528
 20
1025.430697582415
 30
0.0
 40
20.0
 41
0.0
 71
     5
 72
     1
  1
1425
 73
     1
 44
1.0
1001
ACAD
1000
MTEXTBEGIN
1070
    73
1070
     1
1070
    44
1040
1.0
1070
    74
1070
     0
1000
MTEXTEND
  0
POINT
  5
4B42
330
4B3B
100
AcDbEntity
  8
DEFPOINTS
 62
     0
100
AcDbPoint
 10
783.3000884495281
 20
888.9091633865168
 30
0.0
  0
POINT
  5
4B43
330
4B3B
100
AcDbEntity
  8
DEFPOINTS
 62
     0
100
AcDbPoint
 10
2208.300088449528
 20
888.9091633865168
 30
0.0
  0
POINT
  5
4B44
330
4B3B
100
AcDbEntity
  8
DEFPOINTS
 62
     0
100
AcDbPoint
 10
2208.300088449528
 20
1005.430697582415
 30
0.0
  0
ENDBLK
  5
4B46
330
4B3B
100
AcDbEntity
  8
0
100
AcDbBlockEnd
  0
BLOCK
  5
4B51
330
4B47
100
AcDbEntity
  8
0
100
AcDbBlockBegin
  2
*D26
 70
     1
 10
0.0
 20
0.0
 30
0.0
  3
*D26
  1

  0
LINE
  5
4B48
330
4B47
100
AcDbEntity
  8
寸法
 62
     0
370
    -2
100
AcDbLine
 10
826.3000884495282
 20
758.9091633865169
 30
0.0
 11
826.3000884495282
 21
680.1537596384182
 31
0.0
  0
LINE
  5
4B49
330
4B47
100
AcDbEntity
  8
寸法
 62
     0
370
    -2
100
AcDbLine
 10
2165.300088449528
 20
758.9091633865169
 30
0.0
 11
2165.300088449528
 21
680.1537596384182
 31
0.0
  0
LINE
  5
4B4A
330
4B47
100
AcDbEntity
  8
寸法
 62
     0
370
    -2
100
AcDbLine
 10
836.3000884495281
 20
685.1537596384182
 30
0.0
 11
2155.300088449529
 21
685.1537596384182
 31
0.0
  0
SOLID
  5
4B4B
330
4B47
100
AcDbEntity
  8
寸法
 62
     0
100
AcDbTrace
 10
836.3000884495281
 20
686.8204263050849
 30
0.0
 11
836.3000884495281
 21
683.4870929717516
 31
0.0
 12
826.3000884495282
 22
685.1537596384182
 32
0.0
 13
826.3000884495282
 23
685.1537596384182
 33
0.0
  0
SOLID
  5
4B4C
330
4B47
100
AcDbEntity
  8
寸法
 62
     0
100
AcDbTrace
 10
2155.300088449529
 20
686.8204263050849
 30
0.0
 11
2155.300088449529
 21
683.4870929717516
 31
0.0
 12
2165.300088449528
 22
685.1537596384182
 32
0.0
 13
2165.300088449528
 23
685.1537596384182
 33
0.0
  0
MTEXT
  5
4B4D
330
4B47
100
AcDbEntity
  8
寸法
 62
     0
100
AcDbMText
 10
1495.800088449528
 20
665.1537596384182
 30
0.0
 40
20.0
 41
0.0
 71
     5
 72
     1
  1
1339
 73
     1
 44
1.0
1001
ACAD
1000
MTEXTBEGIN
1070
    73
1070
     1
1070
    44
1040
1.0
1070
    74
1070
     0
1000
MTEXTEND
  0
POINT
  5
4B4E
330
4B47
100
AcDbEntity
  8
DEFPOINTS
 62
     0
100
AcDbPoint
 10
826.3000884495282
 20
788.9091633865168
 30
0.0
  0
POINT
  5
4B4F
330
4B47
100
AcDbEntity
  8
DEFPOINTS
 62
     0
100
AcDbPoint
 10
2165.300088449528
 20
788.9091633865168
 30
0.0
  0
POINT
  5
4B50
330
4B47
100
AcDbEntity
  8
DEFPOINTS
 62
     0
100
AcDbPoint
 10
2165.300088449528
 20
685.1537596384182
 30
0.0
  0
ENDBLK
  5
4B52
330
4B47
100
AcDbEntity
  8
0
100
AcDbBlockEnd
  0
BLOCK
  5
4B67
330
4B5C
100
AcDbEntity
  8
0
100
AcDbBlockBegin
  2
*D27
 70
     1
 10
0.0
 20
0.0
 30
0.0
  3
*D27
  1

  0
LINE
  5
4B5D
330
4B5C
100
AcDbEntity
  8
寸法
 62
     0
370
    -2
100
AcDbLine
 10
2195.300088449528
 20
788.9091633865168
 30
0.0
 11
2347.438938081885
 21
788.9091633865167
 31
0.0
  0
LINE
  5
4B5E
330
4B5C
100
AcDbEntity
  8
寸法
 62
     0
370
    -2
100
AcDbLine
 10
2238.300088449528
 20
833.9091633865168
 30
0.0
 11
2347.438938081885
 21
833.9091633865168
 31
0.0
  0
LINE
  5
4B5F
330
4B5C
100
AcDbEntity
  8
寸法
 62
     0
370
    -2
100
AcDbLine
 10
2342.438938081885
 20
823.9091633865168
 30
0.0
 11
2342.438938081885
 21
798.9091633865167
 31
0.0
  0
LINE
  5
4B60
330
4B5C
100
AcDbEntity
  8
寸法
 62
     0
370
    -2
100
AcDbLine
 10
2342.438938081885
 20
788.9091633865167
 30
0.0
 11
2342.438938081885
 21
725.5758300531834
 31
0.0
  0
SOLID
  5
4B61
330
4B5C
100
AcDbEntity
  8
寸法
 62
     0
100
AcDbTrace
 10
2340.772271415219
 20
823.9091633865168
 30
0.0
 11
2344.105604748552
 21
823.9091633865168
 31
0.0
 12
2342.438938081885
 22
833.9091633865168
 32
0.0
 13
2342.438938081885
 23
833.9091633865168
 33
0.0
  0
SOLID
  5
4B62
330
4B5C
100
AcDbEntity
  8
寸法
 62
     0
100
AcDbTrace
 10
2340.772271415219
 20
798.9091633865167
 30
0.0
 11
2344.105604748552
 21
798.9091633865167
 31
0.0
 12
2342.438938081885
 22
788.9091633865167
 32
0.0
 13
2342.438938081885
 23
788.9091633865167
 33
0.0
  0
MTEXT
  5
4B63
330
4B5C
100
AcDbEntity
  8
寸法
 62
     0
100
AcDbMText
 10
2362.438938081885
 20
752.2424967198506
 30
0.0
 40
20.0
 41
0.0
 71
     5
 72
     1
  1
45
 11
0.0000000000000001
 21
1.0
 31
0.0
 73
     1
 44
1.0
1001
ACAD
1000
MTEXTBEGIN
1070
    73
1070
     1
1070
    44
1040
1.0
1070
    74
1070
     0
1000
MTEXTEND
  0
POINT
  5
4B64
330
4B5C
100
AcDbEntity
  8
DEFPOINTS
 62
     0
100
AcDbPoint
 10
2165.300088449528
 20
788.9091633865168
 30
0.0
  0
POINT
  5
4B65
330
4B5C
100
AcDbEntity
  8
DEFPOINTS
 62
     0
100
AcDbPoint
 10
2208.300088449528
 20
833.9091633865168
 30
0.0
  0
POINT
  5
4B66
330
4B5C
100
AcDbEntity
  8
DEFPOINTS
 62
     0
100
AcDbPoint
 10
2342.438938081885
 20
833.9091633865168
 30
0.0
  0
ENDBLK
  5
4B68
330
4B5C
100
AcDbEntity
  8
0
100
AcDbBlockEnd
  0
BLOCK
  5
4B75
330
4B69
100
AcDbEntity
  8
0
100
AcDbBlockBegin
  2
*D28
 70
     1
 10
0.0
 20
0.0
 30
0.0
  3
*D28
  1

  0
LINE
  5
4B6A
330
4B69
100
AcDbEntity
  8
寸法
 62
     0
370
    -2
100
AcDbLine
 10
2195.300088449528
 20
833.9091633865168
 30
0.0
 11
2347.438938081885
 21
833.9091633865168
 31
0.0
  0
LINE
  5
4B6B
330
4B69
100
AcDbEntity
  8
寸法
 62
     0
370
    -2
100
AcDbLine
 10
2238.300088449528
 20
838.9091633865168
 30
0.0
 11
2347.438938081885
 21
838.9091633865167
 31
0.0
  0
LINE
  5
4B6C
330
4B69
100
AcDbEntity
  8
寸法
 62
     0
370
    -2
100
AcDbLine
 10
2342.438938081885
 20
823.9091633865168
 30
0.0
 11
2342.438938081885
 21
813.9091633865167
 31
0.0
  0
LINE
  5
4B6D
330
4B69
100
AcDbEntity
  8
寸法
 62
     0
370
    -2
100
AcDbLine
 10
2342.438938081885
 20
848.9091633865168
 30
0.0
 11
2342.438938081885
 21
858.9091633865168
 31
0.0
  0
LINE
  5
4B6E
330
4B69
100
AcDbEntity
  8
寸法
 62
     0
370
    -2
100
AcDbLine
 10
2342.438938081885
 20
833.9091633865168
 30
0.0
 11
2342.438938081885
 21
838.9091633865167
 31
0.0
  0
SOLID
  5
4B6F
330
4B69
100
AcDbEntity
  8
寸法
 62
     0
100
AcDbTrace
 10
2340.772271415219
 20
823.9091633865168
 30
0.0
 11
2344.105604748552
 21
823.9091633865168
 31
0.0
 12
2342.438938081885
 22
833.9091633865168
 32
0.0
 13
2342.438938081885
 23
833.9091633865168
 33
0.0
  0
SOLID
  5
4B70
330
4B69
100
AcDbEntity
  8
寸法
 62
     0
100
AcDbTrace
 10
2340.772271415219
 20
848.9091633865168
 30
0.0
 11
2344.105604748552
 21
848.9091633865168
 31
0.0
 12
2342.438938081885
 22
838.9091633865167
 32
0.0
 13
2342.438938081885
 23
838.9091633865167
 33
0.0
  0
MTEXT
  5
4B71
330
4B69
100
AcDbEntity
  8
寸法
 62
     0
100
AcDbMText
 10
2362.438938081885
 20
836.4091633865172
 30
0.0
 40
20.0
 41
0.0
 71
     5
 72
     1
  1
5
 11
0.0000000000000001
 21
1.0
 31
0.0
 73
     1
 44
1.0
1001
ACAD
1000
MTEXTBEGIN
1070
    73
1070
     1
1070
    44
1040
1.0
1070
    74
1070
     0
1000
MTEXTEND
  0
POINT
  5
4B72
330
4B69
100
AcDbEntity
  8
DEFPOINTS
 62
     0
100
AcDbPoint
 10
2165.300088449528
 20
833.9091633865168
 30
0.0
  0
POINT
  5
4B73
330
4B69
100
AcDbEntity
  8
DEFPOINTS
 62
     0
100
AcDbPoint
 10
2208.300088449528
 20
838.9091633865168
 30
0.0
  0
POINT
  5
4B74
330
4B69
100
AcDbEntity
  8
DEFPOINTS
 62
     0
100
AcDbPoint
 10
2342.438938081885
 20
838.9091633865167
 30
0.0
  0
ENDBLK
  5
4B76
330
4B69
100
AcDbEntity
  8
0
100
AcDbBlockEnd
  0
BLOCK
  5
4B82
330
4B77
100
AcDbEntity
  8
0
100
AcDbBlockBegin
  2
*D29
 70
     1
 10
0.0
 20
0.0
 30
0.0
  3
*D29
  1

  0
LINE
  5
4B78
330
4B77
100
AcDbEntity
  8
寸法
 62
     0
370
    -2
100
AcDbLine
 10
2238.300088449528
 20
838.9091633865168
 30
0.0
 11
2347.438938081885
 21
838.9091633865167
 31
0.0
  0
LINE
  5
4B79
330
4B77
100
AcDbEntity
  8
寸法
 62
     0
370
    -2
100
AcDbLine
 10
2238.300088449528
 20
888.9091633865168
 30
0.0
 11
2347.438938081885
 21
888.9091633865167
 31
0.0
  0
LINE
  5
4B7A
330
4B77
100
AcDbEntity
  8
寸法
 62
     0
370
    -2
100
AcDbLine
 10
2342.438938081885
 20
848.9091633865168
 30
0.0
 11
2342.438938081885
 21
878.9091633865167
 31
0.0
  0
LINE
  5
4B7B
330
4B77
100
AcDbEntity
  8
寸法
 62
     0
370
    -2
100
AcDbLine
 10
2342.438938081885
 20
888.9091633865167
 30
0.0
 11
2342.438938081885
 21
948.9091633865168
 31
0.0
  0
SOLID
  5
4B7C
330
4B77
100
AcDbEntity
  8
寸法
 62
     0
100
AcDbTrace
 10
2340.772271415219
 20
848.9091633865168
 30
0.0
 11
2344.105604748552
 21
848.9091633865168
 31
0.0
 12
2342.438938081885
 22
838.9091633865167
 32
0.0
 13
2342.438938081885
 23
838.9091633865167
 33
0.0
  0
SOLID
  5
4B7D
330
4B77
100
AcDbEntity
  8
寸法
 62
     0
100
AcDbTrace
 10
2340.772271415219
 20
878.9091633865167
 30
0.0
 11
2344.105604748552
 21
878.9091633865167
 31
0.0
 12
2342.438938081885
 22
888.9091633865167
 32
0.0
 13
2342.438938081885
 23
888.9091633865167
 33
0.0
  0
MTEXT
  5
4B7E
330
4B77
100
AcDbEntity
  8
寸法
 62
     0
100
AcDbMText
 10
2362.438938081885
 20
923.9091633865172
 30
0.0
 40
20.0
 41
0.0
 71
     5
 72
     1
  1
50
 11
0.0000000000000001
 21
1.0
 31
0.0
 73
     1
 44
1.0
1001
ACAD
1000
MTEXTBEGIN
1070
    73
1070
     1
1070
    44
1040
1.0
1070
    74
1070
     0
1000
MTEXTEND
  0
POINT
  5
4B7F
330
4B77
100
AcDbEntity
  8
DEFPOINTS
 62
     0
100
AcDbPoint
 10
2208.300088449528
 20
838.9091633865168
 30
0.0
  0
POINT
  5
4B80
330
4B77
100
AcDbEntity
  8
DEFPOINTS
 62
     0
100
AcDbPoint
 10
2208.300088449528
 20
888.9091633865168
 30
0.0
  0
POINT
  5
4B81
330
4B77
100
AcDbEntity
  8
DEFPOINTS
 62
     0
100
AcDbPoint
 10
2342.438938081885
 20
888.9091633865167
 30
0.0
  0
ENDBLK
  5
4B83
330
4B77
100
AcDbEntity
  8
0
100
AcDbBlockEnd
  0
BLOCK
  5
4B8E
330
4B84
100
AcDbEntity
  8
0
100
AcDbBlockBegin
  2
*D30
 70
     1
 10
0.0
 20
0.0
 30
0.0
  3
*D30
  1

  0
LINE
  5
4B85
330
4B84
100
AcDbEntity
  8
寸法
 62
     0
370
    -2
100
AcDbLine
 10
2783.800088449528
 20
2299.909163386517
 30
0.0
 11
2863.800088449528
 21
2299.909163386517
 31
0.0
  0
LINE
  5
4B86
330
4B84
100
AcDbEntity
  8
寸法
 62
     0
370
    -2
100
AcDbLine
 10
2783.800088449528
 20
2478.909163386517
 30
0.0
 11
2863.800088449528
 21
2478.909163386517
 31
0.0
  0
LINE
  5
4B87
330
4B84
100
AcDbEntity
  8
寸法
 62
     0
370
    -2
100
AcDbLine
 10
2858.800088449529
 20
2309.909163386517
 30
0.0
 11
2858.800088449529
 21
2468.909163386517
 31
0.0
  0
SOLID
  5
4B88
330
4B84
100
AcDbEntity
  8
寸法
 62
     0
100
AcDbTrace
 10
2857.133421782862
 20
2309.909163386517
 30
0.0
 11
2860.466755116195
 21
2309.909163386517
 31
0.0
 12
2858.800088449529
 22
2299.909163386517
 32
0.0
 13
2858.800088449529
 23
2299.909163386517
 33
0.0
  0
SOLID
  5
4B89
330
4B84
100
AcDbEntity
  8
寸法
 62
     0
100
AcDbTrace
 10
2857.133421782862
 20
2468.909163386517
 30
0.0
 11
2860.466755116195
 21
2468.909163386517
 31
0.0
 12
2858.800088449529
 22
2478.909163386517
 32
0.0
 13
2858.800088449529
 23
2478.909163386517
 33
0.0
  0
MTEXT
  5
4B8A
330
4B84
100
AcDbEntity
  8
寸法
 62
     0
100
AcDbMText
 10
2878.800088449528
 20
2389.409163386517
 30
0.0
 40
20.0
 41
0.0
 71
     5
 72
     1
  1
179
 11
0.0000000000000001
 21
1.0
 31
0.0
 73
     1
 44
1.0
1001
ACAD
1000
MTEXTBEGIN
1070
    73
1070
     1
1070
    44
1040
1.0
1070
    74
1070
     0
1000
MTEXTEND
  0
POINT
  5
4B8B
330
4B84
100
AcDbEntity
  8
DEFPOINTS
 62
     0
100
AcDbPoint
 10
2753.800088449529
 20
2299.909163386517
 30
0.0
  0
POINT
  5
4B8C
330
4B84
100
AcDbEntity
  8
DEFPOINTS
 62
     0
100
AcDbPoint
 10
2753.800088449529
 20
2478.909163386517
 30
0.0
  0
POINT
  5
4B8D
330
4B84
100
AcDbEntity
  8
DEFPOINTS
 62
     0
100
AcDbPoint
 10
2858.800088449529
 20
2478.909163386517
 30
0.0
  0
ENDBLK
  5
4B8F
330
4B84
100
AcDbEntity
  8
0
100
AcDbBlockEnd
  0
BLOCK
  5
4BA6
330
4B9B
100
AcDbEntity
  8
0
100
AcDbBlockBegin
  2
*D31
 70
     1
 10
0.0
 20
0.0
 30
0.0
  3
*D31
  1

  0
LINE
  5
4B9C
330
4B9B
100
AcDbEntity
  8
寸法
 62
     0
370
    -2
100
AcDbLine
 10
2838.800088449529
 20
2498.909163386517
 30
0.0
 11
2863.800088449528
 21
2498.909163386517
 31
0.0
  0
LINE
  5
4B9D
330
4B9B
100
AcDbEntity
  8
寸法
 62
     0
370
    -2
100
AcDbLine
 10
2838.800088449529
 20
2538.909163386517
 30
0.0
 11
2863.800088449528
 21
2538.909163386517
 31
0.0
  0
LINE
  5
4B9E
330
4B9B
100
AcDbEntity
  8
寸法
 62
     0
370
    -2
100
AcDbLine
 10
2858.800088449529
 20
2508.909163386517
 30
0.0
 11
2858.800088449529
 21
2528.909163386517
 31
0.0
  0
LINE
  5
4B9F
330
4B9B
100
AcDbEntity
  8
寸法
 62
     0
370
    -2
100
AcDbLine
 10
2858.800088449529
 20
2538.909163386517
 30
0.0
 11
2858.800088449529
 21
2598.909163386517
 31
0.0
  0
SOLID
  5
4BA0
330
4B9B
100
AcDbEntity
  8
寸法
 62
     0
100
AcDbTrace
 10
2857.133421782862
 20
2508.909163386517
 30
0.0
 11
2860.466755116195
 21
2508.909163386517
 31
0.0
 12
2858.800088449529
 22
2498.909163386517
 32
0.0
 13
2858.800088449529
 23
2498.909163386517
 33
0.0
  0
SOLID
  5
4BA1
330
4B9B
100
AcDbEntity
  8
寸法
 62
     0
100
AcDbTrace
 10
2857.133421782862
 20
2528.909163386517
 30
0.0
 11
2860.466755116195
 21
2528.909163386517
 31
0.0
 12
2858.800088449529
 22
2538.909163386517
 32
0.0
 13
2858.800088449529
 23
2538.909163386517
 33
0.0
  0
MTEXT
  5
4BA2
330
4B9B
100
AcDbEntity
  8
寸法
 62
     0
100
AcDbMText
 10
2878.800088449528
 20
2573.909163386517
 30
0.0
 40
20.0
 41
0.0
 71
     5
 72
     1
  1
40
 11
0.0000000000000001
 21
1.0
 31
0.0
 73
     1
 44
1.0
1001
ACAD
1000
MTEXTBEGIN
1070
    73
1070
     1
1070
    44
1040
1.0
1070
    74
1070
     0
1000
MTEXTEND
  0
POINT
  5
4BA3
330
4B9B
100
AcDbEntity
  8
DEFPOINTS
 62
     0
100
AcDbPoint
 10
2808.800088449528
 20
2498.909163386517
 30
0.0
  0
POINT
  5
4BA4
330
4B9B
100
AcDbEntity
  8
DEFPOINTS
 62
     0
100
AcDbPoint
 10
2808.800088449528
 20
2538.909163386517
 30
0.0
  0
POINT
  5
4BA5
330
4B9B
100
AcDbEntity
  8
DEFPOINTS
 62
     0
100
AcDbPoint
 10
2858.800088449529
 20
2538.909163386517
 30
0.0
  0
ENDBLK
  5
4BA7
330
4B9B
100
AcDbEntity
  8
0
100
AcDbBlockEnd
  0
BLOCK
  5
4BD1
330
4BC7
100
AcDbEntity
  8
0
100
AcDbBlockBegin
  2
*D32
 70
     1
 10
0.0
 20
0.0
 30
0.0
  3
*D32
  1

  0
LINE
  5
4BC8
330
4BC7
100
AcDbEntity
  8
寸法
 62
     0
370
    -2
100
AcDbLine
 10
2753.800088449529
 20
2209.909163386517
 30
0.0
 11
2753.800088449529
 21
2166.509853848806
 31
0.0
  0
LINE
  5
4BC9
330
4BC7
100
AcDbEntity
  8
寸法
 62
     0
370
    -2
100
AcDbLine
 10
2808.800088449528
 20
2209.909163386517
 30
0.0
 11
2808.800088449528
 21
2166.509853848806
 31
0.0
  0
LINE
  5
4BCA
330
4BC7
100
AcDbEntity
  8
寸法
 62
     0
370
    -2
100
AcDbLine
 10
2763.800088449528
 20
2171.509853848806
 30
0.0
 11
2798.800088449528
 21
2171.509853848806
 31
0.0
  0
SOLID
  5
4BCB
330
4BC7
100
AcDbEntity
  8
寸法
 62
     0
100
AcDbTrace
 10
2763.800088449528
 20
2173.176520515473
 30
0.0
 11
2763.800088449528
 21
2169.84318718214
 31
0.0
 12
2753.800088449529
 22
2171.509853848806
 32
0.0
 13
2753.800088449529
 23
2171.509853848806
 33
0.0
  0
SOLID
  5
4BCC
330
4BC7
100
AcDbEntity
  8
寸法
 62
     0
100
AcDbTrace
 10
2798.800088449528
 20
2173.176520515473
 30
0.0
 11
2798.800088449528
 21
2169.84318718214
 31
0.0
 12
2808.800088449528
 22
2171.509853848806
 32
0.0
 13
2808.800088449528
 23
2171.509853848806
 33
0.0
  0
MTEXT
  5
4BCD
330
4BC7
100
AcDbEntity
  8
寸法
 62
     0
100
AcDbMText
 10
2781.300088449528
 20
2151.509853848806
 30
0.0
 40
20.0
 41
0.0
 71
     5
 72
     1
  1
55
 73
     1
 44
1.0
1001
ACAD
1000
MTEXTBEGIN
1070
    73
1070
     1
1070
    44
1040
1.0
1070
    74
1070
     0
1000
MTEXTEND
  0
POINT
  5
4BCE
330
4BC7
100
AcDbEntity
  8
DEFPOINTS
 62
     0
100
AcDbPoint
 10
2753.800088449529
 20
2239.909163386517
 30
0.0
  0
POINT
  5
4BCF
330
4BC7
100
AcDbEntity
  8
DEFPOINTS
 62
     0
100
AcDbPoint
 10
2808.800088449528
 20
2239.909163386517
 30
0.0
  0
POINT
  5
4BD0
330
4BC7
100
AcDbEntity
  8
DEFPOINTS
 62
     0
100
AcDbPoint
 10
2808.800088449528
 20
2171.509853848806
 30
0.0
  0
ENDBLK
  5
4BD2
330
4BC7
100
AcDbEntity
  8
0
100
AcDbBlockEnd
  0
BLOCK
  5
4BFC
330
4BF2
100
AcDbEntity
  8
0
100
AcDbBlockBegin
  2
*D33
 70
     1
 10
0.0
 20
0.0
 30
0.0
  3
*D33
  1

  0
LINE
  5
4BF3
330
4BF2
100
AcDbEntity
  8
寸法
 62
     0
370
    -2
100
AcDbLine
 10
3238.800088449528
 20
2239.909163386517
 30
0.0
 11
3261.485621563927
 21
2239.909163386517
 31
0.0
  0
LINE
  5
4BF4
330
4BF2
100
AcDbEntity
  8
寸法
 62
     0
370
    -2
100
AcDbLine
 10
3238.800088449528
 20
2538.909163386517
 30
0.0
 11
3261.485621563927
 21
2538.909163386517
 31
0.0
  0
LINE
  5
4BF5
330
4BF2
100
AcDbEntity
  8
寸法
 62
     0
370
    -2
100
AcDbLine
 10
3256.485621563927
 20
2249.909163386517
 30
0.0
 11
3256.485621563927
 21
2528.909163386517
 31
0.0
  0
SOLID
  5
4BF6
330
4BF2
100
AcDbEntity
  8
寸法
 62
     0
100
AcDbTrace
 10
3254.818954897261
 20
2249.909163386517
 30
0.0
 11
3258.152288230593
 21
2249.909163386517
 31
0.0
 12
3256.485621563927
 22
2239.909163386517
 32
0.0
 13
3256.485621563927
 23
2239.909163386517
 33
0.0
  0
SOLID
  5
4BF7
330
4BF2
100
AcDbEntity
  8
寸法
 62
     0
100
AcDbTrace
 10
3254.818954897261
 20
2528.909163386517
 30
0.0
 11
3258.152288230593
 21
2528.909163386517
 31
0.0
 12
3256.485621563927
 22
2538.909163386517
 32
0.0
 13
3256.485621563927
 23
2538.909163386517
 33
0.0
  0
MTEXT
  5
4BF8
330
4BF2
100
AcDbEntity
  8
寸法
 62
     0
100
AcDbMText
 10
3276.485621563927
 20
2389.409163386518
 30
0.0
 40
20.0
 41
0.0
 71
     5
 72
     1
  1
299
 11
0.0000000000000001
 21
1.0
 31
0.0
 73
     1
 44
1.0
1001
ACAD
1000
MTEXTBEGIN
1070
    73
1070
     1
1070
    44
1040
1.0
1070
    74
1070
     0
1000
MTEXTEND
  0
POINT
  5
4BF9
330
4BF2
100
AcDbEntity
  8
DEFPOINTS
 62
     0
100
AcDbPoint
 10
3208.800088449528
 20
2239.909163386517
 30
0.0
  0
POINT
  5
4BFA
330
4BF2
100
AcDbEntity
  8
DEFPOINTS
 62
     0
100
AcDbPoint
 10
3208.800088449528
 20
2538.909163386517
 30
0.0
  0
POINT
  5
4BFB
330
4BF2
100
AcDbEntity
  8
DEFPOINTS
 62
     0
100
AcDbPoint
 10
3256.485621563927
 20
2538.909163386517
 30
0.0
  0
ENDBLK
  5
4BFD
330
4BF2
100
AcDbEntity
  8
0
100
AcDbBlockEnd
  0
BLOCK
  5
4C08
330
4BFE
100
AcDbEntity
  8
0
100
AcDbBlockBegin
  2
*D34
 70
     1
 10
0.0
 20
0.0
 30
0.0
  3
*D34
  1

  0
LINE
  5
4BFF
330
4BFE
100
AcDbEntity
  8
寸法
 62
     0
370
    -2
100
AcDbLine
 10
3108.800088449529
 20
2209.909163386517
 30
0.0
 11
3108.800088449529
 21
2128.425860779047
 31
0.0
  0
LINE
  5
4C00
330
4BFE
100
AcDbEntity
  8
寸法
 62
     0
370
    -2
100
AcDbLine
 10
3208.800088449528
 20
2209.909163386517
 30
0.0
 11
3208.800088449528
 21
2128.425860779047
 31
0.0
  0
LINE
  5
4C01
330
4BFE
100
AcDbEntity
  8
寸法
 62
     0
370
    -2
100
AcDbLine
 10
3118.800088449528
 20
2133.425860779047
 30
0.0
 11
3198.800088449528
 21
2133.425860779047
 31
0.0
  0
SOLID
  5
4C02
330
4BFE
100
AcDbEntity
  8
寸法
 62
     0
100
AcDbTrace
 10
3118.800088449528
 20
2135.092527445713
 30
0.0
 11
3118.800088449528
 21
2131.75919411238
 31
0.0
 12
3108.800088449529
 22
2133.425860779047
 32
0.0
 13
3108.800088449529
 23
2133.425860779047
 33
0.0
  0
SOLID
  5
4C03
330
4BFE
100
AcDbEntity
  8
寸法
 62
     0
100
AcDbTrace
 10
3198.800088449528
 20
2135.092527445713
 30
0.0
 11
3198.800088449528
 21
2131.75919411238
 31
0.0
 12
3208.800088449528
 22
2133.425860779047
 32
0.0
 13
3208.800088449528
 23
2133.425860779047
 33
0.0
  0
MTEXT
  5
4C04
330
4BFE
100
AcDbEntity
  8
寸法
 62
     0
100
AcDbMText
 10
3158.800088449528
 20
2113.425860779047
 30
0.0
 40
20.0
 41
0.0
 71
     5
 72
     1
  1
100
 73
     1
 44
1.0
1001
ACAD
1000
MTEXTBEGIN
1070
    73
1070
     1
1070
    44
1040
1.0
1070
    74
1070
     0
1000
MTEXTEND
  0
POINT
  5
4C05
330
4BFE
100
AcDbEntity
  8
DEFPOINTS
 62
     0
100
AcDbPoint
 10
3108.800088449529
 20
2239.909163386517
 30
0.0
  0
POINT
  5
4C06
330
4BFE
100
AcDbEntity
  8
DEFPOINTS
 62
     0
100
AcDbPoint
 10
3208.800088449528
 20
2239.909163386517
 30
0.0
  0
POINT
  5
4C07
330
4BFE
100
AcDbEntity
  8
DEFPOINTS
 62
     0
100
AcDbPoint
 10
3208.800088449528
 20
2133.425860779047
 30
0.0
  0
ENDBLK
  5
4C09
330
4BFE
100
AcDbEntity
  8
0
100
AcDbBlockEnd
  0
BLOCK
  5
4C14
330
4C0A
100
AcDbEntity
  8
0
100
AcDbBlockBegin
  2
*D35
 70
     1
 10
0.0
 20
0.0
 30
0.0
  3
*D35
  1

  0
LINE
  5
4C0B
330
4C0A
100
AcDbEntity
  8
寸法
 62
     0
370
    -2
100
AcDbLine
 10
2238.300088449528
 20
888.9091633865168
 30
0.0
 11
2387.565487832906
 21
888.9091633865167
 31
0.0
  0
LINE
  5
4C0C
330
4C0A
100
AcDbEntity
  8
寸法
 62
     0
370
    -2
100
AcDbLine
 10
2238.300088449528
 20
788.9091633865168
 30
0.0
 11
2387.565487832906
 21
788.9091633865167
 31
0.0
  0
LINE
  5
4C0D
330
4C0A
100
AcDbEntity
  8
寸法
 62
     0
370
    -2
100
AcDbLine
 10
2382.565487832907
 20
878.9091633865167
 30
0.0
 11
2382.565487832907
 21
798.9091633865167
 31
0.0
  0
SOLID
  5
4C0E
330
4C0A
100
AcDbEntity
  8
寸法
 62
     0
100
AcDbTrace
 10
2380.89882116624
 20
878.9091633865167
 30
0.0
 11
2384.232154499573
 21
878.9091633865167
 31
0.0
 12
2382.565487832907
 22
888.9091633865167
 32
0.0
 13
2382.565487832907
 23
888.9091633865167
 33
0.0
  0
SOLID
  5
4C0F
330
4C0A
100
AcDbEntity
  8
寸法
 62
     0
100
AcDbTrace
 10
2380.89882116624
 20
798.9091633865167
 30
0.0
 11
2384.232154499573
 21
798.9091633865167
 31
0.0
 12
2382.565487832907
 22
788.9091633865167
 32
0.0
 13
2382.565487832907
 23
788.9091633865167
 33
0.0
  0
MTEXT
  5
4C10
330
4C0A
100
AcDbEntity
  8
寸法
 62
     0
100
AcDbMText
 10
2402.565487832907
 20
838.9091633865172
 30
0.0
 40
20.0
 41
0.0
 71
     5
 72
     1
  1
100
 11
0.0000000000000001
 21
1.0
 31
0.0
 73
     1
 44
1.0
1001
ACAD
1000
MTEXTBEGIN
1070
    73
1070
     1
1070
    44
1040
1.0
1070
    74
1070
     0
1000
MTEXTEND
  0
POINT
  5
4C11
330
4C0A
100
AcDbEntity
  8
DEFPOINTS
 62
     0
100
AcDbPoint
 10
2208.300088449528
 20
888.9091633865168
 30
0.0
  0
POINT
  5
4C12
330
4C0A
100
AcDbEntity
  8
DEFPOINTS
 62
     0
100
AcDbPoint
 10
2208.300088449528
 20
788.9091633865168
 30
0.0
  0
POINT
  5
4C13
330
4C0A
100
AcDbEntity
  8
DEFPOINTS
 62
     0
100
AcDbPoint
 10
2382.565487832907
 20
788.9091633865167
 30
0.0
  0
ENDBLK
  5
4C15
330
4C0A
100
AcDbEntity
  8
0
100
AcDbBlockEnd
  0
BLOCK
  5
4C44
330
4C3A
100
AcDbEntity
  8
0
100
AcDbBlockBegin
  2
*D36
 70
     1
 10
0.0
 20
0.0
 30
0.0
  3
*D36
  1

  0
LINE
  5
4C3B
330
4C3A
100
AcDbEntity
  8
寸法
 62
     0
370
    -2
100
AcDbLine
 10
2708.800088449529
 20
2209.909163386517
 30
0.0
 11
2708.800088449529
 21
2128.425860779047
 31
0.0
  0
LINE
  5
4C3C
330
4C3A
100
AcDbEntity
  8
寸法
 62
     0
370
    -2
100
AcDbLine
 10
2808.800088449528
 20
2209.909163386517
 30
0.0
 11
2808.800088449528
 21
2128.425860779047
 31
0.0
  0
LINE
  5
4C3D
330
4C3A
100
AcDbEntity
  8
寸法
 62
     0
370
    -2
100
AcDbLine
 10
2718.800088449528
 20
2133.425860779047
 30
0.0
 11
2798.800088449528
 21
2133.425860779047
 31
0.0
  0
SOLID
  5
4C3E
330
4C3A
100
AcDbEntity
  8
寸法
 62
     0
100
AcDbTrace
 10
2718.800088449528
 20
2135.092527445713
 30
0.0
 11
2718.800088449528
 21
2131.75919411238
 31
0.0
 12
2708.800088449529
 22
2133.425860779047
 32
0.0
 13
2708.800088449529
 23
2133.425860779047
 33
0.0
  0
SOLID
  5
4C3F
330
4C3A
100
AcDbEntity
  8
寸法
 62
     0
100
AcDbTrace
 10
2798.800088449528
 20
2135.092527445713
 30
0.0
 11
2798.800088449528
 21
2131.75919411238
 31
0.0
 12
2808.800088449528
 22
2133.425860779047
 32
0.0
 13
2808.800088449528
 23
2133.425860779047
 33
0.0
  0
MTEXT
  5
4C40
330
4C3A
100
AcDbEntity
  8
寸法
 62
     0
100
AcDbMText
 10
2758.800088449528
 20
2113.425860779047
 30
0.0
 40
20.0
 41
0.0
 71
     5
 72
     1
  1
100
 73
     1
 44
1.0
1001
ACAD
1000
MTEXTBEGIN
1070
    73
1070
     1
1070
    44
1040
1.0
1070
    74
1070
     0
1000
MTEXTEND
  0
POINT
  5
4C41
330
4C3A
100
AcDbEntity
  8
DEFPOINTS
 62
     0
100
AcDbPoint
 10
2708.800088449529
 20
2239.909163386517
 30
0.0
  0
POINT
  5
4C42
330
4C3A
100
AcDbEntity
  8
DEFPOINTS
 62
     0
100
AcDbPoint
 10
2808.800088449528
 20
2239.909163386517
 30
0.0
  0
POINT
  5
4C43
330
4C3A
100
AcDbEntity
  8
DEFPOINTS
 62
     0
100
AcDbPoint
 10
2808.800088449528
 20
2133.425860779047
 30
0.0
  0
ENDBLK
  5
4C45
330
4C3A
100
AcDbEntity
  8
0
100
AcDbBlockEnd
  0
BLOCK
  5
4C50
330
4C46
100
AcDbEntity
  8
0
100
AcDbBlockBegin
  2
*D37
 70
     1
 10
0.0
 20
0.0
 30
0.0
  3
*D37
  1

  0
LINE
  5
4D5C
330
4C46
100
AcDbEntity
  8
寸法
 62
     0
370
    -2
100
AcDbLine
 10
2074.800049639597
 20
781.8721330566767
 30
0.0
 11
2157.651584141542
 21
609.559353160525
 31
0.0
  0
LINE
  5
4D5D
330
4C46
100
AcDbEntity
  8
寸法
 62
     0
370
    -2
100
AcDbLine
 10
2209.985604868957
 20
846.8721330566765
 30
0.0
 11
2292.837139370902
 21
674.5593531605249
 31
0.0
  0
LINE
  5
4D5E
330
4C46
100
AcDbEntity
  8
寸法
 62
     0
370
    -2
100
AcDbLine
 10
2164.497267386477
 20
618.3988452788547
 30
0.0
 11
2281.658135729276
 21
674.7322044854752
 31
0.0
  0
SOLID
  5
4D5F
330
4C46
100
AcDbEntity
  8
寸法
 62
     0
100
AcDbTrace
 10
2163.775047320362
 20
619.9009025194014
 30
0.0
 11
2165.219487452592
 21
616.896788038308
 31
0.0
 12
2155.484923943197
 22
614.0655248821651
 32
0.0
 13
2155.484923943197
 23
614.0655248821651
 33
0.0
  0
SOLID
  5
4D60
330
4C46
100
AcDbEntity
  8
寸法
 62
     0
100
AcDbTrace
 10
2280.935915663162
 20
676.2342617260219
 30
0.0
 11
2282.380355795392
 21
673.2301472449285
 31
0.0
 12
2290.670479172557
 22
679.0655248821649
 32
0.0
 13
2290.670479172557
 23
679.0655248821649
 33
0.0
  0
MTEXT
  5
4D61
330
4C46
100
AcDbEntity
  8
寸法
 62
     0
100
AcDbMText
 10
2231.744342351257
 20
628.540837995605
 30
0.0
 40
20.0
 41
0.0
 71
     5
 72
     1
  1
150
 11
0.9012343443280068
 21
0.4333320396689676
 31
0.0
 73
     1
 44
1.0
1001
ACAD
1000
MTEXTBEGIN
1070
    73
1070
     1
1070
    44
1040
1.0
1070
    74
1070
     0
1000
MTEXTEND
  0
POINT
  5
4D62
330
4C46
100
AcDbEntity
  8
DEFPOINTS
 62
     0
100
AcDbPoint
 10
2061.800088449528
 20
808.9091633865168
 30
0.0
  0
POINT
  5
4D63
330
4C46
100
AcDbEntity
  8
DEFPOINTS
 62
     0
100
AcDbPoint
 10
2196.985643678889
 20
873.9091633865168
 30
0.0
  0
POINT
  5
4D64
330
4C46
100
AcDbEntity
  8
DEFPOINTS
 62
     0
100
AcDbPoint
 10
2290.670479172557
 20
679.0655248821649
 30
0.0
  0
ENDBLK
  5
4C51
330
4C46
100
AcDbEntity
  8
0
100
AcDbBlockEnd
  0
BLOCK
  5
4C5C
330
4C52
100
AcDbEntity
  8
0
100
AcDbBlockBegin
  2
*D38
 70
     1
 10
0.0
 20
0.0
 30
0.0
  3
*D38
  1

  0
LINE
  5
4D4A
330
4C52
100
AcDbEntity
  8
寸法
 62
     0
370
    -2
100
AcDbLine
 10
916.8001272594592
 20
781.8721330566765
 30
0.0
 11
829.46940047793
 21
600.24362861753
 31
0.0
  0
LINE
  5
4D4B
330
4C52
100
AcDbEntity
  8
寸法
 62
     0
370
    -2
100
AcDbLine
 10
781.614572030099
 20
846.8721330566769
 30
0.0
 11
694.28384524857
 21
665.2436286175302
 31
0.0
  0
LINE
  5
4D4C
330
4C52
100
AcDbEntity
  8
寸法
 62
     0
370
    -2
100
AcDbLine
 10
822.623717232995
 20
609.0831207358597
 30
0.0
 11
705.462848890195
 21
665.4164799424806
 31
0.0
  0
SOLID
  5
4D4D
330
4C52
100
AcDbEntity
  8
寸法
 62
     0
100
AcDbTrace
 10
823.3459372991099
 20
610.5851779764064
 30
0.0
 11
821.90149716688
 21
607.5810634953131
 31
0.0
 12
831.6360606762751
 22
604.7498003391702
 32
0.0
 13
831.6360606762751
 23
604.7498003391702
 33
0.0
  0
SOLID
  5
4D4E
330
4C52
100
AcDbEntity
  8
寸法
 62
     0
100
AcDbTrace
 10
706.1850689563099
 20
666.9185371830272
 30
0.0
 11
704.74062882408
 21
663.914422701934
 31
0.0
 12
696.4505054469149
 22
669.7498003391701
 32
0.0
 13
696.4505054469149
 23
669.7498003391701
 33
0.0
  0
MTEXT
  5
4D4F
330
4C52
100
AcDbEntity
  8
寸法
 62
     0
100
AcDbMText
 10
755.3766422682156
 20
619.22511345261
 30
0.0
 40
20.0
 41
0.0
 71
     5
 72
     1
  1
150
 11
0.9012343443280064
 21
-0.4333320396689681
 31
0.0
 73
     1
 44
1.0
1001
ACAD
1000
MTEXTBEGIN
1070
    73
1070
     1
1070
    44
1040
1.0
1070
    74
1070
     0
1000
MTEXTEND
  0
POINT
  5
4D50
330
4C52
100
AcDbEntity
  8
DEFPOINTS
 62
     0
100
AcDbPoint
 10
929.8000884495282
 20
808.9091633865168
 30
0.0
  0
POINT
  5
4D51
330
4C52
100
AcDbEntity
  8
DEFPOINTS
 62
     0
100
AcDbPoint
 10
794.6145332201681
 20
873.9091633865168
 30
0.0
  0
POINT
  5
4D52
330
4C52
100
AcDbEntity
  8
DEFPOINTS
 62
     0
100
AcDbPoint
 10
696.4505054469149
 20
669.7498003391701
 30
0.0
  0
ENDBLK
  5
4C5D
330
4C52
100
AcDbEntity
  8
0
100
AcDbBlockEnd
  0
BLOCK
  5
4C68
330
4C5E
100
AcDbEntity
  8
0
100
AcDbBlockBegin
  2
*D39
 70
     1
 10
0.0
 20
0.0
 30
0.0
  3
*D39
  1

  0
LINE
  5
4D53
330
4C5E
100
AcDbEntity
  8
寸法
 62
     0
370
    -2
100
AcDbLine
 10
929.8000884495282
 20
778.9091633865169
 30
0.0
 11
929.8000884495282
 21
735.1816421752223
 31
0.0
  0
LINE
  5
4D54
330
4C5E
100
AcDbEntity
  8
寸法
 62
     0
370
    -2
100
AcDbLine
 10
2061.800088449528
 20
778.9091633865169
 30
0.0
 11
2061.800088449528
 21
735.1816421752223
 31
0.0
  0
LINE
  5
4D55
330
4C5E
100
AcDbEntity
  8
寸法
 62
     0
370
    -2
100
AcDbLine
 10
939.8000884495282
 20
740.1816421752223
 30
0.0
 11
2051.800088449528
 21
740.1816421752223
 31
0.0
  0
SOLID
  5
4D56
330
4C5E
100
AcDbEntity
  8
寸法
 62
     0
100
AcDbTrace
 10
939.8000884495282
 20
741.848308841889
 30
0.0
 11
939.8000884495282
 21
738.5149755085556
 31
0.0
 12
929.8000884495282
 22
740.1816421752223
 32
0.0
 13
929.8000884495282
 23
740.1816421752223
 33
0.0
  0
SOLID
  5
4D57
330
4C5E
100
AcDbEntity
  8
寸法
 62
     0
100
AcDbTrace
 10
2051.800088449528
 20
741.848308841889
 30
0.0
 11
2051.800088449528
 21
738.5149755085556
 31
0.0
 12
2061.800088449528
 22
740.1816421752223
 32
0.0
 13
2061.800088449528
 23
740.1816421752223
 33
0.0
  0
MTEXT
  5
4D58
330
4C5E
100
AcDbEntity
  8
寸法
 62
     0
100
AcDbMText
 10
1495.800088449528
 20
720.1816421752223
 30
0.0
 40
20.0
 41
0.0
 71
     5
 72
     1
  1
1132
 73
     1
 44
1.0
1001
ACAD
1000
MTEXTBEGIN
1070
    73
1070
     1
1070
    44
1040
1.0
1070
    74
1070
     0
1000
MTEXTEND
  0
POINT
  5
4D59
330
4C5E
100
AcDbEntity
  8
DEFPOINTS
 62
     0
100
AcDbPoint
 10
929.8000884495282
 20
808.9091633865168
 30
0.0
  0
POINT
  5
4D5A
330
4C5E
100
AcDbEntity
  8
DEFPOINTS
 62
     0
100
AcDbPoint
 10
2061.800088449528
 20
808.9091633865168
 30
0.0
  0
POINT
  5
4D5B
330
4C5E
100
AcDbEntity
  8
DEFPOINTS
 62
     0
100
AcDbPoint
 10
2061.800088449528
 20
740.1816421752223
 30
0.0
  0
ENDBLK
  5
4C69
330
4C5E
100
AcDbEntity
  8
0
100
AcDbBlockEnd
  0
ENDSEC
  0
SECTION
  2
ENTITIES
  0
INSERT
  5
123
330
1F
100
AcDbEntity
  8
題
 62
     7
100
AcDbBlockReference
  2
AI9-BLK1
 10
3257.800088449528
 20
263.9091633865173
 30
0.0
 41
1.152000000001862
 42
1.152000000000157
 43
1.152
  0
MTEXT
  5
124
330
1F
100
AcDbEntity
  8
題
100
AcDbMText
 10
3332.800088449528
 20
288.9091633865173
 30
0.0
 40
60.0
 41
850.0
 71
     4
 72
     5
  1
{\fHGMaruGothicMPRO|b0|i0|c128|p50; 新生興産株式会社}
 73
     1
 44
1.0
1001
ACAD
1000
MTEXTBEGIN
1070
    73
1070
     1
1070
    44
1040
1.0
1070
    74
1070
     0
1000
MTEXTEND
1000
ACAD_MTEXT_DEFINED_HEIGHT_BEGIN
1070
    46
1040
10.0
1000
ACAD_MTEXT_DEFINED_HEIGHT_END
  0
MTEXT
  5
125
330
1F
100
AcDbEntity
  8
題
100
AcDbMText
 10
3332.800088449528
 20
213.9091633865173
 30
0.0
 40
60.0
 41
850.0
 71
     4
 72
     5
  1
{\fCentury Gothic|b0|i0|c0|p34;\H0.5x;                              SHINSEI KOSAN CO.,LTD}
 73
     1
 44
1.0
1001
ACAD
1000
MTEXTBEGIN
1070
    73
1070
     1
1070
    44
1040
1.0
1070
    74
1070
     0
1000
MTEXTEND
1000
ACAD_MTEXT_DEFINED_HEIGHT_BEGIN
1070
    46
1040
5.0
1000
ACAD_MTEXT_DEFINED_HEIGHT_END
  0
LWPOLYLINE
  5
126
330
1F
100
AcDbEntity
  8
DEFPOINTS
100
AcDbPolyline
 90
        4
 70
     1
 43
0.0
 10
82.80008844952817
 20
88.90916338651733
 10
4282.800088449529
 20
88.90916338651733
 10
4282.800088449529
 20
3058.909163386517
 10
82.80008844952817
 20
3058.909163386517
  0
LWPOLYLINE
  5
127
330
1F
100
AcDbEntity
  8
題
100
AcDbPolyline
 90
        4
 70
     1
 43
0.0
 10
4182.800088449528
 20
188.9091633865173
 10
3182.800088449528
 20
188.9091633865173
 10
3182.800088449528
 20
338.9091633865173
 10
4182.800088449528
 20
338.9091633865173
  0
LWPOLYLINE
  5
128
330
1F
100
AcDbEntity
  8
題
100
AcDbPolyline
 90
        4
 70
     1
 43
0.0
 10
3182.800088449528
 20
338.9091633865173
 10
3332.800088449528
 20
338.9091633865173
 10
3332.800088449528
 20
438.9091633865173
 10
3182.800088449528
 20
438.9091633865173
  0
LWPOLYLINE
  5
129
330
1F
100
AcDbEntity
  8
題
100
AcDbPolyline
 90
        4
 70
     1
 43
0.0
 10
3182.800088449528
 20
438.9091633865173
 10
3332.800088449528
 20
438.9091633865173
 10
3332.800088449528
 20
538.9091633865173
 10
3182.800088449528
 20
538.9091633865173
  0
LWPOLYLINE
  5
132
330
1F
100
AcDbEntity
  8
題
100
AcDbPolyline
 90
        4
 70
     1
 43
0.0
 10
3932.800088449528
 20
438.9091633865173
 10
4032.800088449528
 20
438.9091633865173
 10
4032.800088449528
 20
538.9091633865173
 10
3932.800088449528
 20
538.9091633865173
  0
LWPOLYLINE
  5
133
330
1F
100
AcDbEntity
  8
題
100
AcDbPolyline
 90
        4
 70
     1
 43
0.0
 10
3932.800088449528
 20
338.9091633865173
 10
3332.800088449528
 20
338.9091633865173
 10
3332.800088449528
 20
438.9091633865173
 10
3932.800088449528
 20
438.9091633865173
  0
LWPOLYLINE
  5
134
330
1F
100
AcDbEntity
  8
題
100
AcDbPolyline
 90
        4
 70
     1
 43
0.0
 10
3932.800088449528
 20
438.9091633865173
 10
3332.800088449528
 20
438.9091633865173
 10
3332.800088449528
 20
538.9091633865173
 10
3932.800088449528
 20
538.9091633865173
  0
MTEXT
  5
135
330
1F
100
AcDbEntity
  8
題
100
AcDbMText
 10
3982.800088449528
 20
488.9091633865173
 30
0.0
 40
25.0
 41
100.0
 71
     5
 72
     5
  1
{\fHGSeikaishotaiPRO|b0|i0|c128|p66;縮尺}
 73
     1
 44
1.0
1001
ACAD
1000
MTEXTBEGIN
1070
    73
1070
     1
1070
    44
1040
1.0
1070
    74
1070
     0
1000
MTEXTEND
  0
LWPOLYLINE
  5
136
330
1F
100
AcDbEntity
  8
題
100
AcDbPolyline
 90
        4
 70
     1
 43
0.0
 10
4032.800088449528
 20
438.9091633865173
 10
4182.800088449528
 20
438.9091633865173
 10
4182.800088449528
 20
538.9091633865173
 10
4032.800088449528
 20
538.9091633865173
  0
MTEXT
  5
137
330
1F
100
AcDbEntity
  8
題
100
AcDbMText
 10
4107.800088449528
 20
488.9091633865173
 30
0.0
 40
25.0
 41
150.0
 71
     5
 72
     5
  1
1：10
 73
     1
 44
1.0
1001
ACAD
1000
MTEXTBEGIN
1070
    73
1070
     1
1070
    44
1040
1.0
1070
    74
1070
     0
1000
MTEXTEND
  0
MTEXT
  5
138
330
1F
100
AcDbEntity
  8
題
100
AcDbMText
 10
3257.800088449528
 20
488.9091633865173
 30
0.0
 40
25.0
 41
150.0
 71
     5
 72
     5
  1
{\fHGSeikaishotaiPRO|b0|i0|c128|p66;製品名}
 73
     1
 44
1.0
1001
ACAD
1000
MTEXTBEGIN
1070
    73
1070
     1
1070
    44
1040
1.0
1070
    74
1070
     0
1000
MTEXTEND
  0
MTEXT
  5
139
330
1F
100
AcDbEntity
  8
題
100
AcDbMText
 10
3257.800088449528
 20
388.9091633865173
 30
0.0
 40
25.0
 41
150.0
 71
     5
 72
     5
  1
{\fHGSeikaishotaiPRO|b0|i0|c128|p66;規格}
 73
     1
 44
1.0
1001
ACAD
1000
MTEXTBEGIN
1070
    73
1070
     1
1070
    44
1040
1.0
1070
    74
1070
     0
1000
MTEXTEND
  0
LWPOLYLINE
  5
163
330
1F
100
AcDbEntity
  8
題
100
AcDbPolyline
 90
        4
 70
     1
 43
0.0
 10
282.8000884495282
 20
188.9091633865173
 10
4182.800088449528
 20
188.9091633865173
 10
4182.800088449528
 20
2958.909163386517
 10
282.8000884495282
 20
2958.909163386517
  0
MTEXT
  5
493C
330
1F
100
AcDbEntity
  8
全体文字
100
AcDbMText
 10
3632.800088449528
 20
488.9091633865173
 30
0.0
 40
35.0
 41
600.0000000000002
 71
     5
 72
     5
  1
U形柵渠 側板
 73
     1
 44
1.0
1001
ACAD
1000
MTEXTBEGIN
1070
    73
1070
     1
1070
    44
1040
1.0
1070
    74
1070
     0
1000
MTEXTEND
1000
ACAD_MTEXT_DEFINED_HEIGHT_BEGIN
1070
    46
1040
100.0
1000
ACAD_MTEXT_DEFINED_HEIGHT_END
  0
MTEXT
  5
493D
330
1F
100
AcDbEntity
  8
全体文字
100
AcDbMText
 10
3632.800088449528
 20
388.9091633865173
 30
0.0
 40
35.0
 41
600.0000000000002
 71
     5
 72
     5
  1
300 （6-2）
 73
     1
 44
1.0
1001
ACAD
1000
MTEXTBEGIN
1070
    73
1070
     1
1070
    44
1040
1.0
1070
    74
1070
     0
1000
MTEXTEND
1000
ACAD_MTEXT_DEFINED_HEIGHT_BEGIN
1070
    46
1040
100.0
1000
ACAD_MTEXT_DEFINED_HEIGHT_END
  0
LWPOLYLINE
  5
4940
102
{ACAD_REACTORS
330
4996
330
4999
102
}
330
1F
100
AcDbEntity
  8
図
100
AcDbPolyline
 90
        4
 70
     1
 43
0.0
 10
3108.800088449529
 20
2239.909163386517
 10
3208.800088449528
 20
2239.909163386517
 10
3208.800088449528
 20
2538.909163386517
 10
3108.800088449529
 20
2538.909163386517
  0
LINE
  5
4941
330
1F
100
AcDbEntity
  8
センター
100
AcDbLine
 10
1495.800088449528
 20
1718.909163386516
 30
0.0
 11
1495.800088449528
 21
1359.909163386517
 31
0.0
  0
LINE
  5
4942
330
1F
100
AcDbEntity
  8
センター
100
AcDbLine
 10
1495.800088449528
 20
918.9091633865169
 30
0.0
 11
1495.800088449528
 21
758.9091633865169
 31
0.0
  0
LINE
  5
4945
330
1F
100
AcDbEntity
  8
図
100
AcDbLine
 10
3153.800088449528
 20
2538.909163386517
 30
0.0
 11
3153.800088449528
 21
2239.909163386517
 31
0.0
  0
LINE
  5
4946
330
1F
100
AcDbEntity
  8
図
100
AcDbLine
 10
3158.800088449528
 20
2538.909163386517
 30
0.0
 11
3158.800088449528
 21
2239.909163386517
 31
0.0
  0
LINE
  5
4947
330
1F
100
AcDbEntity
  8
図
100
AcDbLine
 10
2708.800088449529
 20
2538.909163386517
 30
0.0
 11
2808.800088449528
 21
2538.909163386517
 31
0.0
  0
LINE
  5
4948
102
{ACAD_REACTORS
330
498A
102
}
330
1F
100
AcDbEntity
  8
図
100
AcDbLine
 10
2808.800088449528
 20
2538.909163386517
 30
0.0
 11
2808.800088449528
 21
2498.909163386517
 31
0.0
  0
LINE
  5
4949
330
1F
100
AcDbEntity
  8
図
100
AcDbLine
 10
2808.800088449528
 20
2498.909163386517
 30
0.0
 11
2753.800088449529
 21
2478.909163386517
 31
0.0
  0
LINE
  5
494A
102
{ACAD_REACTORS
330
4986
102
}
330
1F
100
AcDbEntity
  8
図
100
AcDbLine
 10
2753.800088449529
 20
2478.909163386517
 30
0.0
 11
2753.800088449529
 21
2299.909163386517
 31
0.0
  0
LINE
  5
494B
102
{ACAD_REACTORS
330
4986
102
}
330
1F
100
AcDbEntity
  8
図
100
AcDbLine
 10
2753.800088449529
 20
2299.909163386517
 30
0.0
 11
2808.800088449528
 21
2279.909163386517
 31
0.0
  0
LINE
  5
494C
330
1F
100
AcDbEntity
  8
図
100
AcDbLine
 10
2808.800088449528
 20
2279.909163386517
 30
0.0
 11
2808.800088449528
 21
2239.909163386517
 31
0.0
  0
LINE
  5
494D
102
{ACAD_REACTORS
330
4990
330
49F4
102
}
330
1F
100
AcDbEntity
  8
図
100
AcDbLine
 10
2808.800088449528
 20
2239.909163386517
 30
0.0
 11
2708.800088449529
 21
2239.909163386517
 31
0.0
  0
LINE
  5
494E
102
{ACAD_REACTORS
330
49F4
102
}
330
1F
100
AcDbEntity
  8
図
100
AcDbLine
 10
2708.800088449529
 20
2239.909163386517
 30
0.0
 11
2708.800088449529
 21
2538.909163386517
 31
0.0
  0
LINE
  5
494F
330
1F
100
AcDbEntity
  8
図
100
AcDbLine
 10
1495.800088449528
 20
2538.909163386517
 30
0.0
 11
2208.300088449528
 21
2538.909163386517
 31
0.0
  0
LINE
  5
4950
102
{ACAD_REACTORS
330
495F
330
4965
102
}
330
1F
100
AcDbEntity
  8
図
100
AcDbLine
 10
2208.300088449528
 20
2538.909163386517
 30
0.0
 11
2208.300088449528
 21
2239.909163386517
 31
0.0
  0
LINE
  5
4953
330
1F
100
AcDbEntity
  8
図
100
AcDbLine
 10
1495.800088449528
 20
888.9091633865168
 30
0.0
 11
2208.300088449528
 21
888.9091633865168
 31
0.0
  0
LINE
  5
4954
102
{ACAD_REACTORS
330
496F
330
497C
330
499C
102
}
330
1F
100
AcDbEntity
  8
図
100
AcDbLine
 10
2208.300088449528
 20
888.9091633865168
 30
0.0
 11
2208.300088449528
 21
838.9091633865168
 31
0.0
  0
LINE
  5
4955
102
{ACAD_REACTORS
330
4979
330
497C
102
}
330
1F
100
AcDbEntity
  8
図
100
AcDbLine
 10
2208.300088449528
 20
838.9091633865168
 30
0.0
 11
2165.300088449528
 21
833.9091633865168
 31
0.0
  0
LINE
  5
4956
102
{ACAD_REACTORS
330
4979
102
}
330
1F
100
AcDbEntity
  8
図
100
AcDbLine
 10
2165.300088449528
 20
833.9091633865168
 30
0.0
 11
2165.300088449528
 21
788.9091633865168
 31
0.0
  0
LINE
  5
4957
102
{ACAD_REACTORS
330
4972
330
4976
102
}
330
1F
100
AcDbEntity
  8
図
100
AcDbLine
 10
2165.300088449528
 20
788.9091633865168
 30
0.0
 11
1495.800088449528
 21
788.9091633865168
 31
0.0
  0
LINE
  5
4958
330
1F
100
AcDbEntity
  8
影
100
AcDbLine
 10
2118.300088449528
 20
888.9091633865168
 30
0.0
 11
2063.300088449528
 21
833.9091633865168
 31
0.0
  0
LINE
  5
4959
102
{ACAD_REACTORS
330
496A
102
}
330
1F
100
AcDbEntity
  8
影
100
AcDbLine
 10
2063.300088449528
 20
833.9091633865168
 30
0.0
 11
1495.800088449528
 21
833.9091633865168
 31
0.0
  0
MTEXT
  5
495B
330
1F
100
AcDbEntity
  8
図文字
100
AcDbMText
 10
3957.800088449527
 20
688.9091633865173
 30
0.0
 40
30.0
 41
450.0000000000004
 71
     5
 72
     5
  1
参考重量67kg
 73
     1
 44
1.0
1001
ACAD
1000
MTEXTBEGIN
1070
    73
1070
     1
1070
    44
1040
1.0
1070
    74
1070
     0
1000
MTEXTEND
  0
LINE
  5
495C
102
{ACAD_REACTORS
330
4962
330
4965
102
}
330
1F
100
AcDbEntity
  8
影
100
AcDbLine
 10
2165.300088449528
 20
2239.909163386517
 30
0.0
 11
2165.300088449528
 21
2538.909163386517
 31
0.0
  0
DIMENSION
  5
495D
102
{ACAD_XDICTIONARY
360
495E
102
}
102
{ACAD_REACTORS
330
495F
102
}
330
1F
100
AcDbEntity
  8
寸法
100
AcDbDimension
  2
*D21
 10
2208.300088449528
 20
2638.45085461361
 30
0.0
 11
1495.800088449528
 21
2658.45085461361
 31
0.0
 70
    32
 71
     5
 42
1425.0
  3
ISO-25
100
AcDbAlignedDimension
 13
783.3000884495281
 23
2538.909163386517
 33
0.0
 14
2208.300088449528
 24
2538.909163386517
 34
0.0
100
AcDbRotatedDimension
1001
ACAD
1000
DSTYLE
1002
{
1070
    41
1040
10.0
1070
    42
1040
30.0
1070
    44
1040
5.0
1070
   140
1040
20.0
1070
   147
1040
10.0
1002
}
  0
DIMENSION
  5
4960
102
{ACAD_XDICTIONARY
360
4961
102
}
102
{ACAD_REACTORS
330
4962
102
}
330
1F
100
AcDbEntity
  8
寸法
100
AcDbDimension
  2
*D22
 10
2165.300088449528
 20
2589.24438039825
 30
0.0
 11
1495.800088449528
 21
2609.24438039825
 31
0.0
 70
    32
 71
     5
 42
1339.0
  3
ISO-25
100
AcDbAlignedDimension
 13
826.3000884495282
 23
2538.909163386517
 33
0.0
 14
2165.300088449528
 24
2538.909163386517
 34
0.0
100
AcDbRotatedDimension
1001
ACAD
1000
DSTYLE
1002
{
1070
    41
1040
10.0
1070
    42
1040
30.0
1070
    44
1040
5.0
1070
   140
1040
20.0
1070
   147
1040
10.0
1002
}
  0
DIMENSION
  5
4963
102
{ACAD_XDICTIONARY
360
4964
102
}
102
{ACAD_REACTORS
330
4965
102
}
330
1F
100
AcDbEntity
  8
寸法
100
AcDbDimension
  2
*D23
 10
2208.300088449528
 20
2589.24438039825
 30
0.0
 11
2186.800088449528
 21
2589.24438039825
 31
0.0
 70
   160
 71
     5
 42
43.0
  3
ISO-25
100
AcDbAlignedDimension
 13
2165.300088449528
 23
2538.909163386517
 33
0.0
 14
2208.300088449528
 24
2538.909163386517
 34
0.0
100
AcDbRotatedDimension
1001
ACAD
1000
DSTYLE
1002
{
1070
    41
1040
10.0
1070
    42
1040
30.0
1070
    44
1040
5.0
1070
   140
1040
20.0
1070
   147
1040
10.0
1002
}
  0
MTEXT
  5
4966
330
1F
100
AcDbEntity
  8
図文字
100
AcDbMText
 10
1495.800088449528
 20
2738.909163386517
 30
0.0
 40
30.0
 41
1426.0
 71
     5
 72
     5
  1
正面図
 73
     1
 44
1.0
1001
ACAD
1000
MTEXTBEGIN
1070
    73
1070
     1
1070
    44
1040
1.0
1070
    74
1070
     0
1000
MTEXTEND
  0
MTEXT
  5
4967
330
1F
100
AcDbEntity
  8
図文字
100
AcDbMText
 10
1495.800088449528
 20
1888.909163386517
 30
0.0
 40
30.0
 41
1426.0
 71
     5
 72
     5
  1
背面図
 73
     1
 44
1.0
1001
ACAD
1000
MTEXTBEGIN
1070
    73
1070
     1
1070
    44
1040
1.0
1070
    74
1070
     0
1000
MTEXTEND
1000
ACAD_MTEXT_DEFINED_HEIGHT_BEGIN
1070
    46
1040
100.0
1000
ACAD_MTEXT_DEFINED_HEIGHT_END
  0
DIMENSION
  5
4968
102
{ACAD_XDICTIONARY
360
4969
102
}
102
{ACAD_REACTORS
330
496A
102
}
330
1F
100
AcDbEntity
  8
寸法
100
AcDbDimension
  2
*D24
 10
2063.300088449528
 20
958.7888117376669
 30
0.0
 11
1495.800088449528
 21
978.7888117376668
 31
0.0
 70
    32
 71
     5
 42
1135.0
  3
ISO-25
100
AcDbAlignedDimension
 13
928.3000884495281
 23
833.9091633865168
 33
0.0
 14
2063.300088449528
 24
833.9091633865168
 34
0.0
100
AcDbRotatedDimension
1001
ACAD
1000
DSTYLE
1002
{
1070
    41
1040
10.0
1070
    42
1040
30.0
1070
    44
1040
5.0
1070
   140
1040
20.0
1070
   147
1040
10.0
1002
}
  0
DIMENSION
  5
496B
330
1F
100
AcDbEntity
  8
寸法
100
AcDbDimension
  2
*D4
 10
2063.300088449528
 20
958.7888117376664
 30
0.0
 11
2093.336826287314
 21
958.7888117376664
 31
0.0
 70
   160
 71
     5
 42
55.0
  3
ISO-25
100
AcDbAlignedDimension
 13
2118.300088449528
 23
888.9091633865168
 33
0.0
 14
2063.300088449528
 24
833.9091633865168
 34
0.0
 50
180.0
100
AcDbRotatedDimension
1001
ACAD
1000
DSTYLE
1002
{
1070
    41
1040
10.0
1070
    42
1040
30.0
1070
    44
1040
5.0
1070
   140
1040
20.0
1070
   147
1040
10.0
1002
}
  0
DIMENSION
  5
496C
330
1F
100
AcDbEntity
  8
寸法
100
AcDbDimension
  2
*D5
 10
2118.300088449528
 20
958.7888117376664
 30
0.0
 11
2163.300088449528
 21
978.7888117376665
 31
0.0
 70
    32
 71
     5
 42
90.0
  3
ISO-25
100
AcDbAlignedDimension
 13
2208.300088449528
 23
888.9091633865168
 33
0.0
 14
2118.300088449528
 24
888.9091633865168
 34
0.0
 50
180.0
100
AcDbRotatedDimension
1001
ACAD
1000
DSTYLE
1002
{
1070
    41
1040
10.0
1070
    42
1040
30.0
1070
    44
1040
5.0
1070
   140
1040
20.0
1070
   147
1040
10.0
1002
}
  0
DIMENSION
  5
496D
102
{ACAD_XDICTIONARY
360
496E
102
}
102
{ACAD_REACTORS
330
496F
102
}
330
1F
100
AcDbEntity
  8
寸法
100
AcDbDimension
  2
*D25
 10
2208.300088449528
 20
1005.430697582415
 30
0.0
 11
1495.800088449528
 21
1025.430697582415
 31
0.0
 70
    32
 71
     5
 42
1425.0
  3
ISO-25
100
AcDbAlignedDimension
 13
783.3000884495281
 23
888.9091633865168
 33
0.0
 14
2208.300088449528
 24
888.9091633865168
 34
0.0
100
AcDbRotatedDimension
1001
ACAD
1000
DSTYLE
1002
{
1070
    41
1040
10.0
1070
    42
1040
30.0
1070
    44
1040
5.0
1070
   140
1040
20.0
1070
   147
1040
10.0
1002
}
  0
DIMENSION
  5
4970
102
{ACAD_XDICTIONARY
360
4971
102
}
102
{ACAD_REACTORS
330
4972
102
}
330
1F
100
AcDbEntity
  8
寸法
100
AcDbDimension
  2
*D26
 10
2165.300088449528
 20
685.1537596384182
 30
0.0
 11
1495.800088449528
 21
665.1537596384182
 31
0.0
 70
    32
 71
     5
 42
1339.0
  3
ISO-25
100
AcDbAlignedDimension
 13
826.3000884495282
 23
788.9091633865168
 33
0.0
 14
2165.300088449528
 24
788.9091633865168
 34
0.0
100
AcDbRotatedDimension
1001
ACAD
1000
DSTYLE
1002
{
1070
    41
1040
10.0
1070
    42
1040
30.0
1070
    44
1040
5.0
1070
   140
1040
20.0
1070
   147
1040
10.0
1002
}
  0
DIMENSION
  5
4973
330
1F
100
AcDbEntity
  8
寸法
100
AcDbDimension
  2
*D6
 10
2165.300088449528
 20
685.1537596384182
 30
0.0
 11
2186.800088449528
 21
685.1537596384182
 31
0.0
 70
   160
 71
     5
 42
43.0
  3
ISO-25
100
AcDbAlignedDimension
 13
2208.300088449528
 23
838.9091633865168
 33
0.0
 14
2165.300088449528
 24
788.9091633865168
 34
0.0
 50
180.0
100
AcDbRotatedDimension
1001
ACAD
1000
DSTYLE
1002
{
1070
    41
1040
10.0
1070
    42
1040
30.0
1070
    44
1040
5.0
1070
   140
1040
20.0
1070
   147
1040
10.0
1002
}
  0
DIMENSION
  5
4974
102
{ACAD_XDICTIONARY
360
4975
102
}
102
{ACAD_REACTORS
330
4976
102
}
330
1F
100
AcDbEntity
  8
寸法
100
AcDbDimension
  2
*D27
 10
2342.438938081885
 20
833.9091633865168
 30
0.0
 11
2342.438938081885
 21
752.2424967198506
 31
0.0
 70
   160
 71
     5
 42
45.0
  3
ISO-25
100
AcDbAlignedDimension
 13
2165.300088449528
 23
788.9091633865168
 33
0.0
 14
2208.300088449528
 24
833.9091633865168
 34
0.0
 50
90.0
100
AcDbRotatedDimension
1001
ACAD
1000
DSTYLE
1002
{
1070
    41
1040
10.0
1070
    42
1040
30.0
1070
    44
1040
5.0
1070
   140
1040
20.0
1070
   147
1040
10.0
1002
}
  0
DIMENSION
  5
4977
102
{ACAD_XDICTIONARY
360
4978
102
}
102
{ACAD_REACTORS
330
4979
102
}
330
1F
100
AcDbEntity
  8
寸法
100
AcDbDimension
  2
*D28
 10
2342.438938081885
 20
838.9091633865167
 30
0.0
 11
2342.438938081885
 21
836.4091633865172
 31
0.0
 70
   160
 71
     5
 42
5.0
  3
ISO-25
100
AcDbAlignedDimension
 13
2165.300088449528
 23
833.9091633865168
 33
0.0
 14
2208.300088449528
 24
838.9091633865168
 34
0.0
 50
90.0
100
AcDbRotatedDimension
1001
ACAD
1000
DSTYLE
1002
{
1070
    41
1040
10.0
1070
    42
1040
30.0
1070
    44
1040
5.0
1070
   140
1040
20.0
1070
   147
1040
10.0
1002
}
  0
DIMENSION
  5
497A
102
{ACAD_XDICTIONARY
360
497B
102
}
102
{ACAD_REACTORS
330
497C
102
}
330
1F
100
AcDbEntity
  8
寸法
100
AcDbDimension
  2
*D29
 10
2342.438938081885
 20
888.9091633865167
 30
0.0
 11
2342.438938081885
 21
923.9091633865172
 31
0.0
 70
   160
 71
     5
 42
50.0
  3
ISO-25
100
AcDbAlignedDimension
 13
2208.300088449528
 23
838.9091633865168
 33
0.0
 14
2208.300088449528
 24
888.9091633865168
 34
0.0
 50
90.0
100
AcDbRotatedDimension
1001
ACAD
1000
DSTYLE
1002
{
1070
    41
1040
10.0
1070
    42
1040
30.0
1070
    44
1040
5.0
1070
   140
1040
20.0
1070
   147
1040
10.0
1002
}
  0
MTEXT
  5
497D
330
1F
100
AcDbEntity
  8
図文字
100
AcDbMText
 10
1495.800088449528
 20
1088.909163386517
 30
0.0
 40
30.0
 41
1426.0
 71
     5
 72
     5
  1
a-a'断面図
 73
     1
 44
1.0
1001
ACAD
1000
MTEXTBEGIN
1070
    73
1070
     1
1070
    44
1040
1.0
1070
    74
1070
     0
1000
MTEXTEND
1000
ACAD_MTEXT_DEFINED_HEIGHT_BEGIN
1070
    46
1040
100.0
1000
ACAD_MTEXT_DEFINED_HEIGHT_END
  0
MTEXT
  5
4982
330
1F
100
AcDbEntity
  8
図文字
100
AcDbMText
 10
2753.800088449529
 20
2738.909163386517
 30
0.0
 40
30.0
 41
400.0
 71
     5
 72
     5
  1
b-b'断面
 73
     1
 44
1.0
1001
ACAD
1000
MTEXTBEGIN
1070
    73
1070
     1
1070
    44
1040
1.0
1070
    74
1070
     0
1000
MTEXTEND
  0
MTEXT
  5
4983
330
1F
100
AcDbEntity
  8
図文字
100
AcDbMText
 10
3158.800088449528
 20
2738.909163386517
 30
0.0
 40
30.0
 41
400.0
 71
     5
 72
     5
  1
側面図
 73
     1
 44
1.0
1001
ACAD
1000
MTEXTBEGIN
1070
    73
1070
     1
1070
    44
1040
1.0
1070
    74
1070
     0
1000
MTEXTEND
  0
DIMENSION
  5
4984
102
{ACAD_XDICTIONARY
360
4985
102
}
102
{ACAD_REACTORS
330
4986
102
}
330
1F
100
AcDbEntity
  8
寸法
100
AcDbDimension
  2
*D30
 10
2858.800088449529
 20
2478.909163386517
 30
0.0
 11
2878.800088449528
 21
2389.409163386517
 31
0.0
 70
    32
 71
     5
 42
179.0
  3
ISO-25
100
AcDbAlignedDimension
 13
2753.800088449529
 23
2299.909163386517
 33
0.0
 14
2753.800088449529
 24
2478.909163386517
 34
0.0
 50
90.0
100
AcDbRotatedDimension
1001
ACAD
1000
DSTYLE
1002
{
1070
    41
1040
10.0
1070
    42
1040
30.0
1070
    44
1040
5.0
1070
   140
1040
20.0
1070
   147
1040
10.0
1002
}
  0
DIMENSION
  5
4987
330
1F
100
AcDbEntity
  8
寸法
100
AcDbDimension
  2
*D7
 10
2858.800088449529
 20
2498.909163386517
 30
0.0
 11
2858.800088449529
 21
2488.909163386518
 31
0.0
 70
   160
 71
     5
 42
20.0
  3
ISO-25
100
AcDbAlignedDimension
 13
2753.800088449529
 23
2478.909163386517
 33
0.0
 14
2808.800088449528
 24
2498.909163386517
 34
0.0
 50
90.0
100
AcDbRotatedDimension
1001
ACAD
1000
DSTYLE
1002
{
1070
    41
1040
10.0
1070
    42
1040
30.0
1070
    44
1040
5.0
1070
   140
1040
20.0
1070
   147
1040
10.0
1002
}
  0
DIMENSION
  5
4988
102
{ACAD_XDICTIONARY
360
4989
102
}
102
{ACAD_REACTORS
330
498A
102
}
330
1F
100
AcDbEntity
  8
寸法
100
AcDbDimension
  2
*D31
 10
2858.800088449529
 20
2538.909163386517
 30
0.0
 11
2878.800088449528
 21
2573.909163386517
 31
0.0
 70
    32
 71
     5
 42
40.0
  3
ISO-25
100
AcDbAlignedDimension
 13
2808.800088449528
 23
2498.909163386517
 33
0.0
 14
2808.800088449528
 24
2538.909163386517
 34
0.0
 50
90.0
100
AcDbRotatedDimension
1001
ACAD
1000
DSTYLE
1002
{
1070
    41
1040
10.0
1070
    42
1040
30.0
1070
    44
1040
5.0
1070
   140
1040
20.0
1070
   147
1040
10.0
1002
}
  0
DIMENSION
  5
498B
330
1F
100
AcDbEntity
  8
寸法
100
AcDbDimension
  2
*D8
 10
2858.800088449529
 20
2279.909163386517
 30
0.0
 11
2858.800088449529
 21
2289.909163386517
 31
0.0
 70
   160
 71
     5
 42
20.0
  3
ISO-25
100
AcDbAlignedDimension
 13
2753.800088449529
 23
2299.909163386517
 33
0.0
 14
2808.800088449528
 24
2279.909163386517
 34
0.0
 50
270.0
100
AcDbRotatedDimension
1001
ACAD
1000
DSTYLE
1002
{
1070
    41
1040
10.0
1070
    42
1040
30.0
1070
    44
1040
5.0
1070
   140
1040
20.0
1070
   147
1040
10.0
1002
}
  0
DIMENSION
  5
498C
330
1F
100
AcDbEntity
  8
寸法
100
AcDbDimension
  2
*D9
 10
2858.800088449529
 20
2239.909163386517
 30
0.0
 11
2878.800088449528
 21
2204.909163386517
 31
0.0
 70
    32
 71
     5
 42
40.0
  3
ISO-25
100
AcDbAlignedDimension
 13
2808.800088449528
 23
2279.909163386517
 33
0.0
 14
2808.800088449528
 24
2239.909163386517
 34
0.0
 50
270.0
100
AcDbRotatedDimension
1001
ACAD
1000
DSTYLE
1002
{
1070
    41
1040
10.0
1070
    42
1040
30.0
1070
    44
1040
5.0
1070
   140
1040
20.0
1070
   147
1040
10.0
1002
}
  0
DIMENSION
  5
498D
330
1F
100
AcDbEntity
  8
寸法
100
AcDbDimension
  2
*D10
 10
2753.800088449529
 20
2171.509853848806
 30
0.0
 11
2672.133421782862
 21
2171.509853848806
 31
0.0
 70
   160
 71
     5
 42
45.0
  3
ISO-25
100
AcDbAlignedDimension
 13
2708.800088449529
 23
2239.909163386517
 33
0.0
 14
2753.800088449529
 24
2239.909163386517
 34
0.0
100
AcDbRotatedDimension
1001
ACAD
1000
DSTYLE
1002
{
1070
    41
1040
10.0
1070
    42
1040
30.0
1070
    44
1040
5.0
1070
   140
1040
20.0
1070
   147
1040
10.0
1002
}
  0
DIMENSION
  5
498E
102
{ACAD_XDICTIONARY
360
498F
102
}
102
{ACAD_REACTORS
330
4990
102
}
330
1F
100
AcDbEntity
  8
寸法
100
AcDbDimension
  2
*D32
 10
2808.800088449528
 20
2171.509853848806
 30
0.0
 11
2781.300088449528
 21
2151.509853848806
 31
0.0
 70
    32
 71
     5
 42
55.0
  3
ISO-25
100
AcDbAlignedDimension
 13
2753.800088449529
 23
2239.909163386517
 33
0.0
 14
2808.800088449528
 24
2239.909163386517
 34
0.0
100
AcDbRotatedDimension
1001
ACAD
1000
DSTYLE
1002
{
1070
    41
1040
10.0
1070
    42
1040
30.0
1070
    44
1040
5.0
1070
   140
1040
20.0
1070
   147
1040
10.0
1002
}
  0
DIMENSION
  5
4991
330
1F
100
AcDbEntity
  8
寸法
100
AcDbDimension
  2
*D11
 10
3153.800088449528
 20
2171.509853848806
 30
0.0
 11
3072.133421782862
 21
2171.509853848806
 31
0.0
 70
   160
 71
     5
 42
45.0
  3
ISO-25
100
AcDbAlignedDimension
 13
3108.800088449529
 23
2239.909163386517
 33
0.0
 14
3153.800088449528
 24
2239.909163386517
 34
0.0
100
AcDbRotatedDimension
1001
ACAD
1000
DSTYLE
1002
{
1070
    41
1040
10.0
1070
    42
1040
30.0
1070
    44
1040
5.0
1070
   140
1040
20.0
1070
   147
1040
10.0
1002
}
  0
DIMENSION
  5
4992
330
1F
100
AcDbEntity
  8
寸法
100
AcDbDimension
  2
*D12
 10
3158.800088449528
 20
2171.509853848806
 30
0.0
 11
3156.300088449528
 21
2171.509853848806
 31
0.0
 70
   160
 71
     5
 42
5.0
  3
ISO-25
100
AcDbAlignedDimension
 13
3153.800088449528
 23
2239.909163386517
 33
0.0
 14
3158.800088449528
 24
2239.909163386517
 34
0.0
100
AcDbRotatedDimension
1001
ACAD
1000
DSTYLE
1002
{
1070
    41
1040
10.0
1070
    42
1040
30.0
1070
    44
1040
5.0
1070
   140
1040
20.0
1070
   147
1040
10.0
1002
}
  0
DIMENSION
  5
4993
330
1F
100
AcDbEntity
  8
寸法
100
AcDbDimension
  2
*D13
 10
3208.800088449528
 20
2171.509853848806
 30
0.0
 11
3243.800088449528
 21
2151.509853848806
 31
0.0
 70
    32
 71
     5
 42
50.0
  3
ISO-25
100
AcDbAlignedDimension
 13
3158.800088449528
 23
2239.909163386517
 33
0.0
 14
3208.800088449528
 24
2239.909163386517
 34
0.0
100
AcDbRotatedDimension
1001
ACAD
1000
DSTYLE
1002
{
1070
    41
1040
10.0
1070
    42
1040
30.0
1070
    44
1040
5.0
1070
   140
1040
20.0
1070
   147
1040
10.0
1002
}
  0
DIMENSION
  5
4994
102
{ACAD_XDICTIONARY
360
4995
102
}
102
{ACAD_REACTORS
330
4996
102
}
330
1F
100
AcDbEntity
  8
寸法
100
AcDbDimension
  2
*D33
 10
3256.485621563927
 20
2538.909163386517
 30
0.0
 11
3276.485621563927
 21
2389.409163386518
 31
0.0
 70
    32
 71
     5
 42
299.0
  3
ISO-25
100
AcDbAlignedDimension
 13
3208.800088449528
 23
2239.909163386517
 33
0.0
 14
3208.800088449528
 24
2538.909163386517
 34
0.0
 50
90.0
100
AcDbRotatedDimension
1001
ACAD
1000
DSTYLE
1002
{
1070
    41
1040
10.0
1070
    42
1040
30.0
1070
    44
1040
5.0
1070
   140
1040
20.0
1070
   147
1040
10.0
1002
}
  0
DIMENSION
  5
4997
102
{ACAD_XDICTIONARY
360
4998
102
}
102
{ACAD_REACTORS
330
4999
102
}
330
1F
100
AcDbEntity
  8
寸法
100
AcDbDimension
  2
*D34
 10
3208.800088449528
 20
2133.425860779047
 30
0.0
 11
3158.800088449528
 21
2113.425860779047
 31
0.0
 70
    32
 71
     5
 42
100.0
  3
ISO-25
100
AcDbAlignedDimension
 13
3108.800088449529
 23
2239.909163386517
 33
0.0
 14
3208.800088449528
 24
2239.909163386517
 34
0.0
100
AcDbRotatedDimension
1001
ACAD
1000
DSTYLE
1002
{
1070
    41
1040
10.0
1070
    42
1040
30.0
1070
    44
1040
5.0
1070
   140
1040
20.0
1070
   147
1040
10.0
1002
}
  0
DIMENSION
  5
499A
102
{ACAD_XDICTIONARY
360
499B
102
}
102
{ACAD_REACTORS
330
499C
102
}
330
1F
100
AcDbEntity
  8
寸法
100
AcDbDimension
  2
*D35
 10
2382.565487832907
 20
788.9091633865167
 30
0.0
 11
2402.565487832907
 21
838.9091633865172
 31
0.0
 70
    32
 71
     5
 42
100.0
  3
ISO-25
100
AcDbAlignedDimension
 13
2208.300088449528
 23
888.9091633865168
 33
0.0
 14
2208.300088449528
 24
788.9091633865168
 34
0.0
 50
90.0
100
AcDbRotatedDimension
1001
ACAD
1000
DSTYLE
1002
{
1070
    41
1040
10.0
1070
    42
1040
30.0
1070
    44
1040
5.0
1070
   140
1040
20.0
1070
   147
1040
10.0
1002
}
  0
LEADER
  5
49B3
330
1F
100
AcDbEntity
  8
寸法
100
AcDbLeader
  3
ISO-25
 76
     3
 10
766.0969419765311
 20
2388.909163386517
 30
0.0
 10
740.4373033006363
 20
2388.909163386517
 30
0.0
 10
740.4373033006363
 20
2357.287954469986
 30
0.0
1001
ACAD
1000
DSTYLE
1002
{
1070
   341
1005
10D7
1070
    41
1040
10.0
1070
   147
1040
0.625
1070
    77
1070
     0
1002
}
  0
MTEXT
  5
49B4
330
1F
100
AcDbEntity
  8
寸法
100
AcDbMText
 10
728.5611594485031
 20
2373.098558928251
 30
0.0
 40
20.0
 41
23.75228770426657
 71
     5
 72
     5
  1
a
 73
     1
 44
1.0
1001
ACAD
1000
MTEXTBEGIN
1070
    73
1070
     1
1070
    44
1040
1.0
1070
    74
1070
     0
1000
MTEXTEND
1000
ACAD_MTEXT_DEFINED_HEIGHT_BEGIN
1070
    46
1040
31.62120891653103
1000
ACAD_MTEXT_DEFINED_HEIGHT_END
  0
LEADER
  5
49B5
330
1F
100
AcDbEntity
  8
寸法
100
AcDbLeader
  3
ISO-25
 76
     3
 10
2211.654076190676
 20
2389.632807726206
 30
0.0
 10
2232.460743982291
 20
2389.632807726206
 30
0.0
 10
2232.460743982291
 20
2358.082675818938
 30
0.0
211
-1.0
221
0.0
231
0.0
1001
ACAD
1000
DSTYLE
1002
{
1070
   341
1005
10D7
1070
    41
1040
10.0
1070
   147
1040
0.625
1070
    77
1070
     0
1002
}
  0
MTEXT
  5
49B6
330
1F
100
AcDbEntity
  8
寸法
100
AcDbMText
 10
2247.305181448964
 20
2373.857741772571
 30
0.0
 40
19.99999999999999
 41
29.68887493334658
 71
     5
 72
     5
  1
a'
 73
     1
 44
1.0
1001
ACAD
1000
MTEXTBEGIN
1070
    73
1070
     1
1070
    44
1040
1.0
1070
    74
1070
     0
1000
MTEXTEND
1000
ACAD_MTEXT_DEFINED_HEIGHT_BEGIN
1070
    46
1040
31.55013190726822
1000
ACAD_MTEXT_DEFINED_HEIGHT_END
  0
LEADER
  5
49B7
330
1F
100
AcDbEntity
  8
寸法
100
AcDbLeader
  3
ISO-25
 76
     3
 10
1498.498945484617
 20
2540.987729739428
 30
0.0
 10
1498.498945484617
 20
2563.936520095432
 30
0.0
 10
1528.470022477744
 20
2563.936520095433
 30
0.0
1001
ACAD
1000
DSTYLE
1002
{
1070
   341
1005
10D7
1070
    41
1040
10.0
1070
   147
1040
0.625
1070
    77
1070
     0
1002
}
  0
MTEXT
  5
49B8
330
1F
100
AcDbEntity
  8
寸法
100
AcDbMText
 10
1513.48448398118
 20
2570.968952673268
 30
0.0
 40
10.0
 41
29.9710769931271
 71
     5
 72
     5
  1
b
 73
     1
 44
1.0
1001
ACAD
1000
MTEXTBEGIN
1070
    73
1070
     1
1070
    44
1040
1.0
1070
    74
1070
     0
1000
MTEXTEND
1000
ACAD_MTEXT_DEFINED_HEIGHT_BEGIN
1070
    46
1040
14.06486515567212
1000
ACAD_MTEXT_DEFINED_HEIGHT_END
  0
LEADER
  5
49B9
330
1F
100
AcDbEntity
  8
寸法
100
AcDbLeader
  3
ISO-25
 76
     3
 10
1498.498945484617
 20
2238.098599726589
 30
0.0
 10
1498.498945484617
 20
2215.149809370585
 30
0.0
 10
1528.470022477744
 20
2215.149809370584
 30
0.0
1001
ACAD
1000
DSTYLE
1002
{
1070
   341
1005
10D7
1070
    41
1040
10.0
1070
   147
1040
0.625
1070
    77
1070
     0
1002
}
  0
MTEXT
  5
49BA
330
1F
100
AcDbEntity
  8
寸法
100
AcDbMText
 10
1513.48448398118
 20
2208.117376792749
 30
0.0
 40
10.0
 41
29.9710769931271
 71
     5
 72
     5
  1
b
 73
     1
 44
1.0
1001
ACAD
1000
MTEXTBEGIN
1070
    73
1070
     1
1070
    44
1040
1.0
1070
    74
1070
     0
1000
MTEXTEND
1000
ACAD_MTEXT_DEFINED_HEIGHT_BEGIN
1070
    46
1040
14.06486515567212
1000
ACAD_MTEXT_DEFINED_HEIGHT_END
  0
LINE
  5
49C1
330
1F
100
AcDbEntity
  8
図
100
AcDbLine
 10
1495.800088449528
 20
2239.909163386517
 30
0.0
 11
2208.300088449528
 21
2239.909163386517
 31
0.0
  0
LINE
  5
49C3
330
1F
100
AcDbEntity
  8
図
100
AcDbLine
 10
1495.800088449528
 20
2538.909163386517
 30
0.0
 11
783.3000884495281
 21
2538.909163386517
 31
0.0
  0
LINE
  5
49C4
330
1F
100
AcDbEntity
  8
図
100
AcDbLine
 10
783.3000884495281
 20
2538.909163386517
 30
0.0
 11
783.3000884495281
 21
2239.909163386517
 31
0.0
  0
LINE
  5
49C5
330
1F
100
AcDbEntity
  8
図
100
AcDbLine
 10
826.3000884495282
 20
2239.909163386517
 30
0.0
 11
826.3000884495282
 21
2538.909163386517
 31
0.0
  0
LINE
  5
49C6
330
1F
100
AcDbEntity
  8
図
100
AcDbLine
 10
1495.800088449528
 20
2239.909163386517
 30
0.0
 11
783.3000884495281
 21
2239.909163386517
 31
0.0
  0
DIMENSION
  5
49C7
330
1F
100
AcDbEntity
  8
寸法
100
AcDbDimension
  2
*D14
 10
783.3000884495281
 20
2589.24438039825
 30
0.0
 11
804.8000884495282
 21
2589.24438039825
 31
0.0
 70
   160
 71
     5
 42
43.0
  3
ISO-25
100
AcDbAlignedDimension
 13
826.3000884495282
 23
2538.909163386517
 33
0.0
 14
783.3000884495281
 24
2538.909163386517
 34
0.0
 50
180.0
100
AcDbRotatedDimension
1001
ACAD
1000
DSTYLE
1002
{
1070
    41
1040
10.0
1070
    42
1040
30.0
1070
    44
1040
5.0
1070
   140
1040
20.0
1070
   147
1040
10.0
1002
}
  0
LINE
  5
49C8
330
1F
100
AcDbEntity
  8
図
100
AcDbLine
 10
1495.800088449528
 20
1688.909163386517
 30
0.0
 11
2208.300088449528
 21
1688.909163386517
 31
0.0
  0
LINE
  5
49C9
330
1F
100
AcDbEntity
  8
図
100
AcDbLine
 10
2208.300088449528
 20
1688.909163386517
 30
0.0
 11
2208.300088449528
 21
1389.909163386517
 31
0.0
  0
LINE
  5
49CA
330
1F
100
AcDbEntity
  8
影
100
AcDbLine
 10
2165.300088449528
 20
1389.909163386517
 30
0.0
 11
2165.300088449528
 21
1688.909163386517
 31
0.0
  0
LINE
  5
49CB
330
1F
100
AcDbEntity
  8
図
100
AcDbLine
 10
1495.800088449528
 20
1389.909163386517
 30
0.0
 11
2208.300088449528
 21
1389.909163386517
 31
0.0
  0
LINE
  5
49CC
330
1F
100
AcDbEntity
  8
図
100
AcDbLine
 10
1495.800088449528
 20
1688.909163386517
 30
0.0
 11
783.3000884495281
 21
1688.909163386517
 31
0.0
  0
LINE
  5
49CD
330
1F
100
AcDbEntity
  8
図
100
AcDbLine
 10
783.3000884495281
 20
1688.909163386517
 30
0.0
 11
783.3000884495281
 21
1389.909163386517
 31
0.0
  0
LINE
  5
49CE
330
1F
100
AcDbEntity
  8
影
100
AcDbLine
 10
826.3000884495282
 20
1389.909163386517
 30
0.0
 11
826.3000884495282
 21
1688.909163386517
 31
0.0
  0
LINE
  5
49CF
330
1F
100
AcDbEntity
  8
図
100
AcDbLine
 10
1495.800088449528
 20
1389.909163386517
 30
0.0
 11
783.3000884495281
 21
1389.909163386517
 31
0.0
  0
LINE
  5
49D4
330
1F
100
AcDbEntity
  8
図
100
AcDbLine
 10
1495.800088449528
 20
888.9091633865168
 30
0.0
 11
783.3000884495281
 21
888.9091633865168
 31
0.0
  0
LINE
  5
49D5
330
1F
100
AcDbEntity
  8
図
100
AcDbLine
 10
783.3000884495281
 20
888.9091633865168
 30
0.0
 11
783.3000884495281
 21
838.9091633865168
 31
0.0
  0
LINE
  5
49D6
330
1F
100
AcDbEntity
  8
図
100
AcDbLine
 10
783.3000884495281
 20
838.9091633865168
 30
0.0
 11
826.3000884495282
 21
833.9091633865168
 31
0.0
  0
LINE
  5
49D7
330
1F
100
AcDbEntity
  8
図
100
AcDbLine
 10
826.3000884495282
 20
833.9091633865168
 30
0.0
 11
826.3000884495282
 21
788.9091633865168
 31
0.0
  0
LINE
  5
49D8
330
1F
100
AcDbEntity
  8
図
100
AcDbLine
 10
826.3000884495282
 20
788.9091633865168
 30
0.0
 11
1495.800088449528
 21
788.9091633865168
 31
0.0
  0
LINE
  5
49D9
330
1F
100
AcDbEntity
  8
影
100
AcDbLine
 10
873.3000884495281
 20
888.9091633865168
 30
0.0
 11
928.3000884495281
 21
833.9091633865168
 31
0.0
  0
LINE
  5
49DA
330
1F
100
AcDbEntity
  8
影
100
AcDbLine
 10
928.3000884495281
 20
833.9091633865168
 30
0.0
 11
1495.800088449528
 21
833.9091633865168
 31
0.0
  0
DIMENSION
  5
49DB
330
1F
100
AcDbEntity
  8
寸法
100
AcDbDimension
  2
*D15
 10
928.3000884495281
 20
958.7888117376664
 30
0.0
 11
898.2633506117421
 21
958.7888117376664
 31
0.0
 70
   160
 71
     5
 42
55.0
  3
ISO-25
100
AcDbAlignedDimension
 13
873.3000884495281
 23
888.9091633865168
 33
0.0
 14
928.3000884495281
 24
833.9091633865168
 34
0.0
100
AcDbRotatedDimension
1001
ACAD
1000
DSTYLE
1002
{
1070
    41
1040
10.0
1070
    42
1040
30.0
1070
    44
1040
5.0
1070
   140
1040
20.0
1070
   147
1040
10.0
1002
}
  0
DIMENSION
  5
49DC
330
1F
100
AcDbEntity
  8
寸法
100
AcDbDimension
  2
*D16
 10
873.3000884495281
 20
958.7888117376664
 30
0.0
 11
828.3000884495281
 21
978.7888117376665
 31
0.0
 70
    32
 71
     5
 42
90.0
  3
ISO-25
100
AcDbAlignedDimension
 13
783.3000884495281
 23
888.9091633865168
 33
0.0
 14
873.3000884495281
 24
888.9091633865168
 34
0.0
100
AcDbRotatedDimension
1001
ACAD
1000
DSTYLE
1002
{
1070
    41
1040
10.0
1070
    42
1040
30.0
1070
    44
1040
5.0
1070
   140
1040
20.0
1070
   147
1040
10.0
1002
}
  0
DIMENSION
  5
49DD
330
1F
100
AcDbEntity
  8
寸法
100
AcDbDimension
  2
*D17
 10
826.3000884495282
 20
685.1537596384182
 30
0.0
 11
804.8000884495282
 21
685.1537596384182
 31
0.0
 70
   160
 71
     5
 42
43.0
  3
ISO-25
100
AcDbAlignedDimension
 13
783.3000884495281
 23
838.9091633865168
 33
0.0
 14
826.3000884495282
 24
788.9091633865168
 34
0.0
100
AcDbRotatedDimension
1001
ACAD
1000
DSTYLE
1002
{
1070
    41
1040
10.0
1070
    42
1040
30.0
1070
    44
1040
5.0
1070
   140
1040
20.0
1070
   147
1040
10.0
1002
}
  0
LINE
  5
49E2
330
1F
100
AcDbEntity
  8
図
100
AcDbLine
 10
2118.300088449528
 20
1648.909163386517
 30
0.0
 11
1495.800088449528
 21
1648.909163386517
 31
0.0
  0
LINE
  5
49E3
330
1F
100
AcDbEntity
  8
図
100
AcDbLine
 10
2118.300088449528
 20
1648.909163386517
 30
0.0
 11
2118.300088449528
 21
1429.909163386517
 31
0.0
  0
LINE
  5
49E4
330
1F
100
AcDbEntity
  8
図
100
AcDbLine
 10
2118.800088449528
 20
1429.909163386517
 30
0.0
 11
1495.800088449528
 21
1429.909163386517
 31
0.0
  0
LINE
  5
49E5
330
1F
100
AcDbEntity
  8
図
100
AcDbLine
 10
2063.300088449528
 20
1628.909163386517
 30
0.0
 11
2063.300088449528
 21
1449.909163386517
 31
0.0
  0
LINE
  5
49E6
330
1F
100
AcDbEntity
  8
図
100
AcDbLine
 10
2063.300088449528
 20
1449.909163386517
 30
0.0
 11
1495.800088449528
 21
1449.909163386517
 31
0.0
  0
LINE
  5
49E7
330
1F
100
AcDbEntity
  8
図
100
AcDbLine
 10
2063.300088449528
 20
1628.909163386517
 30
0.0
 11
1495.800088449528
 21
1628.909163386517
 31
0.0
  0
LINE
  5
49E8
330
1F
100
AcDbEntity
  8
図
100
AcDbLine
 10
2063.300088449528
 20
1628.909163386517
 30
0.0
 11
2118.300088449528
 21
1648.909163386517
 31
0.0
  0
LINE
  5
49E9
330
1F
100
AcDbEntity
  8
図
100
AcDbLine
 10
2063.300088449528
 20
1449.909163386517
 30
0.0
 11
2118.300088449528
 21
1429.909163386517
 31
0.0
  0
LINE
  5
49EA
330
1F
100
AcDbEntity
  8
図
100
AcDbLine
 10
873.3000884495281
 20
1648.909163386517
 30
0.0
 11
1495.800088449528
 21
1648.909163386517
 31
0.0
  0
LINE
  5
49EB
330
1F
100
AcDbEntity
  8
図
100
AcDbLine
 10
873.3000884495281
 20
1648.909163386517
 30
0.0
 11
873.3000884495281
 21
1429.909163386517
 31
0.0
  0
LINE
  5
49EC
330
1F
100
AcDbEntity
  8
図
100
AcDbLine
 10
872.8000884495282
 20
1429.909163386517
 30
0.0
 11
1495.800088449528
 21
1429.909163386517
 31
0.0
  0
LINE
  5
49ED
330
1F
100
AcDbEntity
  8
図
100
AcDbLine
 10
928.3000884495281
 20
1628.909163386517
 30
0.0
 11
928.3000884495281
 21
1449.909163386517
 31
0.0
  0
LINE
  5
49EE
330
1F
100
AcDbEntity
  8
図
100
AcDbLine
 10
928.3000884495281
 20
1449.909163386517
 30
0.0
 11
1495.800088449528
 21
1449.909163386517
 31
0.0
  0
LINE
  5
49EF
330
1F
100
AcDbEntity
  8
図
100
AcDbLine
 10
928.3000884495281
 20
1628.909163386517
 30
0.0
 11
1495.800088449528
 21
1628.909163386517
 31
0.0
  0
LINE
  5
49F0
330
1F
100
AcDbEntity
  8
図
100
AcDbLine
 10
928.3000884495281
 20
1628.909163386517
 30
0.0
 11
873.3000884495281
 21
1648.909163386517
 31
0.0
  0
LINE
  5
49F1
330
1F
100
AcDbEntity
  8
図
100
AcDbLine
 10
928.3000884495281
 20
1449.909163386517
 30
0.0
 11
873.3000884495281
 21
1429.909163386517
 31
0.0
  0
DIMENSION
  5
49F2
102
{ACAD_XDICTIONARY
360
49F3
102
}
102
{ACAD_REACTORS
330
49F4
102
}
330
1F
100
AcDbEntity
  8
寸法
100
AcDbDimension
  2
*D36
 10
2808.800088449528
 20
2133.425860779047
 30
0.0
 11
2758.800088449528
 21
2113.425860779047
 31
0.0
 70
    32
 71
     5
 42
100.0
  3
ISO-25
100
AcDbAlignedDimension
 13
2708.800088449529
 23
2239.909163386517
 33
0.0
 14
2808.800088449528
 24
2239.909163386517
 34
0.0
100
AcDbRotatedDimension
1001
ACAD
1000
DSTYLE
1002
{
1070
    41
1040
10.0
1070
    42
1040
30.0
1070
    44
1040
5.0
1070
   140
1040
20.0
1070
   147
1040
10.0
1002
}
  0
DIMENSION
  5
49FC
330
1F
100
AcDbEntity
  8
寸法
100
AcDbDimension
  2
*D37
 10
2290.670479172557
 20
679.0655248821649
 30
0.0
 11
2231.744342351257
 21
628.540837995605
 31
0.0
 70
    33
 71
     5
 42
150.0004478082323
  3
ISO-25
100
AcDbAlignedDimension
 13
2061.800088449528
 23
808.9091633865168
 33
0.0
 14
2196.985643678889
 24
873.9091633865168
 34
0.0
1001
ACAD
1000
DSTYLE
1002
{
1070
    41
1040
10.0
1070
    42
1040
30.0
1070
    44
1040
5.0
1070
   140
1040
20.0
1070
   147
1040
10.0
1002
}
  0
DIMENSION
  5
4A06
330
1F
100
AcDbEntity
  8
寸法
100
AcDbDimension
  2
*D38
 10
696.4505054469149
 20
669.7498003391701
 30
0.0
 11
755.3766422682156
 21
619.22511345261
 31
0.0
 70
    33
 71
     5
 42
150.0004478082328
  3
ISO-25
100
AcDbAlignedDimension
 13
929.8000884495282
 23
808.9091633865168
 33
0.0
 14
794.6145332201681
 24
873.9091633865168
 34
0.0
1001
ACAD
1000
DSTYLE
1002
{
1070
    41
1040
10.0
1070
    42
1040
30.0
1070
    44
1040
5.0
1070
   140
1040
20.0
1070
   147
1040
10.0
1002
}
  0
DIMENSION
  5
4A09
330
1F
100
AcDbEntity
  8
寸法
100
AcDbDimension
  2
*D39
 10
2061.800088449528
 20
740.1816421752223
 30
0.0
 11
1495.800088449528
 21
720.1816421752223
 31
0.0
 70
    32
 71
     5
 42
1132.0
  3
ISO-25
100
AcDbAlignedDimension
 13
929.8000884495282
 23
808.9091633865168
 33
0.0
 14
2061.800088449528
 24
808.9091633865168
 34
0.0
100
AcDbRotatedDimension
1001
ACAD
1000
DSTYLE
1002
{
1070
    41
1040
10.0
1070
    42
1040
30.0
1070
    44
1040
5.0
1070
   140
1040
20.0
1070
   147
1040
10.0
1002
}
  0
LINE
  5
4A0C
330
1F
100
AcDbEntity
  8
センター
100
AcDbLine
 10
1495.800088449528
 20
2568.909163386517
 30
0.0
 11
1495.800088449528
 21
2209.909163386517
 31
0.0
  0
DIMENSION
  5
4A11
330
1F
100
AcDbEntity
  8
寸法
100
AcDbDimension
  2
*D18
 10
2316.672115329845
 20
2239.909163386517
 30
0.0
 11
2336.672115329845
 21
2389.409163386517
 31
0.0
 70
    32
 71
     5
 42
299.0
  3
ISO-25
100
AcDbAlignedDimension
 13
2208.300088449529
 23
2538.909163386517
 33
0.0
 14
2208.300088449529
 24
2239.909163386517
 34
0.0
 50
90.0
100
AcDbRotatedDimension
1001
ACAD
1000
DSTYLE
1002
{
1070
    41
1040
10.0
1070
    42
1040
30.0
1070
    44
1040
5.0
1070
   140
1040
20.0
1070
   147
1040
10.0
1002
}
  0
MTEXT
  5
4A13
330
1F
100
AcDbEntity
  8
図文字
100
AcDbMText
 10
3280.926755327314
 20
1888.909163386517
 30
0.0
 40
30.0
 41
1426.0
 71
     5
 72
     5
  1
鉄筋メッシュ図
 73
     1
 44
1.0
1001
ACAD
1000
MTEXTBEGIN
1070
    73
1070
     1
1070
    44
1040
1.0
1070
    74
1070
     0
1000
MTEXTEND
1000
ACAD_MTEXT_DEFINED_HEIGHT_BEGIN
1070
    46
1040
100.0
1000
ACAD_MTEXT_DEFINED_HEIGHT_END
  0
DIMENSION
  5
4A1D
330
1F
100
AcDbEntity
  8
寸法
100
AcDbDimension
  2
*D19
 10
2208.300088449528
 20
1788.45085461361
 30
0.0
 11
1495.800088449528
 21
1808.45085461361
 31
0.0
 70
    32
 71
     5
 42
1425.0
  3
ISO-25
100
AcDbAlignedDimension
 13
783.3000884495281
 23
1688.909163386517
 33
0.0
 14
2208.300088449528
 24
1688.909163386517
 34
0.0
100
AcDbRotatedDimension
1001
ACAD
1000
DSTYLE
1002
{
1070
    41
1040
10.0
1070
    42
1040
30.0
1070
    44
1040
5.0
1070
   140
1040
20.0
1070
   147
1040
10.0
1002
}
  0
DIMENSION
  5
4A1E
330
1F
100
AcDbEntity
  8
寸法
100
AcDbDimension
  2
*D20
 10
2316.672115329845
 20
1389.909163386517
 30
0.0
 11
2336.672115329845
 21
1539.409163386517
 31
0.0
 70
    32
 71
     5
 42
299.0
  3
ISO-25
100
AcDbAlignedDimension
 13
2208.300088449529
 23
1688.909163386517
 33
0.0
 14
2208.300088449529
 24
1389.909163386517
 34
0.0
 50
90.0
100
AcDbRotatedDimension
1001
ACAD
1000
DSTYLE
1002
{
1070
    41
1040
10.0
1070
    42
1040
30.0
1070
    44
1040
5.0
1070
   140
1040
20.0
1070
   147
1040
10.0
1002
}
  0
ENDSEC
  0
SECTION
  2
OBJECTS
  0
DICTIONARY
  5
C
330
0
100
AcDbDictionary
281
     1
  3
ACAD_2007HEADERVARS_RT
350
4D6E
  3
ACAD_CIP_PREVIOUS_PRODUCT_INFO
350
4D11
  3
ACAD_COLOR
350
6B
  3
ACAD_GROUP
350
D
  3
ACAD_LAYOUT
350
1A
  3
ACAD_MATERIAL
350
6A
  3
ACAD_MLEADERSTYLE
350
4D0A
  3
ACAD_MLINESTYLE
350
17
  3
ACAD_PLOTSETTINGS
350
19
  3
ACAD_PLOTSTYLENAME
350
E
  3
ACAD_SCALELIST
350
4CF8
  3
ACAD_TABLESTYLE
350
7E
  3
ACAD_VISUALSTYLE
350
4CDF
  3
ACDB_RECOMPOSE_DATA
350
4D6C
  3
AcDbVariableDictionary
350
5E
  3
DWGPROPS
350
4D6D
  0
DICTIONARY
  5
101
330
2
100
AcDbDictionary
280
     1
281
     1
  3
ACAD_LAYERFILTERS
360
4625
  3
ACAD_LAYERSTATES
360
102
  3
ACLYDICTIONARY
360
4624
  0
DICTIONARY
  5
4D15
330
10
100
AcDbDictionary
280
     1
281
     1
  3
ADSK_XREC_LAYER_RECONCILED
360
4D16
  0
DICTIONARY
  5
4D17
330
FC
100
AcDbDictionary
280
     1
281
     1
  3
ADSK_XREC_LAYER_RECONCILED
360
4D18
  0
DICTIONARY
  5
4D19
330
FE
100
AcDbDictionary
280
     1
281
     1
  3
ADSK_XREC_LAYER_RECONCILED
360
4D1A
  0
DICTIONARY
  5
4D1B
330
FF
100
AcDbDictionary
280
     1
281
     1
  3
ADSK_XREC_LAYER_RECONCILED
360
4D1C
  0
DICTIONARY
  5
4D1D
330
14B
100
AcDbDictionary
280
     1
281
     1
  3
ADSK_XREC_LAYER_RECONCILED
360
4D1E
  0
DICTIONARY
  5
4D1F
330
14F
100
AcDbDictionary
280
     1
281
     1
  3
ADSK_XREC_LAYER_RECONCILED
360
4D20
  0
DICTIONARY
  5
4D21
330
1A4
100
AcDbDictionary
280
     1
281
     1
  3
ADSK_XREC_LAYER_RECONCILED
360
4D22
  0
DICTIONARY
  5
4D23
330
1A5
100
AcDbDictionary
280
     1
281
     1
  3
ADSK_XREC_LAYER_RECONCILED
360
4D24
  0
DICTIONARY
  5
4D25
330
1747
100
AcDbDictionary
280
     1
281
     1
  3
ADSK_XREC_LAYER_RECONCILED
360
4D26
  0
DICTIONARY
  5
4D27
330
1749
100
AcDbDictionary
280
     1
281
     1
  3
ADSK_XREC_LAYER_RECONCILED
360
4D28
  0
DICTIONARY
  5
4D29
330
47FA
100
AcDbDictionary
280
     1
281
     1
  3
ADSK_XREC_LAYER_RECONCILED
360
4D2A
  0
DICTIONARY
  5
4D2B
330
47FB
100
AcDbDictionary
280
     1
281
     1
  3
ADSK_XREC_LAYER_RECONCILED
360
4D2C
  0
DICTIONARY
  5
4D2D
330
47FC
100
AcDbDictionary
280
     1
281
     1
  3
ADSK_XREC_LAYER_RECONCILED
360
4D2E
  0
DICTIONARY
  5
C0A
330
1F
100
AcDbDictionary
280
     1
281
     1
  3
ACAD_SORTENTS
360
C0B
  0
DICTIONARY
  5
495E
330
495D
100
AcDbDictionary
280
     1
281
     1
  3
ACAD_DIMASSOC
360
495F
  0
DICTIONARY
  5
4961
330
4960
100
AcDbDictionary
280
     1
281
     1
  3
ACAD_DIMASSOC
360
4962
  0
DICTIONARY
  5
4964
330
4963
100
AcDbDictionary
280
     1
281
     1
  3
ACAD_DIMASSOC
360
4965
  0
DICTIONARY
  5
4969
330
4968
100
AcDbDictionary
280
     1
281
     1
  3
ACAD_DIMASSOC
360
496A
  0
DICTIONARY
  5
496E
330
496D
100
AcDbDictionary
280
     1
281
     1
  3
ACAD_DIMASSOC
360
496F
  0
DICTIONARY
  5
4971
330
4970
100
AcDbDictionary
280
     1
281
     1
  3
ACAD_DIMASSOC
360
4972
  0
DICTIONARY
  5
4975
330
4974
100
AcDbDictionary
280
     1
281
     1
  3
ACAD_DIMASSOC
360
4976
  0
DICTIONARY
  5
4978
330
4977
100
AcDbDictionary
280
     1
281
     1
  3
ACAD_DIMASSOC
360
4979
  0
DICTIONARY
  5
497B
330
497A
100
AcDbDictionary
280
     1
281
     1
  3
ACAD_DIMASSOC
360
497C
  0
DICTIONARY
  5
4985
330
4984
100
AcDbDictionary
280
     1
281
     1
  3
ACAD_DIMASSOC
360
4986
  0
DICTIONARY
  5
4989
330
4988
100
AcDbDictionary
280
     1
281
     1
  3
ACAD_DIMASSOC
360
498A
  0
DICTIONARY
  5
498F
330
498E
100
AcDbDictionary
280
     1
281
     1
  3
ACAD_DIMASSOC
360
4990
  0
DICTIONARY
  5
4995
330
4994
100
AcDbDictionary
280
     1
281
     1
  3
ACAD_DIMASSOC
360
4996
  0
DICTIONARY
  5
4998
330
4997
100
AcDbDictionary
280
     1
281
     1
  3
ACAD_DIMASSOC
360
4999
  0
DICTIONARY
  5
499B
330
499A
100
AcDbDictionary
280
     1
281
     1
  3
ACAD_DIMASSOC
360
499C
  0
DICTIONARY
  5
49F3
330
49F2
100
AcDbDictionary
280
     1
281
     1
  3
ACAD_DIMASSOC
360
49F4
  0
DICTIONARY
  5
4D6E
102
{ACAD_REACTORS
330
C
102
}
330
C
100
AcDbDictionary
281
     1
  3
DIMFXL
350
4D6F
  3
DIMJOGANG
350
4D70
  0
XRECORD
  5
4D11
102
{ACAD_REACTORS
330
C
102
}
330
C
100
AcDbXrecord
280
     1
300
ACD
300
2012
300
ACD_F_S
  0
DICTIONARY
  5
6B
102
{ACAD_REACTORS
330
C
102
}
330
C
100
AcDbDictionary
281
     1
  0
DICTIONARY
  5
D
102
{ACAD_REACTORS
330
C
102
}
330
C
100
AcDbDictionary
281
     1
  0
DICTIONARY
  5
1A
102
{ACAD_REACTORS
330
C
102
}
330
C
100
AcDbDictionary
281
     1
  3
Model
350
22
  3
レイアウト1
350
D3
  3
レイアウト2
350
D7
  0
DICTIONARY
  5
6A
102
{ACAD_REACTORS
330
C
102
}
330
C
100
AcDbDictionary
281
     1
  3
ByBlock
350
4CCF
  3
ByLayer
350
4CC7
  3
Global
350
4CD7
  0
DICTIONARY
  5
4D0A
102
{ACAD_REACTORS
330
C
102
}
330
C
100
AcDbDictionary
281
     1
  3
Standard
350
4D0B
  0
DICTIONARY
  5
17
102
{ACAD_REACTORS
330
C
102
}
330
C
100
AcDbDictionary
281
     1
  3
Standard
350
18
  0
DICTIONARY
  5
19
102
{ACAD_REACTORS
330
C
102
}
330
C
100
AcDbDictionary
281
     1
  0
ACDBDICTIONARYWDFLT
  5
E
102
{ACAD_REACTORS
330
C
102
}
330
C
100
AcDbDictionary
281
     1
  3
Normal
350
F
100
AcDbDictionaryWithDefault
340
F
  0
DICTIONARY
  5
4CF8
102
{ACAD_REACTORS
330
C
102
}
330
C
100
AcDbDictionary
281
     1
  3
A0
350
4CF9
  3
A1
350
4CFA
  3
A2
350
4CFB
  3
A3
350
4CFC
  3
A4
350
4CFD
  3
A5
350
4CFE
  3
A6
350
4CFF
  3
A7
350
4D00
  3
A8
350
4D01
  3
A9
350
4D02
  3
B0
350
4D03
  3
B1
350
4D04
  3
B2
350
4D05
  3
B3
350
4D06
  3
B4
350
4D07
  3
B5
350
4D08
  3
B6
350
4D09
  0
DICTIONARY
  5
7E
102
{ACAD_REACTORS
330
C
102
}
330
C
100
AcDbDictionary
281
     1
  3
Standard
350
7F
  0
DICTIONARY
  5
4CDF
102
{ACAD_REACTORS
330
C
102
}
330
C
100
AcDbDictionary
281
     1
  3
2dWireframe
350
4CE5
  3
Basic
350
4CE4
  3
Brighten
350
4CEB
  3
ColorChange
350
4CEF
  3
Conceptual
350
4CE8
  3
Dim
350
4CEA
  3
EdgeColorOff
350
4CF7
  3
Facepattern
350
4CEE
  3
Flat
350
4CE0
  3
FlatWithEdges
350
4CE1
  3
Gouraud
350
4CE2
  3
GouraudWithEdges
350
4CE3
  3
Hidden
350
4CE7
  3
JitterOff
350
4CF5
  3
Linepattern
350
4CED
  3
OverhangOff
350
4CF6
  3
Realistic
350
4CE9
  3
Shaded
350
4CF4
  3
Shaded with edges
350
4CF3
  3
Shades of Gray
350
4CF0
  3
Sketchy
350
4CF1
  3
Thicken
350
4CEC
  3
Wireframe
350
4CE6
  3
X-Ray
350
4CF2
  0
XRECORD
  5
4D6C
102
{ACAD_REACTORS
330
C
102
}
330
C
100
AcDbXrecord
280
     1
 90
        1
330
7F
  0
DICTIONARY
  5
5E
102
{ACAD_REACTORS
330
C
102
}
330
C
100
AcDbDictionary
281
     1
  3
CANNOSCALE
350
4D3D
  3
CMLEADERSTYLE
350
4D3B
  3
CTABLESTYLE
350
84
  3
DIMASSOC
350
5F
  3
HIDETEXT
350
63
  3
INDEXCTL
350
4D66
  3
LAYEREVAL
350
4D3F
  3
LAYERNOTIFY
350
4D40
  3
LIGHTINGUNITS
350
4D3E
  3
MSLTSCALE
350
4D3C
  3
SORTENTS
350
4D65
  3
XCLIPFRAME
350
4D67
  0
XRECORD
  5
4D6D
102
{ACAD_REACTORS
330
C
102
}
330
C
100
AcDbXrecord
280
     1
  1
DWGPROPS COOKIE
  2

  3

  4

  6

  7

  8
tom
  9

300
=
301
=
302
=
303
=
304
=
305
=
306
=
307
=
308
=
309
=
 40
0.2590390509259259
 41
2454427.395492431
 42
2457014.684649213
  1

 90
        0
  0
DICTIONARY
  5
4625
102
{ACAD_REACTORS
330
101
102
}
330
101
100
AcDbDictionary
281
     1
  0
DICTIONARY
  5
102
102
{ACAD_REACTORS
330
101
102
}
330
101
100
AcDbDictionary
281
     1
  0
DICTIONARY
  5
4624
102
{ACAD_REACTORS
330
101
102
}
330
101
100
AcDbDictionary
281
     1
1001
ACAD
1000
<All
  0
XRECORD
  5
4D16
102
{ACAD_REACTORS
330
4D15
102
}
330
4D15
100
AcDbXrecord
280
     1
290
     1
  0
XRECORD
  5
4D18
102
{ACAD_REACTORS
330
4D17
102
}
330
4D17
100
AcDbXrecord
280
     1
290
     1
  0
XRECORD
  5
4D1A
102
{ACAD_REACTORS
330
4D19
102
}
330
4D19
100
AcDbXrecord
280
     1
290
     1
  0
XRECORD
  5
4D1C
102
{ACAD_REACTORS
330
4D1B
102
}
330
4D1B
100
AcDbXrecord
280
     1
290
     1
  0
XRECORD
  5
4D1E
102
{ACAD_REACTORS
330
4D1D
102
}
330
4D1D
100
AcDbXrecord
280
     1
290
     1
  0
XRECORD
  5
4D20
102
{ACAD_REACTORS
330
4D1F
102
}
330
4D1F
100
AcDbXrecord
280
     1
290
     1
  0
XRECORD
  5
4D22
102
{ACAD_REACTORS
330
4D21
102
}
330
4D21
100
AcDbXrecord
280
     1
290
     1
  0
XRECORD
  5
4D24
102
{ACAD_REACTORS
330
4D23
102
}
330
4D23
100
AcDbXrecord
280
     1
290
     1
  0
XRECORD
  5
4D26
102
{ACAD_REACTORS
330
4D25
102
}
330
4D25
100
AcDbXrecord
280
     1
290
     1
  0
XRECORD
  5
4D28
102
{ACAD_REACTORS
330
4D27
102
}
330
4D27
100
AcDbXrecord
280
     1
290
     1
  0
XRECORD
  5
4D2A
102
{ACAD_REACTORS
330
4D29
102
}
330
4D29
100
AcDbXrecord
280
     1
290
     1
  0
XRECORD
  5
4D2C
102
{ACAD_REACTORS
330
4D2B
102
}
330
4D2B
100
AcDbXrecord
280
     1
290
     1
  0
XRECORD
  5
4D2E
102
{ACAD_REACTORS
330
4D2D
102
}
330
4D2D
100
AcDbXrecord
280
     1
290
     1
  0
SORTENTSTABLE
  5
C0B
102
{ACAD_REACTORS
330
C0A
102
}
330
C0A
100
AcDbSortentsTable
330
1F
331
124
  5
225C
331
135
  5
2265
331
133
  5
2263
331
129
  5
2261
331
163
  5
43E1
331
127
  5
225F
331
138
  5
43D7
331
136
  5
2266
331
125
  5
225D
331
123
  5
225B
331
134
  5
2264
331
132
  5
2262
331
128
  5
2260
331
139
  5
43E0
331
137
  5
2267
331
126
  5
225E
  0
DIMASSOC
  5
495F
102
{ACAD_REACTORS
330
495E
102
}
330
495E
100
AcDbDimAssoc
330
495D
 90
        2
 70
     0
 71
     0
  1
AcDbOsnapPointRef
 72
    13
331
4950
 73
     2
 91
        0
 40
0.0
 10
0.0
 20
0.0
 30
2.000000000000000E+50
 75
     0
  0
DIMASSOC
  5
4962
102
{ACAD_REACTORS
330
4961
102
}
330
4961
100
AcDbDimAssoc
330
4960
 90
        2
 70
     0
 71
     0
  1
AcDbOsnapPointRef
 72
     1
331
495C
 73
     2
 91
        0
 40
1.0
 10
0.0
 20
0.0
 30
2.000000000000000E+50
 75
     0
  0
DIMASSOC
  5
4965
102
{ACAD_REACTORS
330
4964
102
}
330
4964
100
AcDbDimAssoc
330
4963
 90
        3
 70
     0
 71
     0
  1
AcDbOsnapPointRef
 72
     1
331
495C
 73
     2
 91
        0
 40
1.0
 10
0.0
 20
0.0
 30
2.000000000000000E+50
 75
     0
  1
AcDbOsnapPointRef
 72
    13
331
4950
 73
     2
 91
        0
 40
0.0
 10
0.0
 20
0.0
 30
2.000000000000000E+50
 75
     0
  0
DIMASSOC
  5
496A
102
{ACAD_REACTORS
330
4969
102
}
330
4969
100
AcDbDimAssoc
330
4968
 90
        2
 70
     0
 71
     0
  1
AcDbOsnapPointRef
 72
    13
331
4959
 73
     2
 91
        0
 40
0.0
 10
0.0
 20
0.0
 30
2.000000000000000E+50
 75
     0
  0
DIMASSOC
  5
496F
102
{ACAD_REACTORS
330
496E
102
}
330
496E
100
AcDbDimAssoc
330
496D
 90
        2
 70
     0
 71
     0
  1
AcDbOsnapPointRef
 72
    13
331
4954
 73
     2
 91
        0
 40
0.0
 10
0.0
 20
0.0
 30
2.000000000000000E+50
 75
     0
  0
DIMASSOC
  5
4972
102
{ACAD_REACTORS
330
4971
102
}
330
4971
100
AcDbDimAssoc
330
4970
 90
        2
 70
     0
 71
     0
  1
AcDbOsnapPointRef
 72
    13
331
4957
 73
     2
 91
        0
 40
0.0
 10
0.0
 20
0.0
 30
2.000000000000000E+50
 75
     0
  0
DIMASSOC
  5
4976
102
{ACAD_REACTORS
330
4975
102
}
330
4975
100
AcDbDimAssoc
330
4974
 90
        1
 70
     0
 71
     0
  1
AcDbOsnapPointRef
 72
    13
331
4957
 73
     2
 91
        0
 40
0.0
 10
0.0
 20
0.0
 30
2.000000000000000E+50
 75
     0
  0
DIMASSOC
  5
4979
102
{ACAD_REACTORS
330
4978
102
}
330
4978
100
AcDbDimAssoc
330
4977
 90
        3
 70
     0
 71
     0
  1
AcDbOsnapPointRef
 72
    13
331
4956
 73
     2
 91
        0
 40
0.0
 10
0.0
 20
0.0
 30
2.000000000000000E+50
 75
     0
  1
AcDbOsnapPointRef
 72
    13
331
4955
 73
     2
 91
        0
 40
0.0
 10
0.0
 20
0.0
 30
2.000000000000000E+50
 75
     0
  0
DIMASSOC
  5
497C
102
{ACAD_REACTORS
330
497B
102
}
330
497B
100
AcDbDimAssoc
330
497A
 90
        3
 70
     0
 71
     0
  1
AcDbOsnapPointRef
 72
    13
331
4955
 73
     2
 91
        0
 40
0.0
 10
0.0
 20
0.0
 30
2.000000000000000E+50
 75
     0
  1
AcDbOsnapPointRef
 72
    13
331
4954
 73
     2
 91
        0
 40
0.0
 10
0.0
 20
0.0
 30
2.000000000000000E+50
 75
     0
  0
DIMASSOC
  5
4986
102
{ACAD_REACTORS
330
4985
102
}
330
4985
100
AcDbDimAssoc
330
4984
 90
        3
 70
     0
 71
     0
  1
AcDbOsnapPointRef
 72
    13
331
494B
 73
     2
 91
        0
 40
0.0
 10
0.0
 20
0.0
 30
2.000000000000000E+50
 75
     0
  1
AcDbOsnapPointRef
 72
    13
331
494A
 73
     2
 91
        0
 40
0.0
 10
0.0
 20
0.0
 30
2.000000000000000E+50
 75
     0
  0
DIMASSOC
  5
498A
102
{ACAD_REACTORS
330
4989
102
}
330
4989
100
AcDbDimAssoc
330
4988
 90
        2
 70
     0
 71
     0
  1
AcDbOsnapPointRef
 72
    13
331
4948
 73
     2
 91
        0
 40
0.0
 10
0.0
 20
0.0
 30
2.000000000000000E+50
 75
     0
  0
DIMASSOC
  5
4990
102
{ACAD_REACTORS
330
498F
102
}
330
498F
100
AcDbDimAssoc
330
498E
 90
        2
 70
     0
 71
     0
  1
AcDbOsnapPointRef
 72
    13
331
494D
 73
     2
 91
        0
 40
0.0
 10
0.0
 20
0.0
 30
2.000000000000000E+50
 75
     0
  0
DIMASSOC
  5
4996
102
{ACAD_REACTORS
330
4995
102
}
330
4995
100
AcDbDimAssoc
330
4994
 90
        2
 70
     0
 71
     0
  1
AcDbOsnapPointRef
 72
     1
331
4940
 73
     2
 91
        2
 40
1.0
 10
0.0
 20
0.0
 30
2.000000000000000E+50
 75
     0
  0
DIMASSOC
  5
4999
102
{ACAD_REACTORS
330
4998
102
}
330
4998
100
AcDbDimAssoc
330
4997
 90
        3
 70
     0
 71
     0
  1
AcDbOsnapPointRef
 72
    13
331
4940
 73
     2
 91
        1
 40
0.0
 10
0.0
 20
0.0
 30
2.000000000000000E+50
 75
     0
  1
AcDbOsnapPointRef
 72
     1
331
4940
 73
     2
 91
        1
 40
1.0
 10
0.0
 20
0.0
 30
2.000000000000000E+50
 75
     0
  0
DIMASSOC
  5
499C
102
{ACAD_REACTORS
330
499B
102
}
330
499B
100
AcDbDimAssoc
330
499A
 90
        1
 70
     0
 71
     0
  1
AcDbOsnapPointRef
 72
    13
331
4954
 73
     2
 91
        0
 40
0.0
 10
0.0
 20
0.0
 30
2.000000000000000E+50
 75
     0
  0
DIMASSOC
  5
49F4
102
{ACAD_REACTORS
330
49F3
102
}
330
49F3
100
AcDbDimAssoc
330
49F2
 90
        3
 70
     0
 71
     0
  1
AcDbOsnapPointRef
 72
    13
331
494E
 73
     2
 91
        0
 40
0.0
 10
0.0
 20
0.0
 30
2.000000000000000E+50
 75
     0
  1
AcDbOsnapPointRef
 72
    13
331
494D
 73
     2
 91
        0
 40
0.0
 10
0.0
 20
0.0
 30
2.000000000000000E+50
 75
     0
  0
XRECORD
  5
4D6F
102
{ACAD_REACTORS
330
4D6E
102
}
330
4D6E
100
AcDbXrecord
280
     1
 40
1.25
  0
XRECORD
  5
4D70
102
{ACAD_REACTORS
330
4D6E
102
}
330
4D6E
100
AcDbXrecord
280
     1
 40
1.570796326794896
  0
LAYOUT
  5
22
102
{ACAD_XDICTIONARY
360
4D36
102
}
102
{ACAD_REACTORS
330
1A
102
}
330
1A
100
AcDbPlotSettings
  1

  2
RICOH imagio Neo 353D RPCS
  4
A3
  6

 40
5.873749732971191
 41
5.873747825622558
 42
5.873748779296875
 43
5.873748779296875
 44
296.9259948730469
 45
419.9466552734374
 46
-5.910751819610595
 47
-5.900420665740966
 48
82.80008844952817
 49
88.90916338651733
140
4282.800088449529
141
3058.909163386517
142
1.0
143
10.0
 70
 11956
 72
     1
 73
     1
 74
     4
  7
monochrome.ctb
 75
    20
147
0.1
148
-82.80008844952817
149
-88.90916338651733
100
AcDbLayout
  1
Model
 70
     1
 71
     0
 10
0.0
 20
0.0
 11
12.0
 21
9.0
 12
0.0
 22
0.0
 32
0.0
 14
0.0
 24
0.0
 34
0.0
 15
0.0
 25
0.0
 35
0.0
146
0.0
 13
0.0
 23
0.0
 33
0.0
 16
1.0
 26
0.0
 36
0.0
 17
0.0
 27
1.0
 37
0.0
 76
     0
330
1F
331
4CC5
1001
ACAD_PSEXT
1000
RICOH imagio Neo 353D RPCS
1000
RICOH imagio Neo 353D RPCS
1000
IP_200.100.10.111
1000
RPCS Driver (Windows 2000/XP/Server 2003/2008/Vista/7)
1070
     0
  0
LAYOUT
  5
D3
102
{ACAD_XDICTIONARY
360
4D73
102
}
102
{ACAD_REACTORS
330
1A
102
}
330
1A
100
AcDbPlotSettings
  1

  2
C:\Documents and Settings\basas\Application Data\Autodesk\AutoCAD 2005\R16.1\enu\plotters\Default Windows System Printer.pc3
  4

  6

 40
0.0
 41
0.0
 42
0.0
 43
0.0
 44
0.0
 45
0.0
 46
0.0
 47
0.0
 48
0.0
 49
0.0
140
0.0
141
0.0
142
1.0
143
1.0
 70
   688
 72
     0
 73
     0
 74
     5
  7
monochrome.ctb
 75
    16
147
1.0
148
0.0
149
0.0
100
AcDbLayout
  1
レイアウト1
 70
     1
 71
     1
 10
0.0
 20
0.0
 11
12.0
 21
9.0
 12
0.0
 22
0.0
 32
0.0
 14
0.0
 24
0.0
 34
0.0
 15
0.0
 25
0.0
 35
0.0
146
0.0
 13
0.0
 23
0.0
 33
0.0
 16
1.0
 26
0.0
 36
0.0
 17
0.0
 27
1.0
 37
0.0
 76
     0
330
D2
  0
LAYOUT
  5
D7
102
{ACAD_XDICTIONARY
360
4D75
102
}
102
{ACAD_REACTORS
330
1A
102
}
330
1A
100
AcDbPlotSettings
  1

  2
C:\Documents and Settings\basas\Application Data\Autodesk\AutoCAD 2005\R16.1\enu\plotters\Default Windows System Printer.pc3
  4

  6

 40
0.0
 41
0.0
 42
0.0
 43
0.0
 44
0.0
 45
0.0
 46
0.0
 47
0.0
 48
0.0
 49
0.0
140
0.0
141
0.0
142
1.0
143
1.0
 70
   688
 72
     0
 73
     0
 74
     5
  7
monochrome.ctb
 75
    16
147
1.0
148
0.0
149
0.0
100
AcDbLayout
  1
レイアウト2
 70
     1
 71
     2
 10
0.0
 20
0.0
 11
12.0
 21
9.0
 12
0.0
 22
0.0
 32
0.0
 14
0.0
 24
0.0
 34
0.0
 15
0.0
 25
0.0
 35
0.0
146
0.0
 13
0.0
 23
0.0
 33
0.0
 16
1.0
 26
0.0
 36
0.0
 17
0.0
 27
1.0
 37
0.0
 76
     0
330
D6
  0
MATERIAL
  5
4CCF
102
{ACAD_XDICTIONARY
360
4CD0
102
}
102
{ACAD_REACTORS
330
6A
102
}
330
6A
100
AcDbMaterial
  1
ByBlock
 72
     0
 43
0.0008202099737533
 43
0.0
 43
0.0
 43
0.0
 43
0.0
 43
0.0008202099737533
 43
0.0
 43
0.0
 43
0.0
 43
0.0
 43
1.0
 43
0.0
 43
0.0
 43
0.0
 43
0.0
 43
1.0
 77
     0
 47
0.0008202099737533
 47
0.0
 47
0.0
 47
0.0
 47
0.0
 47
0.0008202099737533
 47
0.0
 47
0.0
 47
0.0
 47
0.0
 47
1.0
 47
0.0
 47
0.0
 47
0.0
 47
0.0
 47
1.0
171
     0
 49
0.0008202099737533
 49
0.0
 49
0.0
 49
0.0
 49
0.0
 49
0.0008202099737533
 49
0.0
 49
0.0
 49
0.0
 49
0.0
 49
1.0
 49
0.0
 49
0.0
 49
0.0
 49
0.0
 49
1.0
175
     0
142
0.0008202099737533
142
0.0
142
0.0
142
0.0
142
0.0
142
0.0008202099737533
142
0.0
142
0.0
142
0.0
142
0.0
142
1.0
142
0.0
142
0.0
142
0.0
142
0.0
142
1.0
179
     0
144
0.0008202099737533
144
0.0
144
0.0
144
0.0
144
0.0
144
0.0008202099737533
144
0.0
144
0.0
144
0.0
144
0.0
144
1.0
144
0.0
144
0.0
144
0.0
144
0.0
144
1.0
147
0.0008202099737533
147
0.0
147
0.0
147
0.0
147
0.0
147
0.0008202099737533
147
0.0
147
0.0
147
0.0
147
0.0
147
1.0
147
0.0
147
0.0
147
0.0
147
0.0
147
1.0
  0
MATERIAL
  5
4CC7
102
{ACAD_XDICTIONARY
360
4CC8
102
}
102
{ACAD_REACTORS
330
6A
102
}
330
6A
100
AcDbMaterial
  1
ByLayer
 72
     0
 43
0.0008202099737533
 43
0.0
 43
0.0
 43
0.0
 43
0.0
 43
0.0008202099737533
 43
0.0
 43
0.0
 43
0.0
 43
0.0
 43
1.0
 43
0.0
 43
0.0
 43
0.0
 43
0.0
 43
1.0
 77
     0
 47
0.0008202099737533
 47
0.0
 47
0.0
 47
0.0
 47
0.0
 47
0.0008202099737533
 47
0.0
 47
0.0
 47
0.0
 47
0.0
 47
1.0
 47
0.0
 47
0.0
 47
0.0
 47
0.0
 47
1.0
171
     0
 49
0.0008202099737533
 49
0.0
 49
0.0
 49
0.0
 49
0.0
 49
0.0008202099737533
 49
0.0
 49
0.0
 49
0.0
 49
0.0
 49
1.0
 49
0.0
 49
0.0
 49
0.0
 49
0.0
 49
1.0
175
     0
142
0.0008202099737533
142
0.0
142
0.0
142
0.0
142
0.0
142
0.0008202099737533
142
0.0
142
0.0
142
0.0
142
0.0
142
1.0
142
0.0
142
0.0
142
0.0
142
0.0
142
1.0
179
     0
144
0.0008202099737533
144
0.0
144
0.0
144
0.0
144
0.0
144
0.0008202099737533
144
0.0
144
0.0
144
0.0
144
0.0
144
1.0
144
0.0
144
0.0
144
0.0
144
0.0
144
1.0
147
0.0008202099737533
147
0.0
147
0.0
147
0.0
147
0.0
147
0.0008202099737533
147
0.0
147
0.0
147
0.0
147
0.0
147
1.0
147
0.0
147
0.0
147
0.0
147
0.0
147
1.0
  0
MATERIAL
  5
4CD7
102
{ACAD_XDICTIONARY
360
4CD8
102
}
102
{ACAD_REACTORS
330
6A
102
}
330
6A
100
AcDbMaterial
  1
Global
 72
     0
 43
0.0008202099737533
 43
0.0
 43
0.0
 43
0.0
 43
0.0
 43
0.0008202099737533
 43
0.0
 43
0.0
 43
0.0
 43
0.0
 43
1.0
 43
0.0
 43
0.0
 43
0.0
 43
0.0
 43
1.0
 77
     0
 47
0.0008202099737533
 47
0.0
 47
0.0
 47
0.0
 47
0.0
 47
0.0008202099737533
 47
0.0
 47
0.0
 47
0.0
 47
0.0
 47
1.0
 47
0.0
 47
0.0
 47
0.0
 47
0.0
 47
1.0
171
     0
 49
0.0008202099737533
 49
0.0
 49
0.0
 49
0.0
 49
0.0
 49
0.0008202099737533
 49
0.0
 49
0.0
 49
0.0
 49
0.0
 49
1.0
 49
0.0
 49
0.0
 49
0.0
 49
0.0
 49
1.0
175
     0
142
0.0008202099737533
142
0.0
142
0.0
142
0.0
142
0.0
142
0.0008202099737533
142
0.0
142
0.0
142
0.0
142
0.0
142
1.0
142
0.0
142
0.0
142
0.0
142
0.0
142
1.0
179
     0
144
0.0008202099737533
144
0.0
144
0.0
144
0.0
144
0.0
144
0.0008202099737533
144
0.0
144
0.0
144
0.0
144
0.0
144
1.0
144
0.0
144
0.0
144
0.0
144
0.0
144
1.0
147
0.0008202099737533
147
0.0
147
0.0
147
0.0
147
0.0
147
0.0008202099737533
147
0.0
147
0.0
147
0.0
147
0.0
147
1.0
147
0.0
147
0.0
147
0.0
147
0.0
147
1.0
  0
MLEADERSTYLE
  5
4D0B
102
{ACAD_XDICTIONARY
360
4D6A
102
}
102
{ACAD_REACTORS
330
4D0A
102
}
330
4D0A
100
AcDbMLeaderStyle
170
     2
171
     1
172
     0
 90
        2
 40
0.0
 41
0.0
173
     1
 91
-1056964608
340
14
 92
       -2
290
     1
 42
2.0
291
     1
 43
0.36
  3
Standard
 44
4.0
300

342
11
174
     1
178
     6
175
     1
176
     0
 93
-1056964608
 45
4.0
292
     0
297
     0
 46
4.0
 94
-1056964608
 47
1.0
 49
1.0
140
1.0
293
     1
141
0.0
294
     1
177
     0
142
1.0
295
     0
296
     0
143
0.125
1001
ACAD_MLEADERVER
1070
     2
  0
MLINESTYLE
  5
18
102
{ACAD_REACTORS
330
17
102
}
330
17
100
AcDbMlineStyle
  2
STANDARD
 70
     0
  3

 62
   256
 51
90.0
 52
90.0
 71
     2
 49
0.5
 62
   256
  6
BYLAYER
 49
-0.5
 62
   256
  6
BYLAYER
  0
ACDBPLACEHOLDER
  5
F
102
{ACAD_REACTORS
330
E
102
}
330
E
  0
SCALE
  5
4CF9
102
{ACAD_REACTORS
330
4CF8
102
}
330
4CF8
100
AcDbScale
 70
     0
300
1:1
140
1.0
141
1.0
290
     1
  0
SCALE
  5
4CFA
102
{ACAD_REACTORS
330
4CF8
102
}
330
4CF8
100
AcDbScale
 70
     0
300
1:2
140
1.0
141
2.0
290
     0
  0
SCALE
  5
4CFB
102
{ACAD_REACTORS
330
4CF8
102
}
330
4CF8
100
AcDbScale
 70
     0
300
1:4
140
1.0
141
4.0
290
     0
  0
SCALE
  5
4CFC
102
{ACAD_REACTORS
330
4CF8
102
}
330
4CF8
100
AcDbScale
 70
     0
300
1:5
140
1.0
141
5.0
290
     0
  0
SCALE
  5
4CFD
102
{ACAD_REACTORS
330
4CF8
102
}
330
4CF8
100
AcDbScale
 70
     0
300
1:8
140
1.0
141
8.0
290
     0
  0
SCALE
  5
4CFE
102
{ACAD_REACTORS
330
4CF8
102
}
330
4CF8
100
AcDbScale
 70
     0
300
1:10
140
1.0
141
10.0
290
     0
  0
SCALE
  5
4CFF
102
{ACAD_REACTORS
330
4CF8
102
}
330
4CF8
100
AcDbScale
 70
     0
300
1:16
140
1.0
141
16.0
290
     0
  0
SCALE
  5
4D00
102
{ACAD_REACTORS
330
4CF8
102
}
330
4CF8
100
AcDbScale
 70
     0
300
1:20
140
1.0
141
20.0
290
     0
  0
SCALE
  5
4D01
102
{ACAD_REACTORS
330
4CF8
102
}
330
4CF8
100
AcDbScale
 70
     0
300
1:30
140
1.0
141
30.0
290
     0
  0
SCALE
  5
4D02
102
{ACAD_REACTORS
330
4CF8
102
}
330
4CF8
100
AcDbScale
 70
     0
300
1:40
140
1.0
141
40.0
290
     0
  0
SCALE
  5
4D03
102
{ACAD_REACTORS
330
4CF8
102
}
330
4CF8
100
AcDbScale
 70
     0
300
1:50
140
1.0
141
50.0
290
     0
  0
SCALE
  5
4D04
102
{ACAD_REACTORS
330
4CF8
102
}
330
4CF8
100
AcDbScale
 70
     0
300
1:100
140
1.0
141
100.0
290
     0
  0
SCALE
  5
4D05
102
{ACAD_REACTORS
330
4CF8
102
}
330
4CF8
100
AcDbScale
 70
     0
300
2:1
140
2.0
141
1.0
290
     0
  0
SCALE
  5
4D06
102
{ACAD_REACTORS
330
4CF8
102
}
330
4CF8
100
AcDbScale
 70
     0
300
4:1
140
4.0
141
1.0
290
     0
  0
SCALE
  5
4D07
102
{ACAD_REACTORS
330
4CF8
102
}
330
4CF8
100
AcDbScale
 70
     0
300
8:1
140
8.0
141
1.0
290
     0
  0
SCALE
  5
4D08
102
{ACAD_REACTORS
330
4CF8
102
}
330
4CF8
100
AcDbScale
 70
     0
300
10:1
140
10.0
141
1.0
290
     0
  0
SCALE
  5
4D09
102
{ACAD_REACTORS
330
4CF8
102
}
330
4CF8
100
AcDbScale
 70
     0
300
100:1
140
100.0
141
1.0
290
     0
  0
TABLESTYLE
  5
7F
102
{ACAD_XDICTIONARY
360
4D68
102
}
102
{ACAD_REACTORS
330
7E
102
}
330
7E
100
AcDbTableStyle
  3
Standard
 70
     0
 71
     0
 40
1.5
 41
1.5
280
     0
281
     0
  7
Standard
140
4.5
170
     2
 62
     0
 63
     7
283
     0
274
    -2
284
     1
 64
     0
275
    -2
285
     1
 65
     0
276
    -2
286
     1
 66
     0
277
    -2
287
     1
 67
     0
278
    -2
288
     1
 68
     0
279
    -2
289
     1
 69
     0
  7
Standard
140
6.0
170
     5
 62
     0
 63
     7
283
     0
274
    -2
284
     1
 64
     0
275
    -2
285
     1
 65
     0
276
    -2
286
     1
 66
     0
277
    -2
287
     1
 67
     0
278
    -2
288
     1
 68
     0
279
    -2
289
     1
 69
     0
  7
Standard
140
4.5
170
     5
 62
     0
 63
     7
283
     0
274
    -2
284
     1
 64
     0
275
    -2
285
     1
 65
     0
276
    -2
286
     1
 66
     0
277
    -2
287
     1
 67
     0
278
    -2
288
     1
 68
     0
279
    -2
289
     1
 69
     0
  0
VISUALSTYLE
  5
4CE5
102
{ACAD_XDICTIONARY
360
4D84
102
}
102
{ACAD_REACTORS
330
4CDF
102
}
330
4CDF
100
AcDbVisualStyle
  2
2dWireframe
 70
     4
 71
     0
 72
     2
 73
     0
 90
        0
 40
-0.6
 41
-30.0
 62
     5
 63
     7
 74
     1
 91
        4
 64
     7
 65
   257
 75
     1
175
     1
 42
1.0
 92
        0
 66
   257
 43
1.0
 76
     1
 77
     6
 78
     2
 67
     7
 79
     5
170
     0
171
     0
290
     0
174
     0
 93
        1
 44
0.0
173
     0
291
     0
 45
0.0
1001
ACAD
1000
AcDbSavedByObjectVersion
1070
     0
  0
VISUALSTYLE
  5
4CE4
102
{ACAD_XDICTIONARY
360
4D82
102
}
102
{ACAD_REACTORS
330
4CDF
102
}
330
4CDF
100
AcDbVisualStyle
  2
Basic
 70
     7
 71
     1
 72
     0
 73
     1
 90
        0
 40
-0.6
 41
-30.0
 62
     5
 63
     7
 74
     0
 91
        4
 64
     7
 65
   257
 75
     1
175
     1
 42
1.0
 92
        8
 66
     7
 43
1.0
 76
     1
 77
     6
 78
     2
 67
     7
 79
     5
170
     0
171
     0
290
     0
174
     0
 93
        1
 44
0.0
173
     0
291
     1
 45
0.0
1001
ACAD
1000
AcDbSavedByObjectVersion
1070
     0
  0
VISUALSTYLE
  5
4CEB
102
{ACAD_XDICTIONARY
360
4D90
102
}
102
{ACAD_REACTORS
330
4CDF
102
}
330
4CDF
100
AcDbVisualStyle
  2
Brighten
 70
    12
 71
     2
 72
     2
 73
     0
 90
        0
 40
-0.6
 41
-30.0
 62
     5
 63
     7
 74
     1
 91
        4
 64
     7
 65
   257
 75
     1
175
     1
 42
1.0
 92
        8
 66
     7
 43
1.0
 76
     1
 77
     6
 78
     2
 67
     7
 79
     5
170
     0
171
     0
290
     0
174
     0
 93
        1
 44
50.0
173
     0
291
     1
 45
0.0
1001
ACAD
1000
AcDbSavedByObjectVersion
1070
     0
  0
VISUALSTYLE
  5
4CEF
102
{ACAD_XDICTIONARY
360
4D98
102
}
102
{ACAD_REACTORS
330
4CDF
102
}
330
4CDF
100
AcDbVisualStyle
  2
ColorChange
 70
    16
 71
     2
 72
     2
 73
     3
 90
        0
 40
-0.6
 41
-30.0
 62
     5
 63
     8
 74
     1
 91
        4
 64
     7
 65
   257
 75
     1
175
     1
 42
1.0
 92
        8
 66
     8
 43
1.0
 76
     1
 77
     6
 78
     2
 67
     7
 79
     5
170
     0
171
     0
290
     0
174
     0
 93
        1
 44
0.0
173
     0
291
     1
 45
0.0
1001
ACAD
1000
AcDbSavedByObjectVersion
1070
     0
  0
VISUALSTYLE
  5
4CE8
102
{ACAD_XDICTIONARY
360
4D8A
102
}
102
{ACAD_REACTORS
330
4CDF
102
}
330
4CDF
100
AcDbVisualStyle
  2
Conceptual
 70
     9
 71
     3
 72
     2
 73
     0
 90
        0
 40
-0.6
 41
-30.0
 62
     5
 63
     7
 74
     2
 91
        2
 64
     7
 65
   257
 75
     1
175
     1
 42
179.0
 92
        8
 66
     7
 43
1.0
 76
     1
 77
     6
 78
     2
 67
     7
 79
     3
170
     0
171
     0
290
     0
174
     0
 93
        1
 44
0.0
173
     0
291
     0
 45
0.0
1001
ACAD
1000
AcDbSavedByObjectVersion
1070
     0
  0
VISUALSTYLE
  5
4CEA
102
{ACAD_XDICTIONARY
360
4D8E
102
}
102
{ACAD_REACTORS
330
4CDF
102
}
330
4CDF
100
AcDbVisualStyle
  2
Dim
 70
    11
 71
     2
 72
     2
 73
     0
 90
        0
 40
-0.6
 41
-30.0
 62
     5
 63
     7
 74
     1
 91
        4
 64
     7
 65
   257
 75
     1
175
     1
 42
1.0
 92
        8
 66
     7
 43
1.0
 76
     1
 77
     6
 78
     2
 67
     7
 79
     5
170
     0
171
     0
290
     0
174
     0
 93
        1
 44
-50.0
173
     0
291
     1
 45
0.0
1001
ACAD
1000
AcDbSavedByObjectVersion
1070
     0
  0
VISUALSTYLE
  5
4CF7
102
{ACAD_XDICTIONARY
360
4DA8
102
}
102
{ACAD_REACTORS
330
4CDF
102
}
330
4CDF
100
AcDbVisualStyle
  2
EdgeColorOff
 70
    22
 71
     2
 72
     2
 73
     0
 90
        0
 40
-0.6
 41
-30.0
 62
     5
 63
     7
 74
     1
 91
        4
 64
     7
 65
   257
 75
     1
175
     1
 42
1.0
 92
        8
 66
     7
 43
1.0
 76
     1
 77
     6
 78
     2
 67
     7
 79
     5
170
     0
171
     0
290
     0
174
     0
 93
        1
 44
0.0
173
     0
291
     1
 45
0.0
1001
ACAD
1000
AcDbSavedByObjectVersion
1070
     0
  0
VISUALSTYLE
  5
4CEE
102
{ACAD_XDICTIONARY
360
4D96
102
}
102
{ACAD_REACTORS
330
4CDF
102
}
330
4CDF
100
AcDbVisualStyle
  2
Facepattern
 70
    15
 71
     2
 72
     2
 73
     0
 90
        0
 40
-0.6
 41
-30.0
 62
     5
 63
     7
 74
     1
 91
        4
 64
     7
 65
   257
 75
     1
175
     1
 42
1.0
 92
        8
 66
     7
 43
1.0
 76
     1
 77
     6
 78
     2
 67
     7
 79
     5
170
     0
171
     0
290
     0
174
     0
 93
        1
 44
0.0
173
     0
291
     1
 45
0.0
1001
ACAD
1000
AcDbSavedByObjectVersion
1070
     0
  0
VISUALSTYLE
  5
4CE0
102
{ACAD_XDICTIONARY
360
4D7A
102
}
102
{ACAD_REACTORS
330
4CDF
102
}
330
4CDF
100
AcDbVisualStyle
  2
Flat
 70
     0
 71
     2
 72
     1
 73
     1
 90
        2
 40
-0.6
 41
30.0
 62
     5
 63
     7
 74
     0
 91
        0
 64
     7
 65
   257
 75
     1
175
     1
 42
1.0
 92
        8
 66
     7
 43
1.0
 76
     1
 77
     6
 78
     2
 67
     7
 79
     5
170
     0
171
     0
290
     0
174
     0
 93
       13
 44
0.0
173
     0
291
     1
 45
0.0
1001
ACAD
1000
AcDbSavedByObjectVersion
1070
     0
  0
VISUALSTYLE
  5
4CE1
102
{ACAD_XDICTIONARY
360
4D7C
102
}
102
{ACAD_REACTORS
330
4CDF
102
}
330
4CDF
100
AcDbVisualStyle
  2
FlatWithEdges
 70
     1
 71
     2
 72
     1
 73
     1
 90
        2
 40
-0.6
 41
30.0
 62
     5
 63
     7
 74
     1
 91
        0
 64
     7
 65
   257
 75
     1
175
     1
 42
1.0
 92
        0
 66
   257
 43
1.0
 76
     1
 77
     6
 78
     2
 67
     7
 79
     5
170
     0
171
     0
290
     0
174
     0
 93
       13
 44
0.0
173
     0
291
     1
 45
0.0
1001
ACAD
1000
AcDbSavedByObjectVersion
1070
     0
  0
VISUALSTYLE
  5
4CE2
102
{ACAD_XDICTIONARY
360
4D7E
102
}
102
{ACAD_REACTORS
330
4CDF
102
}
330
4CDF
100
AcDbVisualStyle
  2
Gouraud
 70
     2
 71
     2
 72
     2
 73
     1
 90
        2
 40
-0.6
 41
30.0
 62
     5
 63
     7
 74
     0
 91
        0
 64
     7
 65
   257
 75
     1
175
     1
 42
1.0
 92
        0
 66
     7
 43
1.0
 76
     1
 77
     6
 78
     2
 67
     7
 79
     5
170
     0
171
     0
290
     0
174
     0
 93
       13
 44
0.0
173
     0
291
     1
 45
0.0
1001
ACAD
1000
AcDbSavedByObjectVersion
1070
     0
  0
VISUALSTYLE
  5
4CE3
102
{ACAD_XDICTIONARY
360
4D80
102
}
102
{ACAD_REACTORS
330
4CDF
102
}
330
4CDF
100
AcDbVisualStyle
  2
GouraudWithEdges
 70
     3
 71
     2
 72
     2
 73
     1
 90
        2
 40
-0.6
 41
30.0
 62
     5
 63
     7
 74
     1
 91
        0
 64
     7
 65
   257
 75
     1
175
     1
 42
1.0
 92
        0
 66
   257
 43
1.0
 76
     1
 77
     6
 78
     2
 67
     7
 79
     5
170
     0
171
     0
290
     0
174
     0
 93
       13
 44
0.0
173
     0
291
     1
 45
0.0
1001
ACAD
1000
AcDbSavedByObjectVersion
1070
     0
  0
VISUALSTYLE
  5
4CE7
102
{ACAD_XDICTIONARY
360
4D88
102
}
102
{ACAD_REACTORS
330
4CDF
102
}
330
4CDF
100
AcDbVisualStyle
  2
Hidden
 70
     6
 71
     1
 72
     2
 73
     2
 90
        0
 40
-0.6
 41
-30.0
 62
     5
 63
     7
 74
     2
 91
        2
 64
     7
 65
   257
 75
     2
175
     1
 42
40.0
 92
        0
 66
   257
 43
1.0
 76
     1
 77
     6
 78
     2
 67
     7
 79
     3
170
     0
171
     0
290
     0
174
     0
 93
        1
 44
0.0
173
     0
291
     0
 45
0.0
1001
ACAD
1000
AcDbSavedByObjectVersion
1070
     0
  0
VISUALSTYLE
  5
4CF5
102
{ACAD_XDICTIONARY
360
4DA4
102
}
102
{ACAD_REACTORS
330
4CDF
102
}
330
4CDF
100
AcDbVisualStyle
  2
JitterOff
 70
    20
 71
     2
 72
     2
 73
     0
 90
        0
 40
-0.6
 41
-30.0
 62
     5
 63
     7
 74
     1
 91
        4
 64
     7
 65
   257
 75
     1
175
     1
 42
1.0
 92
       10
 66
     7
 43
1.0
 76
     1
 77
     6
 78
     2
 67
     7
 79
     5
170
     0
171
     0
290
     0
174
     0
 93
        1
 44
0.0
173
     0
291
     1
 45
0.0
1001
ACAD
1000
AcDbSavedByObjectVersion
1070
     0
  0
VISUALSTYLE
  5
4CED
102
{ACAD_XDICTIONARY
360
4D94
102
}
102
{ACAD_REACTORS
330
4CDF
102
}
330
4CDF
100
AcDbVisualStyle
  2
Linepattern
 70
    14
 71
     2
 72
     2
 73
     0
 90
        0
 40
-0.6
 41
-30.0
 62
     5
 63
     7
 74
     1
 91
        4
 64
     7
 65
   257
 75
     7
175
     7
 42
1.0
 92
        8
 66
     7
 43
1.0
 76
     1
 77
     6
 78
     2
 67
     7
 79
     5
170
     0
171
     0
290
     0
174
     0
 93
        1
 44
0.0
173
     0
291
     1
 45
0.0
1001
ACAD
1000
AcDbSavedByObjectVersion
1070
     0
  0
VISUALSTYLE
  5
4CF6
102
{ACAD_XDICTIONARY
360
4DA6
102
}
102
{ACAD_REACTORS
330
4CDF
102
}
330
4CDF
100
AcDbVisualStyle
  2
OverhangOff
 70
    21
 71
     2
 72
     2
 73
     0
 90
        0
 40
-0.6
 41
-30.0
 62
     5
 63
     7
 74
     1
 91
        4
 64
     7
 65
   257
 75
     1
175
     1
 42
1.0
 92
        9
 66
     7
 43
1.0
 76
     1
 77
     6
 78
     2
 67
     7
 79
     5
170
     0
171
     0
290
     0
174
     0
 93
        1
 44
0.0
173
     0
291
     1
 45
0.0
1001
ACAD
1000
AcDbSavedByObjectVersion
1070
     0
  0
VISUALSTYLE
  5
4CE9
102
{ACAD_XDICTIONARY
360
4D8C
102
}
102
{ACAD_REACTORS
330
4CDF
102
}
330
4CDF
100
AcDbVisualStyle
  2
Realistic
 70
     8
 71
     2
 72
     3
 73
     0
 90
        2
 40
-0.6
 41
30.0
 62
     5
 63
     7
 74
     0
 91
        0
 64
     7
 65
   257
 75
     1
175
     1
 42
1.0
 92
        8
 66
   257
 43
1.0
 76
     1
 77
     6
 78
     2
 67
     7
 79
     3
170
     0
171
     0
290
     0
174
     0
 93
       13
 44
0.0
173
     0
291
     0
 45
0.0
1001
ACAD
1000
AcDbSavedByObjectVersion
1070
     0
  0
VISUALSTYLE
  5
4CF4
102
{ACAD_XDICTIONARY
360
4DA2
102
}
102
{ACAD_REACTORS
330
4CDF
102
}
330
4CDF
100
AcDbVisualStyle
  2
Shaded
 70
    27
 71
     2
 72
     2
 73
     1
 90
        2
 40
-0.6
 41
30.0
 62
     5
 63
     7
 74
     0
 91
        4
 64
     7
 65
   257
 75
     1
175
     1
 42
1.0
 92
        8
 66
   257
 43
1.0
 76
     1
 77
     6
 78
     2
 67
     8
 79
     3
170
     0
171
     0
290
     0
174
     0
 93
        5
 44
0.0
173
     0
291
     0
 45
0.0
1001
ACAD
1000
AcDbSavedByObjectVersion
1070
     0
  0
VISUALSTYLE
  5
4CF3
102
{ACAD_XDICTIONARY
360
4DA0
102
}
102
{ACAD_REACTORS
330
4CDF
102
}
330
4CDF
100
AcDbVisualStyle
  2
Shaded with edges
 70
    26
 71
     2
 72
     2
 73
     1
 90
        2
 40
-0.6
 41
30.0
 62
     5
 63
     7
 74
     1
 91
       10
 64
     7
 65
   257
 75
     2
175
     1
 42
1.0
 92
        8
 66
   257
 43
1.0
 76
     1
 77
     6
 78
     2
 67
     7
 79
     3
170
     0
171
     0
290
     0
174
     0
 93
        5
 44
0.0
173
     0
291
     0
 45
0.0
1001
ACAD
1000
AcDbSavedByObjectVersion
1070
     0
  0
VISUALSTYLE
  5
4CF0
102
{ACAD_XDICTIONARY
360
4D9A
102
}
102
{ACAD_REACTORS
330
4CDF
102
}
330
4CDF
100
AcDbVisualStyle
  2
Shades of Gray
 70
    23
 71
     2
 72
     2
 73
     3
 90
        0
 40
-0.6
 41
-30.0
 62
     5
 63
     7
 74
     2
 91
        2
 64
     7
 65
     7
 75
     1
175
     1
 42
40.0
 92
        8
 66
     7
 43
1.0
 76
     1
 77
     6
 78
     2
 67
     7
 79
     3
170
     0
171
     0
290
     0
174
     0
 93
        1
 44
0.0
173
     0
291
     0
 45
0.0
1001
ACAD
1000
AcDbSavedByObjectVersion
1070
     0
  0
VISUALSTYLE
  5
4CF1
102
{ACAD_XDICTIONARY
360
4D9C
102
}
102
{ACAD_REACTORS
330
4CDF
102
}
330
4CDF
100
AcDbVisualStyle
  2
Sketchy
 70
    24
 71
     1
 72
     2
 73
     2
 90
        0
 40
-0.6
 41
-30.0
 62
     5
 63
     7
 74
     2
 91
        2
 64
     7
 65
     7
 75
     1
175
     1
 42
40.0
 92
       11
 66
     7
 43
1.0
 76
     1
 77
     6
 78
     2
 67
     7
 79
     6
170
     0
171
     0
290
     0
174
     0
 93
        1
 44
0.0
173
     0
291
     0
 45
0.0
1001
ACAD
1000
AcDbSavedByObjectVersion
1070
     0
  0
VISUALSTYLE
  5
4CEC
102
{ACAD_XDICTIONARY
360
4D92
102
}
102
{ACAD_REACTORS
330
4CDF
102
}
330
4CDF
100
AcDbVisualStyle
  2
Thicken
 70
    13
 71
     2
 72
     2
 73
     0
 90
        0
 40
-0.6
 41
-30.0
 62
     5
 63
     7
 74
     1
 91
        4
 64
     7
 65
   257
 75
     1
175
     1
 42
1.0
 92
       12
 66
     7
 43
1.0
 76
     1
 77
     6
 78
     2
 67
     7
 79
     5
170
     0
171
     0
290
     0
174
     0
 93
        1
 44
0.0
173
     0
291
     1
 45
0.0
1001
ACAD
1000
AcDbSavedByObjectVersion
1070
     0
  0
VISUALSTYLE
  5
4CE6
102
{ACAD_XDICTIONARY
360
4D86
102
}
102
{ACAD_REACTORS
330
4CDF
102
}
330
4CDF
100
AcDbVisualStyle
  2
Wireframe
 70
     5
 71
     0
 72
     2
 73
     0
 90
        0
 40
-0.6
 41
-30.0
 62
     5
 63
     7
 74
     1
 91
        4
 64
     7
 65
   257
 75
     1
175
     1
 42
1.0
 92
        0
 66
   257
 43
1.0
 76
     1
 77
     6
 78
     2
 67
     7
 79
     3
170
     0
171
     0
290
     0
174
     0
 93
        1
 44
0.0
173
     0
291
     0
 45
0.0
1001
ACAD
1000
AcDbSavedByObjectVersion
1070
     0
  0
VISUALSTYLE
  5
4CF2
102
{ACAD_XDICTIONARY
360
4D9E
102
}
102
{ACAD_REACTORS
330
4CDF
102
}
330
4CDF
100
AcDbVisualStyle
  2
X-Ray
 70
    25
 71
     2
 72
     2
 73
     1
 90
        1
 40
0.5
 41
-30.0
 62
     5
 63
     7
 74
     1
 91
        0
 64
     7
 65
   257
 75
     1
175
     1
 42
1.0
 92
        8
 66
     7
 43
1.0
 76
     1
 77
     6
 78
     2
 67
     7
 79
     3
170
     0
171
     0
290
     0
174
     0
 93
       13
 44
0.0
173
     0
291
     0
 45
0.0
1001
ACAD
1000
AcDbSavedByObjectVersion
1070
     0
  0
DICTIONARYVAR
  5
4D3D
102
{ACAD_REACTORS
330
5E
102
}
330
5E
100
DictionaryVariables
280
     0
  1
1:1
  0
DICTIONARYVAR
  5
4D3B
102
{ACAD_REACTORS
330
5E
102
}
330
5E
100
DictionaryVariables
280
     0
  1
STANDARD
  0
DICTIONARYVAR
  5
84
102
{ACAD_REACTORS
330
5E
102
}
330
5E
100
DictionaryVariables
280
     0
  1
STANDARD
  0
DICTIONARYVAR
  5
5F
102
{ACAD_REACTORS
330
5E
102
}
330
5E
100
DictionaryVariables
280
     0
  1
2
  0
DICTIONARYVAR
  5
63
102
{ACAD_REACTORS
330
5E
102
}
330
5E
100
DictionaryVariables
280
     0
  1
1
  0
DICTIONARYVAR
  5
4D66
102
{ACAD_REACTORS
330
5E
102
}
330
5E
100
DictionaryVariables
280
     0
  1
0
  0
DICTIONARYVAR
  5
4D3F
102
{ACAD_REACTORS
330
5E
102
}
330
5E
100
DictionaryVariables
280
     0
  1
1
  0
DICTIONARYVAR
  5
4D40
102
{ACAD_REACTORS
330
5E
102
}
330
5E
100
DictionaryVariables
280
     0
  1
15
  0
DICTIONARYVAR
  5
4D3E
102
{ACAD_REACTORS
330
5E
102
}
330
5E
100
DictionaryVariables
280
     0
  1
0
  0
DICTIONARYVAR
  5
4D3C
102
{ACAD_REACTORS
330
5E
102
}
330
5E
100
DictionaryVariables
280
     0
  1
0
  0
DICTIONARYVAR
  5
4D65
102
{ACAD_REACTORS
330
5E
102
}
330
5E
100
DictionaryVariables
280
     0
  1
127
  0
DICTIONARYVAR
  5
4D67
102
{ACAD_REACTORS
330
5E
102
}
330
5E
100
DictionaryVariables
280
     0
  1
0
  0
DICTIONARY
  5
4D36
330
22
100
AcDbDictionary
280
     1
281
     1
  3
ACAD_XREC_ROUNDTRIP
360
4D71
  3
ADSK_XREC_LAYOUTTHUMBNAIL
360
4D37
  0
DICTIONARY
  5
4D73
330
D3
100
AcDbDictionary
280
     1
281
     1
  3
ACAD_XREC_ROUNDTRIP
360
4D74
  0
DICTIONARY
  5
4D75
330
D7
100
AcDbDictionary
280
     1
281
     1
  3
ACAD_XREC_ROUNDTRIP
360
4D76
  0
DICTIONARY
  5
4CD0
330
4CCF
100
AcDbDictionary
280
     1
281
     1
  3
ACAD_XREC_ROUNDTRIP
360
4D78
  3
BUMPTILE
360
4CD2
  3
DIFFUSETILE
360
4CD1
  3
OPACITYTILE
360
4CD5
  3
REFLECTIONTILE
360
4CD4
  3
REFRACTIONTILE
360
4CD6
  3
SPECULARTILE
360
4CD3
  0
DICTIONARY
  5
4CC8
330
4CC7
100
AcDbDictionary
280
     1
281
     1
  3
ACAD_XREC_ROUNDTRIP
360
4D77
  3
BUMPTILE
360
4CCA
  3
DIFFUSETILE
360
4CC9
  3
OPACITYTILE
360
4CCD
  3
REFLECTIONTILE
360
4CCC
  3
REFRACTIONTILE
360
4CCE
  3
SPECULARTILE
360
4CCB
  0
DICTIONARY
  5
4CD8
330
4CD7
100
AcDbDictionary
280
     1
281
     1
  3
ACAD_XREC_ROUNDTRIP
360
4D79
  3
BUMPTILE
360
4CDA
  3
DIFFUSETILE
360
4CD9
  3
OPACITYTILE
360
4CDD
  3
REFLECTIONTILE
360
4CDC
  3
REFRACTIONTILE
360
4CDE
  3
SPECULARTILE
360
4CDB
  0
DICTIONARY
  5
4D6A
330
4D0B
100
AcDbDictionary
280
     1
281
     1
  3
ACAD_XREC_ROUNDTRIP
360
4D6B
  0
DICTIONARY
  5
4D68
330
7F
100
AcDbDictionary
280
     1
281
     1
  3
ACAD_ROUNDTRIP_2008_TABLESTYLE_CELLSTYLEMAP
360
4D69
  3
ACAD_XREC_ROUNDTRIP
360
4D72
  0
DICTIONARY
  5
4D84
330
4CE5
100
AcDbDictionary
280
     1
281
     1
  3
ACAD_XREC_ROUNDTRIP
360
4D85
  0
DICTIONARY
  5
4D82
330
4CE4
100
AcDbDictionary
280
     1
281
     1
  3
ACAD_XREC_ROUNDTRIP
360
4D83
  0
DICTIONARY
  5
4D90
330
4CEB
100
AcDbDictionary
280
     1
281
     1
  3
ACAD_XREC_ROUNDTRIP
360
4D91
  0
DICTIONARY
  5
4D98
330
4CEF
100
AcDbDictionary
280
     1
281
     1
  3
ACAD_XREC_ROUNDTRIP
360
4D99
  0
DICTIONARY
  5
4D8A
330
4CE8
100
AcDbDictionary
280
     1
281
     1
  3
ACAD_XREC_ROUNDTRIP
360
4D8B
  0
DICTIONARY
  5
4D8E
330
4CEA
100
AcDbDictionary
280
     1
281
     1
  3
ACAD_XREC_ROUNDTRIP
360
4D8F
  0
DICTIONARY
  5
4DA8
330
4CF7
100
AcDbDictionary
280
     1
281
     1
  3
ACAD_XREC_ROUNDTRIP
360
4DA9
  0
DICTIONARY
  5
4D96
330
4CEE
100
AcDbDictionary
280
     1
281
     1
  3
ACAD_XREC_ROUNDTRIP
360
4D97
  0
DICTIONARY
  5
4D7A
330
4CE0
100
AcDbDictionary
280
     1
281
     1
  3
ACAD_XREC_ROUNDTRIP
360
4D7B
  0
DICTIONARY
  5
4D7C
330
4CE1
100
AcDbDictionary
280
     1
281
     1
  3
ACAD_XREC_ROUNDTRIP
360
4D7D
  0
DICTIONARY
  5
4D7E
330
4CE2
100
AcDbDictionary
280
     1
281
     1
  3
ACAD_XREC_ROUNDTRIP
360
4D7F
  0
DICTIONARY
  5
4D80
330
4CE3
100
AcDbDictionary
280
     1
281
     1
  3
ACAD_XREC_ROUNDTRIP
360
4D81
  0
DICTIONARY
  5
4D88
330
4CE7
100
AcDbDictionary
280
     1
281
     1
  3
ACAD_XREC_ROUNDTRIP
360
4D89
  0
DICTIONARY
  5
4DA4
330
4CF5
100
AcDbDictionary
280
     1
281
     1
  3
ACAD_XREC_ROUNDTRIP
360
4DA5
  0
DICTIONARY
  5
4D94
330
4CED
100
AcDbDictionary
280
     1
281
     1
  3
ACAD_XREC_ROUNDTRIP
360
4D95
  0
DICTIONARY
  5
4DA6
330
4CF6
100
AcDbDictionary
280
     1
281
     1
  3
ACAD_XREC_ROUNDTRIP
360
4DA7
  0
DICTIONARY
  5
4D8C
330
4CE9
100
AcDbDictionary
280
     1
281
     1
  3
ACAD_XREC_ROUNDTRIP
360
4D8D
  0
DICTIONARY
  5
4DA2
330
4CF4
100
AcDbDictionary
280
     1
281
     1
  3
ACAD_XREC_ROUNDTRIP
360
4DA3
  0
DICTIONARY
  5
4DA0
330
4CF3
100
AcDbDictionary
280
     1
281
     1
  3
ACAD_XREC_ROUNDTRIP
360
4DA1
  0
DICTIONARY
  5
4D9A
330
4CF0
100
AcDbDictionary
280
     1
281
     1
  3
ACAD_XREC_ROUNDTRIP
360
4D9B
  0
DICTIONARY
  5
4D9C
330
4CF1
100
AcDbDictionary
280
     1
281
     1
  3
ACAD_XREC_ROUNDTRIP
360
4D9D
  0
DICTIONARY
  5
4D92
330
4CEC
100
AcDbDictionary
280
     1
281
     1
  3
ACAD_XREC_ROUNDTRIP
360
4D93
  0
DICTIONARY
  5
4D86
330
4CE6
100
AcDbDictionary
280
     1
281
     1
  3
ACAD_XREC_ROUNDTRIP
360
4D87
  0
DICTIONARY
  5
4D9E
330
4CF2
100
AcDbDictionary
280
     1
281
     1
  3
ACAD_XREC_ROUNDTRIP
360
4D9F
  0
XRECORD
  5
4D71
102
{ACAD_REACTORS
330
4D36
102
}
330
4D36
100
AcDbXrecord
280
     1
102
SHADEPLOT
 70
     0
102
SHADEPLOTRESLEVEL
 70
     2
102
SHADEPLOTCUSTOMDPI
 70
   300
  0
XRECORD
  5
4D37
102
{ACAD_REACTORS
330
4D36
102
}
330
4D36
100
AcDbXrecord
280
     1
310
28000000000100009E0000000100080000000000009E0000000000000000000000010000000000003028210000000000C8C8C8000000000000000000000000000000000000000000000000000000000000000000330000006600000099000000CC000000FF00000000330000333300006633000099330000CC330000FF3300
310
0000660000336600006666000099660000CC660000FF66000000990000339900006699000099990000CC990000FF99000000CC000033CC000066CC000099CC0000CCCC0000FFCC000000FF000033FF000066FF000099FF0000CCFF0000FFFF000000003300330033006600330099003300CC003300FF003300003333003333
310
33006633330099333300CC333300FF33330000663300336633006666330099663300CC663300FF66330000993300339933006699330099993300CC993300FF99330000CC330033CC330066CC330099CC3300CCCC3300FFCC330000FF330033FF330066FF330099FF3300CCFF3300FFFF330000006600330066006600660099
310
006600CC006600FF00660000336600333366006633660099336600CC336600FF33660000666600336666006666660099666600CC666600FF66660000996600339966006699660099996600CC996600FF99660000CC660033CC660066CC660099CC6600CCCC6600FFCC660000FF660033FF660066FF660099FF6600CCFF6600
310
FFFF660000009900330099006600990099009900CC009900FF00990000339900333399006633990099339900CC339900FF33990000669900336699006666990099669900CC669900FF66990000999900339999006699990099999900CC999900FF99990000CC990033CC990066CC990099CC9900CCCC9900FFCC990000FF99
310
0033FF990066FF990099FF9900CCFF9900FFFF99000000CC003300CC006600CC009900CC00CC00CC00FF00CC000033CC003333CC006633CC009933CC00CC33CC00FF33CC000066CC003366CC006666CC009966CC00CC66CC00FF66CC000099CC003399CC006699CC009999CC00CC99CC00FF99CC0000CCCC0033CCCC0066CC
310
CC0099CCCC00CCCCCC00FFCCCC0000FFCC0033FFCC0066FFCC0099FFCC00CCFFCC00FFFFCC000000FF003300FF006600FF009900FF00CC00FF00FF00FF000033FF003333FF006633FF009933FF00CC33FF00FF33FF000066FF003366FF006666FF009966FF00CC66FF00FF66FF000099FF003399FF006699FF009999FF00CC
310
99FF00FF99FF0000CCFF0033CCFF0066CCFF0099CCFF00CCCCFF00FFCCFF0000FFFF0033FFFF0066FFFF0099FFFF00CCFFFF00FFFFFF00000000000D0D0D001A1A1A00282828003535350043434300505050005D5D5D006B6B6B00787878008686860093939300A1A1A100AEAEAE00BBBBBB00C9C9C900D6D6D600E4E4E400
310
F1F1F100FFFFFF000000000000000000000000000000000000000000000000000000000000000000000000000000000000000000000000000000000000000000000000000000000000000000000000000000000000000000000000000000000000000000000000000000000000000000000000000000000000000000000000
310
00000000000000000000000000000000000000000000000000000000000000000000000000000000000000000000000000000000000000000000000000000000000000000000000000000000000000000000000000000000000000000000000000000000000000000000000000000000000000000000000000000000000000
310
00000000000000000000000000000000000000000000000000000000000000000000000000000000000000000000000000000000000000000000000000000000000000BEBEBEBEBEBEBEBEBEBEBEBEBEBEBEBEBEBEBEBEBEBEBEBEBEBEBEBEBEBEBEBEBEBEBEBEBEBEBEBEBEBEBEBEBEBEBEBEBEBEBEBEBEBEBEBEBEBEBEBE
310
BEBEBEBEBEBEBEBEBEBEBEBEBEBEBEBEBEBEBEBEBEBEBEBEBEBEBEBEBEBEBEBEBEBEBEBEBEBEBEBEBEBEBEBEBEBEBEBEBEBEBEBEBEBEBEBEBEBEBEBEBEBEBEBEBEBEBEBEBEBEBEBEBEBEBEBEBEBEBEBEBEBEBEBEBEBEBEBEBEBEBEBEBEBEBEBEBEBEBEBEBEBEBEBEBEBEBEBEBEBEBEBEBEBEBEBEBEBEBEBEBEBEBEBEBEBEBE
310
BEBEBEBEBEBEBEBEBEBEBEBEBEBEBEBEBEBEBEBEBEBEBEBEBEBEBEBEBEBEBEBEBEBEBE00000000000000000000000000000000000000000000000000000000000000000000BE000000000000000000000000000000000000000000000000000000000000000000000000000000000000000000000000000000000000000000
310
00000000000000000000000000000000000000000000000000000000000000000000000000000000000000000000000000000000000000000000000000000000000000000000000000000000000000000000000000000000000000000000000000000000000000000000000000000000000000000000000000000000000000
310
000000000000000000000000000000000000000000000000000000000000000000000000BE00000000000000000000000000000000000000000000000000000000000000000000BE00000000000000000000000000000000000000000000000000000000000000000000000000000000000000000000000000000000000000
310
00000000000000000000000000000000000000000000000000000000000000000000000000000000000000000000000000000000000000000000000000000000000000000000000000000000000000000000000000000000000000000000000000000000000000000000000000000000000000000000000000000000000000
310
0000000000000000000000000000000000000000000000000000000000000000000000000000BE00000000000000000000000000000000000000000000000000000000000000000000BE0000000000000000000000000000000000000000000000000000000000000000000000000000000000000000000000000000000000
310
00000000000000000000000000000000000000000000000000000000000000000000000000000000000000000000000000000000000000000000000000000000000000000000000000000000000000000000000000000000000000000000000000000000000000000000000000000000000000000000000000000000000000
310
00000000000000000000000000000000000000000000000000000000000000000000000000000000BE00000000000000000000000000000000000000000000000000000000000000000000BE000000000000000000000000000000000000000000000000000000000000000000000000000000000000000000000000000000
310
00000000000000000000000000000000000000000000000000000000000000000000000000000000000000000000000000000000000000000000000000000000000000000000000000000000000000000000000000000000000000000000000000000000000000000000000000000000000000000000000000000000000000
310
000000000000000000000000000000000000000000000000000000000000000000000000000000000000BE00000000000000000000000000000000000000000000000000000000000000000000BE000000000000000000F5F5F5F5F5F5F5F5F5F5F5F5F5F5F5F5F5F5F5F5F5F5F5F5F5F5F5F5F5F5F5F5F5F5F5F5F5F5F5F5
310
F5F5F5F5F5F5F5F5F5F5F5F5F5F5F5F5F5F5F5F5F5F5F5F5F5F5F5F5F5F5F5F5F5F5F5F5F5F5F5F5F5F5F5F5F5F5F5F5F5F5F5F5F5F5F5F5F5F5F5F5F5F5F5F5F5F5F5F5F5F5F5F5F5F5F5F5F5F5F5F5F5F5F5F5F5F5F5F5F5F5F5F5F5F5F5F5F5F5F5F5F5F5F5F5F5F5F5F5F5F5F5F5F5F5F5F5F5F5F5F5F5F5F5F5F5F5F5
310
F5F5F5F5F5F5F5F5F5F5F5F5F5F5F5F5F5F5F5F5F5F5F5F5F5F5F5F5F5F5F5F5F5F5F5F5F5F5F5F500000000BE00000000000000000000000000000000000000000000000000000000000000000000BE000000000000000000F500000000000000000000000000000000000000000000000000000000000000000000000000
310
00000000000000000000000000000000000000000000000000000000000000000000000000000000000000000000000000000000000000000000000000000000000000000000000000000000000000000000000000000000000000000000000000000000000000000000000000000000000000F50000F5F5F50000F5F5F5F5
310
F5F5F5F5F5F5F5F5F5F5F5F5F5F5F5F5F5F5F5F5F5F5F5F5F5F5F5F5F5F5F5F5F5F5F5F5F5F5F50000F500000000BE00000000000000000000000000000000000000000000000000000000000000000000BE000000000000000000F50000000000000000000000000000000000000000000000000000000000000000000000
310
000000000000000000000000000000000000000000000000000000000000000000000000000000000000000000000000000000000000000000000000000000000000000000000000000000000000000000000000000000000000000000000000000000000000000000000000000000000000000000F500F5F5F5F5F5F5F5F5
310
F5F5F5F5F5F5F5F5F5F5F5F5F5F5F5F5F5F5F5F5F5F5F5F5F5F5F5F5F5F5F5F5F5F5F5F5F5F5F5F5F50000F500000000BE00000000000000000000000000000000000000000000000000000000000000000000BE000000000000000000F5000000000000000000000000000000000000000000000000000000000000000000
310
0000000000000000000000000000000000000000000000000000000000000000000000000000000000000000000000000000000000000000000000000000000000000000000000000000000000000000000000000000000000000000000000000000000000000000000000000000000000000000000000F5F5F5F5F5F5F5F5
310
F5F5F5F5F5F5F5F5F5F5F5F5F5F5F5F5F5F5F5F5F5F5F5F5F5F5F5F5F5F5F5F5F5F5F500000000000000000000F500000000BE00000000000000000000000000000000000000000000000000000000000000000000BE000000000000000000F500000000000000000000000000000000000000000000000000000000000000
310
00000000000000000000000000000000000000000000000000000000000000000000000000000000000000000000000000000000000000000000000000000000000000000000000000000000000000000000000000000000000000000000000000000000000000000000000000000000000000000000000000F5F5F5F5F5F5
310
F5F5F5F5F5F5F5F5F5F5F5F5F5F5F5F5F5F5F5F5F5F5F5F5F5F5F5F5F5F5F5F5F5F5F5F5F500000000000000000000F500000000BE00000000000000000000000000000000000000000000000000000000000000000000BE000000000000000000F50000000000000000000000000000000000000000000000000000000000
310
000000000000000000000000000000000000000000000000000000000000000000000000000000000000000000000000000000000000000000000000000000000000000000000000000000000000000000000000000000000000000000000000000000000000000000000000000000000000000000000000000000F5F5F5F5
310
F5F5F5F5F5F5F5F5F5F5F5F5F5F5F5F5F5F5F5F5F5F5F5F5F5F5F5F5F5F5F5F5F5F5F5F5F5F5F500000000000000000000F500000000BE00000000000000000000000000000000000000000000000000000000000000000000BE000000000000000000F5000000000000000000000000000000000000000000000000000000
310
0000000000000000000000000000000000000000000000000000000000000000000000000000000000000000000000000000000000000000000000000000000000000000000000000000000000000000000000000000000000000000000000000000000000000000000000000000000000000000000000000000000000F500
310
F5F5F5F5F500F5F5F5F5F5F5F5F5F5F5F5F5F5F5F5F5F5F5F5F5F5F5F5F5F5F5F5F5F5F5F5F5F5F5F500000000000000000000F500000000BE00000000000000000000000000000000000000000000000000000000000000000000BE000000000000000000F500000000000000000000000000000000000000000000000000
310
00000000000000000000000000000000000000000000000000000000000000000000000000000000000000000000000000000000000000000000000000000000000000000000000000000000000000000000000000000000000000000000000000000000000000000000000000000000000000000000000000000000000000
310
F50000F5F5F50000000000000000000000000000000000000000000000000000000000000000000000000000000000000000000000F500000000BE00000000000000000000000000000000000000000000000000000000000000000000BE000000000000000000F50000000000000000000000000000000000000000000000
310
00000000000000000000000000000000000000000000000000000000000000000000000000000000000000000000000000000000000000000000000000000000000000000000000000000000000000000000000000000000000000000000000000000000000000000000000000000000000000000000000000000000000000
310
0000F5F5F5F5F5F5F5F5F5F5F5F5F5F5F5F5F5F5F5F5F5F5F5F5F5F5F5F5F5F5F5F5F5F5F5F5F5F5F5F5F5F5F5F5F5F5F5F5F5F5F5F5F5F500000000BE00000000000000000000000000000000000000000000000000000000000000000000BE000000000000000000F5000000000000000000000000000000000000000000
310
00000000000000000000000000000000000000000000000000000000000000000000000000000000000000000000000000000000000000000000000000000000000000000000000000000000000000000000000000000000000000000000000000000000000000000000000000000000000000000000000000000000000000
310
00000000F500F5F5F5F50000F500000000000000F5F5F5F5F500000000F5F500F5F5F5000000000000000000F5000000000000000000000000F500000000BE00000000000000000000000000000000000000000000000000000000000000000000BE000000000000000000F500000000000000000000000000000000000000
310
00000000000000000000000000000000000000000000000000000000000000000000000000000000000000000000000000000000000000000000000000000000000000000000000000000000000000000000000000000000000000000000000000000000000000000000000000000000000000000000000000000000000000
310
000000000000F500F5F5F5F50000F500000000000000F5F5F5F5F50000F5F5F5F5F5F5F5F5F50000000000000000F5000000000000000000000000F500000000BE00000000000000000000000000000000000000000000000000000000000000000000BE000000000000000000F50000000000000000000000000000000000
310
00000000000000000000000000000000000000000000000000000000000000000000000000000000000000000000000000000000000000000000000000000000000000000000000000000000000000000000000000000000000000000000000000000000000000000000000000000000000000000000000000000000000000
310
0000000000000000F500000000000000F500000000000000F5F5F5F5F5000000F5F5F500F5F5F5F50000000000000000F5000000000000000000000000F500000000BE00000000000000000000000000000000000000000000000000000000000000000000BE000000000000000000F5000000000000000000000000000000
310
00000000000000000000000000000000000000000000000000000000000000000000000000000000000000000000000000000000000000000000000000000000000000000000000000000000000000000000000000000000000000000000000000000000000000000000000000000000000000000000000000000000000000
310
00000000000000000000F500000000000000F500000000000000000000000000000000000000000000000000000000000000F5000000000000000000000000F500000000BE00000000000000000000000000000000000000000000000000000000000000000000BE000000000000000000F500000000000000000000000000
310
00000000000000000000000000000000000000000000000000000000000000000000000000000000000000000000000000000000000000000000000000000000000000000000000000000000000000000000000000000000000000000000000000000000000000000000000000000000000000000000000000000000000000
310
000000000000000000000000F5F5F5F5F5F5F5F5F5F5F5F5F5F5F5F5F5F5F5F5F5F5F5F5F5F5F5F5F5F5F5F5F5F5F5F5F5F5F5F5F5F5F5F5F5F5F5F5F5F5F5F5F5F500000000BE00000000000000000000000000000000000000000000000000000000000000000000BE000000000000000000F50000000000000000000000
310
00000000000000000000000000000000000000000000000000000000000000000000000000000000000000000000000000000000000000000000000000000000000000000000000000000000000000000000000000000000000000000000000000000000000000000000000000000000000000000000000000000000000000
310
0000000000000000000000000000F500000000000000F500000000000000000000000000000000000000000000000000000000000000F500000000F500000000000000F500000000BE00000000000000000000000000000000000000000000000000000000000000000000BE000000000000000000F5000000000000000000
310
00000000000000000000000000000000000000000000000000000000000000000000000000000000000000000000000000000000000000000000000000000000000000000000000000000000000000000000000000000000000000000000000000000000000000000000000000000000000000000000000000000000000000
310
00000000000000000000000000000000F5F5F5F5F5F5F500F50000000000000000F5F5F5F5F5F5F5F5F500F5F5F5F5F50000000000000000F5F5F5F500F500F5F5F5F5F500F500000000BE00000000000000000000000000000000000000000000000000000000000000000000BE000000000000000000F500000000000000
310
00000000000000000000000000000000000000000000000000000000000000000000000000000000000000000000000000000000000000000000000000000000000000000000000000000000000000000000000000000000000000000000000000000000000000000000000000000000000000000000000000000000000000
310
000000000000000000000000000000000000F5F5F5F5F5F5F500F50000000000000000F5F5F5F5F5F5F5F5F500F5F5F5F5F50000000000000000F5F5F5F500F500F5F5F5F5F500F500000000BE00000000000000000000000000000000000000000000000000000000000000000000BE000000000000000000F50000000000
310
00000000000000000000000000000000000000000000000000000000000000000000000000000000000000000000000000000000000000000000000000000000000000000000000000000000000000000000000000000000000000000000000000000000000000000000000000000000000000000000000000000000000000
310
0000000000000000000000000000000000000000F500000000000000F50000000000000000F5F500F5F500F500000000F5F5F5000000000000000000F500000000F500000000000000F500000000BE00000000000000000000000000000000000000000000000000000000000000000000BE000000000000000000F5000000
310
00000000000000000000000000000000000000000000000000000000000000000000000000000000000000000000000000000000000000000000000000000000000000000000000000000000000000000000000000000000000000000000000000000000000000000000000000000000000000000000000000000000000000
310
00000000000000000000000000000000000000000000F5F5F5F5F5F5F5F5F5F5F5F5F5F5F5F5F5F5F5F5F5F5F5F5F5F5F5F5F5F5F5F5F5F5F5F5F5F5F5F5F5F5F5F5F5F5F5F5F5F5F5F5F5F500000000BE00000000000000000000000000000000000000000000000000000000000000000000BE000000000000000000F500
310
00000000000000000000000000000000000000000000000000000000000000000000000000000000000000000000000000000000000000000000000000000000000000000000000000000000000000000000000000000000000000000000000000000000000000000000000000000000000000000000000000000000000000
310
0000000000000000000000000000000000000000000000000000000000000000000000000000000000000000000000000000000000000000000000000000000000000000000000000000000000F500000000BE00000000000000000000000000000000000000000000000000000000000000000000BE000000000000000000
310
F5000000000000000000000000000000000000000000000000000000000000000000000000000000000000000000000000000000000000000000000000000000000000000000000000000000000000000000000000000000000000000000000000000000000000000000000000000000000000000000000000000000000000
310
00000000000000000000000000000000000000000000000000000000000000000000000000000000000000000000000000000000000000000000000000000000000000000000000000000000000000F500000000BE00000000000000000000000000000000000000000000000000000000000000000000BE00000000000000
310
0000F500000000000000000000000000000000000000000000000000000000F50000000000000000000000000000000000000000000000000000000000000000000000000000000000000000000000000000000000000000000000000000000000000000000000000000000000000000000000000000000000000000000000
310
000000000000000000000000000000000000000000000000000000000000000000000000000000000000000000000000000000000000000000000000000000000000000000000000000000000000000000F500000000BE00000000000000000000000000000000000000000000000000000000000000000000BE0000000000
310
00000000F50000000000000000000000000000000000000000000000F5F5F5F500F5F50000000000000000000000000000000000000000000000000000000000000000000000000000000000000000000000000000000000000000000000000000000000000000F5F500F5F500000000000000000000000000000000000000
310
0000000000000000000000000000000000000000000000000000000000000000000000000000000000000000000000000000000000000000000000000000000000000000000000000000000000000000000000F500000000BE00000000000000000000000000000000000000000000000000000000000000000000BE000000
310
000000000000F50000000000000000000000000000000000000000000000F5F5F5F5F500F50000000000000000000000000000000000000000000000000000000000000000000000000000000000000000000000000000000000000000000000000000000000000000F500F5F5F5F500000000000000000000000000000000
310
00000000000000000000000000000000000000000000000000000000000000000000000000000000000000000000000000000000000000000000000000000000000000000000000000000000000000000000000000F500000000BE00000000000000000000000000000000000000000000000000000000000000000000BE00
310
0000000000000000F5000000000000000000000000000000000000000000000000F5F500F5F500F500000000000000000000000000000000000000000000000000000000000000F5F5F5F500000000000000000000000000000000000000000000000000000000000000F500F5F5F5F5F50000000000000000000000000000
310
000000000000000000000000000000000000000000000000000000000000000000000000000000000000000000000000000000000000000000000000000000000000000000000000000000000000000000000000000000F500000000BE00000000000000000000000000000000000000000000000000000000000000000000
310
BE000000000000000000F5000000000000000000000000000000000000000000F5F5F50000F5F5F500F500000000000000000000000000000000000000000000000000000000000000F5F5F5F500000000000000000000000000000000000000000000000000000000000000F500F5F5F50000F5F500000000000000000000
310
0000000000000000000000000000000000000000000000000000000000000000000000000000000000000000000000000000000000000000000000000000000000000000000000000000000000000000000000F5F500000000F500000000BE0000000000000000000000000000000000000000000000000000000000000000
310
0000BE000000000000000000F500000000000000000000000000000000000000000000F5000000F5F5F5F5F5F5F5F5F5F5F5F5F5F5F5F5F5F5F5F5F5F5F5F5F5F5F5F5F5F5F5F5F5F5F5F5F5F5F5F5F5F5F5F5F5F5F5F5F5F5F5F5F5F5F5F5F5F5F5F5F5F5F5F5F5F5F5F5F5F5F5F5F5F5F5F5000000F50000000000000000
310
000000000000000000000000000000000000000000000000000000000000000000000000000000000000000000000000000000000000000000000000000000000000000000000000F5F5F5F5F5F5F5F5F5F5F5F5F5F5F500000000F500000000BE000000000000000000000000000000000000000000000000000000000000
310
00000000BE000000000000000000F500000000000000000000000000000000000000000000F5000000F500F50000F5000000000000000000000000000000000000000000000000000000000000F5F5F5F5000000000000000000000000000000000000000000000000000000000000F50000F500F50000F500000000000000
310
0000000000000000000000000000000000000000000000000000000000000000000000000000000000000000000000000000000000000000000000000000000000000000000000000000F5F5F5F5F5F5F5F5F5F5F5F5F5F50000000000F500000000BE00000000000000000000000000000000000000000000000000000000
310
000000000000BE000000000000000000F50000000000000000000000000000000000000000000000F50000F500F5000000F50000000000000000000000000000000000000000000000000000000000F5F5F5F50000000000000000000000000000000000000000000000000000000000F5000000F500F50000F5000000F500
310
0000000000000000000000000000000000000000000000000000000000000000000000000000000000000000000000000000000000000000000000000000000000000000000000000000000000000000000000000000000000000000000000F500000000BE0000000000000000000000000000000000000000000000000000
310
0000000000000000BE000000000000000000F50000000000000000000000000000000000000000000000F50000F500F5000000F500F5F5F5F5F5F5F5F5F5F5F5F5F5F5F5F5F5F5F5F5F5F5F5F5F5F5F5F5F5F5F5F5F5F5F5F5F5F5F5F5F5F5F5F5F5F5F5F5F5F5F5F5F5F5F5F5F5F5F5F500F5000000F500F500F500000000
310
F5F50000000000000000000000000000000000000000000000000000000000000000000000000000000000000000000000000000000000000000000000000000000000000000000000000000000000000000000000000000000000000000000000F500000000BE000000000000000000000000000000000000000000000000
310
00000000000000000000BE000000000000000000F5000000000000000000000000000000000000000000000000F500F500F500000000F5F5000000000000000000000000000000000000000000000000000000002D0000000000000000000000000000000000000000000000000000000000F5F500000000F500F500F50000
310
0000F5F50000000000000000000000000000000000000000000000000000000000000000000000000000000000000000000000000000000000000000000000000000000000000000000000000000000000000000000000000000000000000000000000F500000000BE00000000000000000000000000000000000000000000
310
000000000000000000000000BE000000000000000000F5000000000000000000000000000000000000000000000000F500F500F5F5F5F5F5F5F5F5F5F5F5F5F5F5F5F5F5F5F5F5F5F5F5F5F5F5F5F5F5F5F5F5F5F5F5F5F5F5F5F5F5F5F5F5F5F5F5F5F5F5F5F5F5F5F5F5F5F5F5F5F5F5F5F5F5F5F5F5F5F5F5F5F5F5F5F5
310
F5F5F5F5F5F5F500000000000000000000000000000000000000000000000000000000000000000000000000000000000000000000000000000000000000000000000000000000000000000000000000000000000000000000000000000000000000000000F500000000BE0000000000000000000000000000000000000000
310
0000000000000000000000000000BE000000000000000000F500000000000000000000000000000000000000000000000000F5F500F50000000000F5000000000000000000000000000000000000000000000000000000002D0000000000000000000000000000000000000000000000000000000000F50000000000F500F5
310
F50000000000F500F500000000000000000000000000000000000000000000000000000000000000000000000000000000000000000000000000000000000000000000000000000000000000000000000000000000000000000000000000000000000000000000F500000000BE000000000000000000000000000000000000
310
00000000000000000000000000000000BE000000000000000000F500000000000000000000000000000000000000000000000000F50000F5000000000000000000000000000000000000000000000000000000000000000000002D0000000000000000000000000000000000000000000000000000000000000000000000F5
310
00F5000000000000F5F5F5F5F50000000000000000000000000000000000000000000000000000000000000000000000000000000000000000000000000000000000000000000000000000000000000000000000000000000000000000000000000000000000000000F500000000BE00000000000000000000000000000000
310
000000000000000000000000000000000000BE000000000000000000F50000000000000000000000000000000000000000000000000000F5F5F500000000F51515151515151515151515151515151515151515151515151515151515151515151515151515151515151515151515151515151515151515151515F515000000
310
00F5F5F5F5F5F5F5F5F5F5F5F5F5F50000000000000000000000000000000000000000000000000000000000000000000000000000000000000000000000000000000000000000000000000000000000000000000000000000000000000000000000000000000000000000F500000000BE0000000000000000000000000000
310
0000000000000000000000000000000000000000BE000000000000000000F50000000000000000000000000000000000000000000000000000F5000000000015F500000000000000000000000000000000000000000000000000000000002D0000000000000000000000000000000000000000000000000000000000F51515
310
0000000000F5000000000000F500F5F5F50000000000000000000000000000000000000000000000000000000000000000000000000000000000000000000000000000000000000000000000000000000000000000000000000000000000000000000000000000000000000000F500000000BE000000000000000000000000
310
00000000000000000000000000000000000000000000BE000000000000000000F50000000000000000000000000000000000000000000000000000F5000000001515F500000000000000000000000000000000000000000000000000000000002D0000000000000000000000000000000000000000000000000000000000F5
310
001515000000F5F5000000000000F500F500000000000000000000000000000000000000000000000000000000000000000000000000000000000000000000000000000000000000000000000000000000000000000000000000000000000000000000000000000000000000000000F500000000BE00000000000000000000
310
000000000000000000000000000000000000000000000000BE000000000000000000F50000000000000000000000000000000000000000000000000000F5F5F5F5F5F5F5F5F5F5F5F5F5F5F5F5F5F5F5F5F5F5F5F5F5F5F5F5F5F5F5F5F5F5F5F5F5F5F5F5F5F5F5F5F5F5F5F5F5F5F5F5F5F5F5F5F5F5F5F5F5F5F5F5F5F5
310
F5F5F5F5F5F5F5F5F5F5F5F5F5F5F5F5F5F5F500000000000000000000000000000000000000000000000000000000000000000000000000000000000000000000000000000000000000000000000000000000000000000000000000000000000000000000000000000000000000000000F500000000BE0000000000000000
310
0000000000000000000000000000000000000000000000000000BE000000000000000000F50000000000000000000000000000000000000000000000000000F500000000F500F500000000000000000000000000000000000000000000000000000000002D0000000000000000000000000000000000000000000000000000
310
000000F50000F500000000F5000000000000F5F50000000000000000000000000000000000000000000000000000000000000000000000000000000000000000000000000000000000000000000000000000000000000000000000000000000000000000000000000000000000000000000000F500000000BE000000000000
310
00000000000000000000000000000000000000000000000000000000BE000000000000000000F50000000000000000000000000000000000000000000000000000F500000000F500F5000000000000000000000000000000000000000000000000000000000000000000000000000000000000000000000000000000000000
310
0000000000F50000F500000000F5000000000000F5F50000000000000000000000000000000000000000000000000000000000000000000000000000000000000000000000000000000000000000000000000000000000000000000000000000000000000000000000000000000000000000000000F500000000BE00000000
310
000000000000000000000000000000000000000000000000000000000000BE000000000000000000F50000000000000000000000000000000000000000000000000000F5F5F5F5F5F5F5F5F5F5F5F5F5F5F5F5F5F5F5F5F5F5F5F5F5F5F5F5F5F5F5F5F5F5F5F5F5F5F5F5F5F5F5F5F5F5F5F5F5F5F5F5F5F5F5F5F5F5F5F5
310
F5F5F5F5F5F5F5F5F5F5F5F5F5F5F5F5000000000000F5000000000000000000000000000000000000000000000000000000000000000000000000000000000000000000000000000000000000000000000000000000000000000000000000000000000000000000000000000000000000000000000000F500000000BE0000
310
0000000000000000000000000000000000000000000000000000000000000000BE000000000000000000F50000000000000000000000000000000000000000000000000000F5F5F5F500F5F5F500000000000000000000000000000000000000000000000000000000F5F5F5F5000000000000000000000000000000000000
310
00000000000000000000F5F5F500F5F500F500000000000000000000000000000000000000000000000000000000000000000000000000000000000000000000000000000000000000000000000000000000000000000000000000000000000000000000000000000000000000000000000000000000000000F500000000BE
310
00000000000000000000000000000000000000000000000000000000000000000000BE000000000000000000F50000000000000000000000000000000000000000000000000000F5F5F5F500F5F5F500000000000000000000000000000000000000000000000000000000F5F5F5F500000000000000000000000000000000
310
000000000000000000000000F5F5F500F5F500F500000000000000000000000000000000000000000000000000000000000000000000000000000000000000000000000000000000000000000000000000000000000000000000000000000000000000000000000000000000000000000000000000000000000000F5000000
310
00BE00000000000000000000000000000000000000000000000000000000000000000000BE000000000000000000F50000000000000000000000000000000000000000000000000000F5F5F5F5F5F5F5F5F5F5F5F5F5F5F5F5F5F5F5F5F5F5F5F5F5F5F5F5F5F5F5F5F5F5F5F5F5F5F5F5F5F5F5F5F5F5F5F5F5F5F5F5F5F5
310
F5F5F5F5F5F5F5F5F5F5F5F5F5F5F5F5F5F5F5F5F5F500000000000000000000000000000000000000000000000000000000000000000000000000000000000000000000000000000000000000000000000000000000000000000000000000000000000000000000000000000000000000000000000000000000000000F500
310
000000BE00000000000000000000000000000000000000000000000000000000000000000000BE000000000000000000F50000000000000000000000000000000000000000000000000000000000000000000000000000000000000000000000000000000000000000000000000000F5F5F5F5000000000000000000000000
310
00000000000000000000000000000000000000000000000000000000000000000000000000000000000000000000000000000000000000000000000000000000000000000000000000000000000000000000000000000000000000000000000000000000000000000000000000000000000000000000000000000000000000
310
F500000000BE00000000000000000000000000000000000000000000000000000000000000000000BE000000000000000000F500000000000000000000000000000000000000000000000000000000000000000000000000000000000000000000000000000000000000000000000000000000000000000000000000000000
310
00000000000000000000000000000000000000000000000000000000000000000000000000000000000000000000000000000000000000000000000000000000000000000000000000000000000000000000000000000000000000000000000000000000000000000000000000000000000000000000000000000000000000
310
0000F500000000BE00000000000000000000000000000000000000000000000000000000000000000000BE000000000000000000F500000000000000000000000000000000000000000000000000000000000000000000000000000000000000000000000000000000000000000000F5F500F5F500F5F5F5F5F5F500000000
310
00000000000000000000000000000000000000000000000000000000000000000000000000000000000000000000000000000000000000000000000000000000000000000000000000000000000000000000000000000000000000000000000000000000000000000000000000000000000000000000000000000000000000
310
00000000F500000000BE00000000000000000000000000000000000000000000000000000000000000000000BE000000000000000000F500000000000000000000000000000000000000000000000000000000000000000000000000000000000000000000000000000000000000000000F5F5F5F5F5F5F5F5F5F5F5F50000
310
00000000000000000000000000000000000000000000000000000000000000000000000000000000000000000000000000000000000000000000000000000000000000000000000000000000000000000000000000000000000000000000000000000000000000000000000000000000000000000000000000000000000000
310
000000000000F500000000BE00000000000000000000000000000000000000000000000000000000000000000000BE000000000000000000F5000000000000000000000000000000000000000000000000000000000000000000000000000000000000000000000000000000000000000000000000000000F5F5F5F5F5F5F5
310
00000000000000000000000000000000000000000000000000000000000000000000000000000000000000000000000000000000000000000000000000000000000000000000000000000000000000000000000000000000000000000000000000000000000000000000000000000000000000000000000000000000000000
310
0000000000000000F500000000BE00000000000000000000000000000000000000000000000000000000000000000000BE000000000000000000F50000000000000000000000000000000000000000000000000000000000000000000000000000000000000000000000000000000000000000000000000000000000000000
310
00000000000000000000000000000000000000000000000000000000000000000000000000000000000000000000000000000000000000000000000000000000000000000000000000000000000000000000000000000000000000000000000000000000000000000000000000000000000000000000000000000000000000
310
00000000000000000000F500000000BE00000000000000000000000000000000000000000000000000000000000000000000BE000000000000000000F5000000000000000000000000000000000000000000000000000000000000000000000000000000000000000000000000000000000000000000000000000000000000
310
00000000000000000000000000000000000000000000000000000000000000000000000000000000000000000000000000000000000000000000000000000000000000000000000000000000000000000000000000000000000000000000000000000000000000000000000000000000000000000000000000000000000000
310
000000000000000000000000F500000000BE00000000000000000000000000000000000000000000000000000000000000000000BE000000000000000000F500000000000000000000000000000000000000000000000000000000000000000000000000000000000000000000000000000000000000000000000000000000
310
00000000000000000000000000000000000000000000000000000000000000000000000000000000000000000000000000000000000000000000000000000000000000000000000000000000000000000000000000000000000000000000000000000000000000000000000000000000000000000000000000000000000000
310
0000000000000000000000000000F500000000BE00000000000000000000000000000000000000000000000000000000000000000000BE000000000000000000F50000000000000000000000000000000000000000000000000000000000000000000000000000000000000000000000000000000000000000000000000000
310
00000000000000000000000000000000000000000000000000000000000000000000000000000000000000000000000000000000000000000000000000000000000000000000000000000000000000000000000000000000000000000000000000000000000000000000000000000000000000000000000000000000000000
310
00000000000000000000000000000000F500000000BE00000000000000000000000000000000000000000000000000000000000000000000BE000000000000000000F5000000000000000000000000000000000000000000000000000000000000000000000000000000000000000000000000000000000000000000000000
310
00000000000000000000000000000000000000000000000000000000000000000000000000000000000000000000000000000000000000000000000000000000000000000000000000000000000000000000000000000000000000000000000000000000000000000000000000000000000000000000000000000000000000
310
000000000000000000000000000000000000F500000000BE00000000000000000000000000000000000000000000000000000000000000000000BE000000000000000000F500000000000000000000000000000000000000000000000000000000000000000000000000000000000000000000000000000000000000000000
310
00000000000000000000000000000000000000000000000000000000000000000000000000000000000000000000000000000000000000000000000000000000000000000000000000000000000000000000000000000000000000000000000000000000000000000000000000000000000000000000000000000000000000
310
0000000000000000000000000000000000000000F500000000BE00000000000000000000000000000000000000000000000000000000000000000000BE000000000000000000F50000000000000000000000000000000000000000000000000000000000000000000000000000000000000000000000000000000000000000
310
00000000000000000000000000000000000000000000000000000000000000000000000000000000000000000000000000000000000000000000000000000000000000000000000000000000000000000000000000000000000000000000000000000000000000000000000000000000000000000000000000000000000000
310
00000000000000000000000000000000000000000000F500000000BE00000000000000000000000000000000000000000000000000000000000000000000BE000000000000000000F5000000000000000000000000000000000000000000000000000000000000000000000000000000000000000000000000000000000000
310
00000000000000000000000000000000000000000000000000000000000000000000000000000000000000000000000000000000000000000000000000000000000000000000000000000000000000000000000000000000000000000000000000000000000000000000000000000000000000000000000000000000000000
310
000000000000000000000000000000000000000000000000F500000000BE00000000000000000000000000000000000000000000000000000000000000000000BE000000000000000000F500000000000000000000000000000000000000000000000000000000000000000000000000000000000000000000000000000000
310
00000000000000000000000000000000000000000000000000000000000000000000000000000000000000000000000000000000000000000000000000000000000000000000000000000000000000000000000000000000000000000000000000000000000000000000000000000000000000000000000000000000000000
310
0000000000000000000000000000000000000000000000000000F500000000BE00000000000000000000000000000000000000000000000000000000000000000000BE000000000000000000F50000000000000000000000000000000000000000000000000000000000000000000000000000000000000000000000000000
310
00000000000000000000000000000000000000000000000000000000000000000000000000000000000000000000000000000000000000000000000000000000000000000000000000000000000000000000000000000000000000000000000000000000000000000000000000000000000000000000000000000000000000
310
00000000000000000000000000000000000000000000000000000000F500000000BE00000000000000000000000000000000000000000000000000000000000000000000BE000000000000000000F5000000000000000000000000000000000000000000000000000000000000000000000000000000000000000000000000
310
00000000000000000000000000000000000000000000000000000000000000000000000000000000000000000000000000000000000000000000000000000000000000000000000000000000000000000000000000000000000000000000000000000000000000000000000000000000000000000000000000000000000000
310
000000000000000000000000000000000000000000000000000000000000F500000000BE00000000000000000000000000000000000000000000000000000000000000000000BE000000000000000000F500000000000000000000000000000000000000000000000000000000000000000000000000000000000000000000
310
00000000000000000000000000000000000000000000000000000000000000000000000000000000000000000000000000000000000000000000000000000000000000000000000000000000000000000000000000000000000000000000000000000000000000000000000000000000000000000000000000000000000000
310
0000000000000000000000000000000000000000000000000000000000000000F500000000BE00000000000000000000000000000000000000000000000000000000000000000000BE000000000000000000F50000000000000000000000000000000000000000000000000000000000000000000000000000000000000000
310
000000000000000000000000000000000000002D0000000000000000000000000000000000000000000000000000000000000000000000000000000000000000000000000000000000000000000000000000000000000000000000000000000000000000000000000000000000000000000000000000000000000000000000
310
00000000000000000000000000000000000000000000000000000000000000000000F500000000BE00000000000000000000000000000000000000000000000000000000000000000000BE000000000000000000F5000000000000000000000000000000000000000000000000000000000000000000000000000000000000
310
0000000000000000000000000000000000000000002D000000000000000000000000000000000000000000000000000000000000000000000000000000000000000000000000000000000000000000000000000000000000000000000000000000000000000000000000000000000000000000000000000000000000000000
310
000000000000000000000000000000000000000000000000000000000000000000000000F500000000BE00000000000000000000000000000000000000000000000000000000000000000000BE000000000000000000F50000000000000000000000000000000000000000000000000000F5F5F5F5F5F5F5F5F5F5F5F5F5F5
310
F5F5F5F5F5F5F5F5F5F5F5F5F5F5F5F5F5F5F5F5F5F5F5F5F5F5F5F5F5F5F5F5F5F5F5F5F5F5F5F5F5F5F5F5F5F5F5F5F5F5F5F5F5F5F5F5F5F5F5F5F5F5F5F5F5F5F5F50000000000000000000000000000000000000000000000000000000000000000000000000000000000000000000000000000000000000000000000
310
0000000000000000000000000000000000000000000000000000000000000000000000000000F500000000BE00000000000000000000000000000000000000000000000000000000000000000000BE000000000000000000F50000000000000000000000000000000000000000000000000000F50015000000000000000000
310
000000000000000000000000000000000000000000000000002D00000000000000000000000000000000000000000000000000000000000000000000001500F50000000000F5000000000000000000000000000000000000000000000000000000000000000000000000000000000000000000000000000000000000000000
310
00000000000000000000000000000000000000000000000000000000000000000000000000000000F500000000BE00000000000000000000000000000000000000000000000000000000000000000000BE000000000000000000F50000000000000000000000000000000000000000000000000000F500150000F5F5F5F5F5
310
F5F5F5F5F5F5F5F5F5F5F5F5F5F5F5F5F5F5F5F5F5F5F5F5F5F5F5F5F5F5F5F5F5F5F5F5F5F5F5F5F5F5F5F5F5F5F5F5F5F5F5F5F5F5F5F5F5F5F5F5F500001500F50000000000F500000000000000000000000000000000000000000000000000000000000000000000000000000000000000000000000000000000000000
310
000000000000000000000000000000000000000000000000000000000000000000000000000000000000F500000000BE00000000000000000000000000000000000000000000000000000000000000000000BE000000000000000000F50000000000000000000000000000000000000000000000000000F500150000F5F5F5
310
F5F5F5F5F5F5F5F5F5F5F5F5F5F5F5F5F5F5F5F5F5F5F5F5F5F5F5F5F5F5F5F5F5F5F5F5F5F5F5F5F5F5F5F5F5F5F5F5F5F5F5F5F5F5F5F5F5F5F5F5F500F500001500F50000000000F50000000000000000000000000000000000000000000000000000000000000000000000000000000000000000000000000000000000
310
0000000000000000000000000000000000000000000000000000000000000000000000000000000000000000F500000000BE00000000000000000000000000000000000000000000000000000000000000000000BE000000000000000000F50000000000000000000000000000000000000000000000000000F500150000F5
310
00F500000000000000000000000000000000000000000000000000000000002D0000000000000000000000000000000000000000000000000000000000F50000F500001500F50000000000F5000000000000000000000000000000000000000000000000000000000000000000000000000000000000000000000000000000
310
00000000000000000000000000000000000000000000000000000000000000000000000000000000000000000000F500000000BE00000000000000000000000000000000000000000000000000000000000000000000BE000000000000000000F50000000000000000000000000000000000000000000000000000F5001500
310
00F500F500000000000000000000000000000000000000000000000000000000002D0000000000000000000000000000000000000000000000000000000000F50000F500001500F50000000000F500000000000000000000000000000000000000000000000000000000000000000000000000000000000000000000000000
310
000000000000000000000000000000000000000000000000000000000000000000000000000000000000000000000000F500000000BE00000000000000000000000000000000000000000000000000000000000000000000BE000000000000000000F50000000000000000000000000000000000000000000000000000F500
310
150000F500F500000000000000000000000000000000000000000000000000000000002D0000000000000000000000000000000000000000000000000000000000F50000F500001500F50000000000F5F500000000000000000000000000000000000000000000000000000000000000000000000000000000000000000000
310
0000000000000000000000000000000000000000000000000000000000000000000000000000000000000000000000000000F500000000BE00000000000000000000000000000000000000000000000000000000000000000000BE000000000000000000F50000000000000000000000000000000000000000000000000000
310
F500150000F500F500000000000000000000000000000000000000000000000000000000002D0000000000000000000000000000000000000000000000000000000000F50000F500001500F50000000000F5F50000000000000000000000000000000000000000000000000000000000000000000000000000000000000000
310
00000000000000000000000000000000000000000000000000000000000000000000000000000000000000000000000000000000F500000000BE00000000000000000000000000000000000000000000000000000000000000000000BE000000000000000000F5000000000000000000000000000000000000000000000000
310
0000F500150000F500F500000000000000000000000000000000000000000000000000000000002D0000000000000000000000000000000000000000000000000000000000F50000F500001500F50000000000F5F5000000000000000000000000000000000000000000000000000000000000000000000000000000000000
310
000000000000000000000000000000000000000000000000000000000000000000000000000000000000000000000000000000000000F500000000BE00000000000000000000000000000000000000000000000000000000000000000000BE000000000000000000F500000000000000000000000000000000000000000000
310
00000000F500150000F500F500000000000000000000000000000000000000000000000000000000002D0000000000000000000000000000000000000000000000000000000000F50000F500001500F50000000000F5F500000000000000000000000000000000000000000000000000000000000000000000000000000000
310
0000000000000000000000000000000000000000000000000000000000000000000000000000000000000000000000000000000000000000F500000000BE00000000000000000000000000000000000000000000000000000000000000000000BE000000000000000000F50000000000000000000000000000000000000000
310
000000000000F500150000F500F500000000000000000000000000000000000000000000000000000000002D0000000000000000000000000000000000000000000000000000000000F50000F500001500F50000000000F5000000000000000000000000000000000000000000000000000000000000000000000000000000
310
00000000000000000000000000000000000000000000000000000000000000000000000000000000000000000000000000000000000000000000F500000000BE00000000000000000000000000000000000000000000000000000000000000000000BE000000000000000000F5000000000000000000000000000000000000
310
0000000000000000F500150000F500F500000000000000000000000000000000000000000000000000000000002D0000000000000000000000000000000000000000000000000000000000F50000F500001500F50000000000F500000000000000000000000000000000000000000000000000000000000000000000000000
310
000000000000000000000000000000000000000000000000000000000000000000000000000000000000000000000000000000000000000000000000F500000000BE00000000000000000000000000000000000000000000000000000000000000000000BE000000000000000000F500000000000000000000000000000000
310
00000000000000000000F500150000F500F5F5F5F5F5F5F5F5F5F5F5F5F5F5F5F5F5F5F5F5F5F5F5F5F5F5F5F5F5F5F5F5F5F5F5F5F5F5F5F5F5F5F5F5F5F5F5F5F5F5F5F5F5F5F5F5F5F5F5F5F5F500F500001500F50000000000F50000000000000000000000000000000000000000000000000000000000000000000000
310
0000000000000000000000000000000000000000000000000000000000000000000000000000000000000000000000000000000000000000000000000000F500000000BE00000000000000000000000000000000000000000000000000000000000000000000BE000000000000000000F50000000000000000000000000000
310
000000000000000000000000F500150000F5F5F5F5F5F5F5F5F5F5F5F5F5F5F5F5F5F5F5F5F5F5F5F5F5F5F5F5F5F5F5F5F5F5F5F5F5F5F5F5F5F5F5F5F5F5F5F5F5F5F5F5F5F5F5F5F5F5F5F5F5F5F5F5F5F500001500F50000000000F5000000000000000000000000000000000000000000000000000000000000000000
310
00000000000000000000000000000000000000000000000000000000000000000000000000000000000000000000000000000000000000000000000000000000F500000000BE00000000000000000000000000000000000000000000000000000000000000000000BE000000000000000000F5000000000000000000000000
310
0000000000000000000000000000F50015000000000000000000000000000000000000000000000000000000000000000000002D00000000000000000000000000000000000000000000000000000000000000000000001500F50000000000F500000000000000000000000000000000000000000000000000000000000000
310
000000000000000000000000000000000000000000000000000000000000000000000000000000000000000000000000000000000000000000000000000000000000F500000000BE00000000000000000000000000000000000000000000000000000000000000000000BE000000000000000000F500000000000000000000
310
00000000000000000000000000000000F50015000000000000000000000000000000000000000000000000000000000000000000002D00000000000000000000000000000000000000000000000000000000000000000000001500F500000000F5F50000000000000000000000000000000000000000000000000000000000
310
0000000000000000000000000000000000000000000000000000000000000000000000000000000000000000000000000000000000000000000000000000000000000000F500000000BE00000000000000000000000000000000000000000000000000000000000000000000BE000000000000000000F50000000000000000
310
000000000000000000000000000000000000F5F515F5F5F5F5F5F5F5F5F5F5F5F5F5F5F5F5F5F5F5F5F5F5F5F5F5F5F5F5F5F5F5F5F5F5F5F5F5F5F5F5F5F5F5F5F5F5F5F5F5F5F5F5F5F5F5F5F5F5F5F5F5F5F5F5F5F5F5F5F5F515F5F5F5F5F5F5F5F5000000000000000000000000000000000000000000000000000000
310
00000000000000000000000000000000000000000000000000000000000000000000000000000000000000000000000000000000000000000000000000000000000000000000F500000000BE00000000000000000000000000000000000000000000000000000000000000000000BE000000000000000000F5000000000000
310
0000000000000000000000000000000000000000F50000000000000000000000000000000000000000000000000000000000000000000000002D00000000000000000000000000000000000000000000000000000000000000000000000000F500000000000000000000000000000000000000000000000000000000000000
310
000000000000000000000000000000000000000000000000000000000000000000000000000000000000000000000000000000000000000000000000000000000000000000000000F500000000BE00000000000000000000000000000000000000000000000000000000000000000000BE000000000000000000F500000000
310
00000000000000000000000000000000000000000000F50000000000000000000000000000000000000000000000000000000000000000000000000000000000000000000000000000000000000000000000000000000000000000000000000000F50000000000000000000000000000000000000000000000000000000000
310
0000000000000000000000000000000000000000000000000000000000000000000000000000000000000000000000000000000000000000000000000000000000000000000000000000F500000000BE00000000000000000000000000000000000000000000000000000000000000000000BE000000000000000000F50000
310
000000000000000000000000000000000000000000000000F50000000000000000000000000000000000000000000000000000000000000000000000000000000000000000000000000000000000000000000000000000000000000000000000000000F5000000000000000000000000000000000000000000000000000000
310
00000000000000000000000000000000000000000000000000000000000000000000000000000000000000000000000000000000000000000000000000000000000000000000000000000000F500000000BE00000000000000000000000000000000000000000000000000000000000000000000BE000000000000000000F5
310
0000000000000000000000000000000000000000000000000000F50000000000000000000000000000000000000000000000000000000000000000000000000000000000000000000000000000000000000000000000000000000000000000000000000000F500000000000000000000000000000000000000000000000000
310
000000000000000000000000000000000000000000000000000000000000000000000000000000000000000000000000000000000000000000000000000000000000000000000000000000000000F500000000BE00000000000000000000000000000000000000000000000000000000000000000000BE0000000000000000
310
00F50000000000000000000000000000000000000000000000000000F5F5F5F5F5F5F5F5F5F5F5F5F5F5F5F5F5F5F5F5F5F5F5F5F5F5F5F5F5F5F5F5F5F5F5F5F5F5F5F5F5F5F5F5F5F5F5F5F5F5F5F5F5F5F5F5F5F5F5F5F5F5F5F5F5F5F5F5F5F5F5F5F5F5F5F50000000000000000000000000000000000000000000000
310
0000000000000000000000000000000000000000000000000000000000000000000000000000000000000000000000000000000000000000000000000000000000000000000000000000000000000000F500000000BE00000000000000000000000000000000000000000000000000000000000000000000BE000000000000
310
000000F50000000000000000000000000000000000000000000000000000000000000000000000000000000000000000000000000000000000000000000000000000F5F5F5F5000000000000000000000000000000000000000000000000000000000000000000000000000000000000000000000000000000000000000000
310
00000000000000000000000000000000000000000000000000000000000000000000000000000000000000000000000000000000000000000000000000000000000000000000000000000000000000000000F500000000BE00000000000000000000000000000000000000000000000000000000000000000000BE00000000
310
0000000000F500000000000000000000000000000000000000000000000000000000000000000000000000000000000000000000000000000000000000000000000000000000000000000000000000000000000000000000000000000000000000000000000000000000000000000000000000000000000000000000000000
310
000000000000000000000000000000000000000000000000000000000000000000000000000000000000000000000000000000000000000000000000000000000000000000000000000000000000000000000000F500000000BE00000000000000000000000000000000000000000000000000000000000000000000BE0000
310
00000000000000F50000000000000000000000000000000000000000000000000000000000000000000000000000000000000000000000000000000000000000000000000000000000000000000000000000000000000000000000000000000000000000000000000000000000000000000000000000000000000000000000
310
0000000000000000000000000000000000000000000000000000000000000000000000000000000000000000000000000000000000000000000000000000000000000000000000000000000000000000000000000000F500000000BE00000000000000000000000000000000000000000000000000000000000000000000BE
310
000000000000000000F500000000000000000000000000000000000000000000000000000000000000000000000000000000000000000000000000000000000000000000000000F5F5F5F5F5F50000000000000000000000000000000000000000000000000000000000000000000000000000000000000000000000000000
310
00000000000000000000000000000000000000000000000000000000000000000000F5F5F5F5F500F500F500F5F5F5F500000000000000000000000000000000000000000000000000000000000000000000000000000000F500000000BE000000000000000000000000000000000000000000000000000000000000000000
310
00BE000000000000000000F500000000000000000000000000000000000000000000000000000000000000000000000000000000000000000000000000000000000000000000000000F5F5F5F5F5F5000000000000000000000000000000000000000000000000000000000000000000000000000000000000000000000000
310
000000000000000000000000000000000000000000000000000000000000000000000000F5F5F5F5F5F5F5F5F5F5F5F5F5F500000000000000000000000000000000000000000000000000000000000000000000000000000000F500000000BE00000000000000000000000000000000000000000000000000000000000000
310
000000BE000000000000000000F500000000000000000000000000000000000000000000000000000000000000000000000000000000000000000000000000000000000000000000000000F5F5F5F5F5F500000000000000000000000000000000000000000000000000000000000000000000000000000000000000000000
310
0000000000000000000000000000000000000000000000000000000000000000000000000000F5F5F5F500F50000F50000F5F5F500000000000000000000000000000000000000000000000000000000000000000000000000000000F500000000BE0000000000000000000000000000000000000000000000000000000000
310
0000000000BE000000000000000000F5000000000000000000000000000000000000000000000000000000000000000000000000000000000000000000000000000000000000000000000000000000000000000000000000000000000000000000000000000000000000000000000000000000000000000000000000000000
310
00000000000000000000000000000000000000000000000000000000000000000000000000000000000000000000000000000000000000000000000000000000000000000000000000000000000000000000000000000000000000000000F500000000BE000000000000000000000000000000000000000000000000000000
310
00000000000000BE000000000000000000F500000000000000000000000000000000000000000000000000000000000000000000000000000000000000000000000000000000000000000000000000000000000000000000000000000000000000000000000000000000000000000000000000000000000000000000000000
310
000000000000000000000000000000000000000000000000000000000000000000000000000000000000000000000000000000000000000000000000000000000000000000000000000000000000000000000000000000000000000000000000F500000000BE00000000000000000000000000000000000000000000000000
310
000000000000000000BE000000000000000000F50000000000000000000000000000000000000000000000000000000000000000000000000000000000000000000000000000000000000000000000000000000000000000000000000000000000000000000000000000000000000000000000000000000000000000000000
310
0000000000000000000000000000000000000000000000000000000000000000000000000000000000000000000000000000000000000000000000000000000000000000000000000000000000000000000000000000000000000000000000000000F500000000BE0000000000000000000000000000000000000000000000
310
0000000000000000000000BE000000000000000000F5000000000000000000000000000000000000000000000000000000000000000000000000000000000000000000000000000000000000000000000000000000000000000000000000000000000000000000000000000000000000000000000000000000000000000000
310
00000000000000000000000000000000000000000000000000000000000000000000000000000000000000000000000000000000000000000000000000000000000000000000000000000000000000000000000000000000000000000000000000000000F500000000BE000000000000000000000000000000000000000000
310
00000000000000000000000000BE000000000000000000F500000000000000000000000000000000000000000000000000000000000000000000000000000000000000000000000000000000000000000000000000000000000000000000000000000000000000000000000000000000000000000000000000000000000000
310
000000000000000000000000000000000000000000000000000000000000000000000000000000000000000000000000000000000000000000000000000000000000000000000000000000000000000000000000000000000000000000000000000000000000F500000000BE00000000000000000000000000000000000000
310
000000000000000000000000000000BE000000000000000000F50000000000000000000000000000000000000000000000000000000000000000000000000000000000000000000000000000000000000000000000000000000000000000000000000000000000000000000000000000000000000000000000000000000000
310
0000000000000000000000000000000000000000000000000000000000000000000000000000000000000000000000000000000000000000000000000000000000000000000000000000000000000000000000000000000000000000000000000000000000000000F500000000BE0000000000000000000000000000000000
310
0000000000000000000000000000000000BE000000000000000000F5000000000000000000000000000000000000000000000000000000000000000000000000000000000000000000000000000000000000000000000000000000000000000000000000000000000000000000000000000000000000000000000000000000
310
00000000000000000000000000000000000000000000000000000000000000000000000000000000000000000000000000000000000000000000000000000000000000000000000000000000000000000000000000000000000000000000000000000000000000000000F500000000BE000000000000000000000000000000
310
00000000000000000000000000000000000000BE000000000000000000F500000000000000000000000000000000000000000000000000000000000000000000000000000000000000000000000000000000000000000000000000000000000000000000000000000000000000000000000000000000000000000000000000
310
000000000000000000000000000000000000000000000000000000000000000000000000000000000000000000000000000000000000000000000000000000000000000000000000000000000000000000000000000000000000000000000000000000000000000000000000F500000000BE00000000000000000000000000
310
000000000000000000000000000000000000000000BE000000000000000000F50000000000000000000000000000000000000000000000000000000000000000000000000000000000000000000000000000000000000000000000000000000000000000000000000000000000000000000000000000000000000000000000
310
0000000000000000000000000000000000000000000000000000000000000000000000000000000000000000000000000000000000000000000000000000000000000000000000000000000000000000000000000000000000000000000000000000000000000000000000000000F500000000BE0000000000000000000000
310
0000000000000000000000000000000000000000000000BE000000000000000000F5000000000000000000000000000000000000000000000000000000000000000000000000000000000000000000000000000000000000000000000000000000000000000000000000000000000000000000000000000000000000000000
310
000000000000000000000000000000000000000000000000000000000000000000000000F5F5F5000000000000000000000000000000000000F5F5F500000000000000000000000000000000000000000000000000000000000000000000000000000000000000000000000000000000F500000000BE000000000000000000
310
00000000000000000000000000000000000000000000000000BE000000000000000000F500000000000000000000000000000000000000000000000000000000000000000000000000000000000000000000000000000000000000000000000000000000000000000000000000000000000000000000000000000000000000
310
0000000000000000000000000000000000000000000000000000000000000000000000000000F5F5F5000000000000000000000000000000000000F5F5F500000000000000000000000000000000000000000000000000000000000000000000000000000000000000000000000000000000F500000000BE00000000000000
310
000000000000000000000000000000000000000000000000000000BE000000000000000000F50000000000000000000000000000000000000000000000000000000000000000000000000000000000000000000000000000000000000000000000000000000000000000000000000000000000000000000000000000000000
310
000000000000000000000000000000000000000000000000000000000000000000000000F5F5F5F5F5F5F5F500000000000000000000000000F5F5F5F5F5F5F5F5F5F5F5000000000000000000000000000000000000000000000000000000000000000000000000000000000000000000000000F500000000BE0000000000
310
0000000000000000000000000000000000000000000000000000000000BE000000000000000000F5000000000000000000000000000000000000000000000000000000000000000000000000000000000000000000000000000000000000000000000000000000000000000000000000000000000000000000000000000000
310
00000000000000000000000000000000000000000000000000000000000000000000000000F5F5F5F50000F5F5F5000000000000000000000000F5F5F5F500F5F50000F5F5F5000000000000000000000000000000000000000000000000000000000000000000000000000000000000000000000000F500000000BE000000
310
00000000000000000000000000000000000000000000000000000000000000BE000000000000000000F500000000000000000000000000000000000000000000000000000000000000000000000000000000000000000000000000000000000000000000000000000000000000000000000000000000000000000000000000
310
000000000000000000000000000000000000000000000000000000000000000000000000000000F5F5F5F5F5F5F5F5F50000F5000000000000000000F5F5F5F5F5F5F5F5F5F5F5F5F50000000000000000000000000000000000000000000000000000000000000000000000000000000000000000000000F500000000BE00
310
000000000000000000000000000000000000000000000000000000000000000000BE000000000000000000F50000000000000000000000000000000000000000000000000000000000000000000000000000000000000000000000000000000000000000000000000000000000000000000000000000000000000000000000
310
0000000000000000000000000000000000000000000000000000000000000000000000000000000000000000F50000F500F50000F5F5F500000000000000000000F50000F50000F50000000000000000000000000000000000000000000000000000000000000000000000000000000000000000000000000000F500000000
310
BE00000000000000000000000000000000000000000000000000000000000000000000BE000000000000000000F50000000000000000000000000000000000000000000000000000000000000000000000000000000000000000000000000000000000000000000000000000002DF5F5000000000000000000000000000000
310
00000000000000000000000000000000000000000000000000000000000000000000000000000000000000000000F50000F500F50000F5F5F500000000000000000000F50000F50000F50000000000000000000000000000000000000000000000000000000000000000000000000000000000000000000000000000F50000
310
0000BE00000000000000000000000000000000000000000000000000000000000000000000BE000000000000000000F50000000000000000000000000000000000000000000000000000F5F5F5F5F5F5F5F5F5F5F5F5F5F5F5F5F5F5F5F5F5F5F5F5F5F5F5F5F5F5F5F5F5F5F5F5F52DF5F5F5F5F5F5F5F5F5F5F5F5F5F5F5
310
F5F5F5F5F5F5F5F5F5F5F5F5F5F5F5F5F5F5F5F5F5F5F5F5F5F5F5F5F500000000000000000000000000000000000000F5F5F5F5F5F500F5F5000000000000000000000000F5F5F5F5F5F5F5F5F5000000000000000000000000000000000000000000000000000000000000000000000000000000000000000000000000F5
310
00000000BE00000000000000000000000000000000000000000000000000000000000000000000BE000000000000000000F50000000000000000000000000000000000000000000000000000F500F5000000000000000000000000000000000000000000000000000000000000000000002D00000000000000000000000000
310
000000000000000000000000000000000000000000001500F500000000F5F500000000000000000000000000000000000000F500000000F50000F5000000000000000000000000F50000F50000F500F50000000000000000000000000000000000000000000000000000000000000000000000000000000000000000000000
310
00F500000000BE00000000000000000000000000000000000000000000000000000000000000000000BE000000000000000000F50000000000000000000000000000000000000000000000000000F500F5000000000000000000000000000000000000000000000000000000000000000000002D0000000000000000000000
310
0000000000000000000000000000000000000000000000001500F50000000000F500000000000000000000000000000000000000F500000000F50000F5F5F500000000000000000000F50000F50000F500F5000000000000000000000000000000000000000000000000000000000000000000000000000000000000000000
310
000000F500000000BE00000000000000000000000000000000000000000000000000000000000000000000BE000000000000000000F50000000000000000000000000000000000000000000000000000F500F5000000000000000000000000000000000000000000000000000000000000000000002D000000000000000000
310
00000000000000000000000000000000000000000000000000001500F50000000000F500000000000000000000000000000000000000F500000000F500F5F5F5F500000000000000000000F50000F50000F500F500000000000000000000000000000000000000000000000000000000000000000000000000000000000000
310
0000000000F500000000BE00000000000000000000000000000000000000000000000000000000000000000000BE000000000000000000F50000000000000000000000000000000000000000000000000000F500F5000000000000000000000000000000000000000000000000000000000000000000002D00000000000000
310
000000000000000000000000000000000000000000000000000000001500F50000000000F500000000000000000000000000000000000000F50000F5F5F5F5F5F5F5F500000000000000000000F50000F50000F500F50000000000000000000000000000000000000000000000000000000000000000000000000000000000
310
00000000000000F500000000BE00000000000000000000000000000000000000000000000000000000000000000000BE000000000000000000F50000000000000000000000000000000000000000000000000000F500F5000000000000000000000000000000000000000000000000000000000000000000002D0000000000
310
0000000000000000000000000000000000000000000000000000000000001500F50000000000F500000000000000000000000000000000000000F50000F500000000F5000000000000000000000000F50000F50000F500F5000000000000000000000000000000000000000000000000000000000000000000000000000000
310
000000000000000000F500000000BE00000000000000000000000000000000000000000000000000000000000000000000BE000000000000000000F50000000000000000000000000000000000000000000000000000F500F5000000000000000000000000000000000000000000000000000000000000000000002D000000
310
00000000000000000000000000000000000000000000000000000000000000001500F50000000000F500000000000000000000000000000000000000F50000F500000000F5000000000000000000000000F50000F50000F500F500000000000000000000000000000000000000000000000000000000000000000000000000
310
0000000000000000000000F500000000BE00000000000000000000000000000000000000000000000000000000000000000000BE000000000000000000F50000000000000000000000000000000000000000000000F5F500F500F5000000000000000000000000000000000000000000000000000000000000000000002D00
310
000000000000000000000000000000000000000000000000000000000000000000001500F5F5F5000000F5F5000000000000000000000000000000000000F50000F500000000F5F5F500000000000000000000F50000F50000F500F5F5F5000000000000000000000000000000000000000000000000000000000000000000
310
00000000000000000000000000F500000000BE00000000000000000000000000000000000000000000000000000000000000000000BE000000000000000000F50000000000000000000000000000000000000000000000F5F5F5F500F500000000000000000000000000000000000000000000000000000000000000000000
310
2D00000000000000000000000000000000000000000000000000000000000000000000001500F5F5F5F50000F5F5000000000000000000000000000000000000F50000F500000000F5F5F500000000000000000000F50000F50000F500F5F5F500000000000000000000000000000000000000000000000000000000000000
310
000000000000000000000000000000F500000000BE00000000000000000000000000000000000000000000000000000000000000000000BE000000000000000000F50000000000000000000000000000000000000000000000000000F500F50000000000000000000000000000000000000000000000000000000000000000
310
00002D00000000000000000000000000000000000000000000000000000000000000000000001500F50000000000F5F5000000000000000000000000000000000000F50000F500000000F5F5F500000000000000000000F50000F50000F500F5F5F50000000000000000000000000000000000000000000000000000000000
310
0000000000000000000000000000000000F500000000BE00000000000000000000000000000000000000000000000000000000000000000000BE000000000000000000F50000000000000000000000000000000000000000000000000000F500F5000000000000000000000000000000000000000000000000000000000000
310
000000002D00000000000000000000000000000000000000000000000000000000000000000000001500F50000000000F5F5000000000000000000000000000000000000F50000F500000000F5000000000000000000000000F50000F50000F500F5F500000000000000000000000000000000000000000000000000000000
310
00000000000000000000000000000000000000F500000000BE00000000000000000000000000000000000000000000000000000000000000000000BE000000000000000000F50000000000000000000000000000000000000000000000000000F500F500000000000000000000000000000000000000000000000000000000
310
0000000000002D00000000000000000000000000000000000000000000000000000000000000000000001500F50000000000F500000000000000000000000000000000000000F50000F500000000F5000000000000000000000000F50000F50000F500F5000000000000000000000000000000000000000000000000000000
310
000000000000000000000000000000000000000000F500000000BE00000000000000000000000000000000000000000000000000000000000000000000BE000000000000000000F50000000000000000000000000000000000000000000000000000F500F50000000000000000000000000000000000000000000000000000
310
00000000000000002D00000000000000000000000000000000000000000000000000000000000000000000001500F50000000000F500000000000000000000000000000000000000F50000F500000000F5000000000000000000000000F50000F50000F500F500000000000000000000000000000000000000000000000000
310
0000000000000000000000000000000000000000000000F500000000BE00000000000000000000000000000000000000000000000000000000000000000000BE000000000000000000F50000000000000000000000000000000000000000000000000000F500F5000000000000000000000000000000000000000000000000
310
000000000000000000002D00000000000000000000000000000000000000000000000000000000000000000000001500F50000000000F500000000000000000000000000000000000000F50000F5F5F5F5F5F5F5F500000000000000000000F50000F50000F500F50000000000000000000000000000000000000000000000
310
00000000000000000000000000000000000000000000000000F500000000BE00000000000000000000000000000000000000000000000000000000000000000000BE000000000000000000F50000000000000000000000000000000000000000000000000000F500F500000000000000000000000000000000000000000000
310
0000000000000000000000002D00000000000000000000000000000000000000000000000000000000000000000000001500F50000000000F500000000000000000000000000000000000000F5000000F5F500F5F5F5F500000000000000000000F50000F50000F500F5000000000000000000000000000000000000000000
310
000000000000000000000000000000000000000000000000000000F500000000BE00000000000000000000000000000000000000000000000000000000000000000000BE000000000000000000F50000000000000000000000000000000000000000000000000000F500F50000000000000000000000000000000000000000
310
00000000000000000000000000002D00000000000000000000000000000000000000000000000000000000000000000000001500F50000000000F500000000000000000000000000000000000000F500000000F50000F5000000000000000000000000F50000F50000F500F500000000000000000000000000000000000000
310
0000000000000000000000000000000000000000000000000000000000F500000000BE00000000000000000000000000000000000000000000000000000000000000000000BE000000000000000000F50000000000000000000000000000000000000000000000000000F5F5F5F5F5F5F5F5F5F5F5F5F5F5F5F5F5F5F5F5F5
310
F5F5F5F5F5F5F5F5F5F5F5F5F5F5F5F52DF5F5F5F5F5F5F5F5F5F5F5F5F5F5F5F5F5F5F5F5F5F5F5F5F5F5F5F5F5F5F5F5F5F5F5F5F5F5F5F5F5F5F5F500000000000000000000000000000000000000F5F5F5F5F5F500F5F5000000000000000000000000F5F5F5F5F5F5F5F5F50000000000000000000000000000000000
310
00000000000000000000000000000000000000000000000000000000000000F500000000BE00000000000000000000000000000000000000000000000000000000000000000000BE000000000000000000F5000000000000000000000000000000000000000000000000000000000000000000000000000000000000000000
310
0000000000000000000000000000000000002DF5F5000000000000000000000000000000000000000000000000000000000000000000000000000000000000000000000000000000000000000000000000000000000000000000F5F50000000000000000000000000000000000000000000000000000000000000000000000
310
000000000000000000000000000000000000000000000000000000000000000000F500000000BE00000000000000000000000000000000000000000000000000000000000000000000BE000000000000000000F50000000000000000000000000000000000000000000000000000F500F50000000000000000000000000000
310
00000000000000000000000000000000000000002DF500000000000000000000000000000000000000000000000000000000000000000000F500F5000000000000000000000000000000000000000000000000000000000000000000F5F5F50000000000000000000000000000000000000000000000000000000000000000
310
0000000000000000000000000000000000000000000000000000000000000000000000F500000000BE00000000000000000000000000000000000000000000000000000000000000000000BE000000000000000000F50000000000000000000000000000000000000000000000000000F5F5F5F5F5F5F5F5F5F5F5F5F5F5F5
310
F5F5F5F5F5F5F5F5F5F5F5F5F5F5F5F5F5F5F5F5F5F5F5F5F5F5F5F5F5F5F5F5F5F5F5F5F5F5F5F5F5F5F5F5F5F5F5F5F5F5F5F5F5F5F5F5F5F5F5F5F5000000000000000000000000000000000000000000000000000000000000000000F5F5F5000000000000000000000000000000000000000000000000000000000000
310
00000000000000000000000000000000000000000000000000000000000000000000000000F500000000BE00000000000000000000000000000000000000000000000000000000000000000000BE000000000000000000F50000000000000000000000000000000000000000000000000000F5F5F500000000000000000000
310
0000000000000000000000000000000000000000000000F5F5F5F5000000000000000000000000000000000000000000000000000000000000000000F5F5F500000000000000000000000000000000000000000000000000000000000000000000000000000000000000000000000000000000000000000000000000000000
310
000000000000000000000000000000000000000000000000000000000000000000000000000000F500000000BE00000000000000000000000000000000000000000000000000000000000000000000BE000000000000000000F50000000000000000000000000000000000000000000000000000F5F5F5F5F5F5F5F5F5F5F5
310
F5F5F5F5F5F5F5F5F5F5F5F5F5F5F5F5F5F5F5F5F5F5F5F5F5F5F5F5F5F5F5F5F5F5F5F5F5F5F5F5F5F5F5F5F5F5F5F5F5F5F5F5F5F5F5F5F5F5F5F5F5F5F5F5F50000000000000000000000000000000000000000000000000000000000000000000000000000000000000000000000000000000000000000000000000000
310
0000000000000000000000000000000000000000000000000000000000000000000000000000000000F500000000BE00000000000000000000000000000000000000000000000000000000000000000000BE000000000000000000F50000000000000000000000000000000000000000000000000000F50000000000000000
310
000000000000000000000000000000000000000000000000000000F5F5F5F50000000000000000000000000000000000000000000000000000000000000000000000F5000000000000000000000000000000000000000000000000000000000000000000000000000000000000000000000000000000000000000000000000
310
00000000000000000000000000000000000000000000000000000000000000000000000000000000000000F500000000BE00000000000000000000000000000000000000000000000000000000000000000000BE000000000000000000F5000000000000000000000000000000000000000000000000000000000000000000
310
0000000000000000000000000000000000000000000000000000000000F5F5F5F500000000000000000000000000000000000000000000000000000000000000000000000000000000000000000000000000000000000000000000000000000000000000000000000000000000000000000000000000000000000000000000
310
000000000000000000000000000000000000000000000000000000000000000000000000000000000000000000F500000000BE00000000000000000000000000000000000000000000000000000000000000000000BE000000000000000000F500000000000000000000000000000000000000000000000000000000000000
310
00000000000000000000000000000000000000000000000000000000000000000000000000000000000000000000000000000000000000000000000000000000000000000000000000000000000000000000000000000000000000000000000000000000000000000000000000000000000000000000000000000000000000
310
0000000000000000000000000000000000000000000000000000000000000000000000000000000000000000000000F500000000BE00000000000000000000000000000000000000000000000000000000000000000000BE000000000000000000F50000000000000000000000000000000000000000000000000000000000
310
00000000000000000000000000000000000000000000000000000000000000000000000000000000000000000000000000000000000000000000000000000000000000000000000000000000000000000000000000000000000000000000000000000000000000000000000000000000000000000000000000000000000000
310
00000000000000000000000000000000000000000000000000000000000000000000000000000000000000000000000000F500000000BE00000000000000000000000000000000000000000000000000000000000000000000BE000000000000000000F5000000000000000000000000000000000000000000000000000000
310
00000000000000000000000000000000000000000000000000000000000000000000F5F5F5F5F5F500000000000000000000000000000000000000000000000000000000000000000000000000000000000000000000000000000000000000000000F5F500F5F500F5F5F5F50000000000000000000000000000F5F5F5F5F5
310
000000000000000000000000000000000000000000000000000000000000000000000000000000000000000000000000000000F500000000BE00000000000000000000000000000000000000000000000000000000000000000000BE000000000000000000F500000000000000000000000000000000000000000000000000
310
000000000000000000000000000000000000000000000000000000000000000000000000F5F5F5F5F5F500000000000000000000000000000000000000000000000000000000000000000000000000000000000000000000000000000000000000000000F5F5F5F5F5F5F5F5F5F500000000000000000000000000F5F5F5F5
310
F5F5000000000000000000000000000000000000000000000000000000000000000000000000000000000000000000000000000000F500000000BE00000000000000000000000000000000000000000000000000000000000000000000BE000000000000000000F50000000000000000000000000000000000000000000000
310
00000000000000000000000000000000000000000000000000000000000000000000000000000000000000000000000000000000000000000000000000000000000000000000000000000000000000000000000000000000000000000000000000000000000000000000000000000000000000000000000000000000000000
310
00000000000000000000000000000000000000000000000000000000000000000000000000000000000000000000000000000000000000F500000000BE00000000000000000000000000000000000000000000000000000000000000000000BE000000000000000000F5000000000000000000000000000000000000000000
310
00000000000000000000000000000000000000000000000000000000000000000000000000000000000000000000000000000000000000000000000000000000000000000000000000000000000000000000000000000000000000000000000000000000000000000000000000000000000000000000000000000000000000
310
000000000000000000000000000000000000000000000000000000000000000000000000000000000000000000000000000000000000000000F500000000BE00000000000000000000000000000000000000000000000000000000000000000000BE000000000000000000F500000000000000000000000000000000000000
310
00000000000000000000000000000000000000000000000000000000000000000000000000000000000000000000000000000000000000000000000000000000000000000000000000000000000000000000000000000000000000000000000000000000000000000000000000000000000000000000000000000000000000
310
0000000000000000000000000000000000000000000000000000000000000000000000000000000000000000000000000000000000000000000000F500000000BE00000000000000000000000000000000000000000000000000000000000000000000BE000000000000000000F50000000000000000000000000000000000
310
00000000000000000000000000000000000000000000000000000000000000000000000000000000000000000000000000000000000000000000000000000000000000000000000000000000000000000000000000000000000000000000000000000000000000000000000000000000000000000000000000000000000000
310
00000000000000000000000000000000000000000000000000000000000000000000000000000000000000000000000000000000000000000000000000F500000000BE00000000000000000000000000000000000000000000000000000000000000000000BE000000000000000000F5000000000000000000000000000000
310
00000000000000000000000000000000000000000000000000000000000000000000000000000000000000000000000000000000000000000000000000000000000000000000000000000000000000000000000000000000000000000000000000000000000000000000000000000000000000000000000000000000000000
310
000000000000000000000000000000000000000000000000000000000000000000000000000000000000000000000000000000000000000000000000000000F500000000BE00000000000000000000000000000000000000000000000000000000000000000000BE000000000000000000F500000000000000000000000000
310
00000000000000000000000000000000000000000000000000000000000000000000000000000000000000000000000000000000000000000000000000000000000000000000000000000000000000000000000000000000000000000000000000000000000000000000000000000000000000000000000000000000000000
310
0000000000000000000000000000000000000000000000000000000000000000000000000000000000000000000000000000000000000000000000000000000000F500000000BE00000000000000000000000000000000000000000000000000000000000000000000BE000000000000000000F50000000000000000000000
310
00000000000000000000000000000000000000000000000000000000000000000000000000000000000000000000000000000000000000000000000000000000000000000000000000000000000000000000000000000000000000000000000000000000000000000000000000000000000000000000000000000000000000
310
00000000000000000000000000000000000000000000000000000000000000000000000000000000000000000000000000000000000000000000000000000000000000F500000000BE00000000000000000000000000000000000000000000000000000000000000000000BE000000000000000000F5000000000000000000
310
00000000000000000000000000000000000000000000000000000000000000000000000000000000000000000000000000000000000000000000000000000000000000000000000000000000000000000000000000000000000000000000000000000000000000000000000000000000000000000000000000000000000000
310
000000000000000000000000000000000000000000000000000000000000000000000000000000000000000000000000000000000000000000000000000000000000000000F500000000BE00000000000000000000000000000000000000000000000000000000000000000000BE000000000000000000F500000000000000
310
00000000000000000000000000000000000000000000000000000000000000000000000000000000000000000000000000000000000000000000000000000000000000000000000000000000000000000000000000000000000000000000000000000000000000000000000000000000000000000000000000000000000000
310
0000000000000000000000000000000000000000000000000000000000000000000000000000000000000000000000000000000000000000000000000000000000000000000000F500000000BE00000000000000000000000000000000000000000000000000000000000000000000BE000000000000000000F50000000000
310
00000000000000000000000000000000000000000000000000000000000000000000000000000000000000000000000000000000000000000000000000000000000000000000000000000000000000000000000000000000000000000000000000000000000000000000000000000000000000000000000000000000000000
310
00000000000000000000000000000000000000000000000000000000000000000000000000000000000000000000000000000000000000000000000000000000000000000000000000F500000000BE00000000000000000000000000000000000000000000000000000000000000000000BE000000000000000000F5F5F5F5
310
F5F5F5F5F5F5F5F5F5F5F5F5F5F5F5F5F5F5F5F5F5F5F5F5F5F5F5F5F5F5F5F5F5F5F5F5F5F5F5F5F5F5F5F5F5F5F5F5F5F5F5F5F5F5F5F5F5F5F5F5F5F5F5F5F5F5F5F5F5F5F5F5F5F5F5F5F5F5F5F5F5F5F5F5F5F5F5F5F5F5F5F5F5F5F5F5F5F5F5F5F5F5F5F5F5F5F5F5F5F5F5F5F5F5F5F5F5F5F5F5F5F5F5F5F5F5F5
310
F5F5F5F5F5F5F5F5F5F5F5F5F5F5F5F5F5F5F5F5F5F5F5F5F5F5F5F5F5F5F5F5F5F5F5F5F5F5F5F5F5F5F5F5F5F5F5F5F5F5F5F5F5F5F5F5F5F5F5F5F5F5F5F5F5F5F5F5F5F5F5F5F5F5F5F500000000BE00000000000000000000000000000000000000000000000000000000000000000000BE0000000000000000000000
310
00000000000000000000000000000000000000000000000000000000000000000000000000000000000000000000000000000000000000000000000000000000000000000000000000000000000000000000000000000000000000000000000000000000000000000000000000000000000000000000000000000000000000
310
00000000000000000000000000000000000000000000000000000000000000000000000000000000000000000000000000000000000000000000000000000000000000000000000000000000000000000000BE00000000000000000000000000000000000000000000000000000000000000000000BE000000000000000000
310
00000000000000000000000000000000000000000000000000000000000000000000000000000000000000000000000000000000000000000000000000000000000000000000000000000000000000000000000000000000000000000000000000000000000000000000000000000000000000000000000000000000000000
310
000000000000000000000000000000000000000000000000000000000000000000000000000000000000000000000000000000000000000000000000000000000000000000000000000000000000000000000000BE00000000000000000000000000000000000000000000000000000000000000000000BE00000000000000
310
00000000000000000000000000000000000000000000000000000000000000000000000000000000000000000000000000000000000000000000000000000000000000000000000000000000000000000000000000000000000000000000000000000000000000000000000000000000000000000000000000000000000000
310
0000000000000000000000000000000000000000000000000000000000000000000000000000000000000000000000000000000000000000000000000000000000000000000000000000000000000000000000000000BE00000000000000000000000000000000000000000000000000000000000000000000BE0000000000
310
00000000000000000000000000000000000000000000000000000000000000000000000000000000000000000000000000000000000000000000000000000000000000000000000000000000000000000000000000000000000000000000000000000000000000000000000000000000000000000000000000000000000000
310
00000000000000000000000000000000000000000000000000000000000000000000000000000000000000000000000000000000000000000000000000000000000000000000000000000000000000000000000000000000BE00000000000000000000000000000000000000000000000000000000000000000000BEBEBEBE
310
BEBEBEBEBEBEBEBEBEBEBEBEBEBEBEBEBEBEBEBEBEBEBEBEBEBEBEBEBEBEBEBEBEBEBEBEBEBEBEBEBEBEBEBEBEBEBEBEBEBEBEBEBEBEBEBEBEBEBEBEBEBEBEBEBEBEBEBEBEBEBEBEBEBEBEBEBEBEBEBEBEBEBEBEBEBEBEBEBEBEBEBEBEBEBEBEBEBEBEBEBEBEBEBEBEBEBEBEBEBEBEBEBEBEBEBEBEBEBEBEBEBEBEBEBEBEBE
310
BEBEBEBEBEBEBEBEBEBEBEBEBEBEBEBEBEBEBEBEBEBEBEBEBEBEBEBEBEBEBEBEBEBEBEBEBEBEBEBEBEBEBEBEBEBEBEBEBEBEBEBEBEBEBEBEBEBEBEBEBEBEBEBEBEBEBEBEBEBEBEBEBEBEBEBEBEBEBEBEBEBEBEBEBEBEBEBEBEBEBE000000000000000000000000000000000000000000000000000000000000000000000000
310
00000000000000000000000000000000000000000000000000000000000000000000000000000000000000000000000000000000000000000000000000000000000000000000000000000000000000000000000000000000000000000000000000000000000000000000000000000000000000000000000000000000000000
310
0000000000000000000000000000000000000000000000000000000000000000000000000000000000000000000000000000000000000000000000000000000000000000000000000000000000000000000000000000000000000000000000000000000000000000000000000000
  0
XRECORD
  5
4D74
102
{ACAD_REACTORS
330
4D73
102
}
330
4D73
100
AcDbXrecord
280
     1
102
SHADEPLOT
 70
     0
102
SHADEPLOTRESLEVEL
 70
     2
102
SHADEPLOTCUSTOMDPI
 70
   300
  0
XRECORD
  5
4D76
102
{ACAD_REACTORS
330
4D75
102
}
330
4D75
100
AcDbXrecord
280
     1
102
SHADEPLOT
 70
     0
102
SHADEPLOTRESLEVEL
 70
     2
102
SHADEPLOTCUSTOMDPI
 70
   300
  0
XRECORD
  5
4D78
102
{ACAD_REACTORS
330
4CD0
102
}
330
4CD0
100
AcDbXrecord
280
     1
102
MATERIAL
148
0.0
149
0.0
149
0.0
 93
        0
 94
      127
282
     0
 72
     0
 77
     0
171
     0
175
     0
179
     0
273
     0
  0
XRECORD
  5
4CD2
102
{ACAD_REACTORS
330
4CD0
102
}
330
4CD0
100
AcDbXrecord
280
     1
270
     1
271
     1
  0
XRECORD
  5
4CD1
102
{ACAD_REACTORS
330
4CD0
102
}
330
4CD0
100
AcDbXrecord
280
     1
270
     1
271
     1
  0
XRECORD
  5
4CD5
102
{ACAD_REACTORS
330
4CD0
102
}
330
4CD0
100
AcDbXrecord
280
     1
270
     1
271
     1
  0
XRECORD
  5
4CD4
102
{ACAD_REACTORS
330
4CD0
102
}
330
4CD0
100
AcDbXrecord
280
     1
270
     1
271
     1
  0
XRECORD
  5
4CD6
102
{ACAD_REACTORS
330
4CD0
102
}
330
4CD0
100
AcDbXrecord
280
     1
270
     1
271
     1
  0
XRECORD
  5
4CD3
102
{ACAD_REACTORS
330
4CD0
102
}
330
4CD0
100
AcDbXrecord
280
     1
270
     1
271
     1
  0
XRECORD
  5
4D77
102
{ACAD_REACTORS
330
4CC8
102
}
330
4CC8
100
AcDbXrecord
280
     1
102
MATERIAL
148
0.0
149
0.0
149
0.0
 93
        0
 94
      127
282
     0
 72
     0
 77
     0
171
     0
175
     0
179
     0
273
     0
  0
XRECORD
  5
4CCA
102
{ACAD_REACTORS
330
4CC8
102
}
330
4CC8
100
AcDbXrecord
280
     1
270
     1
271
     1
  0
XRECORD
  5
4CC9
102
{ACAD_REACTORS
330
4CC8
102
}
330
4CC8
100
AcDbXrecord
280
     1
270
     1
271
     1
  0
XRECORD
  5
4CCD
102
{ACAD_REACTORS
330
4CC8
102
}
330
4CC8
100
AcDbXrecord
280
     1
270
     1
271
     1
  0
XRECORD
  5
4CCC
102
{ACAD_REACTORS
330
4CC8
102
}
330
4CC8
100
AcDbXrecord
280
     1
270
     1
271
     1
  0
XRECORD
  5
4CCE
102
{ACAD_REACTORS
330
4CC8
102
}
330
4CC8
100
AcDbXrecord
280
     1
270
     1
271
     1
  0
XRECORD
  5
4CCB
102
{ACAD_REACTORS
330
4CC8
102
}
330
4CC8
100
AcDbXrecord
280
     1
270
     1
271
     1
  0
XRECORD
  5
4D79
102
{ACAD_REACTORS
330
4CD8
102
}
330
4CD8
100
AcDbXrecord
280
     1
102
MATERIAL
148
0.0
149
0.0
149
0.0
 93
        0
 94
      127
282
     0
 72
     0
 77
     0
171
     0
175
     0
179
     0
273
     0
  0
XRECORD
  5
4CDA
102
{ACAD_REACTORS
330
4CD8
102
}
330
4CD8
100
AcDbXrecord
280
     1
270
     1
271
     1
  0
XRECORD
  5
4CD9
102
{ACAD_REACTORS
330
4CD8
102
}
330
4CD8
100
AcDbXrecord
280
     1
270
     1
271
     1
  0
XRECORD
  5
4CDD
102
{ACAD_REACTORS
330
4CD8
102
}
330
4CD8
100
AcDbXrecord
280
     1
270
     1
271
     1
  0
XRECORD
  5
4CDC
102
{ACAD_REACTORS
330
4CD8
102
}
330
4CD8
100
AcDbXrecord
280
     1
270
     1
271
     1
  0
XRECORD
  5
4CDE
102
{ACAD_REACTORS
330
4CD8
102
}
330
4CD8
100
AcDbXrecord
280
     1
270
     1
271
     1
  0
XRECORD
  5
4CDB
102
{ACAD_REACTORS
330
4CD8
102
}
330
4CD8
100
AcDbXrecord
280
     1
270
     1
271
     1
  0
XRECORD
  5
4D6B
102
{ACAD_REACTORS
330
4D6A
102
}
330
4D6A
100
AcDbXrecord
280
     1
102
ACAD_ROUNDTRIP_2012_MLEADER_STYLE
298
     1
  0
CELLSTYLEMAP
  5
4D69
102
{ACAD_REACTORS
330
4D68
102
}
330
4D68
100
AcDbCellStyleMap
 90
        3
300
CELLSTYLE
  1
TABLEFORMAT_BEGIN
 90
        5
170
     1
 91
        0
 92
    32768
 62
   257
 93
        1
300
CONTENTFORMAT
  1
CONTENTFORMAT_BEGIN
 90
        0
 91
        0
 92
        4
 93
        0
300

 40
0.0
140
1.0
 94
        5
 62
     0
340
11
144
6.0
309
CONTENTFORMAT_END
171
     1
301
MARGIN
  1
CELLMARGIN_BEGIN
 40
1.5
 40
1.5
 40
1.5
 40
1.5
 40
0.18
 40
0.18
309
CELLMARGIN_END
 94
        6
 95
        1
302
GRIDFORMAT
  1
GRIDFORMAT_BEGIN
 90
        0
 91
        1
 62
     0
 92
       -2
340
0
 93
        0
 40
0.045
309
GRIDFORMAT_END
 95
        2
302
GRIDFORMAT
  1
GRIDFORMAT_BEGIN
 90
        0
 91
        1
 62
     0
 92
       -2
340
0
 93
        0
 40
0.045
309
GRIDFORMAT_END
 95
        4
302
GRIDFORMAT
  1
GRIDFORMAT_BEGIN
 90
        0
 91
        1
 62
     0
 92
       -2
340
0
 93
        0
 40
0.045
309
GRIDFORMAT_END
 95
        8
302
GRIDFORMAT
  1
GRIDFORMAT_BEGIN
 90
        0
 91
        1
 62
     0
 92
       -2
340
0
 93
        0
 40
0.045
309
GRIDFORMAT_END
 95
       16
302
GRIDFORMAT
  1
GRIDFORMAT_BEGIN
 90
        0
 91
        1
 62
     0
 92
       -2
340
0
 93
        0
 40
0.045
309
GRIDFORMAT_END
 95
       32
302
GRIDFORMAT
  1
GRIDFORMAT_BEGIN
 90
        0
 91
        1
 62
     0
 92
       -2
340
0
 93
        0
 40
0.045
309
GRIDFORMAT_END
309
TABLEFORMAT_END
  1
CELLSTYLE_BEGIN
 90
        1
 91
        1
300
_TITLE
309
CELLSTYLE_END
300
CELLSTYLE
  1
TABLEFORMAT_BEGIN
 90
        5
170
     1
 91
        0
 92
        0
 62
   257
 93
        1
300
CONTENTFORMAT
  1
CONTENTFORMAT_BEGIN
 90
        0
 91
        0
 92
        4
 93
        0
300

 40
0.0
140
1.0
 94
        5
 62
     0
340
11
144
4.5
309
CONTENTFORMAT_END
171
     1
301
MARGIN
  1
CELLMARGIN_BEGIN
 40
1.5
 40
1.5
 40
1.5
 40
1.5
 40
0.18
 40
0.18
309
CELLMARGIN_END
 94
        6
 95
        1
302
GRIDFORMAT
  1
GRIDFORMAT_BEGIN
 90
        0
 91
        1
 62
     0
 92
       -2
340
0
 93
        0
 40
0.045
309
GRIDFORMAT_END
 95
        2
302
GRIDFORMAT
  1
GRIDFORMAT_BEGIN
 90
        0
 91
        1
 62
     0
 92
       -2
340
0
 93
        0
 40
0.045
309
GRIDFORMAT_END
 95
        4
302
GRIDFORMAT
  1
GRIDFORMAT_BEGIN
 90
        0
 91
        1
 62
     0
 92
       -2
340
0
 93
        0
 40
0.045
309
GRIDFORMAT_END
 95
        8
302
GRIDFORMAT
  1
GRIDFORMAT_BEGIN
 90
        0
 91
        1
 62
     0
 92
       -2
340
0
 93
        0
 40
0.045
309
GRIDFORMAT_END
 95
       16
302
GRIDFORMAT
  1
GRIDFORMAT_BEGIN
 90
        0
 91
        1
 62
     0
 92
       -2
340
0
 93
        0
 40
0.045
309
GRIDFORMAT_END
 95
       32
302
GRIDFORMAT
  1
GRIDFORMAT_BEGIN
 90
        0
 91
        1
 62
     0
 92
       -2
340
0
 93
        0
 40
0.045
309
GRIDFORMAT_END
309
TABLEFORMAT_END
  1
CELLSTYLE_BEGIN
 90
        2
 91
        1
300
_HEADER
309
CELLSTYLE_END
300
CELLSTYLE
  1
TABLEFORMAT_BEGIN
 90
        5
170
     1
 91
        0
 92
        0
 62
   257
 93
        1
300
CONTENTFORMAT
  1
CONTENTFORMAT_BEGIN
 90
        0
 91
        0
 92
        4
 93
        0
300

 40
0.0
140
1.0
 94
        2
 62
     0
340
11
144
4.5
309
CONTENTFORMAT_END
171
     1
301
MARGIN
  1
CELLMARGIN_BEGIN
 40
1.5
 40
1.5
 40
1.5
 40
1.5
 40
0.18
 40
0.18
309
CELLMARGIN_END
 94
        6
 95
        1
302
GRIDFORMAT
  1
GRIDFORMAT_BEGIN
 90
        0
 91
        1
 62
     0
 92
       -2
340
0
 93
        0
 40
0.045
309
GRIDFORMAT_END
 95
        2
302
GRIDFORMAT
  1
GRIDFORMAT_BEGIN
 90
        0
 91
        1
 62
     0
 92
       -2
340
0
 93
        0
 40
0.045
309
GRIDFORMAT_END
 95
        4
302
GRIDFORMAT
  1
GRIDFORMAT_BEGIN
 90
        0
 91
        1
 62
     0
 92
       -2
340
0
 93
        0
 40
0.045
309
GRIDFORMAT_END
 95
        8
302
GRIDFORMAT
  1
GRIDFORMAT_BEGIN
 90
        0
 91
        1
 62
     0
 92
       -2
340
0
 93
        0
 40
0.045
309
GRIDFORMAT_END
 95
       16
302
GRIDFORMAT
  1
GRIDFORMAT_BEGIN
 90
        0
 91
        1
 62
     0
 92
       -2
340
0
 93
        0
 40
0.045
309
GRIDFORMAT_END
 95
       32
302
GRIDFORMAT
  1
GRIDFORMAT_BEGIN
 90
        0
 91
        1
 62
     0
 92
       -2
340
0
 93
        0
 40
0.045
309
GRIDFORMAT_END
309
TABLEFORMAT_END
  1
CELLSTYLE_BEGIN
 90
        3
 91
        2
300
_DATA
309
CELLSTYLE_END
  0
XRECORD
  5
4D72
102
{ACAD_REACTORS
330
4D68
102
}
330
4D68
100
AcDbXrecord
280
     1
102
ACAD_ROUNDTRIP_PRE2007_TABLESTYLE
 90
        4
 91
        0
  1

 92
        4
 93
        0
  2

 94
        4
 95
        0
  3

  0
XRECORD
  5
4D85
102
{ACAD_REACTORS
330
4D84
102
}
330
4D84
100
AcDbXrecord
280
     1
102
RTVSPropertyOp0
 70
     1
102
RTVSPropertyOp1
 70
     1
102
RTVSPropertyOp2
 70
     1
102
RTVSPropertyOp3
 70
     1
102
RTVSPropertyOp4
 70
     1
102
RTVSPropertyOp5
 70
     1
102
RTVSPropertyOp6
 70
     1
102
RTVSPropertyOp7
 70
     1
102
RTVSPropertyOp8
 70
     1
102
RTVSPropertyOp9
 70
     1
102
RTVSPropertyOp10
 70
     1
102
RTVSPropertyOp11
 70
     1
102
RTVSPropertyOp12
 70
     1
102
RTVSPropertyOp13
 70
     1
102
RTVSPropertyOp14
 70
     1
102
RTVSPropertyOp15
 70
     1
102
RTVSPropertyOp16
 70
     1
102
RTVSPropertyOp17
 70
     1
102
RTVSPropertyOp18
 70
     1
102
RTVSPropertyOp19
 70
     1
102
RTVSPropertyOp20
 70
     1
102
RTVSPropertyOp21
 70
     1
102
RTVSPropertyOp22
 70
     1
102
RTVSPropertyOp23
 70
     1
102
RTVSPropertyOp24
 70
     1
102
RTVSPropertyOp25
 70
     1
102
RTVSPropertyOp26
 70
     1
102
RTVSPropertyOp27
 70
     1
102
RTVSPropertyOp28
 70
     1
102
RTVSPropertyOp29
 70
     1
102
RTVSPropertyOp30
 70
     1
102
RTVSPropertyOp31
 70
     1
102
RTVSPropertyOp32
 70
     1
  0
XRECORD
  5
4D83
102
{ACAD_REACTORS
330
4D82
102
}
330
4D82
100
AcDbXrecord
280
     1
102
RTVSPropertyOp0
 70
     1
102
RTVSPropertyOp1
 70
     1
102
RTVSPropertyOp2
 70
     1
102
RTVSPropertyOp3
 70
     1
102
RTVSPropertyOp4
 70
     1
102
RTVSPropertyOp5
 70
     1
102
RTVSPropertyOp6
 70
     1
102
RTVSPropertyOp7
 70
     1
102
RTVSPropertyOp8
 70
     1
102
RTVSPropertyOp9
 70
     1
102
RTVSPropertyOp10
 70
     1
102
RTVSPropertyOp11
 70
     1
102
RTVSPropertyOp12
 70
     1
102
RTVSPropertyOp13
 70
     1
102
RTVSPropertyOp14
 70
     1
102
RTVSPropertyOp15
 70
     1
102
RTVSPropertyOp16
 70
     1
102
RTVSPropertyOp17
 70
     1
102
RTVSPropertyOp18
 70
     1
102
RTVSPropertyOp19
 70
     1
102
RTVSPropertyOp20
 70
     1
102
RTVSPropertyOp21
 70
     1
102
RTVSPropertyOp22
 70
     1
102
RTVSPropertyOp23
 70
     1
102
RTVSPropertyOp24
 70
     1
102
RTVSPropertyOp25
 70
     1
102
RTVSPropertyOp26
 70
     1
102
RTVSPropertyOp27
 70
     1
102
RTVSPropertyOp28
 70
     1
102
RTVSPropertyOp29
 70
     1
102
RTVSPropertyOp30
 70
     1
102
RTVSPropertyOp31
 70
     1
102
RTVSPropertyOp32
 70
     1
  0
XRECORD
  5
4D91
102
{ACAD_REACTORS
330
4D90
102
}
330
4D90
100
AcDbXrecord
280
     1
102
RTVSPropertyOp0
 70
     1
102
RTVSPropertyOp1
 70
     1
102
RTVSPropertyOp2
 70
     1
102
RTVSPropertyOp3
 70
     1
102
RTVSPropertyOp4
 70
     1
102
RTVSPropertyOp5
 70
     1
102
RTVSPropertyOp6
 70
     1
102
RTVSPropertyOp7
 70
     1
102
RTVSPropertyOp8
 70
     1
102
RTVSPropertyOp9
 70
     1
102
RTVSPropertyOp10
 70
     1
102
RTVSPropertyOp11
 70
     1
102
RTVSPropertyOp12
 70
     1
102
RTVSPropertyOp13
 70
     1
102
RTVSPropertyOp14
 70
     1
102
RTVSPropertyOp15
 70
     1
102
RTVSPropertyOp16
 70
     1
102
RTVSPropertyOp17
 70
     1
102
RTVSPropertyOp18
 70
     1
102
RTVSPropertyOp19
 70
     1
102
RTVSPropertyOp20
 70
     1
102
RTVSPropertyOp21
 70
     1
102
RTVSPropertyOp22
 70
     1
102
RTVSPropertyOp23
 70
     1
102
RTVSPropertyOp24
 70
     1
102
RTVSPropertyOp25
 70
     1
102
RTVSPropertyOp26
 70
     1
102
RTVSPropertyOp27
 70
     1
102
RTVSPropertyOp28
 70
     1
102
RTVSPropertyOp29
 70
     1
102
RTVSPropertyOp30
 70
     1
102
RTVSPropertyOp31
 70
     1
102
RTVSPropertyOp32
 70
     1
  0
XRECORD
  5
4D99
102
{ACAD_REACTORS
330
4D98
102
}
330
4D98
100
AcDbXrecord
280
     1
102
RTVSPropertyOp0
 70
     1
102
RTVSPropertyOp1
 70
     1
102
RTVSPropertyOp2
 70
     1
102
RTVSPropertyOp3
 70
     1
102
RTVSPropertyOp4
 70
     1
102
RTVSPropertyOp5
 70
     1
102
RTVSPropertyOp6
 70
     1
102
RTVSPropertyOp7
 70
     1
102
RTVSPropertyOp8
 70
     1
102
RTVSPropertyOp9
 70
     1
102
RTVSPropertyOp10
 70
     1
102
RTVSPropertyOp11
 70
     1
102
RTVSPropertyOp12
 70
     1
102
RTVSPropertyOp13
 70
     1
102
RTVSPropertyOp14
 70
     1
102
RTVSPropertyOp15
 70
     1
102
RTVSPropertyOp16
 70
     1
102
RTVSPropertyOp17
 70
     1
102
RTVSPropertyOp18
 70
     1
102
RTVSPropertyOp19
 70
     1
102
RTVSPropertyOp20
 70
     1
102
RTVSPropertyOp21
 70
     1
102
RTVSPropertyOp22
 70
     1
102
RTVSPropertyOp23
 70
     1
102
RTVSPropertyOp24
 70
     1
102
RTVSPropertyOp25
 70
     1
102
RTVSPropertyOp26
 70
     1
102
RTVSPropertyOp27
 70
     1
102
RTVSPropertyOp28
 70
     1
102
RTVSPropertyOp29
 70
     1
102
RTVSPropertyOp30
 70
     1
102
RTVSPropertyOp31
 70
     1
102
RTVSPropertyOp32
 70
     1
  0
XRECORD
  5
4D8B
102
{ACAD_REACTORS
330
4D8A
102
}
330
4D8A
100
AcDbXrecord
280
     1
102
RTVSPropertyOp0
 70
     1
102
RTVSPropertyOp1
 70
     1
102
RTVSPropertyOp2
 70
     1
102
RTVSPropertyOp3
 70
     1
102
RTVSPropertyOp4
 70
     1
102
RTVSPropertyOp5
 70
     1
102
RTVSPropertyOp6
 70
     1
102
RTVSPropertyOp7
 70
     1
102
RTVSPropertyOp8
 70
     1
102
RTVSPropertyOp9
 70
     1
102
RTVSPropertyOp10
 70
     1
102
RTVSPropertyOp11
 70
     1
102
RTVSPropertyOp12
 70
     1
102
RTVSPropertyOp13
 70
     1
102
RTVSPropertyOp14
 70
     1
102
RTVSPropertyOp15
 70
     1
102
RTVSPropertyOp16
 70
     1
102
RTVSPropertyOp17
 70
     1
102
RTVSPropertyOp18
 70
     1
102
RTVSPropertyOp19
 70
     1
102
RTVSPropertyOp20
 70
     1
102
RTVSPropertyOp21
 70
     1
102
RTVSPropertyOp22
 70
     1
102
RTVSPropertyOp23
 70
     1
102
RTVSPropertyOp24
 70
     1
102
RTVSPropertyOp25
 70
     1
102
RTVSPropertyOp26
 70
     1
102
RTVSPropertyOp27
 70
     1
102
RTVSPropertyOp28
 70
     1
102
RTVSPropertyOp29
 70
     1
102
RTVSPropertyOp30
 70
     1
102
RTVSPropertyOp31
 70
     1
102
RTVSPropertyOp32
 70
     1
  0
XRECORD
  5
4D8F
102
{ACAD_REACTORS
330
4D8E
102
}
330
4D8E
100
AcDbXrecord
280
     1
102
RTVSPropertyOp0
 70
     1
102
RTVSPropertyOp1
 70
     1
102
RTVSPropertyOp2
 70
     1
102
RTVSPropertyOp3
 70
     1
102
RTVSPropertyOp4
 70
     1
102
RTVSPropertyOp5
 70
     1
102
RTVSPropertyOp6
 70
     1
102
RTVSPropertyOp7
 70
     1
102
RTVSPropertyOp8
 70
     1
102
RTVSPropertyOp9
 70
     1
102
RTVSPropertyOp10
 70
     1
102
RTVSPropertyOp11
 70
     1
102
RTVSPropertyOp12
 70
     1
102
RTVSPropertyOp13
 70
     1
102
RTVSPropertyOp14
 70
     1
102
RTVSPropertyOp15
 70
     1
102
RTVSPropertyOp16
 70
     1
102
RTVSPropertyOp17
 70
     1
102
RTVSPropertyOp18
 70
     1
102
RTVSPropertyOp19
 70
     1
102
RTVSPropertyOp20
 70
     1
102
RTVSPropertyOp21
 70
     1
102
RTVSPropertyOp22
 70
     1
102
RTVSPropertyOp23
 70
     1
102
RTVSPropertyOp24
 70
     1
102
RTVSPropertyOp25
 70
     1
102
RTVSPropertyOp26
 70
     1
102
RTVSPropertyOp27
 70
     1
102
RTVSPropertyOp28
 70
     1
102
RTVSPropertyOp29
 70
     1
102
RTVSPropertyOp30
 70
     1
102
RTVSPropertyOp31
 70
     1
102
RTVSPropertyOp32
 70
     1
  0
XRECORD
  5
4DA9
102
{ACAD_REACTORS
330
4DA8
102
}
330
4DA8
100
AcDbXrecord
280
     1
102
RTVSPropertyOp0
 70
     0
102
RTVSPropertyOp1
 70
     0
102
RTVSPropertyOp2
 70
     0
102
RTVSPropertyOp3
 70
     0
102
RTVSPropertyOp4
 70
     0
102
RTVSPropertyOp5
 70
     0
102
RTVSPropertyOp6
 70
     0
102
RTVSPropertyOp7
 70
     0
102
RTVSPropertyOp8
 70
     0
102
RTVSPropertyOp9
 70
     0
102
RTVSPropertyOp10
 70
     0
102
RTVSPropertyOp11
 70
     0
102
RTVSPropertyOp12
 70
     0
102
RTVSPropertyOp13
 70
     0
102
RTVSPropertyOp14
 70
     2
102
RTVSPropertyOp15
 70
     0
102
RTVSPropertyOp16
 70
     0
102
RTVSPropertyOp17
 70
     0
102
RTVSPropertyOp18
 70
     0
102
RTVSPropertyOp19
 70
     0
102
RTVSPropertyOp20
 70
     0
102
RTVSPropertyOp21
 70
     0
102
RTVSPropertyOp22
 70
     0
102
RTVSPropertyOp23
 70
     0
102
RTVSPropertyOp24
 70
     0
102
RTVSPropertyOp25
 70
     0
102
RTVSPropertyOp26
 70
     0
102
RTVSPropertyOp27
 70
     0
102
RTVSPropertyOp28
 70
     1
102
RTVSPropertyOp29
 70
     1
102
RTVSPropertyOp30
 70
     1
102
RTVSPropertyOp31
 70
     1
102
RTVSPropertyOp32
 70
     1
  0
XRECORD
  5
4D97
102
{ACAD_REACTORS
330
4D96
102
}
330
4D96
100
AcDbXrecord
280
     1
102
RTVSPropertyOp0
 70
     1
102
RTVSPropertyOp1
 70
     1
102
RTVSPropertyOp2
 70
     1
102
RTVSPropertyOp3
 70
     1
102
RTVSPropertyOp4
 70
     1
102
RTVSPropertyOp5
 70
     1
102
RTVSPropertyOp6
 70
     1
102
RTVSPropertyOp7
 70
     1
102
RTVSPropertyOp8
 70
     1
102
RTVSPropertyOp9
 70
     1
102
RTVSPropertyOp10
 70
     1
102
RTVSPropertyOp11
 70
     1
102
RTVSPropertyOp12
 70
     1
102
RTVSPropertyOp13
 70
     1
102
RTVSPropertyOp14
 70
     1
102
RTVSPropertyOp15
 70
     1
102
RTVSPropertyOp16
 70
     1
102
RTVSPropertyOp17
 70
     1
102
RTVSPropertyOp18
 70
     1
102
RTVSPropertyOp19
 70
     1
102
RTVSPropertyOp20
 70
     1
102
RTVSPropertyOp21
 70
     1
102
RTVSPropertyOp22
 70
     1
102
RTVSPropertyOp23
 70
     1
102
RTVSPropertyOp24
 70
     1
102
RTVSPropertyOp25
 70
     1
102
RTVSPropertyOp26
 70
     1
102
RTVSPropertyOp27
 70
     1
102
RTVSPropertyOp28
 70
     1
102
RTVSPropertyOp29
 70
     1
102
RTVSPropertyOp30
 70
     1
102
RTVSPropertyOp31
 70
     1
102
RTVSPropertyOp32
 70
     1
  0
XRECORD
  5
4D7B
102
{ACAD_REACTORS
330
4D7A
102
}
330
4D7A
100
AcDbXrecord
280
     1
102
RTVSPropertyOp0
 70
     1
102
RTVSPropertyOp1
 70
     1
102
RTVSPropertyOp2
 70
     1
102
RTVSPropertyOp3
 70
     1
102
RTVSPropertyOp4
 70
     1
102
RTVSPropertyOp5
 70
     1
102
RTVSPropertyOp6
 70
     1
102
RTVSPropertyOp7
 70
     1
102
RTVSPropertyOp8
 70
     1
102
RTVSPropertyOp9
 70
     1
102
RTVSPropertyOp10
 70
     1
102
RTVSPropertyOp11
 70
     1
102
RTVSPropertyOp12
 70
     1
102
RTVSPropertyOp13
 70
     1
102
RTVSPropertyOp14
 70
     1
102
RTVSPropertyOp15
 70
     1
102
RTVSPropertyOp16
 70
     1
102
RTVSPropertyOp17
 70
     1
102
RTVSPropertyOp18
 70
     1
102
RTVSPropertyOp19
 70
     1
102
RTVSPropertyOp20
 70
     1
102
RTVSPropertyOp21
 70
     1
102
RTVSPropertyOp22
 70
     1
102
RTVSPropertyOp23
 70
     1
102
RTVSPropertyOp24
 70
     1
102
RTVSPropertyOp25
 70
     1
102
RTVSPropertyOp26
 70
     1
102
RTVSPropertyOp27
 70
     1
102
RTVSPropertyOp28
 70
     1
102
RTVSPropertyOp29
 70
     1
102
RTVSPropertyOp30
 70
     1
102
RTVSPropertyOp31
 70
     1
102
RTVSPropertyOp32
 70
     1
  0
XRECORD
  5
4D7D
102
{ACAD_REACTORS
330
4D7C
102
}
330
4D7C
100
AcDbXrecord
280
     1
102
RTVSPropertyOp0
 70
     1
102
RTVSPropertyOp1
 70
     1
102
RTVSPropertyOp2
 70
     1
102
RTVSPropertyOp3
 70
     1
102
RTVSPropertyOp4
 70
     1
102
RTVSPropertyOp5
 70
     1
102
RTVSPropertyOp6
 70
     1
102
RTVSPropertyOp7
 70
     1
102
RTVSPropertyOp8
 70
     1
102
RTVSPropertyOp9
 70
     1
102
RTVSPropertyOp10
 70
     1
102
RTVSPropertyOp11
 70
     1
102
RTVSPropertyOp12
 70
     1
102
RTVSPropertyOp13
 70
     1
102
RTVSPropertyOp14
 70
     1
102
RTVSPropertyOp15
 70
     1
102
RTVSPropertyOp16
 70
     1
102
RTVSPropertyOp17
 70
     1
102
RTVSPropertyOp18
 70
     1
102
RTVSPropertyOp19
 70
     1
102
RTVSPropertyOp20
 70
     1
102
RTVSPropertyOp21
 70
     1
102
RTVSPropertyOp22
 70
     1
102
RTVSPropertyOp23
 70
     1
102
RTVSPropertyOp24
 70
     1
102
RTVSPropertyOp25
 70
     1
102
RTVSPropertyOp26
 70
     1
102
RTVSPropertyOp27
 70
     1
102
RTVSPropertyOp28
 70
     1
102
RTVSPropertyOp29
 70
     1
102
RTVSPropertyOp30
 70
     1
102
RTVSPropertyOp31
 70
     1
102
RTVSPropertyOp32
 70
     1
  0
XRECORD
  5
4D7F
102
{ACAD_REACTORS
330
4D7E
102
}
330
4D7E
100
AcDbXrecord
280
     1
102
RTVSPropertyOp0
 70
     1
102
RTVSPropertyOp1
 70
     1
102
RTVSPropertyOp2
 70
     1
102
RTVSPropertyOp3
 70
     1
102
RTVSPropertyOp4
 70
     1
102
RTVSPropertyOp5
 70
     1
102
RTVSPropertyOp6
 70
     1
102
RTVSPropertyOp7
 70
     1
102
RTVSPropertyOp8
 70
     1
102
RTVSPropertyOp9
 70
     1
102
RTVSPropertyOp10
 70
     1
102
RTVSPropertyOp11
 70
     1
102
RTVSPropertyOp12
 70
     1
102
RTVSPropertyOp13
 70
     1
102
RTVSPropertyOp14
 70
     1
102
RTVSPropertyOp15
 70
     1
102
RTVSPropertyOp16
 70
     1
102
RTVSPropertyOp17
 70
     1
102
RTVSPropertyOp18
 70
     1
102
RTVSPropertyOp19
 70
     1
102
RTVSPropertyOp20
 70
     1
102
RTVSPropertyOp21
 70
     1
102
RTVSPropertyOp22
 70
     1
102
RTVSPropertyOp23
 70
     1
102
RTVSPropertyOp24
 70
     1
102
RTVSPropertyOp25
 70
     1
102
RTVSPropertyOp26
 70
     1
102
RTVSPropertyOp27
 70
     1
102
RTVSPropertyOp28
 70
     1
102
RTVSPropertyOp29
 70
     1
102
RTVSPropertyOp30
 70
     1
102
RTVSPropertyOp31
 70
     1
102
RTVSPropertyOp32
 70
     1
  0
XRECORD
  5
4D81
102
{ACAD_REACTORS
330
4D80
102
}
330
4D80
100
AcDbXrecord
280
     1
102
RTVSPropertyOp0
 70
     1
102
RTVSPropertyOp1
 70
     1
102
RTVSPropertyOp2
 70
     1
102
RTVSPropertyOp3
 70
     1
102
RTVSPropertyOp4
 70
     1
102
RTVSPropertyOp5
 70
     1
102
RTVSPropertyOp6
 70
     1
102
RTVSPropertyOp7
 70
     1
102
RTVSPropertyOp8
 70
     1
102
RTVSPropertyOp9
 70
     1
102
RTVSPropertyOp10
 70
     1
102
RTVSPropertyOp11
 70
     1
102
RTVSPropertyOp12
 70
     1
102
RTVSPropertyOp13
 70
     1
102
RTVSPropertyOp14
 70
     1
102
RTVSPropertyOp15
 70
     1
102
RTVSPropertyOp16
 70
     1
102
RTVSPropertyOp17
 70
     1
102
RTVSPropertyOp18
 70
     1
102
RTVSPropertyOp19
 70
     1
102
RTVSPropertyOp20
 70
     1
102
RTVSPropertyOp21
 70
     1
102
RTVSPropertyOp22
 70
     1
102
RTVSPropertyOp23
 70
     1
102
RTVSPropertyOp24
 70
     1
102
RTVSPropertyOp25
 70
     1
102
RTVSPropertyOp26
 70
     1
102
RTVSPropertyOp27
 70
     1
102
RTVSPropertyOp28
 70
     1
102
RTVSPropertyOp29
 70
     1
102
RTVSPropertyOp30
 70
     1
102
RTVSPropertyOp31
 70
     1
102
RTVSPropertyOp32
 70
     1
  0
XRECORD
  5
4D89
102
{ACAD_REACTORS
330
4D88
102
}
330
4D88
100
AcDbXrecord
280
     1
102
RTVSPropertyOp0
 70
     1
102
RTVSPropertyOp1
 70
     1
102
RTVSPropertyOp2
 70
     1
102
RTVSPropertyOp3
 70
     1
102
RTVSPropertyOp4
 70
     1
102
RTVSPropertyOp5
 70
     1
102
RTVSPropertyOp6
 70
     1
102
RTVSPropertyOp7
 70
     1
102
RTVSPropertyOp8
 70
     1
102
RTVSPropertyOp9
 70
     1
102
RTVSPropertyOp10
 70
     1
102
RTVSPropertyOp11
 70
     1
102
RTVSPropertyOp12
 70
     1
102
RTVSPropertyOp13
 70
     1
102
RTVSPropertyOp14
 70
     1
102
RTVSPropertyOp15
 70
     1
102
RTVSPropertyOp16
 70
     1
102
RTVSPropertyOp17
 70
     1
102
RTVSPropertyOp18
 70
     1
102
RTVSPropertyOp19
 70
     1
102
RTVSPropertyOp20
 70
     1
102
RTVSPropertyOp21
 70
     1
102
RTVSPropertyOp22
 70
     1
102
RTVSPropertyOp23
 70
     1
102
RTVSPropertyOp24
 70
     1
102
RTVSPropertyOp25
 70
     1
102
RTVSPropertyOp26
 70
     1
102
RTVSPropertyOp27
 70
     1
102
RTVSPropertyOp28
 70
     1
102
RTVSPropertyOp29
 70
     1
102
RTVSPropertyOp30
 70
     1
102
RTVSPropertyOp31
 70
     1
102
RTVSPropertyOp32
 70
     1
  0
XRECORD
  5
4DA5
102
{ACAD_REACTORS
330
4DA4
102
}
330
4DA4
100
AcDbXrecord
280
     1
102
RTVSPropertyOp0
 70
     0
102
RTVSPropertyOp1
 70
     0
102
RTVSPropertyOp2
 70
     0
102
RTVSPropertyOp3
 70
     0
102
RTVSPropertyOp4
 70
     0
102
RTVSPropertyOp5
 70
     0
102
RTVSPropertyOp6
 70
     0
102
RTVSPropertyOp7
 70
     0
102
RTVSPropertyOp8
 70
     0
102
RTVSPropertyOp9
 70
     0
102
RTVSPropertyOp10
 70
     0
102
RTVSPropertyOp11
 70
     0
102
RTVSPropertyOp12
 70
     0
102
RTVSPropertyOp13
 70
     0
102
RTVSPropertyOp14
 70
     2
102
RTVSPropertyOp15
 70
     0
102
RTVSPropertyOp16
 70
     0
102
RTVSPropertyOp17
 70
     0
102
RTVSPropertyOp18
 70
     0
102
RTVSPropertyOp19
 70
     0
102
RTVSPropertyOp20
 70
     0
102
RTVSPropertyOp21
 70
     0
102
RTVSPropertyOp22
 70
     0
102
RTVSPropertyOp23
 70
     0
102
RTVSPropertyOp24
 70
     0
102
RTVSPropertyOp25
 70
     0
102
RTVSPropertyOp26
 70
     0
102
RTVSPropertyOp27
 70
     0
102
RTVSPropertyOp28
 70
     1
102
RTVSPropertyOp29
 70
     1
102
RTVSPropertyOp30
 70
     1
102
RTVSPropertyOp31
 70
     1
102
RTVSPropertyOp32
 70
     1
  0
XRECORD
  5
4D95
102
{ACAD_REACTORS
330
4D94
102
}
330
4D94
100
AcDbXrecord
280
     1
102
RTVSPropertyOp0
 70
     1
102
RTVSPropertyOp1
 70
     1
102
RTVSPropertyOp2
 70
     1
102
RTVSPropertyOp3
 70
     1
102
RTVSPropertyOp4
 70
     1
102
RTVSPropertyOp5
 70
     1
102
RTVSPropertyOp6
 70
     1
102
RTVSPropertyOp7
 70
     1
102
RTVSPropertyOp8
 70
     1
102
RTVSPropertyOp9
 70
     1
102
RTVSPropertyOp10
 70
     1
102
RTVSPropertyOp11
 70
     1
102
RTVSPropertyOp12
 70
     1
102
RTVSPropertyOp13
 70
     1
102
RTVSPropertyOp14
 70
     1
102
RTVSPropertyOp15
 70
     1
102
RTVSPropertyOp16
 70
     1
102
RTVSPropertyOp17
 70
     1
102
RTVSPropertyOp18
 70
     1
102
RTVSPropertyOp19
 70
     1
102
RTVSPropertyOp20
 70
     1
102
RTVSPropertyOp21
 70
     1
102
RTVSPropertyOp22
 70
     1
102
RTVSPropertyOp23
 70
     1
102
RTVSPropertyOp24
 70
     1
102
RTVSPropertyOp25
 70
     1
102
RTVSPropertyOp26
 70
     1
102
RTVSPropertyOp27
 70
     1
102
RTVSPropertyOp28
 70
     1
102
RTVSPropertyOp29
 70
     1
102
RTVSPropertyOp30
 70
     1
102
RTVSPropertyOp31
 70
     1
102
RTVSPropertyOp32
 70
     1
  0
XRECORD
  5
4DA7
102
{ACAD_REACTORS
330
4DA6
102
}
330
4DA6
100
AcDbXrecord
280
     1
102
RTVSPropertyOp0
 70
     0
102
RTVSPropertyOp1
 70
     0
102
RTVSPropertyOp2
 70
     0
102
RTVSPropertyOp3
 70
     0
102
RTVSPropertyOp4
 70
     0
102
RTVSPropertyOp5
 70
     0
102
RTVSPropertyOp6
 70
     0
102
RTVSPropertyOp7
 70
     0
102
RTVSPropertyOp8
 70
     0
102
RTVSPropertyOp9
 70
     0
102
RTVSPropertyOp10
 70
     0
102
RTVSPropertyOp11
 70
     0
102
RTVSPropertyOp12
 70
     0
102
RTVSPropertyOp13
 70
     0
102
RTVSPropertyOp14
 70
     2
102
RTVSPropertyOp15
 70
     0
102
RTVSPropertyOp16
 70
     0
102
RTVSPropertyOp17
 70
     0
102
RTVSPropertyOp18
 70
     0
102
RTVSPropertyOp19
 70
     0
102
RTVSPropertyOp20
 70
     0
102
RTVSPropertyOp21
 70
     0
102
RTVSPropertyOp22
 70
     0
102
RTVSPropertyOp23
 70
     0
102
RTVSPropertyOp24
 70
     0
102
RTVSPropertyOp25
 70
     0
102
RTVSPropertyOp26
 70
     0
102
RTVSPropertyOp27
 70
     0
102
RTVSPropertyOp28
 70
     1
102
RTVSPropertyOp29
 70
     1
102
RTVSPropertyOp30
 70
     1
102
RTVSPropertyOp31
 70
     1
102
RTVSPropertyOp32
 70
     1
  0
XRECORD
  5
4D8D
102
{ACAD_REACTORS
330
4D8C
102
}
330
4D8C
100
AcDbXrecord
280
     1
102
RTVSPropertyOp0
 70
     1
102
RTVSPropertyOp1
 70
     1
102
RTVSPropertyOp2
 70
     1
102
RTVSPropertyOp3
 70
     1
102
RTVSPropertyOp4
 70
     1
102
RTVSPropertyOp5
 70
     1
102
RTVSPropertyOp6
 70
     1
102
RTVSPropertyOp7
 70
     1
102
RTVSPropertyOp8
 70
     1
102
RTVSPropertyOp9
 70
     1
102
RTVSPropertyOp10
 70
     1
102
RTVSPropertyOp11
 70
     1
102
RTVSPropertyOp12
 70
     1
102
RTVSPropertyOp13
 70
     1
102
RTVSPropertyOp14
 70
     1
102
RTVSPropertyOp15
 70
     1
102
RTVSPropertyOp16
 70
     1
102
RTVSPropertyOp17
 70
     1
102
RTVSPropertyOp18
 70
     1
102
RTVSPropertyOp19
 70
     1
102
RTVSPropertyOp20
 70
     1
102
RTVSPropertyOp21
 70
     1
102
RTVSPropertyOp22
 70
     1
102
RTVSPropertyOp23
 70
     1
102
RTVSPropertyOp24
 70
     1
102
RTVSPropertyOp25
 70
     1
102
RTVSPropertyOp26
 70
     1
102
RTVSPropertyOp27
 70
     1
102
RTVSPropertyOp28
 70
     1
102
RTVSPropertyOp29
 70
     1
102
RTVSPropertyOp30
 70
     1
102
RTVSPropertyOp31
 70
     1
102
RTVSPropertyOp32
 70
     1
  0
XRECORD
  5
4DA3
102
{ACAD_REACTORS
330
4DA2
102
}
330
4DA2
100
AcDbXrecord
280
     1
102
RTVSPropertyOp0
 70
     1
102
RTVSPropertyOp1
 70
     1
102
RTVSPropertyOp2
 70
     1
102
RTVSPropertyOp3
 70
     1
102
RTVSPropertyOp4
 70
     1
102
RTVSPropertyOp5
 70
     1
102
RTVSPropertyOp6
 70
     1
102
RTVSPropertyOp7
 70
     1
102
RTVSPropertyOp8
 70
     1
102
RTVSPropertyOp9
 70
     1
102
RTVSPropertyOp10
 70
     1
102
RTVSPropertyOp11
 70
     1
102
RTVSPropertyOp12
 70
     1
102
RTVSPropertyOp13
 70
     1
102
RTVSPropertyOp14
 70
     1
102
RTVSPropertyOp15
 70
     1
102
RTVSPropertyOp16
 70
     1
102
RTVSPropertyOp17
 70
     1
102
RTVSPropertyOp18
 70
     1
102
RTVSPropertyOp19
 70
     1
102
RTVSPropertyOp20
 70
     1
102
RTVSPropertyOp21
 70
     1
102
RTVSPropertyOp22
 70
     1
102
RTVSPropertyOp23
 70
     1
102
RTVSPropertyOp24
 70
     1
102
RTVSPropertyOp25
 70
     1
102
RTVSPropertyOp26
 70
     1
102
RTVSPropertyOp27
 70
     1
102
RTVSPropertyOp28
 70
     1
102
RTVSPropertyOp29
 70
     1
102
RTVSPropertyOp30
 70
     1
102
RTVSPropertyOp31
 70
     1
102
RTVSPropertyOp32
 70
     1
  0
XRECORD
  5
4DA1
102
{ACAD_REACTORS
330
4DA0
102
}
330
4DA0
100
AcDbXrecord
280
     1
102
RTVSPropertyOp0
 70
     1
102
RTVSPropertyOp1
 70
     1
102
RTVSPropertyOp2
 70
     1
102
RTVSPropertyOp3
 70
     1
102
RTVSPropertyOp4
 70
     1
102
RTVSPropertyOp5
 70
     1
102
RTVSPropertyOp6
 70
     1
102
RTVSPropertyOp7
 70
     1
102
RTVSPropertyOp8
 70
     1
102
RTVSPropertyOp9
 70
     1
102
RTVSPropertyOp10
 70
     1
102
RTVSPropertyOp11
 70
     1
102
RTVSPropertyOp12
 70
     1
102
RTVSPropertyOp13
 70
     1
102
RTVSPropertyOp14
 70
     1
102
RTVSPropertyOp15
 70
     1
102
RTVSPropertyOp16
 70
     1
102
RTVSPropertyOp17
 70
     1
102
RTVSPropertyOp18
 70
     1
102
RTVSPropertyOp19
 70
     1
102
RTVSPropertyOp20
 70
     1
102
RTVSPropertyOp21
 70
     1
102
RTVSPropertyOp22
 70
     1
102
RTVSPropertyOp23
 70
     1
102
RTVSPropertyOp24
 70
     1
102
RTVSPropertyOp25
 70
     1
102
RTVSPropertyOp26
 70
     1
102
RTVSPropertyOp27
 70
     1
102
RTVSPropertyOp28
 70
     1
102
RTVSPropertyOp29
 70
     1
102
RTVSPropertyOp30
 70
     1
102
RTVSPropertyOp31
 70
     1
102
RTVSPropertyOp32
 70
     1
  0
XRECORD
  5
4D9B
102
{ACAD_REACTORS
330
4D9A
102
}
330
4D9A
100
AcDbXrecord
280
     1
102
RTVSPropertyOp0
 70
     1
102
RTVSPropertyOp1
 70
     1
102
RTVSPropertyOp2
 70
     1
102
RTVSPropertyOp3
 70
     1
102
RTVSPropertyOp4
 70
     1
102
RTVSPropertyOp5
 70
     1
102
RTVSPropertyOp6
 70
     1
102
RTVSPropertyOp7
 70
     1
102
RTVSPropertyOp8
 70
     1
102
RTVSPropertyOp9
 70
     1
102
RTVSPropertyOp10
 70
     1
102
RTVSPropertyOp11
 70
     1
102
RTVSPropertyOp12
 70
     1
102
RTVSPropertyOp13
 70
     1
102
RTVSPropertyOp14
 70
     1
102
RTVSPropertyOp15
 70
     1
102
RTVSPropertyOp16
 70
     1
102
RTVSPropertyOp17
 70
     1
102
RTVSPropertyOp18
 70
     1
102
RTVSPropertyOp19
 70
     1
102
RTVSPropertyOp20
 70
     1
102
RTVSPropertyOp21
 70
     1
102
RTVSPropertyOp22
 70
     1
102
RTVSPropertyOp23
 70
     1
102
RTVSPropertyOp24
 70
     1
102
RTVSPropertyOp25
 70
     1
102
RTVSPropertyOp26
 70
     1
102
RTVSPropertyOp27
 70
     1
102
RTVSPropertyOp28
 70
     1
102
RTVSPropertyOp29
 70
     1
102
RTVSPropertyOp30
 70
     1
102
RTVSPropertyOp31
 70
     1
102
RTVSPropertyOp32
 70
     1
  0
XRECORD
  5
4D9D
102
{ACAD_REACTORS
330
4D9C
102
}
330
4D9C
100
AcDbXrecord
280
     1
102
RTVSPropertyOp0
 70
     1
102
RTVSPropertyOp1
 70
     1
102
RTVSPropertyOp2
 70
     1
102
RTVSPropertyOp3
 70
     1
102
RTVSPropertyOp4
 70
     1
102
RTVSPropertyOp5
 70
     1
102
RTVSPropertyOp6
 70
     1
102
RTVSPropertyOp7
 70
     1
102
RTVSPropertyOp8
 70
     1
102
RTVSPropertyOp9
 70
     1
102
RTVSPropertyOp10
 70
     1
102
RTVSPropertyOp11
 70
     1
102
RTVSPropertyOp12
 70
     1
102
RTVSPropertyOp13
 70
     1
102
RTVSPropertyOp14
 70
     1
102
RTVSPropertyOp15
 70
     1
102
RTVSPropertyOp16
 70
     1
102
RTVSPropertyOp17
 70
     1
102
RTVSPropertyOp18
 70
     1
102
RTVSPropertyOp19
 70
     1
102
RTVSPropertyOp20
 70
     1
102
RTVSPropertyOp21
 70
     1
102
RTVSPropertyOp22
 70
     1
102
RTVSPropertyOp23
 70
     1
102
RTVSPropertyOp24
 70
     1
102
RTVSPropertyOp25
 70
     1
102
RTVSPropertyOp26
 70
     1
102
RTVSPropertyOp27
 70
     1
102
RTVSPropertyOp28
 70
     1
102
RTVSPropertyOp29
 70
     1
102
RTVSPropertyOp30
 70
     1
102
RTVSPropertyOp31
 70
     1
102
RTVSPropertyOp32
 70
     1
  0
XRECORD
  5
4D93
102
{ACAD_REACTORS
330
4D92
102
}
330
4D92
100
AcDbXrecord
280
     1
102
RTVSPropertyOp0
 70
     1
102
RTVSPropertyOp1
 70
     1
102
RTVSPropertyOp2
 70
     1
102
RTVSPropertyOp3
 70
     1
102
RTVSPropertyOp4
 70
     1
102
RTVSPropertyOp5
 70
     1
102
RTVSPropertyOp6
 70
     1
102
RTVSPropertyOp7
 70
     1
102
RTVSPropertyOp8
 70
     1
102
RTVSPropertyOp9
 70
     1
102
RTVSPropertyOp10
 70
     1
102
RTVSPropertyOp11
 70
     1
102
RTVSPropertyOp12
 70
     1
102
RTVSPropertyOp13
 70
     1
102
RTVSPropertyOp14
 70
     1
102
RTVSPropertyOp15
 70
     1
102
RTVSPropertyOp16
 70
     1
102
RTVSPropertyOp17
 70
     1
102
RTVSPropertyOp18
 70
     1
102
RTVSPropertyOp19
 70
     1
102
RTVSPropertyOp20
 70
     1
102
RTVSPropertyOp21
 70
     1
102
RTVSPropertyOp22
 70
     1
102
RTVSPropertyOp23
 70
     1
102
RTVSPropertyOp24
 70
     1
102
RTVSPropertyOp25
 70
     1
102
RTVSPropertyOp26
 70
     1
102
RTVSPropertyOp27
 70
     1
102
RTVSPropertyOp28
 70
     1
102
RTVSPropertyOp29
 70
     1
102
RTVSPropertyOp30
 70
     1
102
RTVSPropertyOp31
 70
     1
102
RTVSPropertyOp32
 70
     1
  0
XRECORD
  5
4D87
102
{ACAD_REACTORS
330
4D86
102
}
330
4D86
100
AcDbXrecord
280
     1
102
RTVSPropertyOp0
 70
     1
102
RTVSPropertyOp1
 70
     1
102
RTVSPropertyOp2
 70
     1
102
RTVSPropertyOp3
 70
     1
102
RTVSPropertyOp4
 70
     1
102
RTVSPropertyOp5
 70
     1
102
RTVSPropertyOp6
 70
     1
102
RTVSPropertyOp7
 70
     1
102
RTVSPropertyOp8
 70
     1
102
RTVSPropertyOp9
 70
     1
102
RTVSPropertyOp10
 70
     1
102
RTVSPropertyOp11
 70
     1
102
RTVSPropertyOp12
 70
     1
102
RTVSPropertyOp13
 70
     1
102
RTVSPropertyOp14
 70
     1
102
RTVSPropertyOp15
 70
     1
102
RTVSPropertyOp16
 70
     1
102
RTVSPropertyOp17
 70
     1
102
RTVSPropertyOp18
 70
     1
102
RTVSPropertyOp19
 70
     1
102
RTVSPropertyOp20
 70
     1
102
RTVSPropertyOp21
 70
     1
102
RTVSPropertyOp22
 70
     1
102
RTVSPropertyOp23
 70
     1
102
RTVSPropertyOp24
 70
     1
102
RTVSPropertyOp25
 70
     1
102
RTVSPropertyOp26
 70
     1
102
RTVSPropertyOp27
 70
     1
102
RTVSPropertyOp28
 70
     1
102
RTVSPropertyOp29
 70
     1
102
RTVSPropertyOp30
 70
     1
102
RTVSPropertyOp31
 70
     1
102
RTVSPropertyOp32
 70
     1
  0
XRECORD
  5
4D9F
102
{ACAD_REACTORS
330
4D9E
102
}
330
4D9E
100
AcDbXrecord
280
     1
102
RTVSPropertyOp0
 70
     1
102
RTVSPropertyOp1
 70
     1
102
RTVSPropertyOp2
 70
     1
102
RTVSPropertyOp3
 70
     1
102
RTVSPropertyOp4
 70
     1
102
RTVSPropertyOp5
 70
     1
102
RTVSPropertyOp6
 70
     1
102
RTVSPropertyOp7
 70
     1
102
RTVSPropertyOp8
 70
     1
102
RTVSPropertyOp9
 70
     1
102
RTVSPropertyOp10
 70
     1
102
RTVSPropertyOp11
 70
     1
102
RTVSPropertyOp12
 70
     1
102
RTVSPropertyOp13
 70
     1
102
RTVSPropertyOp14
 70
     1
102
RTVSPropertyOp15
 70
     1
102
RTVSPropertyOp16
 70
     1
102
RTVSPropertyOp17
 70
     1
102
RTVSPropertyOp18
 70
     1
102
RTVSPropertyOp19
 70
     1
102
RTVSPropertyOp20
 70
     1
102
RTVSPropertyOp21
 70
     1
102
RTVSPropertyOp22
 70
     1
102
RTVSPropertyOp23
 70
     1
102
RTVSPropertyOp24
 70
     1
102
RTVSPropertyOp25
 70
     1
102
RTVSPropertyOp26
 70
     1
102
RTVSPropertyOp27
 70
     1
102
RTVSPropertyOp28
 70
     1
102
RTVSPropertyOp29
 70
     1
102
RTVSPropertyOp30
 70
     1
102
RTVSPropertyOp31
 70
     1
102
RTVSPropertyOp32
 70
     1
  0
ENDSEC
  0
EOF
