  0
SECTION
  2
HEADER
  9
$ACADVER
  1
AC1015
  9
$ACADMAINTVER
 70
    20
  9
$DWGCODEPAGE
  3
ANSI_932
  9
$INSBASE
 10
0.0
 20
0.0
 30
0.0
  9
$EXTMIN
 10
82.7733490780829
 20
88.84150394454719
 30
-0.0000000000000129
  9
$EXTMAX
 10
4282.81023164245
 20
3058.954679433677
 30
0.0000000000000023
  9
$LIMMIN
 10
82.80008844952817
 20
88.90916338651733
  9
$LIMMAX
 10
502.8000884495281
 20
385.9091633865173
  9
$ORTHOMODE
 70
     0
  9
$REGENMODE
 70
     1
  9
$FILLMODE
 70
     1
  9
$QTEXTMODE
 70
     0
  9
$MIRRTEXT
 70
     0
  9
$LTSCALE
 40
1.0
  9
$ATTMODE
 70
     1
  9
$TEXTSIZE
 40
2.5
  9
$TRACEWID
 40
1.0
  9
$TEXTSTYLE
  7
Standard
  9
$CLAYER
  8
0
  9
$CELTYPE
  6
ByLayer
  9
$CECOLOR
 62
   256
  9
$CELTSCALE
 40
1.0
  9
$DISPSILH
 70
     0
  9
$DIMSCALE
 40
1.0
  9
$DIMASZ
 40
2.5
  9
$DIMEXO
 40
0.625
  9
$DIMDLI
 40
3.75
  9
$DIMRND
 40
0.0
  9
$DIMDLE
 40
0.0
  9
$DIMEXE
 40
1.25
  9
$DIMTP
 40
0.0
  9
$DIMTM
 40
0.0
  9
$DIMTXT
 40
2.5
  9
$DIMCEN
 40
2.5
  9
$DIMTSZ
 40
0.0
  9
$DIMTOL
 70
     0
  9
$DIMLIM
 70
     0
  9
$DIMTIH
 70
     0
  9
$DIMTOH
 70
     0
  9
$DIMSE1
 70
     0
  9
$DIMSE2
 70
     0
  9
$DIMTAD
 70
     2
  9
$DIMZIN
 70
     8
  9
$DIMBLK
  1

  9
$DIMASO
 70
     1
  9
$DIMSHO
 70
     1
  9
$DIMPOST
  1

  9
$DIMAPOST
  1

  9
$DIMALT
 70
     0
  9
$DIMALTD
 70
     3
  9
$DIMALTF
 40
0.03937007874016
  9
$DIMLFAC
 40
1.0
  9
$DIMTOFL
 70
     1
  9
$DIMTVP
 40
0.0
  9
$DIMTIX
 70
     0
  9
$DIMSOXD
 70
     0
  9
$DIMSAH
 70
     0
  9
$DIMBLK1
  1

  9
$DIMBLK2
  1

  9
$DIMSTYLE
  2
ISO-25
  9
$DIMCLRD
 70
     0
  9
$DIMCLRE
 70
     0
  9
$DIMCLRT
 70
     0
  9
$DIMTFAC
 40
1.0
  9
$DIMGAP
 40
0.625
  9
$DIMJUST
 70
     0
  9
$DIMSD1
 70
     0
  9
$DIMSD2
 70
     0
  9
$DIMTOLJ
 70
     0
  9
$DIMTZIN
 70
     8
  9
$DIMALTZ
 70
     0
  9
$DIMALTTZ
 70
     0
  9
$DIMUPT
 70
     0
  9
$DIMDEC
 70
     2
  9
$DIMTDEC
 70
     2
  9
$DIMALTU
 70
     2
  9
$DIMALTTD
 70
     3
  9
$DIMTXSTY
  7
Standard
  9
$DIMAUNIT
 70
     0
  9
$DIMADEC
 70
     0
  9
$DIMALTRND
 40
0.0
  9
$DIMAZIN
 70
     0
  9
$DIMDSEP
 70
    44
  9
$DIMATFIT
 70
     3
  9
$DIMFRAC
 70
     0
  9
$DIMLDRBLK
  1

  9
$DIMLUNIT
 70
     2
  9
$DIMLWD
 70
    -2
  9
$DIMLWE
 70
    -2
  9
$DIMTMOVE
 70
     0
  9
$LUNITS
 70
     2
  9
$LUPREC
 70
     4
  9
$SKETCHINC
 40
1.0
  9
$FILLETRAD
 40
0.0
  9
$AUNITS
 70
     0
  9
$AUPREC
 70
     0
  9
$MENU
  1
.
  9
$ELEVATION
 40
0.0
  9
$PELEVATION
 40
0.0
  9
$THICKNESS
 40
0.0
  9
$LIMCHECK
 70
     0
  9
$CHAMFERA
 40
0.0
  9
$CHAMFERB
 40
0.0
  9
$CHAMFERC
 40
0.0
  9
$CHAMFERD
 40
0.0
  9
$SKPOLY
 70
     0
  9
$TDCREATE
 40
2454427.395492431
  9
$TDUCREATE
 40
2454427.020492431
  9
$TDUPDATE
 40
2457029.362234815
  9
$TDUUPDATE
 40
2457028.987234815
  9
$TDINDWG
 40
0.8590785185
  9
$TDUSRTIMER
 40
0.8590785185
  9
$USRTIMER
 70
     1
  9
$ANGBASE
 50
0.0
  9
$ANGDIR
 70
     0
  9
$PDMODE
 70
     0
  9
$PDSIZE
 40
0.0
  9
$PLINEWID
 40
0.0
  9
$SPLFRAME
 70
     0
  9
$SPLINETYPE
 70
     6
  9
$SPLINESEGS
 70
     8
  9
$HANDSEED
  5
49C9
  9
$SURFTAB1
 70
     6
  9
$SURFTAB2
 70
     6
  9
$SURFTYPE
 70
     6
  9
$SURFU
 70
     6
  9
$SURFV
 70
     6
  9
$UCSBASE
  2

  9
$UCSNAME
  2

  9
$UCSORG
 10
0.0
 20
0.0
 30
0.0
  9
$UCSXDIR
 10
1.0
 20
0.0
 30
0.0
  9
$UCSYDIR
 10
0.0
 20
1.0
 30
0.0
  9
$UCSORTHOREF
  2

  9
$UCSORTHOVIEW
 70
     0
  9
$UCSORGTOP
 10
0.0
 20
0.0
 30
0.0
  9
$UCSORGBOTTOM
 10
0.0
 20
0.0
 30
0.0
  9
$UCSORGLEFT
 10
0.0
 20
0.0
 30
0.0
  9
$UCSORGRIGHT
 10
0.0
 20
0.0
 30
0.0
  9
$UCSORGFRONT
 10
0.0
 20
0.0
 30
0.0
  9
$UCSORGBACK
 10
0.0
 20
0.0
 30
0.0
  9
$PUCSBASE
  2

  9
$PUCSNAME
  2

  9
$PUCSORG
 10
0.0
 20
0.0
 30
0.0
  9
$PUCSXDIR
 10
1.0
 20
0.0
 30
0.0
  9
$PUCSYDIR
 10
0.0
 20
1.0
 30
0.0
  9
$PUCSORTHOREF
  2

  9
$PUCSORTHOVIEW
 70
     0
  9
$PUCSORGTOP
 10
0.0
 20
0.0
 30
0.0
  9
$PUCSORGBOTTOM
 10
0.0
 20
0.0
 30
0.0
  9
$PUCSORGLEFT
 10
0.0
 20
0.0
 30
0.0
  9
$PUCSORGRIGHT
 10
0.0
 20
0.0
 30
0.0
  9
$PUCSORGFRONT
 10
0.0
 20
0.0
 30
0.0
  9
$PUCSORGBACK
 10
0.0
 20
0.0
 30
0.0
  9
$USERI1
 70
     0
  9
$USERI2
 70
     0
  9
$USERI3
 70
     0
  9
$USERI4
 70
     0
  9
$USERI5
 70
     0
  9
$USERR1
 40
0.0
  9
$USERR2
 40
0.0
  9
$USERR3
 40
0.0
  9
$USERR4
 40
0.0
  9
$USERR5
 40
0.0
  9
$WORLDVIEW
 70
     1
  9
$SHADEDGE
 70
     3
  9
$SHADEDIF
 70
    70
  9
$TILEMODE
 70
     1
  9
$MAXACTVP
 70
    64
  9
$PINSBASE
 10
0.0
 20
0.0
 30
0.0
  9
$PLIMCHECK
 70
     0
  9
$PEXTMIN
 10
0.0
 20
0.0
 30
0.0
  9
$PEXTMAX
 10
0.0
 20
0.0
 30
0.0
  9
$PLIMMIN
 10
0.0
 20
0.0
  9
$PLIMMAX
 10
12.0
 20
9.0
  9
$UNITMODE
 70
     0
  9
$VISRETAIN
 70
     1
  9
$PLINEGEN
 70
     0
  9
$PSLTSCALE
 70
     1
  9
$TREEDEPTH
 70
  3020
  9
$CMLSTYLE
  2
Standard
  9
$CMLJUST
 70
     0
  9
$CMLSCALE
 40
20.0
  9
$PROXYGRAPHICS
 70
     1
  9
$MEASUREMENT
 70
     1
  9
$CELWEIGHT
370
    -1
  9
$ENDCAPS
280
     0
  9
$JOINSTYLE
280
     0
  9
$LWDISPLAY
290
     0
  9
$INSUNITS
 70
     4
  9
$HYPERLINKBASE
  1

  9
$STYLESHEET
  1
monochrome.ctb
  9
$XEDIT
290
     1
  9
$CEPSNTYPE
380
     0
  9
$PSTYLEMODE
290
     1
  9
$FINGERPRINTGUID
  2
{4ECE4D8E-F13A-40A1-9A46-5F0BA8809353}
  9
$VERSIONGUID
  2
{E81EAC54-9237-421F-B96B-7FD74E61831C}
  9
$EXTNAMES
290
     1
  9
$PSVPSCALE
 40
0.0
  9
$OLESTARTUP
290
     0
  0
ENDSEC
  0
SECTION
  2
CLASSES
  0
CLASS
  1
ACDBDICTIONARYWDFLT
  2
AcDbDictionaryWithDefault
  3
ObjectDBX Classes
 90
        0
280
     0
281
     0
  0
CLASS
  1
DICTIONARYVAR
  2
AcDbDictionaryVar
  3
ObjectDBX Classes
 90
        0
280
     0
281
     0
  0
CLASS
  1
TABLESTYLE
  2
AcDbTableStyle
  3
ObjectDBX Classes
 90
     4095
280
     0
281
     0
  0
CLASS
  1
SORTENTSTABLE
  2
AcDbSortentsTable
  3
ObjectDBX Classes
 90
        0
280
     0
281
     0
  0
CLASS
  1
DIMASSOC
  2
AcDbDimAssoc
  3
"AcDbDimAssoc|Product Desc:     AcDim ARX App For Dimension|Company:          Autodesk, Inc.|WEB Address:      www.autodesk.com"
 90
        0
280
     0
281
     0
  0
CLASS
  1
ARC_DIMENSION
  2
AcDbArcDimension
  3
ObjectDBX Classes
 90
    33793
280
     0
281
     1
  0
CLASS
  1
MATERIAL
  2
AcDbMaterial
  3
ObjectDBX Classes
 90
     1153
280
     0
281
     0
  0
CLASS
  1
VISUALSTYLE
  2
AcDbVisualStyle
  3
ObjectDBX Classes
 90
     4095
280
     0
281
     0
  0
CLASS
  1
SCALE
  2
AcDbScale
  3
ObjectDBX Classes
 90
     1153
280
     0
281
     0
  0
CLASS
  1
MLEADERSTYLE
  2
AcDbMLeaderStyle
  3
ACDB_MLEADERSTYLE_CLASS
 90
     4095
280
     0
281
     0
  0
CLASS
  1
CELLSTYLEMAP
  2
AcDbCellStyleMap
  3
ObjectDBX Classes
 90
     1152
280
     0
281
     0
  0
CLASS
  1
ACDBPLACEHOLDER
  2
AcDbPlaceHolder
  3
ObjectDBX Classes
 90
        0
280
     0
281
     0
  0
CLASS
  1
LAYOUT
  2
AcDbLayout
  3
ObjectDBX Classes
 90
        0
280
     0
281
     0
  0
ENDSEC
  0
SECTION
  2
TABLES
  0
TABLE
  2
VPORT
  5
8
330
0
100
AcDbSymbolTable
 70
     1
  0
VPORT
  5
46D5
330
8
100
AcDbSymbolTableRecord
100
AcDbViewportTableRecord
  2
*Active
 70
     0
 10
0.0
 20
0.0
 11
1.0
 21
1.0
 12
2182.791790360267
 22
1573.898091689112
 13
0.0
 23
0.0
 14
10.0
 24
10.0
 15
10.0
 25
10.0
 16
0.0
 26
0.0
 36
1.0
 17
0.0
 27
0.0
 37
0.0
 40
2993.226896699161
 41
1.633766233766233
 42
50.0
 43
0.0
 44
0.0
 50
0.0
 51
0.0
 71
     0
 72
  1000
 73
     1
 74
     3
 75
     0
 76
     0
 77
     0
 78
     0
281
     0
 65
     1
110
0.0
120
0.0
130
0.0
111
1.0
121
0.0
131
0.0
112
0.0
122
1.0
132
0.0
 79
     0
146
0.0
1001
ACAD_NAV_VCDISPLAY
1070
     3
  0
ENDTAB
  0
TABLE
  2
LTYPE
  5
5
330
0
100
AcDbSymbolTable
 70
     4
  0
LTYPE
  5
14
330
5
100
AcDbSymbolTableRecord
100
AcDbLinetypeTableRecord
  2
ByBlock
 70
     0
  3

 72
    65
 73
     0
 40
0.0
  0
LTYPE
  5
15
330
5
100
AcDbSymbolTableRecord
100
AcDbLinetypeTableRecord
  2
ByLayer
 70
     0
  3

 72
    65
 73
     0
 40
0.0
  0
LTYPE
  5
16
330
5
100
AcDbSymbolTableRecord
100
AcDbLinetypeTableRecord
  2
Continuous
 70
     0
  3
Solid line
 72
    65
 73
     0
 40
0.0
  0
LTYPE
  5
14E
330
5
100
AcDbSymbolTableRecord
100
AcDbLinetypeTableRecord
  2
CENTER
 70
     0
  3
Center ____ _ ____ _ ____ _ ____ _ ____ _ ____
 72
    65
 73
     4
 40
50.8
 49
31.75
 74
     0
 49
-6.349999999999999
 74
     0
 49
6.349999999999999
 74
     0
 49
-6.349999999999999
 74
     0
  0
LTYPE
  5
1E3
330
5
100
AcDbSymbolTableRecord
100
AcDbLinetypeTableRecord
  2
FENCELINE1
 70
     0
  3
Fenceline circle ----0-----0----0-----0----0---
 72
    65
 73
     4
 40
36.83
 49
6.349999999999999
 74
     0
 49
-2.54
 74
     4
 75
   133
340
14D
 46
2.54
 50
0.0
 44
-2.54
 45
0.0
 49
-2.54
 74
     0
 49
25.4
 74
     0
  0
LTYPE
  5
9B8
330
5
100
AcDbSymbolTableRecord
100
AcDbLinetypeTableRecord
  2
DASHED
 70
     0
  3
Dashed __ __ __ __ __ __ __ __ __ __ __ __ __ _
 72
    65
 73
     2
 40
19.05
 49
12.7
 74
     0
 49
-6.349999999999999
 74
     0
  0
ENDTAB
  0
TABLE
  2
LAYER
  5
2
102
{ACAD_XDICTIONARY
360
101
102
}
330
0
100
AcDbSymbolTable
 70
    11
  0
LAYER
  5
10
102
{ACAD_XDICTIONARY
360
4726
102
}
330
2
100
AcDbSymbolTableRecord
100
AcDbLayerTableRecord
  2
0
 70
     0
 62
     6
  6
Continuous
370
    -3
390
F
  0
LAYER
  5
FC
102
{ACAD_XDICTIONARY
360
4728
102
}
330
2
100
AcDbSymbolTableRecord
100
AcDbLayerTableRecord
  2
題
 70
     0
 62
     7
  6
Continuous
370
    -3
390
F
1001
AcAecLayerStandard
1000

1000

  0
LAYER
  5
FD
330
2
100
AcDbSymbolTableRecord
100
AcDbLayerTableRecord
  2
DEFPOINTS
 70
     0
 62
     1
  6
Continuous
290
     0
370
    -3
390
F
1001
AcAecLayerStandard
1000

1000

  0
LAYER
  5
FE
102
{ACAD_XDICTIONARY
360
472A
102
}
330
2
100
AcDbSymbolTableRecord
100
AcDbLayerTableRecord
  2
マーク
 70
     0
 62
   160
  6
Continuous
370
    -3
390
F
  0
LAYER
  5
FF
102
{ACAD_XDICTIONARY
360
472C
102
}
330
2
100
AcDbSymbolTableRecord
100
AcDbLayerTableRecord
  2
図
 70
     0
 62
     7
  6
Continuous
370
    18
390
F
1001
AcAecLayerStandard
1000

1000

  0
LAYER
  5
14B
102
{ACAD_XDICTIONARY
360
472E
102
}
330
2
100
AcDbSymbolTableRecord
100
AcDbLayerTableRecord
  2
センター
 70
     0
 62
     4
  6
CENTER
370
    15
390
F
1001
AcAecLayerStandard
1000

1000

  0
LAYER
  5
14F
102
{ACAD_XDICTIONARY
360
4730
102
}
330
2
100
AcDbSymbolTableRecord
100
AcDbLayerTableRecord
  2
補助
 70
     0
 62
     2
  6
Continuous
370
     9
390
F
1001
AcAecLayerStandard
1000

1000

  0
LAYER
  5
1E1
102
{ACAD_XDICTIONARY
360
4732
102
}
330
2
100
AcDbSymbolTableRecord
100
AcDbLayerTableRecord
  2
寸法
 70
     0
 62
     7
  6
Continuous
370
    15
390
F
1001
AcAecLayerStandard
1000

1000

  0
LAYER
  5
1E2
102
{ACAD_XDICTIONARY
360
4734
102
}
330
2
100
AcDbSymbolTableRecord
100
AcDbLayerTableRecord
  2
鉄筋D
 70
     0
 62
     3
  6
FENCELINE1
370
     9
390
F
1001
AcAecLayerStandard
1000

1000

  0
LAYER
  5
201
102
{ACAD_XDICTIONARY
360
4736
102
}
330
2
100
AcDbSymbolTableRecord
100
AcDbLayerTableRecord
  2
鉄筋\U+03C6
 70
     0
 62
     3
  6
Continuous
370
     9
390
F
1001
AcAecLayerStandard
1000

1000

  0
LAYER
  5
9B7
102
{ACAD_XDICTIONARY
360
4738
102
}
330
2
100
AcDbSymbolTableRecord
100
AcDbLayerTableRecord
  2
影
 70
     0
 62
     5
  6
DASHED
370
    15
390
F
1001
AcAecLayerStandard
1000

1000

  0
ENDTAB
  0
TABLE
  2
STYLE
  5
3
330
0
100
AcDbSymbolTable
 70
     2
  0
STYLE
  5
11
330
3
100
AcDbSymbolTableRecord
100
AcDbTextStyleTableRecord
  2
Standard
 70
     0
 40
0.0
 41
1.0
 50
0.0
 71
     0
 42
2.5
  3
txt.shx
  4
extfont2.shx
  0
STYLE
  5
14D
330
3
100
AcDbSymbolTableRecord
100
AcDbTextStyleTableRecord
  2

 70
     1
 40
0.0
 41
1.0
 50
0.0
 71
     0
 42
2.5
  3
ltypeshp.shx
  4

  0
ENDTAB
  0
TABLE
  2
VIEW
  5
6
330
0
100
AcDbSymbolTable
 70
     0
  0
ENDTAB
  0
TABLE
  2
UCS
  5
7
330
0
100
AcDbSymbolTable
 70
     0
  0
ENDTAB
  0
TABLE
  2
APPID
  5
9
330
0
100
AcDbSymbolTable
 70
    15
  0
APPID
  5
12
330
9
100
AcDbSymbolTableRecord
100
AcDbRegAppTableRecord
  2
ACAD
 70
     0
  0
APPID
  5
9E
330
9
100
AcDbSymbolTableRecord
100
AcDbRegAppTableRecord
  2
ACAD_PSEXT
 70
     0
  0
APPID
  5
100
330
9
100
AcDbSymbolTableRecord
100
AcDbRegAppTableRecord
  2
AcAecLayerStandard
 70
     0
  0
APPID
  5
184
330
9
100
AcDbSymbolTableRecord
100
AcDbRegAppTableRecord
  2
ACAD_EXEMPT_FROM_CAD_STANDARDS
 70
     0
  0
APPID
  5
1ACE
330
9
100
AcDbSymbolTableRecord
100
AcDbRegAppTableRecord
  2
ACAD_DSTYLE_DIMTEXT_FILL
 70
     0
  0
APPID
  5
1ACF
330
9
100
AcDbSymbolTableRecord
100
AcDbRegAppTableRecord
  2
ACAD_DSTYLE_DIMEXT_LENGTH
 70
     0
  0
APPID
  5
1AD0
330
9
100
AcDbSymbolTableRecord
100
AcDbRegAppTableRecord
  2
ACAD_DSTYLE_DIMEXT_ENABLED
 70
     0
  0
APPID
  5
1AD1
330
9
100
AcDbSymbolTableRecord
100
AcDbRegAppTableRecord
  2
ACAD_DSTYLE_DIM_LINETYPE
 70
     0
  0
APPID
  5
1AD2
330
9
100
AcDbSymbolTableRecord
100
AcDbRegAppTableRecord
  2
ACAD_DSTYLE_DIM_EXT1_LINETYPE
 70
     0
  0
APPID
  5
1AD3
330
9
100
AcDbSymbolTableRecord
100
AcDbRegAppTableRecord
  2
ACAD_DSTYLE_DIM_EXT2_LINETYPE
 70
     0
  0
APPID
  5
1B8F
330
9
100
AcDbSymbolTableRecord
100
AcDbRegAppTableRecord
  2
ACAD_DSTYLE_DIMJOGGED_JOGANGLE_SYMBOL
 70
     0
  0
APPID
  5
1C23
330
9
100
AcDbSymbolTableRecord
100
AcDbRegAppTableRecord
  2
ACAD_DSTYLE_DIMARC_LENGTH_SYMBOL
 70
     0
  0
APPID
  5
474B
330
9
100
AcDbSymbolTableRecord
100
AcDbRegAppTableRecord
  2
ACAD_NAV_VCDISPLAY
 70
     0
  0
APPID
  5
475E
330
9
100
AcDbSymbolTableRecord
100
AcDbRegAppTableRecord
  2
ACAD_DSTYLE_DIMRADIAL_EXTENSION
 70
     0
  0
APPID
  5
49C8
330
9
100
AcDbSymbolTableRecord
100
AcDbRegAppTableRecord
  2
ACAD_MLEADERVER
 70
     0
  0
ENDTAB
  0
TABLE
  2
DIMSTYLE
  5
A
330
0
100
AcDbSymbolTable
 70
     1
100
AcDbDimStyleTable
 71
     1
340
27
  0
DIMSTYLE
105
27
102
{ACAD_REACTORS
330
78E
330
F0C
330
1043
330
10CC
330
11D8
330
E58
330
FFC
330
B06
330
977
330
FC8
330
ED3
330
E79
330
E9A
330
103A
330
1040
330
1046
330
D10
330
1A4E
330
DF8
330
DCE
330
E3C
330
A7E
330
9CC
330
A00
330
160C
330
160E
330
1FEE
330
20A0
330
2115
330
2118
330
2167
330
2182
330
21C3
330
23A8
330
23E8
330
2AA5
330
2AA6
330
34B3
330
3FDE
330
270C
330
4362
330
4390
102
}
330
A
100
AcDbSymbolTableRecord
100
AcDbDimStyleTableRecord
  2
ISO-25
 70
     0
 41
2.5
 42
0.625
 43
3.75
 44
1.25
 73
     0
 74
     0
 77
     2
 78
     8
140
2.5
141
2.5
143
0.03937007874016
147
0.625
171
     3
172
     1
271
     2
272
     2
274
     3
278
    44
283
     0
284
     8
340
11
1001
ACAD_DSTYLE_DIMEXT_LENGTH
1070
   378
1040
1.25
1001
ACAD_DSTYLE_DIMJOGGED_JOGANGLE_SYMBOL
1070
   384
1040
1.570796326794896
  0
ENDTAB
  0
TABLE
  2
BLOCK_RECORD
  5
1
330
0
100
AcDbSymbolTable
 70
    95
  0
BLOCK_RECORD
  5
1F
102
{ACAD_XDICTIONARY
360
1A0
102
}
330
1
100
AcDbSymbolTableRecord
100
AcDbBlockTableRecord
  2
*Model_Space
340
22
  0
BLOCK_RECORD
  5
D2
330
1
100
AcDbSymbolTableRecord
100
AcDbBlockTableRecord
  2
*Paper_Space
340
D3
  0
BLOCK_RECORD
  5
D6
330
1
100
AcDbSymbolTableRecord
100
AcDbBlockTableRecord
  2
*Paper_Space0
340
D7
  0
BLOCK_RECORD
  5
F3
330
1
100
AcDbSymbolTableRecord
100
AcDbBlockTableRecord
  2
AI9-BLK1
340
0
102
{BLKREFS
331
123
102
}
  0
BLOCK_RECORD
  5
F7
330
1
100
AcDbSymbolTableRecord
100
AcDbBlockTableRecord
  2
AI9-BLK2
340
0
102
{BLKREFS
331
F5
102
}
  0
BLOCK_RECORD
  5
78F
330
1
100
AcDbSymbolTableRecord
100
AcDbBlockTableRecord
  2
*D3
340
0
  0
BLOCK_RECORD
  5
978
330
1
100
AcDbSymbolTableRecord
100
AcDbBlockTableRecord
  2
*D4
340
0
  0
BLOCK_RECORD
  5
9CD
330
1
100
AcDbSymbolTableRecord
100
AcDbBlockTableRecord
  2
*D5
340
0
  0
BLOCK_RECORD
  5
A01
330
1
100
AcDbSymbolTableRecord
100
AcDbBlockTableRecord
  2
*D6
340
0
  0
BLOCK_RECORD
  5
A7F
330
1
100
AcDbSymbolTableRecord
100
AcDbBlockTableRecord
  2
*D7
340
0
  0
BLOCK_RECORD
  5
B07
330
1
100
AcDbSymbolTableRecord
100
AcDbBlockTableRecord
  2
*D8
340
0
  0
BLOCK_RECORD
  5
D11
330
1
100
AcDbSymbolTableRecord
100
AcDbBlockTableRecord
  2
*D9
340
0
  0
BLOCK_RECORD
  5
DCF
330
1
100
AcDbSymbolTableRecord
100
AcDbBlockTableRecord
  2
*D10
340
0
  0
BLOCK_RECORD
  5
DF9
330
1
100
AcDbSymbolTableRecord
100
AcDbBlockTableRecord
  2
*D11
340
0
  0
BLOCK_RECORD
  5
E3F
330
1
100
AcDbSymbolTableRecord
100
AcDbBlockTableRecord
  2
*D12
340
0
  0
BLOCK_RECORD
  5
E59
330
1
100
AcDbSymbolTableRecord
100
AcDbBlockTableRecord
  2
*D13
340
0
  0
BLOCK_RECORD
  5
E7A
330
1
100
AcDbSymbolTableRecord
100
AcDbBlockTableRecord
  2
*D14
340
0
  0
BLOCK_RECORD
  5
E9B
330
1
100
AcDbSymbolTableRecord
100
AcDbBlockTableRecord
  2
*D15
340
0
  0
BLOCK_RECORD
  5
ED4
330
1
100
AcDbSymbolTableRecord
100
AcDbBlockTableRecord
  2
*D16
340
0
  0
BLOCK_RECORD
  5
F0D
330
1
100
AcDbSymbolTableRecord
100
AcDbBlockTableRecord
  2
*D17
340
0
  0
BLOCK_RECORD
  5
F60
330
1
100
AcDbSymbolTableRecord
100
AcDbBlockTableRecord
  2
_None
340
0
  0
BLOCK_RECORD
  5
FC9
330
1
100
AcDbSymbolTableRecord
100
AcDbBlockTableRecord
  2
*D19
340
0
  0
BLOCK_RECORD
  5
FFD
330
1
100
AcDbSymbolTableRecord
100
AcDbBlockTableRecord
  2
*D20
340
0
  0
BLOCK_RECORD
  5
1049
330
1
100
AcDbSymbolTableRecord
100
AcDbBlockTableRecord
  2
*D21
340
0
  0
BLOCK_RECORD
  5
1063
330
1
100
AcDbSymbolTableRecord
100
AcDbBlockTableRecord
  2
*D22
340
0
  0
BLOCK_RECORD
  5
106E
330
1
100
AcDbSymbolTableRecord
100
AcDbBlockTableRecord
  2
*D23
340
0
  0
BLOCK_RECORD
  5
107C
330
1
100
AcDbSymbolTableRecord
100
AcDbBlockTableRecord
  2
*D24
340
0
  0
BLOCK_RECORD
  5
10CD
330
1
100
AcDbSymbolTableRecord
100
AcDbBlockTableRecord
  2
*D25
340
0
  0
BLOCK_RECORD
  5
11D9
330
1
100
AcDbSymbolTableRecord
100
AcDbBlockTableRecord
  2
*D26
340
0
  0
BLOCK_RECORD
  5
15F8
330
1
100
AcDbSymbolTableRecord
100
AcDbBlockTableRecord
  2
_Open30
340
0
  0
BLOCK_RECORD
  5
1A4F
330
1
100
AcDbSymbolTableRecord
100
AcDbBlockTableRecord
  2
*D28
340
0
  0
BLOCK_RECORD
  5
2003
330
1
100
AcDbSymbolTableRecord
100
AcDbBlockTableRecord
  2
*D29
340
0
  0
BLOCK_RECORD
  5
20A1
330
1
100
AcDbSymbolTableRecord
100
AcDbBlockTableRecord
  2
*D30
340
0
  0
BLOCK_RECORD
  5
2127
330
1
100
AcDbSymbolTableRecord
100
AcDbBlockTableRecord
  2
*D31
340
0
  0
BLOCK_RECORD
  5
2135
330
1
100
AcDbSymbolTableRecord
100
AcDbBlockTableRecord
  2
*D32
340
0
  0
BLOCK_RECORD
  5
216A
330
1
100
AcDbSymbolTableRecord
100
AcDbBlockTableRecord
  2
*D33
340
0
  0
BLOCK_RECORD
  5
2185
330
1
100
AcDbSymbolTableRecord
100
AcDbBlockTableRecord
  2
*D34
340
0
  0
BLOCK_RECORD
  5
21C4
330
1
100
AcDbSymbolTableRecord
100
AcDbBlockTableRecord
  2
*D35
340
0
  0
BLOCK_RECORD
  5
23A9
330
1
100
AcDbSymbolTableRecord
100
AcDbBlockTableRecord
  2
*D36
340
0
  0
BLOCK_RECORD
  5
23E9
330
1
100
AcDbSymbolTableRecord
100
AcDbBlockTableRecord
  2
*D37
340
0
  0
BLOCK_RECORD
  5
270D
330
1
100
AcDbSymbolTableRecord
100
AcDbBlockTableRecord
  2
*D38
340
0
  0
BLOCK_RECORD
  5
2AA9
330
1
100
AcDbSymbolTableRecord
100
AcDbBlockTableRecord
  2
*D39
340
0
  0
BLOCK_RECORD
  5
2AC2
330
1
100
AcDbSymbolTableRecord
100
AcDbBlockTableRecord
  2
*D40
340
0
  0
BLOCK_RECORD
  5
34B6
330
1
100
AcDbSymbolTableRecord
100
AcDbBlockTableRecord
  2
*D49
340
0
  0
BLOCK_RECORD
  5
3FE0
330
1
100
AcDbSymbolTableRecord
100
AcDbBlockTableRecord
  2
*D82
340
0
  0
BLOCK_RECORD
  5
4363
330
1
100
AcDbSymbolTableRecord
100
AcDbBlockTableRecord
  2
*D85
340
0
  0
BLOCK_RECORD
  5
4393
330
1
100
AcDbSymbolTableRecord
100
AcDbBlockTableRecord
  2
*D86
340
0
  0
ENDTAB
  0
ENDSEC
  0
SECTION
  2
BLOCKS
  0
BLOCK
  5
20
330
1F
100
AcDbEntity
  8
0
100
AcDbBlockBegin
  2
*Model_Space
 70
     0
 10
0.0
 20
0.0
 30
0.0
  3
*Model_Space
  1

  0
ENDBLK
  5
21
330
1F
100
AcDbEntity
  8
0
100
AcDbBlockEnd
  0
BLOCK
  5
D4
330
D2
100
AcDbEntity
 67
     1
  8
0
100
AcDbBlockBegin
  2
*Paper_Space
 70
     0
 10
0.0
 20
0.0
 30
0.0
  3
*Paper_Space
  1

  0
ENDBLK
  5
D5
330
D2
100
AcDbEntity
 67
     1
  8
0
100
AcDbBlockEnd
  0
BLOCK
  5
D8
330
D6
100
AcDbEntity
 67
     1
  8
0
100
AcDbBlockBegin
  2
*Paper_Space0
 70
     0
 10
0.0
 20
0.0
 30
0.0
  3
*Paper_Space0
  1

  0
ENDBLK
  5
D9
330
D6
100
AcDbEntity
 67
     1
  8
0
100
AcDbBlockEnd
  0
BLOCK
  5
F4
330
F3
100
AcDbEntity
  8
マーク
 62
     7
100
AcDbBlockBegin
  2
AI9-BLK1
 70
     0
 10
0.0
 20
0.0
 30
0.0
  3
AI9-BLK1
  1

  0
INSERT
  5
F5
330
F3
100
AcDbEntity
  8
マーク
 62
     7
100
AcDbBlockReference
  2
AI9-BLK2
 10
0.0
 20
0.0
 30
0.0
  0
ENDBLK
  5
F6
330
F3
100
AcDbEntity
  8
マーク
100
AcDbBlockEnd
  0
BLOCK
  5
F8
330
F7
100
AcDbEntity
  8
マーク
 62
     7
100
AcDbBlockBegin
  2
AI9-BLK2
 70
     0
 10
0.0
 20
0.0
 30
0.0
  3
AI9-BLK2
  1

  0
HATCH
  5
F9
330
F7
100
AcDbEntity
  8
マーク
 62
     7
100
AcDbHatch
 10
0.0
 20
0.0
 30
0.0
210
0.0
220
0.0
230
1.0
  2
SOLID
 70
     1
 71
     0
 91
        1
 92
        1
 93
        1
 72
     4
 94
        3
 73
     0
 74
     0
 95
       59
 96
       55
 40
0.0
 40
0.0
 40
0.0
 40
0.0
 40
1.0
 40
1.0
 40
1.0
 40
2.0
 40
2.0
 40
2.0
 40
3.0
 40
3.0
 40
3.0
 40
4.0
 40
4.0
 40
4.0
 40
5.0
 40
5.0
 40
5.0
 40
6.0
 40
6.0
 40
6.0
 40
7.0
 40
7.0
 40
7.0
 40
8.0
 40
8.0
 40
8.0
 40
9.0
 40
9.0
 40
9.0
 40
10.0
 40
10.0
 40
10.0
 40
11.0
 40
11.0
 40
11.0
 40
12.0
 40
12.0
 40
12.0
 40
13.0
 40
13.0
 40
13.0
 40
14.0
 40
14.0
 40
14.0
 40
15.0
 40
15.0
 40
15.0
 40
16.0
 40
16.0
 40
16.0
 40
17.0
 40
17.0
 40
17.0
 40
18.0
 40
18.0
 40
18.0
 40
18.0
 10
19.11183946397569
 20
10.62743055555555
 10
19.11183946397569
 20
10.62743055555555
 10
19.13285454644097
 20
10.66274278428819
 10
19.13285454644097
 20
10.66274278428819
 10
19.61275634765625
 20
10.33804253472222
 10
20.1877427842882
 20
10.15114610460069
 10
20.80854899088542
 20
10.15114610460069
 10
22.46667344835069
 20
10.15114610460069
 10
23.81060519748264
 20
11.49525010850694
 10
23.81060519748264
 20
13.1497572157118
 10
23.81060519748264
 20
14.20102810329861
 10
23.26731363932291
 20
15.12879231770833
 10
22.44910346137153
 20
15.66502143012153
 10
22.44910346137153
 20
15.66502143012153
 10
22.45599365234375
 20
15.67914632161458
 10
22.45599365234375
 20
15.67914632161458
 10
22.45599365234375
 20
15.67914632161458
 10
-18.13102077907986
 20
42.28561876085069
 10
-18.13102077907986
 20
42.28561876085069
 10
-12.56770833333333
 20
44.67754855685764
 10
-6.436471896701387
 20
46.0004652235243
 10
0.0017225477430556
 20
46.0004652235243
 10
25.40533989800347
 20
46.0004652235243
 10
46.0004652235243
 20
25.40533989800347
 10
46.0004652235243
 20
0.0017225477430556
 10
46.0004652235243
 20
-14.73036702473958
 10
39.07547878689236
 20
-27.84308946397569
 10
28.30507676866319
 20
-36.26393636067708
 10
28.30507676866319
 20
-36.26393636067708
 10
1.067118326822916
 20
-19.00607503255208
 10
1.067118326822916
 20
-19.00607503255208
 10
1.416451009114583
 20
-18.86482611762152
 10
1.761994086371527
 20
-18.72357720269097
 10
2.107881673177083
 20
-18.57922770182291
 10
5.145077853732638
 20
-17.27732611762152
 10
7.381978352864583
 20
-15.23817409939236
 10
8.923314073350693
 20
-12.3032972547743
 10
10.4367445203993
 20
-9.410450575086803
 10
11.01896565755208
 20
-6.288160536024305
 10
10.21832546657986
 20
-3.092145453559027
 10
9.308131239149304
 20
0.53795166015625
 10
7.399548339843748
 20
3.974089898003471
 10
5.371076117621527
 20
6.95495876736111
 10
4.340992567274304
 20
8.468389214409722
 10
3.278869628906249
 20
10.03470187717014
 10
2.926091851128472
 20
11.85147298177083
 10
2.552298990885416
 20
13.76005588107639
 10
3.416673448350694
 20
16.33888210720486
 10
5.554355197482638
 20
16.90336100260416
 10
7.286549207899304
 20
17.35845811631944
 10
9.106937662760415
 20
16.76228434244791
 10
10.6909925672743
 20
16.05311143663194
 10
10.6909925672743
 20
16.05311143663194
 10
19.11183946397569
 20
10.62743055555555
 10
19.11183946397569
 20
10.62743055555555
 97
        0
 75
     2
 76
     1
 98
        1
 10
0.0
 20
0.0
  0
HATCH
  5
FA
330
F7
100
AcDbEntity
  8
マーク
 62
     7
100
AcDbHatch
 10
0.0
 20
0.0
 30
0.0
210
0.0
220
0.0
230
1.0
  2
SOLID
 70
     1
 71
     0
 91
        1
 92
        1
 93
        1
 72
     4
 94
        3
 73
     0
 74
     0
 95
       68
 96
       64
 40
0.0
 40
0.0
 40
0.0
 40
0.0
 40
1.0
 40
1.0
 40
1.0
 40
2.0
 40
2.0
 40
2.0
 40
3.0
 40
3.0
 40
3.0
 40
4.0
 40
4.0
 40
4.0
 40
5.0
 40
5.0
 40
5.0
 40
6.0
 40
6.0
 40
6.0
 40
7.0
 40
7.0
 40
7.0
 40
8.0
 40
8.0
 40
8.0
 40
9.0
 40
9.0
 40
9.0
 40
10.0
 40
10.0
 40
10.0
 40
11.0
 40
11.0
 40
11.0
 40
12.0
 40
12.0
 40
12.0
 40
13.0
 40
13.0
 40
13.0
 40
14.0
 40
14.0
 40
14.0
 40
15.0
 40
15.0
 40
15.0
 40
16.0
 40
16.0
 40
16.0
 40
17.0
 40
17.0
 40
17.0
 40
18.0
 40
18.0
 40
18.0
 40
19.0
 40
19.0
 40
19.0
 40
20.0
 40
20.0
 40
20.0
 40
21.0
 40
21.0
 40
21.0
 40
21.0
 10
-23.28161078559027
 20
-10.57454833984375
 10
-23.28161078559027
 20
-10.57454833984375
 10
22.7522718641493
 20
-39.98911810980903
 10
22.7522718641493
 20
-39.98911810980903
 10
16.0426038953993
 20
-43.81696370442708
 10
8.278047688802082
 20
-46.0004652235243
 10
0.0017225477430556
 20
-46.0004652235243
 10
-25.40533989800347
 20
-46.0004652235243
 10
-46.0004652235243
 20
-25.40533989800347
 10
-46.0004652235243
 20
0.0017225477430556
 10
-46.0004652235243
 20
16.32820231119791
 10
-37.49504123263888
 20
30.66875678168403
 10
-24.6715345594618
 20
38.8319105360243
 10
-24.6715345594618
 20
38.8319105360243
 10
-0.4709445529513889
 20
23.24268120659722
 10
-0.4709445529513889
 20
23.24268120659722
 10
-0.4709445529513889
 20
23.24268120659722
 10
-0.5345065646701388
 20
23.14397922092014
 10
-0.5345065646701388
 20
23.14397922092014
 10
-2.495971679687499
 20
22.2654798719618
 10
-4.446756998697916
 20
21.18251410590278
 10
-5.77673611111111
 20
19.44325764973958
 10
-7.515992567274304
 20
17.1679443359375
 10
-7.216097005208332
 20
14.03514675564236
 10
-6.394097222222221
 20
11.46700032552083
 10
-5.882672797309027
 20
9.868992784288193
 10
-5.145250108506943
 20
8.344882541232637
 10
-4.309297688802082
 20
6.89139675564236
 10
-3.501422797309027
 20
5.487348090277777
 10
-2.591228569878472
 20
4.15047878689236
 10
-1.677589246961805
 20
2.816882324218749
 10
-0.7250203450520833
 20
1.434020996093749
 10
0.2451185438368055
 20
0.0475423177083333
 10
1.028188747829861
 20
-1.441255696614583
 10
1.811603461371527
 20
-2.926436360677083
 10
2.421729871961805
 20
-4.549076334635416
 10
2.488909233940971
 20
-6.242340766059027
 10
2.555744086371527
 20
-7.847410753038193
 10
2.097201877170138
 20
-9.456270345052082
 10
1.084688313802083
 20
-10.71924235026041
 10
0.0687296549479167
 20
-11.98221435546875
 10
-1.413005913628472
 20
-12.77940945095486
 10
-3.003951009114583
 20
-13.04054768880208
 10
-4.732527669270832
 20
-13.31925591362847
 10
-6.475229220920137
 20
-12.97336832682291
 10
-8.143861219618054
 20
-12.51482611762152
 10
-8.588450792100694
 20
-12.39493679470486
 10
-9.025805664062499
 20
-12.25713297526041
 10
-9.470395236545137
 20
-12.13379855685764
 10
-9.470395236545137
 20
-12.13379855685764
 10
-9.558589680989582
 20
-12.27504747178819
 10
-9.558589680989582
 20
-12.27504747178819
 10
-9.558589680989582
 20
-12.27504747178819
 10
-19.96553412543402
 20
-5.684924316406249
 10
-19.96553412543402
 20
-5.684924316406249
 10
-20.50520833333333
 20
-5.159547254774304
 10
-21.24263102213542
 20
-4.838464355468749
 10
-22.05395100911458
 20
-4.838464355468749
 10
-23.70845811631944
 20
-4.838464355468749
 10
-25.05256212022569
 20
-6.182396104600694
 10
-25.05256212022569
 20
-7.840520562065971
 10
-25.05256212022569
 20
-9.057672797309026
 10
-24.32581922743056
 20
-10.10532633463541
 10
-23.28161078559027
 20
-10.57454833984375
 97
        0
 75
     2
 76
     1
 98
        1
 10
0.0
 20
0.0
  0
ENDBLK
  5
FB
330
F7
100
AcDbEntity
  8
マーク
100
AcDbBlockEnd
  0
BLOCK
  5
799
330
78F
100
AcDbEntity
  8
0
100
AcDbBlockBegin
  2
*D3
 70
     1
 10
0.0
 20
0.0
 30
0.0
  3
*D3
  1

  0
LINE
  5
4554
330
78F
100
AcDbEntity
  8
寸法
 62
     0
370
    -2
100
AcDbLine
 10
937.8000884495282
 20
2058.909163386517
 30
0.0
 11
937.8000884495282
 21
2181.184784271342
 31
0.0
  0
LINE
  5
4555
330
78F
100
AcDbEntity
  8
寸法
 62
     0
370
    -2
100
AcDbLine
 10
1807.800088449528
 20
2058.909163386517
 30
0.0
 11
1807.800088449528
 21
2181.184784271342
 31
0.0
  0
LINE
  5
4556
330
78F
100
AcDbEntity
  8
寸法
 62
     0
370
    -2
100
AcDbLine
 10
957.8000884495281
 20
2131.184784271342
 30
0.0
 11
1787.800088449528
 21
2131.184784271342
 31
0.0
  0
SOLID
  5
4557
330
78F
100
AcDbEntity
  8
寸法
 62
     0
100
AcDbTrace
 10
957.8000884495281
 20
2134.518117604675
 30
0.0
 11
957.8000884495281
 21
2127.851450938008
 31
0.0
 12
937.8000884495282
 22
2131.184784271342
 32
0.0
 13
937.8000884495282
 23
2131.184784271342
 33
0.0
  0
SOLID
  5
4558
330
78F
100
AcDbEntity
  8
寸法
 62
     0
100
AcDbTrace
 10
1787.800088449528
 20
2134.518117604675
 30
0.0
 11
1787.800088449528
 21
2127.851450938008
 31
0.0
 12
1807.800088449528
 22
2131.184784271342
 32
0.0
 13
1807.800088449528
 23
2131.184784271342
 33
0.0
  0
MTEXT
  5
4559
330
78F
100
AcDbEntity
  8
寸法
 62
     0
100
AcDbMText
 10
1328.557115772692
 20
2151.184784271341
 30
0.0
 40
20.0
 41
0.0
 71
     5
 72
     1
  1
870
 73
     1
 44
1.0
1001
ACAD
1000
MTEXTBEGIN
1070
    73
1070
     1
1070
    44
1040
1.0
1070
    74
1070
     0
1000
MTEXTEND
  0
POINT
  5
455A
330
78F
100
AcDbEntity
  8
DEFPOINTS
 62
     0
100
AcDbPoint
 10
937.8000884495282
 20
1858.909163386517
 30
0.0
  0
POINT
  5
455B
330
78F
100
AcDbEntity
  8
DEFPOINTS
 62
     0
100
AcDbPoint
 10
1807.800088449528
 20
1858.909163386517
 30
0.0
  0
POINT
  5
455C
330
78F
100
AcDbEntity
  8
DEFPOINTS
 62
     0
100
AcDbPoint
 10
1807.800088449528
 20
2131.184784271342
 30
0.0
  0
ENDBLK
  5
79A
330
78F
100
AcDbEntity
  8
0
100
AcDbBlockEnd
  0
BLOCK
  5
982
330
978
100
AcDbEntity
  8
0
100
AcDbBlockBegin
  2
*D4
 70
     1
 10
0.0
 20
0.0
 30
0.0
  3
*D4
  1

  0
LINE
  5
24E9
330
978
100
AcDbEntity
  8
寸法
 62
     0
370
    -2
100
AcDbLine
 10
1142.800088449528
 20
1858.909163386517
 30
0.0
 11
1091.316764934039
 21
1858.909163386517
 31
0.0
  0
LINE
  5
24EA
330
978
100
AcDbEntity
  8
寸法
 62
     0
370
    -2
100
AcDbLine
 10
1002.800088449528
 20
2458.909163386517
 30
0.0
 11
1111.316764934039
 21
2458.909163386517
 31
0.0
  0
LINE
  5
24EB
330
978
100
AcDbEntity
  8
寸法
 62
     0
370
    -2
100
AcDbLine
 10
1101.316764934039
 20
1878.909163386517
 30
0.0
 11
1101.316764934039
 21
2438.909163386517
 31
0.0
  0
SOLID
  5
24EC
330
978
100
AcDbEntity
  8
寸法
 62
     0
100
AcDbTrace
 10
1097.983431600706
 20
1878.909163386517
 30
0.0
 11
1104.650098267373
 21
1878.909163386517
 31
0.0
 12
1101.316764934039
 22
1858.909163386517
 32
0.0
 13
1101.316764934039
 23
1858.909163386517
 33
0.0
  0
SOLID
  5
24ED
330
978
100
AcDbEntity
  8
寸法
 62
     0
100
AcDbTrace
 10
1097.983431600706
 20
2438.909163386517
 30
0.0
 11
1104.650098267373
 21
2438.909163386517
 31
0.0
 12
1101.316764934039
 22
2458.909163386517
 32
0.0
 13
1101.316764934039
 23
2458.909163386517
 33
0.0
  0
MTEXT
  5
24EE
330
978
100
AcDbEntity
  8
寸法
 62
     0
100
AcDbMText
 10
1081.316764934039
 20
2187.055730160566
 30
0.0
 40
20.0
 41
0.0
 71
     5
 72
     1
  1
600
 11
0.0000000000000001
 21
1.0
 31
0.0
 73
     1
 44
1.0
1001
ACAD
1000
MTEXTBEGIN
1070
    73
1070
     1
1070
    44
1040
1.0
1070
    74
1070
     0
1000
MTEXTEND
  0
POINT
  5
24EF
330
978
100
AcDbEntity
  8
DEFPOINTS
 62
     0
100
AcDbPoint
 10
1222.800088449528
 20
1858.909163386517
 30
0.0
  0
POINT
  5
24F0
330
978
100
AcDbEntity
  8
DEFPOINTS
 62
     0
100
AcDbPoint
 10
922.8000884495282
 20
2458.909163386517
 30
0.0
  0
POINT
  5
24F1
330
978
100
AcDbEntity
  8
DEFPOINTS
 62
     0
100
AcDbPoint
 10
1101.316764934039
 20
2458.909163386517
 30
0.0
  0
ENDBLK
  5
983
330
978
100
AcDbEntity
  8
0
100
AcDbBlockEnd
  0
BLOCK
  5
9D7
330
9CD
100
AcDbEntity
  8
0
100
AcDbBlockBegin
  2
*D5
 70
     1
 10
0.0
 20
0.0
 30
0.0
  3
*D5
  1

  0
LINE
  5
261A
330
9CD
100
AcDbEntity
  8
寸法
 62
     0
370
    -2
100
AcDbLine
 10
3172.800088449529
 20
2458.909163386517
 30
0.0
 11
3239.273145904487
 21
2458.909163386517
 31
0.0
  0
LINE
  5
261B
330
9CD
100
AcDbEntity
  8
寸法
 62
     0
370
    -2
100
AcDbLine
 10
3172.800088449529
 20
1858.909163386517
 30
0.0
 11
3239.273145904487
 21
1858.909163386517
 31
0.0
  0
LINE
  5
261C
330
9CD
100
AcDbEntity
  8
寸法
 62
     0
370
    -2
100
AcDbLine
 10
3229.273145904487
 20
2438.909163386517
 30
0.0
 11
3229.273145904487
 21
1878.909163386517
 31
0.0
  0
SOLID
  5
261D
330
9CD
100
AcDbEntity
  8
寸法
 62
     0
100
AcDbTrace
 10
3225.939812571154
 20
2438.909163386517
 30
0.0
 11
3232.606479237821
 21
2438.909163386517
 31
0.0
 12
3229.273145904487
 22
2458.909163386517
 32
0.0
 13
3229.273145904487
 23
2458.909163386517
 33
0.0
  0
SOLID
  5
261E
330
9CD
100
AcDbEntity
  8
寸法
 62
     0
100
AcDbTrace
 10
3225.939812571154
 20
1878.909163386517
 30
0.0
 11
3232.606479237821
 21
1878.909163386517
 31
0.0
 12
3229.273145904487
 22
1858.909163386517
 32
0.0
 13
3229.273145904487
 23
1858.909163386517
 33
0.0
  0
MTEXT
  5
261F
330
9CD
100
AcDbEntity
  8
寸法
 62
     0
100
AcDbMText
 10
3249.273145904486
 20
2158.909163386518
 30
0.0
 40
20.0
 41
0.0
 71
     5
 72
     1
  1
600
 11
0.0000000000000001
 21
1.0
 31
0.0
 73
     1
 44
1.0
1001
ACAD
1000
MTEXTBEGIN
1070
    73
1070
     1
1070
    44
1040
1.0
1070
    74
1070
     0
1000
MTEXTEND
  0
POINT
  5
2620
330
9CD
100
AcDbEntity
  8
DEFPOINTS
 62
     0
100
AcDbPoint
 10
3142.800088449528
 20
2458.909163386517
 30
0.0
  0
POINT
  5
2621
330
9CD
100
AcDbEntity
  8
DEFPOINTS
 62
     0
100
AcDbPoint
 10
3142.800088449528
 20
1858.909163386517
 30
0.0
  0
POINT
  5
2622
330
9CD
100
AcDbEntity
  8
DEFPOINTS
 62
     0
100
AcDbPoint
 10
3229.273145904487
 20
1858.909163386517
 30
0.0
  0
ENDBLK
  5
9D8
330
9CD
100
AcDbEntity
  8
0
100
AcDbBlockEnd
  0
BLOCK
  5
A0B
330
A01
100
AcDbEntity
  8
0
100
AcDbBlockBegin
  2
*D6
 70
     1
 10
0.0
 20
0.0
 30
0.0
  3
*D6
  1

  0
LINE
  5
2623
330
A01
100
AcDbEntity
  8
寸法
 62
     0
370
    -2
100
AcDbLine
 10
3172.800088449529
 20
1718.909163386517
 30
0.0
 11
3239.273145904486
 21
1718.909163386517
 31
0.0
  0
LINE
  5
2624
330
A01
100
AcDbEntity
  8
寸法
 62
     0
370
    -2
100
AcDbLine
 10
3172.800088449529
 20
1858.909163386517
 30
0.0
 11
3239.273145904486
 21
1858.909163386517
 31
0.0
  0
LINE
  5
2625
330
A01
100
AcDbEntity
  8
寸法
 62
     0
370
    -2
100
AcDbLine
 10
3229.273145904486
 20
1738.909163386517
 30
0.0
 11
3229.273145904486
 21
1838.909163386517
 31
0.0
  0
SOLID
  5
2626
330
A01
100
AcDbEntity
  8
寸法
 62
     0
100
AcDbTrace
 10
3225.939812571152
 20
1738.909163386517
 30
0.0
 11
3232.606479237819
 21
1738.909163386517
 31
0.0
 12
3229.273145904486
 22
1718.909163386517
 32
0.0
 13
3229.273145904486
 23
1718.909163386517
 33
0.0
  0
SOLID
  5
2627
330
A01
100
AcDbEntity
  8
寸法
 62
     0
100
AcDbTrace
 10
3225.939812571152
 20
1838.909163386517
 30
0.0
 11
3232.606479237819
 21
1838.909163386517
 31
0.0
 12
3229.273145904486
 22
1858.909163386517
 32
0.0
 13
3229.273145904486
 23
1858.909163386517
 33
0.0
  0
MTEXT
  5
2628
330
A01
100
AcDbEntity
  8
寸法
 62
     0
100
AcDbMText
 10
3249.273145904485
 20
1788.909163386518
 30
0.0
 40
20.0
 41
0.0
 71
     5
 72
     1
  1
140
 11
0.0000000000000001
 21
1.0
 31
0.0
 73
     1
 44
1.0
1001
ACAD
1000
MTEXTBEGIN
1070
    73
1070
     1
1070
    44
1040
1.0
1070
    74
1070
     0
1000
MTEXTEND
  0
POINT
  5
2629
330
A01
100
AcDbEntity
  8
DEFPOINTS
 62
     0
100
AcDbPoint
 10
3142.800088449528
 20
1718.909163386517
 30
0.0
  0
POINT
  5
262A
330
A01
100
AcDbEntity
  8
DEFPOINTS
 62
     0
100
AcDbPoint
 10
3142.800088449528
 20
1858.909163386517
 30
0.0
  0
POINT
  5
262B
330
A01
100
AcDbEntity
  8
DEFPOINTS
 62
     0
100
AcDbPoint
 10
3229.273145904486
 20
1858.909163386517
 30
0.0
  0
ENDBLK
  5
A0C
330
A01
100
AcDbEntity
  8
0
100
AcDbBlockEnd
  0
BLOCK
  5
A89
330
A7F
100
AcDbEntity
  8
0
100
AcDbBlockBegin
  2
*D7
 70
     1
 10
0.0
 20
0.0
 30
0.0
  3
*D7
  1

  0
LINE
  5
259F
330
A7F
100
AcDbEntity
  8
寸法
 62
     0
370
    -2
100
AcDbLine
 10
2982.800088449528
 20
2488.909163386518
 30
0.0
 11
2982.800088449528
 21
2577.755376642237
 31
0.0
  0
LINE
  5
25A0
330
A7F
100
AcDbEntity
  8
寸法
 62
     0
370
    -2
100
AcDbLine
 10
3142.800088449528
 20
2488.909163386518
 30
0.0
 11
3142.800088449528
 21
2577.755376642237
 31
0.0
  0
LINE
  5
25A1
330
A7F
100
AcDbEntity
  8
寸法
 62
     0
370
    -2
100
AcDbLine
 10
3002.800088449528
 20
2567.755376642237
 30
0.0
 11
3122.800088449528
 21
2567.755376642237
 31
0.0
  0
SOLID
  5
25A2
330
A7F
100
AcDbEntity
  8
寸法
 62
     0
100
AcDbTrace
 10
3002.800088449528
 20
2571.088709975571
 30
0.0
 11
3002.800088449528
 21
2564.422043308903
 31
0.0
 12
2982.800088449528
 22
2567.755376642237
 32
0.0
 13
2982.800088449528
 23
2567.755376642237
 33
0.0
  0
SOLID
  5
25A3
330
A7F
100
AcDbEntity
  8
寸法
 62
     0
100
AcDbTrace
 10
3122.800088449528
 20
2571.088709975571
 30
0.0
 11
3122.800088449528
 21
2564.422043308903
 31
0.0
 12
3142.800088449528
 22
2567.755376642237
 32
0.0
 13
3142.800088449528
 23
2567.755376642237
 33
0.0
  0
MTEXT
  5
25A4
330
A7F
100
AcDbEntity
  8
寸法
 62
     0
100
AcDbMText
 10
3062.800088449528
 20
2587.755376642237
 30
0.0
 40
20.0
 41
0.0
 71
     5
 72
     1
  1
160
 73
     1
 44
1.0
1001
ACAD
1000
MTEXTBEGIN
1070
    73
1070
     1
1070
    44
1040
1.0
1070
    74
1070
     0
1000
MTEXTEND
  0
POINT
  5
25A5
330
A7F
100
AcDbEntity
  8
DEFPOINTS
 62
     0
100
AcDbPoint
 10
2982.800088449528
 20
2458.909163386517
 30
0.0
  0
POINT
  5
25A6
330
A7F
100
AcDbEntity
  8
DEFPOINTS
 62
     0
100
AcDbPoint
 10
3142.800088449528
 20
2458.909163386517
 30
0.0
  0
POINT
  5
25A7
330
A7F
100
AcDbEntity
  8
DEFPOINTS
 62
     0
100
AcDbPoint
 10
3142.800088449528
 20
2567.755376642237
 30
0.0
  0
ENDBLK
  5
A8A
330
A7F
100
AcDbEntity
  8
0
100
AcDbBlockEnd
  0
BLOCK
  5
B11
330
B07
100
AcDbEntity
  8
0
100
AcDbBlockBegin
  2
*D8
 70
     1
 10
0.0
 20
0.0
 30
0.0
  3
*D8
  1

  0
LINE
  5
2A34
330
B07
100
AcDbEntity
  8
寸法
 62
     0
370
    -2
100
AcDbLine
 10
2482.800088449528
 20
938.9091633865174
 30
0.0
 11
2482.800088449528
 21
1016.034259117131
 31
0.0
  0
LINE
  5
2A35
330
B07
100
AcDbEntity
  8
寸法
 62
     0
370
    -2
100
AcDbLine
 10
2642.800088449528
 20
938.9091633865174
 30
0.0
 11
2642.800088449528
 21
1016.034259117131
 31
0.0
  0
LINE
  5
2A36
330
B07
100
AcDbEntity
  8
寸法
 62
     0
370
    -2
100
AcDbLine
 10
2502.800088449528
 20
1006.034259117131
 30
0.0
 11
2622.800088449528
 21
1006.034259117131
 31
0.0
  0
SOLID
  5
2A37
330
B07
100
AcDbEntity
  8
寸法
 62
     0
100
AcDbTrace
 10
2502.800088449528
 20
1009.367592450464
 30
0.0
 11
2502.800088449528
 21
1002.700925783797
 31
0.0
 12
2482.800088449528
 22
1006.034259117131
 32
0.0
 13
2482.800088449528
 23
1006.034259117131
 33
0.0
  0
SOLID
  5
2A38
330
B07
100
AcDbEntity
  8
寸法
 62
     0
100
AcDbTrace
 10
2622.800088449528
 20
1009.367592450464
 30
0.0
 11
2622.800088449528
 21
1002.700925783797
 31
0.0
 12
2642.800088449528
 22
1006.034259117131
 32
0.0
 13
2642.800088449528
 23
1006.034259117131
 33
0.0
  0
MTEXT
  5
2A39
330
B07
100
AcDbEntity
  8
寸法
 62
     0
100
AcDbMText
 10
2562.800088449528
 20
1026.034259117131
 30
0.0
 40
20.0
 41
0.0
 71
     5
 72
     1
  1
160
 73
     1
 44
1.0
1001
ACAD
1000
MTEXTBEGIN
1070
    73
1070
     1
1070
    44
1040
1.0
1070
    74
1070
     0
1000
MTEXTEND
  0
POINT
  5
2A3A
330
B07
100
AcDbEntity
  8
DEFPOINTS
 62
     0
100
AcDbPoint
 10
2482.800088449528
 20
908.9091633865173
 30
0.0
  0
POINT
  5
2A3B
330
B07
100
AcDbEntity
  8
DEFPOINTS
 62
     0
100
AcDbPoint
 10
2642.800088449528
 20
908.9091633865173
 30
0.0
  0
POINT
  5
2A3C
330
B07
100
AcDbEntity
  8
DEFPOINTS
 62
     0
100
AcDbPoint
 10
2642.800088449528
 20
1006.034259117131
 30
0.0
  0
ENDBLK
  5
B12
330
B07
100
AcDbEntity
  8
0
100
AcDbBlockEnd
  0
BLOCK
  5
D1B
330
D11
100
AcDbEntity
  8
0
100
AcDbBlockBegin
  2
*D9
 70
     1
 10
0.0
 20
0.0
 30
0.0
  3
*D9
  1

  0
LINE
  5
2A7B
330
D11
100
AcDbEntity
  8
寸法
 62
     0
370
    -2
100
AcDbLine
 10
2672.800088449529
 20
908.9091633865173
 30
0.0
 11
2748.677696000253
 21
908.9091633865173
 31
0.0
  0
LINE
  5
2A7C
330
D11
100
AcDbEntity
  8
寸法
 62
     0
370
    -2
100
AcDbLine
 10
2672.800088449529
 20
768.9091633865173
 30
0.0
 11
2748.677696000253
 21
768.9091633865173
 31
0.0
  0
LINE
  5
2A7D
330
D11
100
AcDbEntity
  8
寸法
 62
     0
370
    -2
100
AcDbLine
 10
2738.677696000253
 20
888.9091633865174
 30
0.0
 11
2738.677696000253
 21
788.9091633865173
 31
0.0
  0
SOLID
  5
2A7E
330
D11
100
AcDbEntity
  8
寸法
 62
     0
100
AcDbTrace
 10
2735.34436266692
 20
888.9091633865174
 30
0.0
 11
2742.011029333587
 21
888.9091633865174
 31
0.0
 12
2738.677696000253
 22
908.9091633865173
 32
0.0
 13
2738.677696000253
 23
908.9091633865173
 33
0.0
  0
SOLID
  5
2A7F
330
D11
100
AcDbEntity
  8
寸法
 62
     0
100
AcDbTrace
 10
2735.34436266692
 20
788.9091633865173
 30
0.0
 11
2742.011029333587
 21
788.9091633865173
 31
0.0
 12
2738.677696000253
 22
768.9091633865173
 32
0.0
 13
2738.677696000253
 23
768.9091633865173
 33
0.0
  0
MTEXT
  5
2A80
330
D11
100
AcDbEntity
  8
寸法
 62
     0
100
AcDbMText
 10
2758.677696000253
 20
838.9091633865177
 30
0.0
 40
20.0
 41
0.0
 71
     5
 72
     1
  1
140
 11
0.0000000000000001
 21
1.0
 31
0.0
 73
     1
 44
1.0
1001
ACAD
1000
MTEXTBEGIN
1070
    73
1070
     1
1070
    44
1040
1.0
1070
    74
1070
     0
1000
MTEXTEND
  0
POINT
  5
2A81
330
D11
100
AcDbEntity
  8
DEFPOINTS
 62
     0
100
AcDbPoint
 10
2642.800088449528
 20
908.9091633865173
 30
0.0
  0
POINT
  5
2A82
330
D11
100
AcDbEntity
  8
DEFPOINTS
 62
     0
100
AcDbPoint
 10
2642.800088449528
 20
768.9091633865173
 30
0.0
  0
POINT
  5
2A83
330
D11
100
AcDbEntity
  8
DEFPOINTS
 62
     0
100
AcDbPoint
 10
2738.677696000253
 20
768.9091633865173
 30
0.0
  0
ENDBLK
  5
D1C
330
D11
100
AcDbEntity
  8
0
100
AcDbBlockEnd
  0
BLOCK
  5
DD9
330
DCF
100
AcDbEntity
  8
0
100
AcDbBlockBegin
  2
*D10
 70
     1
 10
0.0
 20
0.0
 30
0.0
  3
*D10
  1

  0
LINE
  5
25A8
330
DCF
100
AcDbEntity
  8
寸法
 62
     0
370
    -2
100
AcDbLine
 10
3027.800088449528
 20
2488.909163386518
 30
0.0
 11
3027.800088449528
 21
2531.594176966776
 31
0.0
  0
LINE
  5
25A9
330
DCF
100
AcDbEntity
  8
寸法
 62
     0
370
    -2
100
AcDbLine
 10
3097.800088449528
 20
2488.909163386518
 30
0.0
 11
3097.800088449528
 21
2531.594176966776
 31
0.0
  0
LINE
  5
25AA
330
DCF
100
AcDbEntity
  8
寸法
 62
     0
370
    -2
100
AcDbLine
 10
3047.800088449529
 20
2521.594176966775
 30
0.0
 11
3077.800088449528
 21
2521.594176966775
 31
0.0
  0
SOLID
  5
25AB
330
DCF
100
AcDbEntity
  8
寸法
 62
     0
100
AcDbTrace
 10
3047.800088449529
 20
2524.927510300109
 30
0.0
 11
3047.800088449529
 21
2518.260843633442
 31
0.0
 12
3027.800088449528
 22
2521.594176966775
 32
0.0
 13
3027.800088449528
 23
2521.594176966775
 33
0.0
  0
SOLID
  5
25AC
330
DCF
100
AcDbEntity
  8
寸法
 62
     0
100
AcDbTrace
 10
3077.800088449528
 20
2524.927510300109
 30
0.0
 11
3077.800088449528
 21
2518.260843633442
 31
0.0
 12
3097.800088449528
 22
2521.594176966775
 32
0.0
 13
3097.800088449528
 23
2521.594176966775
 33
0.0
  0
MTEXT
  5
25AD
330
DCF
100
AcDbEntity
  8
寸法
 62
     0
100
AcDbMText
 10
3062.800088449528
 20
2541.594176966775
 30
0.0
 40
20.0
 41
0.0
 71
     5
 72
     1
  1
70
 73
     1
 44
1.0
1001
ACAD
1000
MTEXTBEGIN
1070
    73
1070
     1
1070
    44
1040
1.0
1070
    74
1070
     0
1000
MTEXTEND
  0
POINT
  5
25AE
330
DCF
100
AcDbEntity
  8
DEFPOINTS
 62
     0
100
AcDbPoint
 10
3027.800088449528
 20
2458.909163386517
 30
0.0
  0
POINT
  5
25AF
330
DCF
100
AcDbEntity
  8
DEFPOINTS
 62
     0
100
AcDbPoint
 10
3097.800088449528
 20
2458.909163386517
 30
0.0
  0
POINT
  5
25B0
330
DCF
100
AcDbEntity
  8
DEFPOINTS
 62
     0
100
AcDbPoint
 10
3097.800088449528
 20
2521.594176966775
 30
0.0
  0
ENDBLK
  5
DDA
330
DCF
100
AcDbEntity
  8
0
100
AcDbBlockEnd
  0
BLOCK
  5
E03
330
DF9
100
AcDbEntity
  8
0
100
AcDbBlockBegin
  2
*D11
 70
     1
 10
0.0
 20
0.0
 30
0.0
  3
*D11
  1

  0
LINE
  5
25B1
330
DF9
100
AcDbEntity
  8
寸法
 62
     0
370
    -2
100
AcDbLine
 10
3097.800088449528
 20
2488.909163386518
 30
0.0
 11
3097.800088449528
 21
2531.594176966776
 31
0.0
  0
LINE
  5
25B2
330
DF9
100
AcDbEntity
  8
寸法
 62
     0
370
    -2
100
AcDbLine
 10
3142.800088449528
 20
2488.909163386518
 30
0.0
 11
3142.800088449528
 21
2531.594176966776
 31
0.0
  0
LINE
  5
25B3
330
DF9
100
AcDbEntity
  8
寸法
 62
     0
370
    -2
100
AcDbLine
 10
3077.800088449528
 20
2521.594176966775
 30
0.0
 11
3057.800088449528
 21
2521.594176966775
 31
0.0
  0
LINE
  5
25B4
330
DF9
100
AcDbEntity
  8
寸法
 62
     0
370
    -2
100
AcDbLine
 10
3162.800088449528
 20
2521.594176966775
 30
0.0
 11
3182.800088449528
 21
2521.594176966775
 31
0.0
  0
LINE
  5
25B5
330
DF9
100
AcDbEntity
  8
寸法
 62
     0
370
    -2
100
AcDbLine
 10
3097.800088449528
 20
2521.594176966775
 30
0.0
 11
3142.800088449528
 21
2521.594176966775
 31
0.0
  0
SOLID
  5
25B6
330
DF9
100
AcDbEntity
  8
寸法
 62
     0
100
AcDbTrace
 10
3077.800088449528
 20
2524.927510300109
 30
0.0
 11
3077.800088449528
 21
2518.260843633442
 31
0.0
 12
3097.800088449528
 22
2521.594176966775
 32
0.0
 13
3097.800088449528
 23
2521.594176966775
 33
0.0
  0
SOLID
  5
25B7
330
DF9
100
AcDbEntity
  8
寸法
 62
     0
100
AcDbTrace
 10
3162.800088449528
 20
2524.927510300109
 30
0.0
 11
3162.800088449528
 21
2518.260843633442
 31
0.0
 12
3142.800088449528
 22
2521.594176966775
 32
0.0
 13
3142.800088449528
 23
2521.594176966775
 33
0.0
  0
MTEXT
  5
25B8
330
DF9
100
AcDbEntity
  8
寸法
 62
     0
100
AcDbMText
 10
3120.300088449528
 20
2541.594176966775
 30
0.0
 40
20.0
 41
0.0
 71
     5
 72
     1
  1
45
 73
     1
 44
1.0
1001
ACAD
1000
MTEXTBEGIN
1070
    73
1070
     1
1070
    44
1040
1.0
1070
    74
1070
     0
1000
MTEXTEND
  0
POINT
  5
25B9
330
DF9
100
AcDbEntity
  8
DEFPOINTS
 62
     0
100
AcDbPoint
 10
3097.800088449528
 20
2458.909163386517
 30
0.0
  0
POINT
  5
25BA
330
DF9
100
AcDbEntity
  8
DEFPOINTS
 62
     0
100
AcDbPoint
 10
3142.800088449528
 20
2458.909163386517
 30
0.0
  0
POINT
  5
25BB
330
DF9
100
AcDbEntity
  8
DEFPOINTS
 62
     0
100
AcDbPoint
 10
3142.800088449528
 20
2521.594176966775
 30
0.0
  0
ENDBLK
  5
E04
330
DF9
100
AcDbEntity
  8
0
100
AcDbBlockEnd
  0
BLOCK
  5
E4B
330
E3F
100
AcDbEntity
  8
0
100
AcDbBlockBegin
  2
*D12
 70
     1
 10
0.0
 20
0.0
 30
0.0
  3
*D12
  1

  0
LINE
  5
25BC
330
E3F
100
AcDbEntity
  8
寸法
 62
     0
370
    -2
100
AcDbLine
 10
2982.800088449528
 20
2488.909163386518
 30
0.0
 11
2982.800088449528
 21
2531.594176966776
 31
0.0
  0
LINE
  5
25BD
330
E3F
100
AcDbEntity
  8
寸法
 62
     0
370
    -2
100
AcDbLine
 10
3027.800088449528
 20
2488.909163386518
 30
0.0
 11
3027.800088449528
 21
2531.594176966776
 31
0.0
  0
LINE
  5
25BE
330
E3F
100
AcDbEntity
  8
寸法
 62
     0
370
    -2
100
AcDbLine
 10
2962.800088449528
 20
2521.594176966775
 30
0.0
 11
2942.800088449529
 21
2521.594176966775
 31
0.0
  0
LINE
  5
25BF
330
E3F
100
AcDbEntity
  8
寸法
 62
     0
370
    -2
100
AcDbLine
 10
3047.800088449529
 20
2521.594176966775
 30
0.0
 11
3067.800088449529
 21
2521.594176966775
 31
0.0
  0
LINE
  5
25C0
330
E3F
100
AcDbEntity
  8
寸法
 62
     0
370
    -2
100
AcDbLine
 10
2982.800088449528
 20
2521.594176966775
 30
0.0
 11
3027.800088449528
 21
2521.594176966775
 31
0.0
  0
SOLID
  5
25C1
330
E3F
100
AcDbEntity
  8
寸法
 62
     0
100
AcDbTrace
 10
2962.800088449528
 20
2524.927510300109
 30
0.0
 11
2962.800088449528
 21
2518.260843633442
 31
0.0
 12
2982.800088449528
 22
2521.594176966775
 32
0.0
 13
2982.800088449528
 23
2521.594176966775
 33
0.0
  0
SOLID
  5
25C2
330
E3F
100
AcDbEntity
  8
寸法
 62
     0
100
AcDbTrace
 10
3047.800088449529
 20
2524.927510300109
 30
0.0
 11
3047.800088449529
 21
2518.260843633442
 31
0.0
 12
3027.800088449528
 22
2521.594176966775
 32
0.0
 13
3027.800088449528
 23
2521.594176966775
 33
0.0
  0
MTEXT
  5
25C3
330
E3F
100
AcDbEntity
  8
寸法
 62
     0
100
AcDbMText
 10
3005.300088449529
 20
2541.594176966775
 30
0.0
 40
20.0
 41
0.0
 71
     5
 72
     1
  1
45
 73
     1
 44
1.0
1001
ACAD
1000
MTEXTBEGIN
1070
    73
1070
     1
1070
    44
1040
1.0
1070
    74
1070
     0
1000
MTEXTEND
  0
POINT
  5
25C4
330
E3F
100
AcDbEntity
  8
DEFPOINTS
 62
     0
100
AcDbPoint
 10
2982.800088449528
 20
2458.909163386517
 30
0.0
  0
POINT
  5
25C5
330
E3F
100
AcDbEntity
  8
DEFPOINTS
 62
     0
100
AcDbPoint
 10
3027.800088449528
 20
2458.909163386517
 30
0.0
  0
POINT
  5
25C6
330
E3F
100
AcDbEntity
  8
DEFPOINTS
 62
     0
100
AcDbPoint
 10
3027.800088449528
 20
2521.594176966775
 30
0.0
  0
ENDBLK
  5
E4C
330
E3F
100
AcDbEntity
  8
0
100
AcDbBlockEnd
  0
BLOCK
  5
E63
330
E59
100
AcDbEntity
  8
0
100
AcDbBlockBegin
  2
*D13
 70
     1
 10
0.0
 20
0.0
 30
0.0
  3
*D13
  1

  0
LINE
  5
28AC
330
E59
100
AcDbEntity
  8
寸法
 62
     0
370
    -2
100
AcDbLine
 10
982.8000884495281
 20
948.9091633865173
 30
0.0
 11
982.8000884495281
 21
988.0960797051885
 31
0.0
  0
LINE
  5
28AD
330
E59
100
AcDbEntity
  8
寸法
 62
     0
370
    -2
100
AcDbLine
 10
882.8000884495281
 20
903.9091633865172
 30
0.0
 11
882.8000884495281
 21
988.0960797051885
 31
0.0
  0
LINE
  5
28AE
330
E59
100
AcDbEntity
  8
寸法
 62
     0
370
    -2
100
AcDbLine
 10
962.8000884495282
 20
978.0960797051886
 30
0.0
 11
902.8000884495282
 21
978.0960797051886
 31
0.0
  0
SOLID
  5
28AF
330
E59
100
AcDbEntity
  8
寸法
 62
     0
100
AcDbTrace
 10
962.8000884495282
 20
981.4294130385219
 30
0.0
 11
962.8000884495282
 21
974.7627463718552
 31
0.0
 12
982.8000884495281
 22
978.0960797051886
 32
0.0
 13
982.8000884495281
 23
978.0960797051886
 33
0.0
  0
SOLID
  5
28B0
330
E59
100
AcDbEntity
  8
寸法
 62
     0
100
AcDbTrace
 10
902.8000884495282
 20
981.4294130385219
 30
0.0
 11
902.8000884495282
 21
974.7627463718552
 31
0.0
 12
882.8000884495281
 22
978.0960797051886
 32
0.0
 13
882.8000884495281
 23
978.0960797051886
 33
0.0
  0
MTEXT
  5
28B1
330
E59
100
AcDbEntity
  8
寸法
 62
     0
100
AcDbMText
 10
932.8000884495281
 20
998.0960797051885
 30
0.0
 40
20.0
 41
0.0
 71
     5
 72
     1
  1
100
 73
     1
 44
1.0
1001
ACAD
1000
MTEXTBEGIN
1070
    73
1070
     1
1070
    44
1040
1.0
1070
    74
1070
     0
1000
MTEXTEND
  0
POINT
  5
28B2
330
E59
100
AcDbEntity
  8
DEFPOINTS
 62
     0
100
AcDbPoint
 10
982.8000884495281
 20
918.9091633865174
 30
0.0
  0
POINT
  5
28B3
330
E59
100
AcDbEntity
  8
DEFPOINTS
 62
     0
100
AcDbPoint
 10
882.8000884495281
 20
873.9091633865173
 30
0.0
  0
POINT
  5
28B4
330
E59
100
AcDbEntity
  8
DEFPOINTS
 62
     0
100
AcDbPoint
 10
882.8000884495281
 20
978.0960797051886
 30
0.0
  0
ENDBLK
  5
E64
330
E59
100
AcDbEntity
  8
0
100
AcDbBlockEnd
  0
BLOCK
  5
E84
330
E7A
100
AcDbEntity
  8
0
100
AcDbBlockBegin
  2
*D14
 70
     1
 10
0.0
 20
0.0
 30
0.0
  3
*D14
  1

  0
LINE
  5
28B5
330
E7A
100
AcDbEntity
  8
寸法
 62
     0
370
    -2
100
AcDbLine
 10
1012.800088449528
 20
918.9091633865174
 30
0.0
 11
1104.762172364674
 21
918.9091633865174
 31
0.0
  0
LINE
  5
28B6
330
E7A
100
AcDbEntity
  8
寸法
 62
     0
370
    -2
100
AcDbLine
 10
1012.800088449528
 20
758.9091633865173
 30
0.0
 11
1104.762172364674
 21
758.9091633865173
 31
0.0
  0
LINE
  5
28B7
330
E7A
100
AcDbEntity
  8
寸法
 62
     0
370
    -2
100
AcDbLine
 10
1094.762172364674
 20
898.9091633865173
 30
0.0
 11
1094.762172364674
 21
778.9091633865173
 31
0.0
  0
SOLID
  5
28B8
330
E7A
100
AcDbEntity
  8
寸法
 62
     0
100
AcDbTrace
 10
1091.42883903134
 20
898.9091633865173
 30
0.0
 11
1098.095505698007
 21
898.9091633865173
 31
0.0
 12
1094.762172364674
 22
918.9091633865174
 32
0.0
 13
1094.762172364674
 23
918.9091633865174
 33
0.0
  0
SOLID
  5
28B9
330
E7A
100
AcDbEntity
  8
寸法
 62
     0
100
AcDbTrace
 10
1091.42883903134
 20
778.9091633865173
 30
0.0
 11
1098.095505698007
 21
778.9091633865173
 31
0.0
 12
1094.762172364674
 22
758.9091633865173
 32
0.0
 13
1094.762172364674
 23
758.9091633865173
 33
0.0
  0
MTEXT
  5
28BA
330
E7A
100
AcDbEntity
  8
寸法
 62
     0
100
AcDbMText
 10
1114.762172364673
 20
838.9091633865174
 30
0.0
 40
20.0
 41
0.0
 71
     5
 72
     1
  1
160
 11
0.0000000000000001
 21
1.0
 31
0.0
 73
     1
 44
1.0
1001
ACAD
1000
MTEXTBEGIN
1070
    73
1070
     1
1070
    44
1040
1.0
1070
    74
1070
     0
1000
MTEXTEND
  0
POINT
  5
28BB
330
E7A
100
AcDbEntity
  8
DEFPOINTS
 62
     0
100
AcDbPoint
 10
982.8000884495281
 20
918.9091633865174
 30
0.0
  0
POINT
  5
28BC
330
E7A
100
AcDbEntity
  8
DEFPOINTS
 62
     0
100
AcDbPoint
 10
982.8000884495281
 20
758.9091633865173
 30
0.0
  0
POINT
  5
28BD
330
E7A
100
AcDbEntity
  8
DEFPOINTS
 62
     0
100
AcDbPoint
 10
1094.762172364674
 20
758.9091633865173
 30
0.0
  0
ENDBLK
  5
E85
330
E7A
100
AcDbEntity
  8
0
100
AcDbBlockEnd
  0
BLOCK
  5
EA5
330
E9B
100
AcDbEntity
  8
0
100
AcDbBlockBegin
  2
*D15
 70
     1
 10
0.0
 20
0.0
 30
0.0
  3
*D15
  1

  0
LINE
  5
28BE
330
E9B
100
AcDbEntity
  8
寸法
 62
     0
370
    -2
100
AcDbLine
 10
1012.800088449528
 20
803.9091633865172
 30
0.0
 11
1049.885373667193
 21
803.9091633865172
 31
0.0
  0
LINE
  5
28BF
330
E9B
100
AcDbEntity
  8
寸法
 62
     0
370
    -2
100
AcDbLine
 10
1012.800088449528
 20
758.9091633865173
 30
0.0
 11
1049.885373667193
 21
758.9091633865173
 31
0.0
  0
LINE
  5
28C0
330
E9B
100
AcDbEntity
  8
寸法
 62
     0
370
    -2
100
AcDbLine
 10
1039.885373667193
 20
823.9091633865173
 30
0.0
 11
1039.885373667193
 21
843.9091633865173
 31
0.0
  0
LINE
  5
28C1
330
E9B
100
AcDbEntity
  8
寸法
 62
     0
370
    -2
100
AcDbLine
 10
1039.885373667193
 20
738.9091633865173
 30
0.0
 11
1039.885373667193
 21
718.9091633865173
 31
0.0
  0
LINE
  5
28C2
330
E9B
100
AcDbEntity
  8
寸法
 62
     0
370
    -2
100
AcDbLine
 10
1039.885373667193
 20
803.9091633865172
 30
0.0
 11
1039.885373667193
 21
758.9091633865173
 31
0.0
  0
SOLID
  5
28C3
330
E9B
100
AcDbEntity
  8
寸法
 62
     0
100
AcDbTrace
 10
1036.55204033386
 20
823.9091633865173
 30
0.0
 11
1043.218707000526
 21
823.9091633865173
 31
0.0
 12
1039.885373667193
 22
803.9091633865172
 32
0.0
 13
1039.885373667193
 23
803.9091633865172
 33
0.0
  0
SOLID
  5
28C4
330
E9B
100
AcDbEntity
  8
寸法
 62
     0
100
AcDbTrace
 10
1036.55204033386
 20
738.9091633865173
 30
0.0
 11
1043.218707000526
 21
738.9091633865173
 31
0.0
 12
1039.885373667193
 22
758.9091633865173
 32
0.0
 13
1039.885373667193
 23
758.9091633865173
 33
0.0
  0
MTEXT
  5
28C5
330
E9B
100
AcDbEntity
  8
寸法
 62
     0
100
AcDbMText
 10
1059.885373667193
 20
781.4091633865174
 30
0.0
 40
20.0
 41
0.0
 71
     5
 72
     1
  1
45
 11
0.0000000000000001
 21
1.0
 31
0.0
 73
     1
 44
1.0
1001
ACAD
1000
MTEXTBEGIN
1070
    73
1070
     1
1070
    44
1040
1.0
1070
    74
1070
     0
1000
MTEXTEND
  0
POINT
  5
28C6
330
E9B
100
AcDbEntity
  8
DEFPOINTS
 62
     0
100
AcDbPoint
 10
982.8000884495281
 20
803.9091633865172
 30
0.0
  0
POINT
  5
28C7
330
E9B
100
AcDbEntity
  8
DEFPOINTS
 62
     0
100
AcDbPoint
 10
982.8000884495281
 20
758.9091633865173
 30
0.0
  0
POINT
  5
28C8
330
E9B
100
AcDbEntity
  8
DEFPOINTS
 62
     0
100
AcDbPoint
 10
1039.885373667193
 20
758.9091633865173
 30
0.0
  0
ENDBLK
  5
EA6
330
E9B
100
AcDbEntity
  8
0
100
AcDbBlockEnd
  0
BLOCK
  5
EDE
330
ED4
100
AcDbEntity
  8
0
100
AcDbBlockBegin
  2
*D16
 70
     1
 10
0.0
 20
0.0
 30
0.0
  3
*D16
  1

  0
LINE
  5
28C9
330
ED4
100
AcDbEntity
  8
寸法
 62
     0
370
    -2
100
AcDbLine
 10
982.8000884495281
 20
728.9091633865173
 30
0.0
 11
982.8000884495281
 21
677.6918637827876
 31
0.0
  0
LINE
  5
28CA
330
ED4
100
AcDbEntity
  8
寸法
 62
     0
370
    -2
100
AcDbLine
 10
937.8000884495282
 20
728.9091633865173
 30
0.0
 11
937.8000884495282
 21
677.6918637827876
 31
0.0
  0
LINE
  5
28CB
330
ED4
100
AcDbEntity
  8
寸法
 62
     0
370
    -2
100
AcDbLine
 10
1002.800088449528
 20
687.6918637827875
 30
0.0
 11
1022.800088449528
 21
687.6918637827875
 31
0.0
  0
LINE
  5
28CC
330
ED4
100
AcDbEntity
  8
寸法
 62
     0
370
    -2
100
AcDbLine
 10
917.8000884495281
 20
687.6918637827875
 30
0.0
 11
897.8000884495282
 21
687.6918637827875
 31
0.0
  0
LINE
  5
28CD
330
ED4
100
AcDbEntity
  8
寸法
 62
     0
370
    -2
100
AcDbLine
 10
982.8000884495281
 20
687.6918637827875
 30
0.0
 11
937.8000884495282
 21
687.6918637827875
 31
0.0
  0
SOLID
  5
28CE
330
ED4
100
AcDbEntity
  8
寸法
 62
     0
100
AcDbTrace
 10
1002.800088449528
 20
691.0251971161208
 30
0.0
 11
1002.800088449528
 21
684.3585304494541
 31
0.0
 12
982.8000884495281
 22
687.6918637827875
 32
0.0
 13
982.8000884495281
 23
687.6918637827875
 33
0.0
  0
SOLID
  5
28CF
330
ED4
100
AcDbEntity
  8
寸法
 62
     0
100
AcDbTrace
 10
917.8000884495281
 20
691.0251971161208
 30
0.0
 11
917.8000884495281
 21
684.3585304494541
 31
0.0
 12
937.8000884495282
 22
687.6918637827875
 32
0.0
 13
937.8000884495282
 23
687.6918637827875
 33
0.0
  0
MTEXT
  5
28D0
330
ED4
100
AcDbEntity
  8
寸法
 62
     0
100
AcDbMText
 10
960.3000884495282
 20
667.6918637827875
 30
0.0
 40
20.0
 41
0.0
 71
     5
 72
     1
  1
45
 73
     1
 44
1.0
1001
ACAD
1000
MTEXTBEGIN
1070
    73
1070
     1
1070
    44
1040
1.0
1070
    74
1070
     0
1000
MTEXTEND
  0
POINT
  5
28D1
330
ED4
100
AcDbEntity
  8
DEFPOINTS
 62
     0
100
AcDbPoint
 10
982.8000884495281
 20
758.9091633865173
 30
0.0
  0
POINT
  5
28D2
330
ED4
100
AcDbEntity
  8
DEFPOINTS
 62
     0
100
AcDbPoint
 10
937.8000884495282
 20
758.9091633865173
 30
0.0
  0
POINT
  5
28D3
330
ED4
100
AcDbEntity
  8
DEFPOINTS
 62
     0
100
AcDbPoint
 10
937.8000884495282
 20
687.6918637827875
 30
0.0
  0
ENDBLK
  5
EDF
330
ED4
100
AcDbEntity
  8
0
100
AcDbBlockEnd
  0
BLOCK
  5
F19
330
F0D
100
AcDbEntity
  8
0
100
AcDbBlockBegin
  2
*D17
 70
     1
 10
0.0
 20
0.0
 30
0.0
  3
*D17
  1

  0
LINE
  5
28D4
330
F0D
100
AcDbEntity
  8
寸法
 62
     0
370
    -2
100
AcDbLine
 10
937.8000884495282
 20
728.9091633865173
 30
0.0
 11
937.8000884495282
 21
678.108530449454
 31
0.0
  0
LINE
  5
28D5
330
F0D
100
AcDbEntity
  8
寸法
 62
     0
370
    -2
100
AcDbLine
 10
932.8000884495281
 20
773.9091633865172
 30
0.0
 11
932.8000884495281
 21
678.108530449454
 31
0.0
  0
LINE
  5
28D6
330
F0D
100
AcDbEntity
  8
寸法
 62
     0
370
    -2
100
AcDbLine
 10
957.8000884495281
 20
688.108530449454
 30
0.0
 11
977.8000884495282
 21
688.108530449454
 31
0.0
  0
LINE
  5
28D7
330
F0D
100
AcDbEntity
  8
寸法
 62
     0
370
    -2
100
AcDbLine
 10
912.8000884495282
 20
688.108530449454
 30
0.0
 11
892.8000884495281
 21
688.108530449454
 31
0.0
  0
LINE
  5
28D8
330
F0D
100
AcDbEntity
  8
寸法
 62
     0
370
    -2
100
AcDbLine
 10
937.8000884495282
 20
688.108530449454
 30
0.0
 11
932.8000884495281
 21
688.108530449454
 31
0.0
  0
SOLID
  5
28D9
330
F0D
100
AcDbEntity
  8
寸法
 62
     0
100
AcDbTrace
 10
957.8000884495281
 20
691.4418637827874
 30
0.0
 11
957.8000884495281
 21
684.7751971161207
 31
0.0
 12
937.8000884495282
 22
688.108530449454
 32
0.0
 13
937.8000884495282
 23
688.108530449454
 33
0.0
  0
SOLID
  5
28DA
330
F0D
100
AcDbEntity
  8
寸法
 62
     0
100
AcDbTrace
 10
912.8000884495282
 20
691.4418637827874
 30
0.0
 11
912.8000884495282
 21
684.7751971161207
 31
0.0
 12
932.8000884495281
 22
688.108530449454
 32
0.0
 13
932.8000884495281
 23
688.108530449454
 33
0.0
  0
MTEXT
  5
28DB
330
F0D
100
AcDbEntity
  8
寸法
 62
     0
100
AcDbMText
 10
935.3000884495282
 20
643.1085304494541
 30
0.0
 40
20.0
 41
0.0
 71
     5
 72
     1
  1
5
 73
     1
 44
1.0
1001
ACAD
1000
MTEXTBEGIN
1070
    73
1070
     1
1070
    44
1040
1.0
1070
    74
1070
     0
1000
MTEXTEND
  0
POINT
  5
28DC
330
F0D
100
AcDbEntity
  8
DEFPOINTS
 62
     0
100
AcDbPoint
 10
937.8000884495282
 20
758.9091633865173
 30
0.0
  0
POINT
  5
28DD
330
F0D
100
AcDbEntity
  8
DEFPOINTS
 62
     0
100
AcDbPoint
 10
932.8000884495281
 20
803.9091633865172
 30
0.0
  0
POINT
  5
28DE
330
F0D
100
AcDbEntity
  8
DEFPOINTS
 62
     0
100
AcDbPoint
 10
932.8000884495281
 20
688.108530449454
 30
0.0
  0
ENDBLK
  5
F1A
330
F0D
100
AcDbEntity
  8
0
100
AcDbBlockEnd
  0
BLOCK
  5
F61
330
F60
100
AcDbEntity
  8
0
100
AcDbBlockBegin
  2
_None
 70
     0
 10
0.0
 20
0.0
 30
0.0
  3
_None
  1

  0
ENDBLK
  5
F62
330
F60
100
AcDbEntity
  8
0
100
AcDbBlockEnd
  0
BLOCK
  5
FD3
330
FC9
100
AcDbEntity
  8
0
100
AcDbBlockBegin
  2
*D19
 70
     1
 10
0.0
 20
0.0
 30
0.0
  3
*D19
  1

  0
LINE
  5
28DF
330
FC9
100
AcDbEntity
  8
寸法
 62
     0
370
    -2
100
AcDbLine
 10
932.8000884495281
 20
773.9091633865172
 30
0.0
 11
932.8000884495281
 21
678.1085304494538
 31
0.0
  0
LINE
  5
28E0
330
FC9
100
AcDbEntity
  8
寸法
 62
     0
370
    -2
100
AcDbLine
 10
882.8000884495281
 20
773.9091633865172
 30
0.0
 11
882.8000884495281
 21
678.1085304494538
 31
0.0
  0
LINE
  5
28E1
330
FC9
100
AcDbEntity
  8
寸法
 62
     0
370
    -2
100
AcDbLine
 10
952.8000884495282
 20
688.1085304494538
 30
0.0
 11
972.8000884495282
 21
688.1085304494538
 31
0.0
  0
LINE
  5
28E2
330
FC9
100
AcDbEntity
  8
寸法
 62
     0
370
    -2
100
AcDbLine
 10
862.8000884495282
 20
688.1085304494538
 30
0.0
 11
842.8000884495281
 21
688.1085304494538
 31
0.0
  0
LINE
  5
28E3
330
FC9
100
AcDbEntity
  8
寸法
 62
     0
370
    -2
100
AcDbLine
 10
932.8000884495281
 20
688.1085304494538
 30
0.0
 11
882.8000884495281
 21
688.1085304494538
 31
0.0
  0
SOLID
  5
28E4
330
FC9
100
AcDbEntity
  8
寸法
 62
     0
100
AcDbTrace
 10
952.8000884495282
 20
691.4418637827871
 30
0.0
 11
952.8000884495282
 21
684.7751971161204
 31
0.0
 12
932.8000884495281
 22
688.1085304494538
 32
0.0
 13
932.8000884495281
 23
688.1085304494538
 33
0.0
  0
SOLID
  5
28E5
330
FC9
100
AcDbEntity
  8
寸法
 62
     0
100
AcDbTrace
 10
862.8000884495282
 20
691.4418637827871
 30
0.0
 11
862.8000884495282
 21
684.7751971161204
 31
0.0
 12
882.8000884495281
 22
688.1085304494538
 32
0.0
 13
882.8000884495281
 23
688.1085304494538
 33
0.0
  0
MTEXT
  5
28E6
330
FC9
100
AcDbEntity
  8
寸法
 62
     0
100
AcDbMText
 10
907.8000884495281
 20
668.1085304494538
 30
0.0
 40
20.0
 41
0.0
 71
     5
 72
     1
  1
50
 73
     1
 44
1.0
1001
ACAD
1000
MTEXTBEGIN
1070
    73
1070
     1
1070
    44
1040
1.0
1070
    74
1070
     0
1000
MTEXTEND
  0
POINT
  5
28E7
330
FC9
100
AcDbEntity
  8
DEFPOINTS
 62
     0
100
AcDbPoint
 10
932.8000884495281
 20
803.9091633865172
 30
0.0
  0
POINT
  5
28E8
330
FC9
100
AcDbEntity
  8
DEFPOINTS
 62
     0
100
AcDbPoint
 10
882.8000884495281
 20
803.9091633865172
 30
0.0
  0
POINT
  5
28E9
330
FC9
100
AcDbEntity
  8
DEFPOINTS
 62
     0
100
AcDbPoint
 10
882.8000884495281
 20
688.1085304494538
 30
0.0
  0
ENDBLK
  5
FD4
330
FC9
100
AcDbEntity
  8
0
100
AcDbBlockEnd
  0
BLOCK
  5
1007
330
FFD
100
AcDbEntity
  8
0
100
AcDbBlockBegin
  2
*D20
 70
     1
 10
0.0
 20
0.0
 30
0.0
  3
*D20
  1

  0
LINE
  5
28EA
330
FFD
100
AcDbEntity
  8
寸法
 62
     0
370
    -2
100
AcDbLine
 10
852.8000884495281
 20
873.9091633865173
 30
0.0
 11
790.5030089605802
 21
873.9091633865173
 31
0.0
  0
LINE
  5
28EB
330
FFD
100
AcDbEntity
  8
寸法
 62
     0
370
    -2
100
AcDbLine
 10
852.8000884495281
 20
803.9091633865172
 30
0.0
 11
790.5030089605802
 21
803.9091633865172
 31
0.0
  0
LINE
  5
28EC
330
FFD
100
AcDbEntity
  8
寸法
 62
     0
370
    -2
100
AcDbLine
 10
800.5030089605803
 20
853.9091633865172
 30
0.0
 11
800.5030089605803
 21
823.9091633865173
 31
0.0
  0
SOLID
  5
28ED
330
FFD
100
AcDbEntity
  8
寸法
 62
     0
100
AcDbTrace
 10
797.1696756272469
 20
853.9091633865172
 30
0.0
 11
803.8363422939136
 21
853.9091633865172
 31
0.0
 12
800.5030089605803
 22
873.9091633865173
 32
0.0
 13
800.5030089605803
 23
873.9091633865173
 33
0.0
  0
SOLID
  5
28EE
330
FFD
100
AcDbEntity
  8
寸法
 62
     0
100
AcDbTrace
 10
797.1696756272469
 20
823.9091633865173
 30
0.0
 11
803.8363422939136
 21
823.9091633865173
 31
0.0
 12
800.5030089605803
 22
803.9091633865172
 32
0.0
 13
800.5030089605803
 23
803.9091633865172
 33
0.0
  0
MTEXT
  5
28EF
330
FFD
100
AcDbEntity
  8
寸法
 62
     0
100
AcDbMText
 10
780.50300896058
 20
838.9091633865175
 30
0.0
 40
20.0
 41
0.0
 71
     5
 72
     1
  1
70
 11
0.0000000000000001
 21
1.0
 31
0.0
 73
     1
 44
1.0
1001
ACAD
1000
MTEXTBEGIN
1070
    73
1070
     1
1070
    44
1040
1.0
1070
    74
1070
     0
1000
MTEXTEND
  0
POINT
  5
28F0
330
FFD
100
AcDbEntity
  8
DEFPOINTS
 62
     0
100
AcDbPoint
 10
882.8000884495281
 20
873.9091633865173
 30
0.0
  0
POINT
  5
28F1
330
FFD
100
AcDbEntity
  8
DEFPOINTS
 62
     0
100
AcDbPoint
 10
882.8000884495281
 20
803.9091633865172
 30
0.0
  0
POINT
  5
28F2
330
FFD
100
AcDbEntity
  8
DEFPOINTS
 62
     0
100
AcDbPoint
 10
800.5030089605803
 20
803.9091633865172
 30
0.0
  0
ENDBLK
  5
1008
330
FFD
100
AcDbEntity
  8
0
100
AcDbBlockEnd
  0
BLOCK
  5
1053
330
1049
100
AcDbEntity
  8
0
100
AcDbBlockBegin
  2
*D21
 70
     1
 10
0.0
 20
0.0
 30
0.0
  3
*D21
  1

  0
LINE
  5
298A
330
1049
100
AcDbEntity
  8
寸法
 62
     0
370
    -2
100
AcDbLine
 10
1557.800088449528
 20
918.9091633865171
 30
0.0
 11
1649.762172364674
 21
918.9091633865171
 31
0.0
  0
LINE
  5
298B
330
1049
100
AcDbEntity
  8
寸法
 62
     0
370
    -2
100
AcDbLine
 10
1557.800088449528
 20
758.909163386517
 30
0.0
 11
1649.762172364674
 21
758.909163386517
 31
0.0
  0
LINE
  5
298C
330
1049
100
AcDbEntity
  8
寸法
 62
     0
370
    -2
100
AcDbLine
 10
1639.762172364674
 20
898.909163386517
 30
0.0
 11
1639.762172364674
 21
778.9091633865171
 31
0.0
  0
SOLID
  5
298D
330
1049
100
AcDbEntity
  8
寸法
 62
     0
100
AcDbTrace
 10
1636.428839031341
 20
898.909163386517
 30
0.0
 11
1643.095505698007
 21
898.909163386517
 31
0.0
 12
1639.762172364674
 22
918.9091633865171
 32
0.0
 13
1639.762172364674
 23
918.9091633865171
 33
0.0
  0
SOLID
  5
298E
330
1049
100
AcDbEntity
  8
寸法
 62
     0
100
AcDbTrace
 10
1636.428839031341
 20
778.9091633865171
 30
0.0
 11
1643.095505698007
 21
778.9091633865171
 31
0.0
 12
1639.762172364674
 22
758.909163386517
 32
0.0
 13
1639.762172364674
 23
758.909163386517
 33
0.0
  0
MTEXT
  5
298F
330
1049
100
AcDbEntity
  8
寸法
 62
     0
100
AcDbMText
 10
1659.762172364673
 20
838.9091633865174
 30
0.0
 40
20.0
 41
0.0
 71
     5
 72
     1
  1
160
 11
0.0000000000000001
 21
1.0
 31
0.0
 73
     1
 44
1.0
1001
ACAD
1000
MTEXTBEGIN
1070
    73
1070
     1
1070
    44
1040
1.0
1070
    74
1070
     0
1000
MTEXTEND
  0
POINT
  5
2990
330
1049
100
AcDbEntity
  8
DEFPOINTS
 62
     0
100
AcDbPoint
 10
1527.800088449528
 20
918.9091633865171
 30
0.0
  0
POINT
  5
2991
330
1049
100
AcDbEntity
  8
DEFPOINTS
 62
     0
100
AcDbPoint
 10
1527.800088449528
 20
758.909163386517
 30
0.0
  0
POINT
  5
2992
330
1049
100
AcDbEntity
  8
DEFPOINTS
 62
     0
100
AcDbPoint
 10
1639.762172364674
 20
758.909163386517
 30
0.0
  0
ENDBLK
  5
1054
330
1049
100
AcDbEntity
  8
0
100
AcDbBlockEnd
  0
BLOCK
  5
106C
330
1063
100
AcDbEntity
  8
0
100
AcDbBlockBegin
  2
*D22
 70
     1
 10
0.0
 20
0.0
 30
0.0
  3
*D22
  1

  0
LINE
  5
2993
330
1063
100
AcDbEntity
  8
寸法
 62
     0
370
    -2
100
AcDbLine
 10
1527.800088449528
 20
728.9091633865171
 30
0.0
 11
1527.800088449528
 21
677.6918637827873
 31
0.0
  0
LINE
  5
2994
330
1063
100
AcDbEntity
  8
寸法
 62
     0
370
    -2
100
AcDbLine
 10
1482.800088449528
 20
728.9091633865171
 30
0.0
 11
1482.800088449528
 21
677.6918637827873
 31
0.0
  0
LINE
  5
2995
330
1063
100
AcDbEntity
  8
寸法
 62
     0
370
    -2
100
AcDbLine
 10
1547.800088449528
 20
687.6918637827873
 30
0.0
 11
1567.800088449528
 21
687.6918637827873
 31
0.0
  0
LINE
  5
2996
330
1063
100
AcDbEntity
  8
寸法
 62
     0
370
    -2
100
AcDbLine
 10
1462.800088449528
 20
687.6918637827873
 30
0.0
 11
1442.800088449528
 21
687.6918637827873
 31
0.0
  0
LINE
  5
2997
330
1063
100
AcDbEntity
  8
寸法
 62
     0
370
    -2
100
AcDbLine
 10
1527.800088449528
 20
687.6918637827873
 30
0.0
 11
1482.800088449528
 21
687.6918637827873
 31
0.0
  0
SOLID
  5
2998
330
1063
100
AcDbEntity
  8
寸法
 62
     0
100
AcDbTrace
 10
1547.800088449528
 20
691.0251971161207
 30
0.0
 11
1547.800088449528
 21
684.3585304494539
 31
0.0
 12
1527.800088449528
 22
687.6918637827873
 32
0.0
 13
1527.800088449528
 23
687.6918637827873
 33
0.0
  0
SOLID
  5
2999
330
1063
100
AcDbEntity
  8
寸法
 62
     0
100
AcDbTrace
 10
1462.800088449528
 20
691.0251971161207
 30
0.0
 11
1462.800088449528
 21
684.3585304494539
 31
0.0
 12
1482.800088449528
 22
687.6918637827873
 32
0.0
 13
1482.800088449528
 23
687.6918637827873
 33
0.0
  0
MTEXT
  5
299A
330
1063
100
AcDbEntity
  8
寸法
 62
     0
100
AcDbMText
 10
1505.300088449528
 20
667.6918637827873
 30
0.0
 40
20.0
 41
0.0
 71
     5
 72
     1
  1
45
 73
     1
 44
1.0
1001
ACAD
1000
MTEXTBEGIN
1070
    73
1070
     1
1070
    44
1040
1.0
1070
    74
1070
     0
1000
MTEXTEND
  0
POINT
  5
299B
330
1063
100
AcDbEntity
  8
DEFPOINTS
 62
     0
100
AcDbPoint
 10
1527.800088449528
 20
758.909163386517
 30
0.0
  0
POINT
  5
299C
330
1063
100
AcDbEntity
  8
DEFPOINTS
 62
     0
100
AcDbPoint
 10
1482.800088449528
 20
758.909163386517
 30
0.0
  0
POINT
  5
299D
330
1063
100
AcDbEntity
  8
DEFPOINTS
 62
     0
100
AcDbPoint
 10
1482.800088449528
 20
687.6918637827873
 30
0.0
  0
ENDBLK
  5
106D
330
1063
100
AcDbEntity
  8
0
100
AcDbBlockEnd
  0
BLOCK
  5
107A
330
106E
100
AcDbEntity
  8
0
100
AcDbBlockBegin
  2
*D23
 70
     1
 10
0.0
 20
0.0
 30
0.0
  3
*D23
  1

  0
LINE
  5
299E
330
106E
100
AcDbEntity
  8
寸法
 62
     0
370
    -2
100
AcDbLine
 10
1482.800088449528
 20
728.9091633865171
 30
0.0
 11
1482.800088449528
 21
678.1085304494538
 31
0.0
  0
LINE
  5
299F
330
106E
100
AcDbEntity
  8
寸法
 62
     0
370
    -2
100
AcDbLine
 10
1477.800088449528
 20
773.9091633865171
 30
0.0
 11
1477.800088449528
 21
678.1085304494538
 31
0.0
  0
LINE
  5
29A0
330
106E
100
AcDbEntity
  8
寸法
 62
     0
370
    -2
100
AcDbLine
 10
1502.800088449528
 20
688.1085304494538
 30
0.0
 11
1522.800088449528
 21
688.1085304494538
 31
0.0
  0
LINE
  5
29A1
330
106E
100
AcDbEntity
  8
寸法
 62
     0
370
    -2
100
AcDbLine
 10
1457.800088449528
 20
688.1085304494538
 30
0.0
 11
1437.800088449528
 21
688.1085304494538
 31
0.0
  0
LINE
  5
29A2
330
106E
100
AcDbEntity
  8
寸法
 62
     0
370
    -2
100
AcDbLine
 10
1482.800088449528
 20
688.1085304494538
 30
0.0
 11
1477.800088449528
 21
688.1085304494538
 31
0.0
  0
SOLID
  5
29A3
330
106E
100
AcDbEntity
  8
寸法
 62
     0
100
AcDbTrace
 10
1502.800088449528
 20
691.4418637827871
 30
0.0
 11
1502.800088449528
 21
684.7751971161204
 31
0.0
 12
1482.800088449528
 22
688.1085304494538
 32
0.0
 13
1482.800088449528
 23
688.1085304494538
 33
0.0
  0
SOLID
  5
29A4
330
106E
100
AcDbEntity
  8
寸法
 62
     0
100
AcDbTrace
 10
1457.800088449528
 20
691.4418637827871
 30
0.0
 11
1457.800088449528
 21
684.7751971161204
 31
0.0
 12
1477.800088449528
 22
688.1085304494538
 32
0.0
 13
1477.800088449528
 23
688.1085304494538
 33
0.0
  0
MTEXT
  5
29A5
330
106E
100
AcDbEntity
  8
寸法
 62
     0
100
AcDbMText
 10
1480.300088449528
 20
643.1085304494538
 30
0.0
 40
20.0
 41
0.0
 71
     5
 72
     1
  1
5
 73
     1
 44
1.0
1001
ACAD
1000
MTEXTBEGIN
1070
    73
1070
     1
1070
    44
1040
1.0
1070
    74
1070
     0
1000
MTEXTEND
  0
POINT
  5
29A6
330
106E
100
AcDbEntity
  8
DEFPOINTS
 62
     0
100
AcDbPoint
 10
1482.800088449528
 20
758.909163386517
 30
0.0
  0
POINT
  5
29A7
330
106E
100
AcDbEntity
  8
DEFPOINTS
 62
     0
100
AcDbPoint
 10
1477.800088449528
 20
803.9091633865171
 30
0.0
  0
POINT
  5
29A8
330
106E
100
AcDbEntity
  8
DEFPOINTS
 62
     0
100
AcDbPoint
 10
1477.800088449528
 20
688.1085304494538
 30
0.0
  0
ENDBLK
  5
107B
330
106E
100
AcDbEntity
  8
0
100
AcDbBlockEnd
  0
BLOCK
  5
1088
330
107C
100
AcDbEntity
  8
0
100
AcDbBlockBegin
  2
*D24
 70
     1
 10
0.0
 20
0.0
 30
0.0
  3
*D24
  1

  0
LINE
  5
29A9
330
107C
100
AcDbEntity
  8
寸法
 62
     0
370
    -2
100
AcDbLine
 10
1477.800088449528
 20
773.9091633865171
 30
0.0
 11
1477.800088449528
 21
678.1085304494538
 31
0.0
  0
LINE
  5
29AA
330
107C
100
AcDbEntity
  8
寸法
 62
     0
370
    -2
100
AcDbLine
 10
1422.800088449528
 20
773.9091633865171
 30
0.0
 11
1422.800088449528
 21
678.1085304494538
 31
0.0
  0
LINE
  5
29AB
330
107C
100
AcDbEntity
  8
寸法
 62
     0
370
    -2
100
AcDbLine
 10
1497.800088449528
 20
688.1085304494538
 30
0.0
 11
1517.800088449528
 21
688.1085304494538
 31
0.0
  0
LINE
  5
29AC
330
107C
100
AcDbEntity
  8
寸法
 62
     0
370
    -2
100
AcDbLine
 10
1402.800088449528
 20
688.1085304494538
 30
0.0
 11
1382.800088449528
 21
688.1085304494538
 31
0.0
  0
LINE
  5
29AD
330
107C
100
AcDbEntity
  8
寸法
 62
     0
370
    -2
100
AcDbLine
 10
1477.800088449528
 20
688.1085304494538
 30
0.0
 11
1422.800088449528
 21
688.1085304494538
 31
0.0
  0
SOLID
  5
29AE
330
107C
100
AcDbEntity
  8
寸法
 62
     0
100
AcDbTrace
 10
1497.800088449528
 20
691.4418637827871
 30
0.0
 11
1497.800088449528
 21
684.7751971161204
 31
0.0
 12
1477.800088449528
 22
688.1085304494538
 32
0.0
 13
1477.800088449528
 23
688.1085304494538
 33
0.0
  0
SOLID
  5
29AF
330
107C
100
AcDbEntity
  8
寸法
 62
     0
100
AcDbTrace
 10
1402.800088449528
 20
691.4418637827871
 30
0.0
 11
1402.800088449528
 21
684.7751971161204
 31
0.0
 12
1422.800088449528
 22
688.1085304494538
 32
0.0
 13
1422.800088449528
 23
688.1085304494538
 33
0.0
  0
MTEXT
  5
29B0
330
107C
100
AcDbEntity
  8
寸法
 62
     0
100
AcDbMText
 10
1450.300088449528
 20
668.1085304494538
 30
0.0
 40
20.0
 41
0.0
 71
     5
 72
     1
  1
55
 73
     1
 44
1.0
1001
ACAD
1000
MTEXTBEGIN
1070
    73
1070
     1
1070
    44
1040
1.0
1070
    74
1070
     0
1000
MTEXTEND
  0
POINT
  5
29B1
330
107C
100
AcDbEntity
  8
DEFPOINTS
 62
     0
100
AcDbPoint
 10
1477.800088449528
 20
803.9091633865171
 30
0.0
  0
POINT
  5
29B2
330
107C
100
AcDbEntity
  8
DEFPOINTS
 62
     0
100
AcDbPoint
 10
1422.800088449528
 20
803.9091633865171
 30
0.0
  0
POINT
  5
29B3
330
107C
100
AcDbEntity
  8
DEFPOINTS
 62
     0
100
AcDbPoint
 10
1422.800088449528
 20
688.1085304494538
 30
0.0
  0
ENDBLK
  5
1089
330
107C
100
AcDbEntity
  8
0
100
AcDbBlockEnd
  0
BLOCK
  5
10D7
330
10CD
100
AcDbEntity
  8
0
100
AcDbBlockBegin
  2
*D25
 70
     1
 10
0.0
 20
0.0
 30
0.0
  3
*D25
  1

  0
LINE
  5
29B4
330
10CD
100
AcDbEntity
  8
寸法
 62
     0
370
    -2
100
AcDbLine
 10
1422.800088449528
 20
773.9091633865171
 30
0.0
 11
1422.800088449528
 21
678.1085304494533
 31
0.0
  0
LINE
  5
29B5
330
10CD
100
AcDbEntity
  8
寸法
 62
     0
370
    -2
100
AcDbLine
 10
1412.800088449528
 20
753.9091633865173
 30
0.0
 11
1412.800088449528
 21
678.1085304494533
 31
0.0
  0
LINE
  5
29B6
330
10CD
100
AcDbEntity
  8
寸法
 62
     0
370
    -2
100
AcDbLine
 10
1442.800088449528
 20
688.1085304494534
 30
0.0
 11
1462.800088449528
 21
688.1085304494534
 31
0.0
  0
LINE
  5
29B7
330
10CD
100
AcDbEntity
  8
寸法
 62
     0
370
    -2
100
AcDbLine
 10
1392.800088449528
 20
688.1085304494534
 30
0.0
 11
1372.800088449528
 21
688.1085304494534
 31
0.0
  0
LINE
  5
29B8
330
10CD
100
AcDbEntity
  8
寸法
 62
     0
370
    -2
100
AcDbLine
 10
1422.800088449528
 20
688.1085304494534
 30
0.0
 11
1412.800088449528
 21
688.1085304494534
 31
0.0
  0
SOLID
  5
29B9
330
10CD
100
AcDbEntity
  8
寸法
 62
     0
100
AcDbTrace
 10
1442.800088449528
 20
691.4418637827867
 30
0.0
 11
1442.800088449528
 21
684.77519711612
 31
0.0
 12
1422.800088449528
 22
688.1085304494534
 32
0.0
 13
1422.800088449528
 23
688.1085304494534
 33
0.0
  0
SOLID
  5
29BA
330
10CD
100
AcDbEntity
  8
寸法
 62
     0
100
AcDbTrace
 10
1392.800088449528
 20
691.4418637827867
 30
0.0
 11
1392.800088449528
 21
684.77519711612
 31
0.0
 12
1412.800088449528
 22
688.1085304494534
 32
0.0
 13
1412.800088449528
 23
688.1085304494534
 33
0.0
  0
MTEXT
  5
29BB
330
10CD
100
AcDbEntity
  8
寸法
 62
     0
100
AcDbMText
 10
1417.800088449528
 20
643.1085304494533
 30
0.0
 40
20.0
 41
0.0
 71
     5
 72
     1
  1
10
 73
     1
 44
1.0
1001
ACAD
1000
MTEXTBEGIN
1070
    73
1070
     1
1070
    44
1040
1.0
1070
    74
1070
     0
1000
MTEXTEND
  0
POINT
  5
29BC
330
10CD
100
AcDbEntity
  8
DEFPOINTS
 62
     0
100
AcDbPoint
 10
1422.800088449528
 20
803.9091633865171
 30
0.0
  0
POINT
  5
29BD
330
10CD
100
AcDbEntity
  8
DEFPOINTS
 62
     0
100
AcDbPoint
 10
1412.800088449528
 20
783.9091633865173
 30
0.0
  0
POINT
  5
29BE
330
10CD
100
AcDbEntity
  8
DEFPOINTS
 62
     0
100
AcDbPoint
 10
1412.800088449528
 20
688.1085304494534
 30
0.0
  0
ENDBLK
  5
10D8
330
10CD
100
AcDbEntity
  8
0
100
AcDbBlockEnd
  0
BLOCK
  5
11E3
330
11D9
100
AcDbEntity
  8
0
100
AcDbBlockBegin
  2
*D26
 70
     1
 10
0.0
 20
0.0
 30
0.0
  3
*D26
  1

  0
LINE
  5
29C8
330
11D9
100
AcDbEntity
  8
寸法
 62
     0
370
    -2
100
AcDbLine
 10
1357.800088449528
 20
803.9091633865171
 30
0.0
 11
1310.581122792686
 21
803.9091633865171
 31
0.0
  0
LINE
  5
29C9
330
11D9
100
AcDbEntity
  8
寸法
 62
     0
370
    -2
100
AcDbLine
 10
1362.800088449528
 20
758.909163386517
 30
0.0
 11
1310.581122792686
 21
758.909163386517
 31
0.0
  0
LINE
  5
29CA
330
11D9
100
AcDbEntity
  8
寸法
 62
     0
370
    -2
100
AcDbLine
 10
1320.581122792686
 20
823.909163386517
 30
0.0
 11
1320.581122792686
 21
843.9091633865171
 31
0.0
  0
LINE
  5
29CB
330
11D9
100
AcDbEntity
  8
寸法
 62
     0
370
    -2
100
AcDbLine
 10
1320.581122792686
 20
738.909163386517
 30
0.0
 11
1320.581122792686
 21
718.9091633865171
 31
0.0
  0
LINE
  5
29CC
330
11D9
100
AcDbEntity
  8
寸法
 62
     0
370
    -2
100
AcDbLine
 10
1320.581122792686
 20
803.9091633865171
 30
0.0
 11
1320.581122792686
 21
758.909163386517
 31
0.0
  0
SOLID
  5
29CD
330
11D9
100
AcDbEntity
  8
寸法
 62
     0
100
AcDbTrace
 10
1317.247789459353
 20
823.909163386517
 30
0.0
 11
1323.914456126019
 21
823.909163386517
 31
0.0
 12
1320.581122792686
 22
803.9091633865171
 32
0.0
 13
1320.581122792686
 23
803.9091633865171
 33
0.0
  0
SOLID
  5
29CE
330
11D9
100
AcDbEntity
  8
寸法
 62
     0
100
AcDbTrace
 10
1317.247789459353
 20
738.909163386517
 30
0.0
 11
1323.914456126019
 21
738.909163386517
 31
0.0
 12
1320.581122792686
 22
758.909163386517
 32
0.0
 13
1320.581122792686
 23
758.909163386517
 33
0.0
  0
MTEXT
  5
29CF
330
11D9
100
AcDbEntity
  8
寸法
 62
     0
100
AcDbMText
 10
1298.081122792686
 20
781.4091633865173
 30
0.0
 40
25.0
 41
0.0
 71
     5
 72
     1
  1
45
 11
0.0000000000000001
 21
1.0
 31
0.0
 73
     1
 44
1.0
1001
ACAD
1000
MTEXTBEGIN
1070
    73
1070
     1
1070
    44
1040
1.0
1070
    74
1070
     0
1000
MTEXTEND
  0
POINT
  5
29D0
330
11D9
100
AcDbEntity
  8
DEFPOINTS
 62
     0
100
AcDbPoint
 10
1477.800088449528
 20
803.9091633865171
 30
0.0
  0
POINT
  5
29D1
330
11D9
100
AcDbEntity
  8
DEFPOINTS
 62
     0
100
AcDbPoint
 10
1482.800088449528
 20
758.909163386517
 30
0.0
  0
POINT
  5
29D2
330
11D9
100
AcDbEntity
  8
DEFPOINTS
 62
     0
100
AcDbPoint
 10
1320.581122792686
 20
758.909163386517
 30
0.0
  0
ENDBLK
  5
11E4
330
11D9
100
AcDbEntity
  8
0
100
AcDbBlockEnd
  0
BLOCK
  5
15FC
330
15F8
100
AcDbEntity
  8
0
100
AcDbBlockBegin
  2
_Open30
 70
     0
 10
0.0
 20
0.0
 30
0.0
  3
_Open30
  1

  0
LINE
  5
15F9
330
15F8
100
AcDbEntity
  8
0
  6
ByBlock
 62
     0
370
    -2
100
AcDbLine
 10
-1.0
 20
0.26794919
 30
0.0
 11
0.0
 21
0.0
 31
0.0
  0
LINE
  5
15FA
330
15F8
100
AcDbEntity
  8
0
  6
ByBlock
 62
     0
370
    -2
100
AcDbLine
 10
0.0
 20
0.0
 30
0.0
 11
-1.0
 21
-0.26794919
 31
0.0
  0
LINE
  5
15FB
330
15F8
100
AcDbEntity
  8
0
  6
ByBlock
 62
     0
370
    -2
100
AcDbLine
 10
0.0
 20
0.0
 30
0.0
 11
-1.0
 21
0.0
 31
0.0
  0
ENDBLK
  5
15FD
330
15F8
100
AcDbEntity
  8
0
100
AcDbBlockEnd
  0
BLOCK
  5
1A59
330
1A4F
100
AcDbEntity
  8
0
100
AcDbBlockBegin
  2
*D28
 70
     1
 10
0.0
 20
0.0
 30
0.0
  3
*D28
  1

  0
LINE
  5
3B52
330
1A4F
100
AcDbEntity
  8
寸法
 62
     0
370
    -2
100
AcDbLine
 10
1172.800088449528
 20
1858.909163386517
 30
0.0
 11
1091.316764934039
 21
1858.909163386517
 31
0.0
  0
LINE
  5
3B53
330
1A4F
100
AcDbEntity
  8
寸法
 62
     0
370
    -2
100
AcDbLine
 10
1172.800088449527
 20
1718.909163386517
 30
0.0
 11
1091.316764934039
 21
1718.909163386517
 31
0.0
  0
LINE
  5
3B54
330
1A4F
100
AcDbEntity
  8
寸法
 62
     0
370
    -2
100
AcDbLine
 10
1101.316764934039
 20
1838.909163386517
 30
0.0
 11
1101.316764934039
 21
1738.909163386517
 31
0.0
  0
SOLID
  5
3B55
330
1A4F
100
AcDbEntity
  8
寸法
 62
     0
100
AcDbTrace
 10
1097.983431600706
 20
1838.909163386517
 30
0.0
 11
1104.650098267373
 21
1838.909163386517
 31
0.0
 12
1101.316764934039
 22
1858.909163386517
 32
0.0
 13
1101.316764934039
 23
1858.909163386517
 33
0.0
  0
SOLID
  5
3B56
330
1A4F
100
AcDbEntity
  8
寸法
 62
     0
100
AcDbTrace
 10
1097.983431600706
 20
1738.909163386517
 30
0.0
 11
1104.650098267373
 21
1738.909163386517
 31
0.0
 12
1101.316764934039
 22
1718.909163386517
 32
0.0
 13
1101.316764934039
 23
1718.909163386517
 33
0.0
  0
MTEXT
  5
3B57
330
1A4F
100
AcDbEntity
  8
寸法
 62
     0
100
AcDbMText
 10
1081.316764934039
 20
1788.909163386517
 30
0.0
 40
20.0
 41
0.0
 71
     5
 72
     1
  1
140
 11
0.0000000000000001
 21
1.0
 31
0.0
 73
     1
 44
1.0
1001
ACAD
1000
MTEXTBEGIN
1070
    73
1070
     1
1070
    44
1040
1.0
1070
    74
1070
     0
1000
MTEXTEND
  0
POINT
  5
3B58
330
1A4F
100
AcDbEntity
  8
DEFPOINTS
 62
     0
100
AcDbPoint
 10
1222.800088449528
 20
1858.909163386517
 30
0.0
  0
POINT
  5
3B59
330
1A4F
100
AcDbEntity
  8
DEFPOINTS
 62
     0
100
AcDbPoint
 10
1222.800088449527
 20
1718.909163386517
 30
0.0
  0
POINT
  5
3B5A
330
1A4F
100
AcDbEntity
  8
DEFPOINTS
 62
     0
100
AcDbPoint
 10
1101.316764934039
 20
1718.909163386517
 30
0.0
  0
ENDBLK
  5
1A5A
330
1A4F
100
AcDbEntity
  8
0
100
AcDbBlockEnd
  0
BLOCK
  5
200F
330
2003
100
AcDbEntity
  8
0
100
AcDbBlockBegin
  2
*D29
 70
     1
 10
0.0
 20
0.0
 30
0.0
  3
*D29
  1

  0
LINE
  5
43B5
330
2003
100
AcDbEntity
  8
寸法
 62
     0
370
    -2
100
AcDbLine
 10
752.8000884495274
 20
1733.909163386517
 30
0.0
 11
705.8948373019664
 21
1733.909163386517
 31
0.0
  0
LINE
  5
43B6
330
2003
100
AcDbEntity
  8
寸法
 62
     0
370
    -2
100
AcDbLine
 10
767.8000884495275
 20
1718.909163386517
 30
0.0
 11
705.8948373019664
 21
1718.909163386517
 31
0.0
  0
LINE
  5
43B7
330
2003
100
AcDbEntity
  8
寸法
 62
     0
370
    -2
100
AcDbLine
 10
715.8948373019663
 20
1753.909163386517
 30
0.0
 11
715.8948373019663
 21
1773.909163386517
 31
0.0
  0
LINE
  5
43B8
330
2003
100
AcDbEntity
  8
寸法
 62
     0
370
    -2
100
AcDbLine
 10
715.8948373019663
 20
1698.909163386517
 30
0.0
 11
715.8948373019663
 21
1678.909163386517
 31
0.0
  0
LINE
  5
43B9
330
2003
100
AcDbEntity
  8
寸法
 62
     0
370
    -2
100
AcDbLine
 10
715.8948373019663
 20
1733.909163386517
 30
0.0
 11
715.8948373019663
 21
1718.909163386517
 31
0.0
  0
SOLID
  5
43BA
330
2003
100
AcDbEntity
  8
寸法
 62
     0
100
AcDbTrace
 10
712.561503968633
 20
1753.909163386517
 30
0.0
 11
719.2281706352997
 21
1753.909163386517
 31
0.0
 12
715.8948373019663
 22
1733.909163386517
 32
0.0
 13
715.8948373019663
 23
1733.909163386517
 33
0.0
  0
SOLID
  5
43BB
330
2003
100
AcDbEntity
  8
寸法
 62
     0
100
AcDbTrace
 10
712.561503968633
 20
1698.909163386517
 30
0.0
 11
719.2281706352997
 21
1698.909163386517
 31
0.0
 12
715.8948373019663
 22
1718.909163386517
 32
0.0
 13
715.8948373019663
 23
1718.909163386517
 33
0.0
  0
MTEXT
  5
43BC
330
2003
100
AcDbEntity
  8
寸法
 62
     0
100
AcDbMText
 10
695.8948373019661
 20
1726.409163386517
 30
0.0
 40
20.0
 41
0.0
 71
     5
 72
     1
  1
15
 11
0.0000000000000001
 21
1.0
 31
0.0
 73
     1
 44
1.0
1001
ACAD
1000
MTEXTBEGIN
1070
    73
1070
     1
1070
    44
1040
1.0
1070
    74
1070
     0
1000
MTEXTEND
  0
POINT
  5
43BD
330
2003
100
AcDbEntity
  8
DEFPOINTS
 62
     0
100
AcDbPoint
 10
782.8000884495275
 20
1733.909163386517
 30
0.0
  0
POINT
  5
43BE
330
2003
100
AcDbEntity
  8
DEFPOINTS
 62
     0
100
AcDbPoint
 10
797.8000884495275
 20
1718.909163386517
 30
0.0
  0
POINT
  5
43BF
330
2003
100
AcDbEntity
  8
DEFPOINTS
 62
     0
100
AcDbPoint
 10
715.8948373019663
 20
1718.909163386517
 30
0.0
  0
ENDBLK
  5
2010
330
2003
100
AcDbEntity
  8
0
100
AcDbBlockEnd
  0
BLOCK
  5
20A7
330
20A1
100
AcDbEntity
  8
0
100
AcDbBlockBegin
  2
*D30
 70
     1
 10
0.0
 20
0.0
 30
0.0
  3
*D30
  1

  0
LINE
  5
2569
330
20A1
100
AcDbEntity
  8
寸法
 62
     0
370
    -2
100
AcDbLine
 10
1076.069559865442
 20
2001.63441113222
 30
0.0
 11
987.7682009817181
 21
1921.612136334933
 31
0.0
  0
MTEXT
  5
256A
330
20A1
100
AcDbEntity
  8
寸法
 62
     0
100
AcDbMText
 10
1024.21968382972
 20
1985.010714205101
 30
0.0
 40
25.0
 41
0.0
 71
     5
 72
     1
  1
R150
 11
0.7409904241990763
 21
0.6715155927044979
 31
0.0
 73
     1
 44
1.0
1001
ACAD
1000
MTEXTBEGIN
1070
    73
1070
     1
1070
    44
1040
1.0
1070
    74
1070
     0
1000
MTEXTEND
  0
SOLID
  5
256B
330
20A1
100
AcDbEntity
  8
寸法
 62
     0
100
AcDbTrace
 10
985.5298156727032
 20
1924.082104415597
 30
0.0
 11
990.0065862907332
 21
1919.14216825427
 31
0.0
 12
972.9483924977365
 22
1908.181824480844
 32
0.0
 13
972.9483924977365
 23
1908.181824480844
 33
0.0
  0
POINT
  5
256C
330
20A1
100
AcDbEntity
  8
DEFPOINTS
 62
     0
100
AcDbPoint
 10
972.9483924977365
 20
1908.181824480844
 30
0.0
  0
POINT
  5
256D
330
20A1
100
AcDbEntity
  8
DEFPOINTS
 62
     0
100
AcDbPoint
 10
1084.096956127598
 20
2008.909163386519
 30
0.0
  0
ENDBLK
  5
20A8
330
20A1
100
AcDbEntity
  8
0
100
AcDbBlockEnd
  0
BLOCK
  5
2133
330
2127
100
AcDbEntity
  8
0
100
AcDbBlockBegin
  2
*D31
 70
     1
 10
0.0
 20
0.0
 30
0.0
  3
*D31
  1

  0
LINE
  5
2528
330
2127
100
AcDbEntity
  8
寸法
 62
     0
370
    -2
100
AcDbLine
 10
822.8000884495282
 20
2488.909163386518
 30
0.0
 11
822.8000884495282
 21
2577.755376642237
 31
0.0
  0
LINE
  5
2529
330
2127
100
AcDbEntity
  8
寸法
 62
     0
370
    -2
100
AcDbLine
 10
782.8000884495281
 20
2488.909163386518
 30
0.0
 11
782.8000884495281
 21
2577.755376642237
 31
0.0
  0
LINE
  5
252A
330
2127
100
AcDbEntity
  8
寸法
 62
     0
370
    -2
100
AcDbLine
 10
842.8000884495281
 20
2567.755376642237
 30
0.0
 11
862.8000884495282
 21
2567.755376642237
 31
0.0
  0
LINE
  5
252B
330
2127
100
AcDbEntity
  8
寸法
 62
     0
370
    -2
100
AcDbLine
 10
762.8000884495281
 20
2567.755376642237
 30
0.0
 11
742.8000884495282
 21
2567.755376642237
 31
0.0
  0
LINE
  5
252C
330
2127
100
AcDbEntity
  8
寸法
 62
     0
370
    -2
100
AcDbLine
 10
822.8000884495282
 20
2567.755376642237
 30
0.0
 11
782.8000884495281
 21
2567.755376642237
 31
0.0
  0
SOLID
  5
252D
330
2127
100
AcDbEntity
  8
寸法
 62
     0
100
AcDbTrace
 10
842.8000884495281
 20
2571.088709975571
 30
0.0
 11
842.8000884495281
 21
2564.422043308903
 31
0.0
 12
822.8000884495282
 22
2567.755376642237
 32
0.0
 13
822.8000884495282
 23
2567.755376642237
 33
0.0
  0
SOLID
  5
252E
330
2127
100
AcDbEntity
  8
寸法
 62
     0
100
AcDbTrace
 10
762.8000884495281
 20
2571.088709975571
 30
0.0
 11
762.8000884495281
 21
2564.422043308903
 31
0.0
 12
782.8000884495281
 22
2567.755376642237
 32
0.0
 13
782.8000884495281
 23
2567.755376642237
 33
0.0
  0
MTEXT
  5
252F
330
2127
100
AcDbEntity
  8
寸法
 62
     0
100
AcDbMText
 10
802.8000884495281
 20
2587.755376642237
 30
0.0
 40
20.0
 41
0.0
 71
     5
 72
     1
  1
40
 73
     1
 44
1.0
1001
ACAD
1000
MTEXTBEGIN
1070
    73
1070
     1
1070
    44
1040
1.0
1070
    74
1070
     0
1000
MTEXTEND
  0
POINT
  5
2530
330
2127
100
AcDbEntity
  8
DEFPOINTS
 62
     0
100
AcDbPoint
 10
822.8000884495282
 20
2458.909163386517
 30
0.0
  0
POINT
  5
2531
330
2127
100
AcDbEntity
  8
DEFPOINTS
 62
     0
100
AcDbPoint
 10
782.8000884495281
 20
2458.909163386517
 30
0.0
  0
POINT
  5
2532
330
2127
100
AcDbEntity
  8
DEFPOINTS
 62
     0
100
AcDbPoint
 10
782.8000884495281
 20
2567.755376642237
 30
0.0
  0
ENDBLK
  5
2134
330
2127
100
AcDbEntity
  8
0
100
AcDbBlockEnd
  0
BLOCK
  5
213F
330
2135
100
AcDbEntity
  8
0
100
AcDbBlockBegin
  2
*D32
 70
     1
 10
0.0
 20
0.0
 30
0.0
  3
*D32
  1

  0
LINE
  5
2533
330
2135
100
AcDbEntity
  8
寸法
 62
     0
370
    -2
100
AcDbLine
 10
752.8000884495281
 20
2458.909163386517
 30
0.0
 11
680.8948373019661
 21
2458.909163386517
 31
0.0
  0
LINE
  5
2534
330
2135
100
AcDbEntity
  8
寸法
 62
     0
370
    -2
100
AcDbLine
 10
752.8000884495281
 20
2348.909163386517
 30
0.0
 11
680.8948373019661
 21
2348.909163386517
 31
0.0
  0
LINE
  5
2535
330
2135
100
AcDbEntity
  8
寸法
 62
     0
370
    -2
100
AcDbLine
 10
690.8948373019661
 20
2438.909163386517
 30
0.0
 11
690.8948373019661
 21
2368.909163386518
 31
0.0
  0
SOLID
  5
2536
330
2135
100
AcDbEntity
  8
寸法
 62
     0
100
AcDbTrace
 10
687.5615039686327
 20
2438.909163386517
 30
0.0
 11
694.2281706352995
 21
2438.909163386517
 31
0.0
 12
690.8948373019661
 22
2458.909163386517
 32
0.0
 13
690.8948373019661
 23
2458.909163386517
 33
0.0
  0
SOLID
  5
2537
330
2135
100
AcDbEntity
  8
寸法
 62
     0
100
AcDbTrace
 10
687.5615039686327
 20
2368.909163386518
 30
0.0
 11
694.2281706352995
 21
2368.909163386518
 31
0.0
 12
690.8948373019661
 22
2348.909163386517
 32
0.0
 13
690.8948373019661
 23
2348.909163386517
 33
0.0
  0
MTEXT
  5
2538
330
2135
100
AcDbEntity
  8
寸法
 62
     0
100
AcDbMText
 10
670.8948373019657
 20
2403.909163386517
 30
0.0
 40
20.0
 41
0.0
 71
     5
 72
     1
  1
110
 11
0.0000000000000001
 21
1.0
 31
0.0
 73
     1
 44
1.0
1001
ACAD
1000
MTEXTBEGIN
1070
    73
1070
     1
1070
    44
1040
1.0
1070
    74
1070
     0
1000
MTEXTEND
  0
POINT
  5
2539
330
2135
100
AcDbEntity
  8
DEFPOINTS
 62
     0
100
AcDbPoint
 10
782.8000884495281
 20
2458.909163386517
 30
0.0
  0
POINT
  5
253A
330
2135
100
AcDbEntity
  8
DEFPOINTS
 62
     0
100
AcDbPoint
 10
782.8000884495281
 20
2348.909163386517
 30
0.0
  0
POINT
  5
253B
330
2135
100
AcDbEntity
  8
DEFPOINTS
 62
     0
100
AcDbPoint
 10
690.8948373019661
 20
2348.909163386517
 30
0.0
  0
ENDBLK
  5
2140
330
2135
100
AcDbEntity
  8
0
100
AcDbBlockEnd
  0
BLOCK
  5
2172
330
216A
100
AcDbEntity
  8
0
100
AcDbBlockBegin
  2
*D33
 70
     1
 10
0.0
 20
0.0
 30
0.0
  3
*D33
  1

  0
LINE
  5
253C
330
216A
100
AcDbEntity
  8
寸法
 62
     0
370
    -2
100
AcDbLine
 10
752.8000884495281
 20
2348.909163386518
 30
0.0
 11
680.8948373019664
 21
2348.909163386518
 31
0.0
  0
LINE
  5
253D
330
216A
100
AcDbEntity
  8
寸法
 62
     0
370
    -2
100
AcDbLine
 10
752.4032630527028
 20
2333.909163386518
 30
0.0
 11
680.8948373019664
 21
2333.909163386518
 31
0.0
  0
LINE
  5
253E
330
216A
100
AcDbEntity
  8
寸法
 62
     0
370
    -2
100
AcDbLine
 10
690.8948373019663
 20
2348.909163386518
 30
0.0
 11
690.8948373019663
 21
2333.909163386518
 31
0.0
  0
MTEXT
  5
253F
330
216A
100
AcDbEntity
  8
寸法
 62
     0
100
AcDbMText
 10
668.3948373019659
 20
2341.409163386518
 30
0.0
 40
15.0
 41
0.0
 71
     5
 72
     1
  1
15
 11
0.0000000000000001
 21
1.0
 31
0.0
 73
     1
 44
1.0
1001
ACAD
1000
MTEXTBEGIN
1070
    73
1070
     1
1070
    44
1040
1.0
1070
    74
1070
     0
1000
MTEXTEND
  0
POINT
  5
2540
330
216A
100
AcDbEntity
  8
DEFPOINTS
 62
     0
100
AcDbPoint
 10
782.8000884495281
 20
2348.909163386518
 30
0.0
  0
POINT
  5
2541
330
216A
100
AcDbEntity
  8
DEFPOINTS
 62
     0
100
AcDbPoint
 10
782.4032630527028
 20
2333.909163386518
 30
0.0
  0
POINT
  5
2542
330
216A
100
AcDbEntity
  8
DEFPOINTS
 62
     0
100
AcDbPoint
 10
690.8948373019663
 20
2333.909163386518
 30
0.0
  0
ENDBLK
  5
2173
330
216A
100
AcDbEntity
  8
0
100
AcDbBlockEnd
  0
BLOCK
  5
218F
330
2185
100
AcDbEntity
  8
0
100
AcDbBlockBegin
  2
*D34
 70
     1
 10
0.0
 20
0.0
 30
0.0
  3
*D34
  1

  0
LINE
  5
2543
330
2185
100
AcDbEntity
  8
寸法
 62
     0
370
    -2
100
AcDbLine
 10
752.8000884495281
 20
2333.909163386517
 30
0.0
 11
680.8948373019663
 21
2333.909163386517
 31
0.0
  0
LINE
  5
2544
330
2185
100
AcDbEntity
  8
寸法
 62
     0
370
    -2
100
AcDbLine
 10
792.764156563008
 20
1858.909163386517
 30
0.0
 11
680.8948373019661
 21
1858.909163386517
 31
0.0
  0
LINE
  5
2545
330
2185
100
AcDbEntity
  8
寸法
 62
     0
370
    -2
100
AcDbLine
 10
690.8948373019662
 20
2313.909163386517
 30
0.0
 11
690.8948373019661
 21
1878.909163386517
 31
0.0
  0
SOLID
  5
2546
330
2185
100
AcDbEntity
  8
寸法
 62
     0
100
AcDbTrace
 10
687.5615039686329
 20
2313.909163386517
 30
0.0
 11
694.2281706352996
 21
2313.909163386517
 31
0.0
 12
690.8948373019662
 22
2333.909163386517
 32
0.0
 13
690.8948373019662
 23
2333.909163386517
 33
0.0
  0
SOLID
  5
2547
330
2185
100
AcDbEntity
  8
寸法
 62
     0
100
AcDbTrace
 10
687.5615039686327
 20
1878.909163386517
 30
0.0
 11
694.2281706352995
 21
1878.909163386517
 31
0.0
 12
690.8948373019661
 22
1858.909163386517
 32
0.0
 13
690.8948373019661
 23
1858.909163386517
 33
0.0
  0
MTEXT
  5
2548
330
2185
100
AcDbEntity
  8
寸法
 62
     0
100
AcDbMText
 10
670.8948373019658
 20
2096.409163386518
 30
0.0
 40
20.0
 41
0.0
 71
     5
 72
     1
  1
475
 11
0.0000000000000001
 21
1.0
 31
0.0
 73
     1
 44
1.0
1001
ACAD
1000
MTEXTBEGIN
1070
    73
1070
     1
1070
    44
1040
1.0
1070
    74
1070
     0
1000
MTEXTEND
  0
POINT
  5
2549
330
2185
100
AcDbEntity
  8
DEFPOINTS
 62
     0
100
AcDbPoint
 10
782.8000884495281
 20
2333.909163386517
 30
0.0
  0
POINT
  5
254A
330
2185
100
AcDbEntity
  8
DEFPOINTS
 62
     0
100
AcDbPoint
 10
822.7641565630081
 20
1858.909163386517
 30
0.0
  0
POINT
  5
254B
330
2185
100
AcDbEntity
  8
DEFPOINTS
 62
     0
100
AcDbPoint
 10
690.8948373019661
 20
1858.909163386517
 30
0.0
  0
ENDBLK
  5
2190
330
2185
100
AcDbEntity
  8
0
100
AcDbBlockEnd
  0
BLOCK
  5
21D0
330
21C4
100
AcDbEntity
  8
0
100
AcDbBlockBegin
  2
*D35
 70
     1
 10
0.0
 20
0.0
 30
0.0
  3
*D35
  1

  0
LINE
  5
254C
330
21C4
100
AcDbEntity
  8
寸法
 62
     0
370
    -2
100
AcDbLine
 10
792.764156563008
 20
1858.909163386517
 30
0.0
 11
680.894837301966
 21
1858.909163386517
 31
0.0
  0
LINE
  5
254D
330
21C4
100
AcDbEntity
  8
寸法
 62
     0
370
    -2
100
AcDbLine
 10
792.8000884495282
 20
1853.909163386517
 30
0.0
 11
680.894837301966
 21
1853.909163386517
 31
0.0
  0
LINE
  5
254E
330
21C4
100
AcDbEntity
  8
寸法
 62
     0
370
    -2
100
AcDbLine
 10
690.8948373019661
 20
1878.909163386517
 30
0.0
 11
690.8948373019661
 21
1898.909163386517
 31
0.0
  0
LINE
  5
254F
330
21C4
100
AcDbEntity
  8
寸法
 62
     0
370
    -2
100
AcDbLine
 10
690.8948373019661
 20
1833.909163386517
 30
0.0
 11
690.8948373019661
 21
1813.909163386517
 31
0.0
  0
LINE
  5
2550
330
21C4
100
AcDbEntity
  8
寸法
 62
     0
370
    -2
100
AcDbLine
 10
690.8948373019661
 20
1858.909163386517
 30
0.0
 11
690.8948373019661
 21
1853.909163386517
 31
0.0
  0
SOLID
  5
2551
330
21C4
100
AcDbEntity
  8
寸法
 62
     0
100
AcDbTrace
 10
687.5615039686326
 20
1878.909163386517
 30
0.0
 11
694.2281706352994
 21
1878.909163386517
 31
0.0
 12
690.8948373019661
 22
1858.909163386517
 32
0.0
 13
690.8948373019661
 23
1858.909163386517
 33
0.0
  0
SOLID
  5
2552
330
21C4
100
AcDbEntity
  8
寸法
 62
     0
100
AcDbTrace
 10
687.5615039686326
 20
1833.909163386517
 30
0.0
 11
694.2281706352994
 21
1833.909163386517
 31
0.0
 12
690.8948373019661
 22
1853.909163386517
 32
0.0
 13
690.8948373019661
 23
1853.909163386517
 33
0.0
  0
MTEXT
  5
2553
330
21C4
100
AcDbEntity
  8
寸法
 62
     0
100
AcDbMText
 10
668.3948373019656
 20
1856.409163386517
 30
0.0
 40
15.0
 41
0.0
 71
     5
 72
     1
  1
5
 11
0.0000000000000001
 21
1.0
 31
0.0
 73
     1
 44
1.0
1001
ACAD
1000
MTEXTBEGIN
1070
    73
1070
     1
1070
    44
1040
1.0
1070
    74
1070
     0
1000
MTEXTEND
  0
POINT
  5
2554
330
21C4
100
AcDbEntity
  8
DEFPOINTS
 62
     0
100
AcDbPoint
 10
822.7641565630081
 20
1858.909163386517
 30
0.0
  0
POINT
  5
2555
330
21C4
100
AcDbEntity
  8
DEFPOINTS
 62
     0
100
AcDbPoint
 10
822.8000884495282
 20
1853.909163386517
 30
0.0
  0
POINT
  5
2556
330
21C4
100
AcDbEntity
  8
DEFPOINTS
 62
     0
100
AcDbPoint
 10
690.8948373019661
 20
1853.909163386517
 30
0.0
  0
ENDBLK
  5
21D1
330
21C4
100
AcDbEntity
  8
0
100
AcDbBlockEnd
  0
BLOCK
  5
23B3
330
23A9
100
AcDbEntity
  8
0
100
AcDbBlockBegin
  2
*D36
 70
     1
 10
0.0
 20
0.0
 30
0.0
  3
*D36
  1

  0
LINE
  5
4542
330
23A9
100
AcDbEntity
  8
寸法
 62
     0
370
    -2
100
AcDbLine
 10
922.8000884495282
 20
2488.909163386518
 30
0.0
 11
922.8000884495282
 21
2577.755376642237
 31
0.0
  0
LINE
  5
4543
330
23A9
100
AcDbEntity
  8
寸法
 62
     0
370
    -2
100
AcDbLine
 10
1822.800088449528
 20
2488.909163386518
 30
0.0
 11
1822.800088449528
 21
2577.755376642237
 31
0.0
  0
LINE
  5
4544
330
23A9
100
AcDbEntity
  8
寸法
 62
     0
370
    -2
100
AcDbLine
 10
942.8000884495281
 20
2567.755376642237
 30
0.0
 11
1802.800088449528
 21
2567.755376642237
 31
0.0
  0
SOLID
  5
4545
330
23A9
100
AcDbEntity
  8
寸法
 62
     0
100
AcDbTrace
 10
942.8000884495281
 20
2571.088709975571
 30
0.0
 11
942.8000884495281
 21
2564.422043308903
 31
0.0
 12
922.8000884495282
 22
2567.755376642237
 32
0.0
 13
922.8000884495282
 23
2567.755376642237
 33
0.0
  0
SOLID
  5
4546
330
23A9
100
AcDbEntity
  8
寸法
 62
     0
100
AcDbTrace
 10
1802.800088449528
 20
2571.088709975571
 30
0.0
 11
1802.800088449528
 21
2564.422043308903
 31
0.0
 12
1822.800088449528
 22
2567.755376642237
 32
0.0
 13
1822.800088449528
 23
2567.755376642237
 33
0.0
  0
MTEXT
  5
4547
330
23A9
100
AcDbEntity
  8
寸法
 62
     0
100
AcDbMText
 10
1372.800088449528
 20
2587.755376642237
 30
0.0
 40
20.0
 41
0.0
 71
     5
 72
     1
  1
900
 73
     1
 44
1.0
1001
ACAD
1000
MTEXTBEGIN
1070
    73
1070
     1
1070
    44
1040
1.0
1070
    74
1070
     0
1000
MTEXTEND
  0
POINT
  5
4548
330
23A9
100
AcDbEntity
  8
DEFPOINTS
 62
     0
100
AcDbPoint
 10
922.8000884495282
 20
2458.909163386517
 30
0.0
  0
POINT
  5
4549
330
23A9
100
AcDbEntity
  8
DEFPOINTS
 62
     0
100
AcDbPoint
 10
1822.800088449528
 20
2458.909163386517
 30
0.0
  0
POINT
  5
454A
330
23A9
100
AcDbEntity
  8
DEFPOINTS
 62
     0
100
AcDbPoint
 10
1822.800088449528
 20
2567.755376642237
 30
0.0
  0
ENDBLK
  5
23B4
330
23A9
100
AcDbEntity
  8
0
100
AcDbBlockEnd
  0
BLOCK
  5
23F3
330
23E9
100
AcDbEntity
  8
0
100
AcDbBlockBegin
  2
*D37
 70
     1
 10
0.0
 20
0.0
 30
0.0
  3
*D37
  1

  0
LINE
  5
2560
330
23E9
100
AcDbEntity
  8
寸法
 62
     0
370
    -2
100
AcDbLine
 10
822.8000884495282
 20
2488.909163386518
 30
0.0
 11
822.8000884495282
 21
2577.755376642237
 31
0.0
  0
LINE
  5
2561
330
23E9
100
AcDbEntity
  8
寸法
 62
     0
370
    -2
100
AcDbLine
 10
922.8000884495282
 20
2488.909163386518
 30
0.0
 11
922.8000884495282
 21
2577.755376642237
 31
0.0
  0
LINE
  5
2562
330
23E9
100
AcDbEntity
  8
寸法
 62
     0
370
    -2
100
AcDbLine
 10
842.8000884495281
 20
2567.755376642237
 30
0.0
 11
902.8000884495282
 21
2567.755376642237
 31
0.0
  0
SOLID
  5
2563
330
23E9
100
AcDbEntity
  8
寸法
 62
     0
100
AcDbTrace
 10
842.8000884495281
 20
2571.088709975571
 30
0.0
 11
842.8000884495281
 21
2564.422043308903
 31
0.0
 12
822.8000884495282
 22
2567.755376642237
 32
0.0
 13
822.8000884495282
 23
2567.755376642237
 33
0.0
  0
SOLID
  5
2564
330
23E9
100
AcDbEntity
  8
寸法
 62
     0
100
AcDbTrace
 10
902.8000884495282
 20
2571.088709975571
 30
0.0
 11
902.8000884495282
 21
2564.422043308903
 31
0.0
 12
922.8000884495282
 22
2567.755376642237
 32
0.0
 13
922.8000884495282
 23
2567.755376642237
 33
0.0
  0
MTEXT
  5
2565
330
23E9
100
AcDbEntity
  8
寸法
 62
     0
100
AcDbMText
 10
872.8000884495282
 20
2587.755376642237
 30
0.0
 40
20.0
 41
0.0
 71
     5
 72
     1
  1
100
 73
     1
 44
1.0
1001
ACAD
1000
MTEXTBEGIN
1070
    73
1070
     1
1070
    44
1040
1.0
1070
    74
1070
     0
1000
MTEXTEND
  0
POINT
  5
2566
330
23E9
100
AcDbEntity
  8
DEFPOINTS
 62
     0
100
AcDbPoint
 10
822.8000884495282
 20
2458.909163386517
 30
0.0
  0
POINT
  5
2567
330
23E9
100
AcDbEntity
  8
DEFPOINTS
 62
     0
100
AcDbPoint
 10
922.8000884495282
 20
2458.909163386517
 30
0.0
  0
POINT
  5
2568
330
23E9
100
AcDbEntity
  8
DEFPOINTS
 62
     0
100
AcDbPoint
 10
922.8000884495282
 20
2567.755376642237
 30
0.0
  0
ENDBLK
  5
23F4
330
23E9
100
AcDbEntity
  8
0
100
AcDbBlockEnd
  0
BLOCK
  5
2717
330
270D
100
AcDbEntity
  8
0
100
AcDbBlockBegin
  2
*D38
 70
     1
 10
0.0
 20
0.0
 30
0.0
  3
*D38
  1

  0
LINE
  5
497A
330
270D
100
AcDbEntity
  8
寸法
 62
     0
370
    -2
100
AcDbLine
 10
782.8000884495281
 20
1703.909163386517
 30
0.0
 11
782.8000884495281
 21
1573.452364950199
 31
0.0
  0
LINE
  5
497B
330
270D
100
AcDbEntity
  8
寸法
 62
     0
370
    -2
100
AcDbLine
 10
1962.800088449528
 20
1703.909163386516
 30
0.0
 11
1962.800088449528
 21
1573.452364950199
 31
0.0
  0
LINE
  5
497C
330
270D
100
AcDbEntity
  8
寸法
 62
     0
370
    -2
100
AcDbLine
 10
802.8000884495281
 20
1583.452364950199
 30
0.0
 11
1942.800088449528
 21
1583.452364950199
 31
0.0
  0
SOLID
  5
497D
330
270D
100
AcDbEntity
  8
寸法
 62
     0
100
AcDbTrace
 10
802.8000884495281
 20
1586.785698283532
 30
0.0
 11
802.8000884495281
 21
1580.119031616866
 31
0.0
 12
782.8000884495281
 22
1583.452364950199
 32
0.0
 13
782.8000884495281
 23
1583.452364950199
 33
0.0
  0
SOLID
  5
497E
330
270D
100
AcDbEntity
  8
寸法
 62
     0
100
AcDbTrace
 10
1942.800088449528
 20
1586.785698283532
 30
0.0
 11
1942.800088449528
 21
1580.119031616866
 31
0.0
 12
1962.800088449528
 22
1583.452364950199
 32
0.0
 13
1962.800088449528
 23
1583.452364950199
 33
0.0
  0
MTEXT
  5
497F
330
270D
100
AcDbEntity
  8
寸法
 62
     0
100
AcDbMText
 10
1372.800088449528
 20
1563.452364950199
 30
0.0
 40
20.0
 41
0.0
 71
     5
 72
     1
  1
1180
 73
     1
 44
1.0
1001
ACAD
1000
MTEXTBEGIN
1070
    73
1070
     1
1070
    44
1040
1.0
1070
    74
1070
     0
1000
MTEXTEND
  0
POINT
  5
4980
330
270D
100
AcDbEntity
  8
DEFPOINTS
 62
     0
100
AcDbPoint
 10
782.8000884495281
 20
1733.909163386517
 30
0.0
  0
POINT
  5
4981
330
270D
100
AcDbEntity
  8
DEFPOINTS
 62
     0
100
AcDbPoint
 10
1962.800088449528
 20
1733.909163386516
 30
0.0
  0
POINT
  5
4982
330
270D
100
AcDbEntity
  8
DEFPOINTS
 62
     0
100
AcDbPoint
 10
1962.800088449528
 20
1583.452364950199
 30
0.0
  0
ENDBLK
  5
2718
330
270D
100
AcDbEntity
  8
0
100
AcDbBlockEnd
  0
BLOCK
  5
2AB5
330
2AA9
100
AcDbEntity
  8
0
100
AcDbBlockBegin
  2
*D39
 70
     1
 10
0.0
 20
0.0
 30
0.0
  3
*D39
  1

  0
LINE
  5
4509
330
2AA9
100
AcDbEntity
  8
寸法
 62
     0
370
    -2
100
AcDbLine
 10
1922.800088449528
 20
2488.909163386518
 30
0.0
 11
1922.800088449528
 21
2577.755376642237
 31
0.0
  0
LINE
  5
450A
330
2AA9
100
AcDbEntity
  8
寸法
 62
     0
370
    -2
100
AcDbLine
 10
1962.800088449528
 20
2488.909163386518
 30
0.0
 11
1962.800088449528
 21
2577.755376642237
 31
0.0
  0
LINE
  5
450B
330
2AA9
100
AcDbEntity
  8
寸法
 62
     0
370
    -2
100
AcDbLine
 10
1902.800088449528
 20
2567.755376642237
 30
0.0
 11
1882.800088449528
 21
2567.755376642237
 31
0.0
  0
LINE
  5
450C
330
2AA9
100
AcDbEntity
  8
寸法
 62
     0
370
    -2
100
AcDbLine
 10
1982.800088449528
 20
2567.755376642237
 30
0.0
 11
2002.800088449528
 21
2567.755376642237
 31
0.0
  0
LINE
  5
450D
330
2AA9
100
AcDbEntity
  8
寸法
 62
     0
370
    -2
100
AcDbLine
 10
1922.800088449528
 20
2567.755376642237
 30
0.0
 11
1962.800088449528
 21
2567.755376642237
 31
0.0
  0
SOLID
  5
450E
330
2AA9
100
AcDbEntity
  8
寸法
 62
     0
100
AcDbTrace
 10
1902.800088449528
 20
2571.088709975571
 30
0.0
 11
1902.800088449528
 21
2564.422043308903
 31
0.0
 12
1922.800088449528
 22
2567.755376642237
 32
0.0
 13
1922.800088449528
 23
2567.755376642237
 33
0.0
  0
SOLID
  5
450F
330
2AA9
100
AcDbEntity
  8
寸法
 62
     0
100
AcDbTrace
 10
1982.800088449528
 20
2571.088709975571
 30
0.0
 11
1982.800088449528
 21
2564.422043308903
 31
0.0
 12
1962.800088449528
 22
2567.755376642237
 32
0.0
 13
1962.800088449528
 23
2567.755376642237
 33
0.0
  0
MTEXT
  5
4510
330
2AA9
100
AcDbEntity
  8
寸法
 62
     0
100
AcDbMText
 10
1942.800088449528
 20
2587.755376642237
 30
0.0
 40
20.0
 41
0.0
 71
     5
 72
     1
  1
40
 73
     1
 44
1.0
1001
ACAD
1000
MTEXTBEGIN
1070
    73
1070
     1
1070
    44
1040
1.0
1070
    74
1070
     0
1000
MTEXTEND
  0
POINT
  5
4511
330
2AA9
100
AcDbEntity
  8
DEFPOINTS
 62
     0
100
AcDbPoint
 10
1922.800088449528
 20
2458.909163386517
 30
0.0
  0
POINT
  5
4512
330
2AA9
100
AcDbEntity
  8
DEFPOINTS
 62
     0
100
AcDbPoint
 10
1962.800088449528
 20
2458.909163386517
 30
0.0
  0
POINT
  5
4513
330
2AA9
100
AcDbEntity
  8
DEFPOINTS
 62
     0
100
AcDbPoint
 10
1962.800088449528
 20
2567.755376642237
 30
0.0
  0
ENDBLK
  5
2AB6
330
2AA9
100
AcDbEntity
  8
0
100
AcDbBlockEnd
  0
BLOCK
  5
2ACC
330
2AC2
100
AcDbEntity
  8
0
100
AcDbBlockBegin
  2
*D40
 70
     1
 10
0.0
 20
0.0
 30
0.0
  3
*D40
  1

  0
LINE
  5
4514
330
2AC2
100
AcDbEntity
  8
寸法
 62
     0
370
    -2
100
AcDbLine
 10
1922.800088449528
 20
2488.909163386518
 30
0.0
 11
1922.800088449528
 21
2577.755376642237
 31
0.0
  0
LINE
  5
4515
330
2AC2
100
AcDbEntity
  8
寸法
 62
     0
370
    -2
100
AcDbLine
 10
1822.800088449528
 20
2488.909163386518
 30
0.0
 11
1822.800088449528
 21
2577.755376642237
 31
0.0
  0
LINE
  5
4516
330
2AC2
100
AcDbEntity
  8
寸法
 62
     0
370
    -2
100
AcDbLine
 10
1902.800088449528
 20
2567.755376642237
 30
0.0
 11
1842.800088449528
 21
2567.755376642237
 31
0.0
  0
SOLID
  5
4517
330
2AC2
100
AcDbEntity
  8
寸法
 62
     0
100
AcDbTrace
 10
1902.800088449528
 20
2571.088709975571
 30
0.0
 11
1902.800088449528
 21
2564.422043308903
 31
0.0
 12
1922.800088449528
 22
2567.755376642237
 32
0.0
 13
1922.800088449528
 23
2567.755376642237
 33
0.0
  0
SOLID
  5
4518
330
2AC2
100
AcDbEntity
  8
寸法
 62
     0
100
AcDbTrace
 10
1842.800088449528
 20
2571.088709975571
 30
0.0
 11
1842.800088449528
 21
2564.422043308903
 31
0.0
 12
1822.800088449528
 22
2567.755376642237
 32
0.0
 13
1822.800088449528
 23
2567.755376642237
 33
0.0
  0
MTEXT
  5
4519
330
2AC2
100
AcDbEntity
  8
寸法
 62
     0
100
AcDbMText
 10
1872.800088449528
 20
2587.755376642237
 30
0.0
 40
20.0
 41
0.0
 71
     5
 72
     1
  1
100
 73
     1
 44
1.0
1001
ACAD
1000
MTEXTBEGIN
1070
    73
1070
     1
1070
    44
1040
1.0
1070
    74
1070
     0
1000
MTEXTEND
  0
POINT
  5
451A
330
2AC2
100
AcDbEntity
  8
DEFPOINTS
 62
     0
100
AcDbPoint
 10
1922.800088449528
 20
2458.909163386517
 30
0.0
  0
POINT
  5
451B
330
2AC2
100
AcDbEntity
  8
DEFPOINTS
 62
     0
100
AcDbPoint
 10
1822.800088449528
 20
2458.909163386517
 30
0.0
  0
POINT
  5
451C
330
2AC2
100
AcDbEntity
  8
DEFPOINTS
 62
     0
100
AcDbPoint
 10
1822.800088449528
 20
2567.755376642237
 30
0.0
  0
ENDBLK
  5
2ACD
330
2AC2
100
AcDbEntity
  8
0
100
AcDbBlockEnd
  0
BLOCK
  5
34C2
330
34B6
100
AcDbEntity
  8
0
100
AcDbBlockBegin
  2
*D49
 70
     1
 10
0.0
 20
0.0
 30
0.0
  3
*D49
  1

  0
LINE
  5
34C4
330
34B6
100
AcDbEntity
  8
寸法
 62
     0
370
    -2
100
AcDbLine
 10
1012.800088449528
 20
873.9091633865173
 30
0.0
 11
1049.885373667193
 21
873.9091633865173
 31
0.0
  0
LINE
  5
34C5
330
34B6
100
AcDbEntity
  8
寸法
 62
     0
370
    -2
100
AcDbLine
 10
1012.800088449528
 20
918.9091633865173
 30
0.0
 11
1049.885373667193
 21
918.9091633865173
 31
0.0
  0
LINE
  5
34C6
330
34B6
100
AcDbEntity
  8
寸法
 62
     0
370
    -2
100
AcDbLine
 10
1039.885373667193
 20
853.9091633865172
 30
0.0
 11
1039.885373667193
 21
833.9091633865173
 31
0.0
  0
LINE
  5
34C7
330
34B6
100
AcDbEntity
  8
寸法
 62
     0
370
    -2
100
AcDbLine
 10
1039.885373667193
 20
938.9091633865174
 30
0.0
 11
1039.885373667193
 21
958.9091633865173
 31
0.0
  0
LINE
  5
34C8
330
34B6
100
AcDbEntity
  8
寸法
 62
     0
370
    -2
100
AcDbLine
 10
1039.885373667193
 20
873.9091633865173
 30
0.0
 11
1039.885373667193
 21
918.9091633865173
 31
0.0
  0
SOLID
  5
34C9
330
34B6
100
AcDbEntity
  8
寸法
 62
     0
100
AcDbTrace
 10
1036.55204033386
 20
853.9091633865172
 30
0.0
 11
1043.218707000526
 21
853.9091633865172
 31
0.0
 12
1039.885373667193
 22
873.9091633865173
 32
0.0
 13
1039.885373667193
 23
873.9091633865173
 33
0.0
  0
SOLID
  5
34CA
330
34B6
100
AcDbEntity
  8
寸法
 62
     0
100
AcDbTrace
 10
1036.55204033386
 20
938.9091633865174
 30
0.0
 11
1043.218707000526
 21
938.9091633865174
 31
0.0
 12
1039.885373667193
 22
918.9091633865173
 32
0.0
 13
1039.885373667193
 23
918.9091633865173
 33
0.0
  0
MTEXT
  5
34CB
330
34B6
100
AcDbEntity
  8
寸法
 62
     0
100
AcDbMText
 10
1059.885373667193
 20
896.4091633865175
 30
0.0
 40
20.0
 41
0.0
 71
     5
 72
     1
  1
45
 11
0.0000000000000001
 21
1.0
 31
0.0
 73
     1
 44
1.0
1001
ACAD
1000
MTEXTBEGIN
1070
    73
1070
     1
1070
    44
1040
1.0
1070
    74
1070
     0
1000
MTEXTEND
  0
POINT
  5
34CC
330
34B6
100
AcDbEntity
  8
DEFPOINTS
 62
     0
100
AcDbPoint
 10
982.8000884495281
 20
873.9091633865173
 30
0.0
  0
POINT
  5
34CD
330
34B6
100
AcDbEntity
  8
DEFPOINTS
 62
     0
100
AcDbPoint
 10
982.8000884495281
 20
918.9091633865173
 30
0.0
  0
POINT
  5
34CE
330
34B6
100
AcDbEntity
  8
DEFPOINTS
 62
     0
100
AcDbPoint
 10
1039.885373667193
 20
918.9091633865173
 30
0.0
  0
ENDBLK
  5
34C3
330
34B6
100
AcDbEntity
  8
0
100
AcDbBlockEnd
  0
BLOCK
  5
3FEC
330
3FE0
100
AcDbEntity
  8
0
100
AcDbBlockBegin
  2
*D82
 70
     1
 10
0.0
 20
0.0
 30
0.0
  3
*D82
  1

  0
LINE
  5
451D
330
3FE0
100
AcDbEntity
  8
寸法
 62
     0
370
    -2
100
AcDbLine
 10
1992.800088449527
 20
1733.909163386517
 30
0.0
 11
2039.70533959709
 21
1733.909163386517
 31
0.0
  0
LINE
  5
451E
330
3FE0
100
AcDbEntity
  8
寸法
 62
     0
370
    -2
100
AcDbLine
 10
1977.800088449529
 20
1718.909163386517
 30
0.0
 11
2039.70533959709
 21
1718.909163386517
 31
0.0
  0
LINE
  5
451F
330
3FE0
100
AcDbEntity
  8
寸法
 62
     0
370
    -2
100
AcDbLine
 10
2029.70533959709
 20
1753.909163386517
 30
0.0
 11
2029.70533959709
 21
1773.909163386517
 31
0.0
  0
LINE
  5
4520
330
3FE0
100
AcDbEntity
  8
寸法
 62
     0
370
    -2
100
AcDbLine
 10
2029.70533959709
 20
1698.909163386517
 30
0.0
 11
2029.70533959709
 21
1678.909163386517
 31
0.0
  0
LINE
  5
4521
330
3FE0
100
AcDbEntity
  8
寸法
 62
     0
370
    -2
100
AcDbLine
 10
2029.70533959709
 20
1733.909163386517
 30
0.0
 11
2029.70533959709
 21
1718.909163386517
 31
0.0
  0
SOLID
  5
4522
330
3FE0
100
AcDbEntity
  8
寸法
 62
     0
100
AcDbTrace
 10
2026.372006263756
 20
1753.909163386517
 30
0.0
 11
2033.038672930423
 21
1753.909163386517
 31
0.0
 12
2029.70533959709
 22
1733.909163386517
 32
0.0
 13
2029.70533959709
 23
1733.909163386517
 33
0.0
  0
SOLID
  5
4523
330
3FE0
100
AcDbEntity
  8
寸法
 62
     0
100
AcDbTrace
 10
2026.372006263756
 20
1698.909163386517
 30
0.0
 11
2033.038672930423
 21
1698.909163386517
 31
0.0
 12
2029.70533959709
 22
1718.909163386517
 32
0.0
 13
2029.70533959709
 23
1718.909163386517
 33
0.0
  0
MTEXT
  5
4524
330
3FE0
100
AcDbEntity
  8
寸法
 62
     0
100
AcDbMText
 10
2049.705339597089
 20
1726.409163386517
 30
0.0
 40
20.0
 41
0.0
 71
     5
 72
     1
  1
15
 11
0.0000000000000001
 21
1.0
 31
0.0
 73
     1
 44
1.0
1001
ACAD
1000
MTEXTBEGIN
1070
    73
1070
     1
1070
    44
1040
1.0
1070
    74
1070
     0
1000
MTEXTEND
  0
POINT
  5
4525
330
3FE0
100
AcDbEntity
  8
DEFPOINTS
 62
     0
100
AcDbPoint
 10
1962.800088449528
 20
1733.909163386517
 30
0.0
  0
POINT
  5
4526
330
3FE0
100
AcDbEntity
  8
DEFPOINTS
 62
     0
100
AcDbPoint
 10
1947.800088449529
 20
1718.909163386517
 30
0.0
  0
POINT
  5
4527
330
3FE0
100
AcDbEntity
  8
DEFPOINTS
 62
     0
100
AcDbPoint
 10
2029.70533959709
 20
1718.909163386517
 30
0.0
  0
ENDBLK
  5
3FED
330
3FE0
100
AcDbEntity
  8
0
100
AcDbBlockEnd
  0
BLOCK
  5
436D
330
4363
100
AcDbEntity
  8
0
100
AcDbBlockBegin
  2
*D85
 70
     1
 10
0.0
 20
0.0
 30
0.0
  3
*D85
  1

  0
LINE
  5
4528
330
4363
100
AcDbEntity
  8
寸法
 62
     0
370
    -2
100
AcDbLine
 10
1947.800088449529
 20
1688.909163386517
 30
0.0
 11
1947.800088449529
 21
1632.509730001299
 31
0.0
  0
LINE
  5
4529
330
4363
100
AcDbEntity
  8
寸法
 62
     0
370
    -2
100
AcDbLine
 10
1962.800088449528
 20
1703.909163386516
 30
0.0
 11
1962.800088449528
 21
1632.509730001299
 31
0.0
  0
LINE
  5
452A
330
4363
100
AcDbEntity
  8
寸法
 62
     0
370
    -2
100
AcDbLine
 10
1982.800088449528
 20
1642.509730001299
 30
0.0
 11
2002.800088449528
 21
1642.509730001299
 31
0.0
  0
LINE
  5
452B
330
4363
100
AcDbEntity
  8
寸法
 62
     0
370
    -2
100
AcDbLine
 10
1927.800088449529
 20
1642.509730001299
 30
0.0
 11
1861.133421782862
 21
1642.509730001299
 31
0.0
  0
LINE
  5
452C
330
4363
100
AcDbEntity
  8
寸法
 62
     0
370
    -2
100
AcDbLine
 10
1962.800088449528
 20
1642.509730001299
 30
0.0
 11
1947.800088449529
 21
1642.509730001299
 31
0.0
  0
SOLID
  5
452D
330
4363
100
AcDbEntity
  8
寸法
 62
     0
100
AcDbTrace
 10
1982.800088449528
 20
1645.843063334632
 30
0.0
 11
1982.800088449528
 21
1639.176396667966
 31
0.0
 12
1962.800088449528
 22
1642.509730001299
 32
0.0
 13
1962.800088449528
 23
1642.509730001299
 33
0.0
  0
SOLID
  5
452E
330
4363
100
AcDbEntity
  8
寸法
 62
     0
100
AcDbTrace
 10
1927.800088449529
 20
1645.843063334632
 30
0.0
 11
1927.800088449529
 21
1639.176396667966
 31
0.0
 12
1947.800088449529
 22
1642.509730001299
 32
0.0
 13
1947.800088449529
 23
1642.509730001299
 33
0.0
  0
MTEXT
  5
452F
330
4363
100
AcDbEntity
  8
寸法
 62
     0
100
AcDbMText
 10
1884.466755116196
 20
1622.509730001299
 30
0.0
 40
20.0
 41
0.0
 71
     5
 72
     1
  1
15
 73
     1
 44
1.0
1001
ACAD
1000
MTEXTBEGIN
1070
    73
1070
     1
1070
    44
1040
1.0
1070
    74
1070
     0
1000
MTEXTEND
  0
POINT
  5
4530
330
4363
100
AcDbEntity
  8
DEFPOINTS
 62
     0
100
AcDbPoint
 10
1947.800088449529
 20
1718.909163386517
 30
0.0
  0
POINT
  5
4531
330
4363
100
AcDbEntity
  8
DEFPOINTS
 62
     0
100
AcDbPoint
 10
1962.800088449528
 20
1733.909163386516
 30
0.0
  0
POINT
  5
4532
330
4363
100
AcDbEntity
  8
DEFPOINTS
 62
     0
100
AcDbPoint
 10
1962.800088449528
 20
1642.509730001299
 30
0.0
  0
ENDBLK
  5
436E
330
4363
100
AcDbEntity
  8
0
100
AcDbBlockEnd
  0
BLOCK
  5
439F
330
4393
100
AcDbEntity
  8
0
100
AcDbBlockBegin
  2
*D86
 70
     1
 10
0.0
 20
0.0
 30
0.0
  3
*D86
  1

  0
LINE
  5
43A1
330
4393
100
AcDbEntity
  8
寸法
 62
     0
370
    -2
100
AcDbLine
 10
797.8000884495259
 20
1688.909163386517
 30
0.0
 11
797.8000884495259
 21
1632.509730001299
 31
0.0
  0
LINE
  5
43A2
330
4393
100
AcDbEntity
  8
寸法
 62
     0
370
    -2
100
AcDbLine
 10
782.8000884495268
 20
1703.909163386516
 30
0.0
 11
782.8000884495268
 21
1632.509730001299
 31
0.0
  0
LINE
  5
43A3
330
4393
100
AcDbEntity
  8
寸法
 62
     0
370
    -2
100
AcDbLine
 10
762.8000884495268
 20
1642.509730001299
 30
0.0
 11
742.8000884495268
 21
1642.509730001299
 31
0.0
  0
LINE
  5
43A4
330
4393
100
AcDbEntity
  8
寸法
 62
     0
370
    -2
100
AcDbLine
 10
817.8000884495258
 20
1642.509730001299
 30
0.0
 11
884.4667551161926
 21
1642.509730001299
 31
0.0
  0
LINE
  5
43A5
330
4393
100
AcDbEntity
  8
寸法
 62
     0
370
    -2
100
AcDbLine
 10
782.8000884495268
 20
1642.509730001299
 30
0.0
 11
797.8000884495259
 21
1642.509730001299
 31
0.0
  0
SOLID
  5
43A6
330
4393
100
AcDbEntity
  8
寸法
 62
     0
100
AcDbTrace
 10
762.8000884495268
 20
1645.843063334632
 30
0.0
 11
762.8000884495268
 21
1639.176396667966
 31
0.0
 12
782.8000884495268
 22
1642.509730001299
 32
0.0
 13
782.8000884495268
 23
1642.509730001299
 33
0.0
  0
SOLID
  5
43A7
330
4393
100
AcDbEntity
  8
寸法
 62
     0
100
AcDbTrace
 10
817.8000884495258
 20
1645.843063334632
 30
0.0
 11
817.8000884495258
 21
1639.176396667966
 31
0.0
 12
797.8000884495259
 22
1642.509730001299
 32
0.0
 13
797.8000884495259
 23
1642.509730001299
 33
0.0
  0
MTEXT
  5
43A8
330
4393
100
AcDbEntity
  8
寸法
 62
     0
100
AcDbMText
 10
861.1334217828593
 20
1622.509730001299
 30
0.0
 40
20.0
 41
0.0
 71
     5
 72
     1
  1
15
 73
     1
 44
1.0
1001
ACAD
1000
MTEXTBEGIN
1070
    73
1070
     1
1070
    44
1040
1.0
1070
    74
1070
     0
1000
MTEXTEND
  0
POINT
  5
43A9
330
4393
100
AcDbEntity
  8
DEFPOINTS
 62
     0
100
AcDbPoint
 10
797.8000884495259
 20
1718.909163386517
 30
0.0
  0
POINT
  5
43AA
330
4393
100
AcDbEntity
  8
DEFPOINTS
 62
     0
100
AcDbPoint
 10
782.8000884495268
 20
1733.909163386516
 30
0.0
  0
POINT
  5
43AB
330
4393
100
AcDbEntity
  8
DEFPOINTS
 62
     0
100
AcDbPoint
 10
782.8000884495268
 20
1642.509730001299
 30
0.0
  0
ENDBLK
  5
43A0
330
4393
100
AcDbEntity
  8
0
100
AcDbBlockEnd
  0
ENDSEC
  0
SECTION
  2
ENTITIES
  0
INSERT
  5
123
330
1F
100
AcDbEntity
  8
題
 62
     7
100
AcDbBlockReference
  2
AI9-BLK1
 10
3257.800088449528
 20
263.9091633865173
 30
0.0
 41
1.152000000001862
 42
1.152000000000157
 43
1.152
  0
MTEXT
  5
124
330
1F
100
AcDbEntity
  8
題
100
AcDbMText
 10
3332.800088449528
 20
288.9091633865173
 30
0.0
 40
60.0
 41
850.0
 71
     4
 72
     5
  1
{\fHGMaruGothicMPRO|b0|i0|c128|p50; 新生興産株式会社}
 73
     1
 44
1.0
1001
ACAD
1000
MTEXTBEGIN
1070
    73
1070
     1
1070
    44
1040
1.0
1070
    74
1070
     0
1000
MTEXTEND
1000
ACAD_MTEXT_DEFINED_HEIGHT_BEGIN
1070
    46
1040
10.0
1000
ACAD_MTEXT_DEFINED_HEIGHT_END
  0
MTEXT
  5
125
330
1F
100
AcDbEntity
  8
題
100
AcDbMText
 10
3332.800088449528
 20
213.9091633865173
 30
0.0
 40
60.0
 41
850.0
 71
     4
 72
     5
  1
{\fCentury Gothic|b0|i0|c0|p34;\H0.5x;                              SHINSEI KOSAN CO.,LTD}
 73
     1
 44
1.0
1001
ACAD
1000
MTEXTBEGIN
1070
    73
1070
     1
1070
    44
1040
1.0
1070
    74
1070
     0
1000
MTEXTEND
1000
ACAD_MTEXT_DEFINED_HEIGHT_BEGIN
1070
    46
1040
5.0
1000
ACAD_MTEXT_DEFINED_HEIGHT_END
  0
LWPOLYLINE
  5
126
330
1F
100
AcDbEntity
  8
DEFPOINTS
100
AcDbPolyline
 90
        4
 70
     1
 43
0.0
 10
82.80008844952817
 20
88.90916338651733
 10
4282.800088449529
 20
88.90916338651733
 10
4282.800088449529
 20
3058.909163386517
 10
82.80008844952817
 20
3058.909163386517
  0
LWPOLYLINE
  5
127
330
1F
100
AcDbEntity
  8
題
100
AcDbPolyline
 90
        4
 70
     1
 43
0.0
 10
4182.800088449528
 20
188.9091633865173
 10
3182.800088449528
 20
188.9091633865173
 10
3182.800088449528
 20
338.9091633865173
 10
4182.800088449528
 20
338.9091633865173
  0
LWPOLYLINE
  5
128
330
1F
100
AcDbEntity
  8
題
100
AcDbPolyline
 90
        4
 70
     1
 43
0.0
 10
3182.800088449528
 20
338.9091633865173
 10
3332.800088449528
 20
338.9091633865173
 10
3332.800088449528
 20
438.9091633865173
 10
3182.800088449528
 20
438.9091633865173
  0
LWPOLYLINE
  5
129
330
1F
100
AcDbEntity
  8
題
100
AcDbPolyline
 90
        4
 70
     1
 43
0.0
 10
3182.800088449528
 20
438.9091633865173
 10
3332.800088449528
 20
438.9091633865173
 10
3332.800088449528
 20
538.9091633865173
 10
3182.800088449528
 20
538.9091633865173
  0
LWPOLYLINE
  5
12A
330
1F
100
AcDbEntity
  8
題
100
AcDbPolyline
 90
        4
 70
     1
 43
0.0
 10
4182.800088449528
 20
338.9091633865173
 10
4032.800088449528
 20
338.9091633865173
 10
4032.800088449528
 20
388.9091633865173
 10
4182.800088449528
 20
388.9091633865173
  0
LWPOLYLINE
  5
12B
330
1F
100
AcDbEntity
  8
題
100
AcDbPolyline
 90
        4
 70
     1
 43
0.0
 10
4182.800088449528
 20
388.9091633865173
 10
4032.800088449528
 20
388.9091633865173
 10
4032.800088449528
 20
438.9091633865173
 10
4182.800088449528
 20
438.9091633865173
  0
MTEXT
  5
12C
330
1F
100
AcDbEntity
  8
題
100
AcDbMText
 10
4107.800088449528
 20
363.9091633865173
 30
0.0
 40
20.0
 41
150.0
 71
     5
 72
     5
  1
'12.07.20
 73
     1
 44
1.0
1001
ACAD
1000
MTEXTBEGIN
1070
    73
1070
     1
1070
    44
1040
1.0
1070
    74
1070
     0
1000
MTEXTEND
  0
MTEXT
  5
12D
330
1F
100
AcDbEntity
  8
題
100
AcDbMText
 10
4107.800088449528
 20
413.9091633865173
 30
0.0
 40
20.0
 41
150.0
 71
     5
 72
     5
  1
富 田
 73
     1
 44
1.0
1001
ACAD
1000
MTEXTBEGIN
1070
    73
1070
     1
1070
    44
1040
1.0
1070
    74
1070
     0
1000
MTEXTEND
  0
LWPOLYLINE
  5
12E
330
1F
100
AcDbEntity
  8
題
100
AcDbPolyline
 90
        4
 70
     1
 43
0.0
 10
4032.800088449528
 20
338.9091633865173
 10
3932.800088449528
 20
338.9091633865173
 10
3932.800088449528
 20
388.9091633865173
 10
4032.800088449528
 20
388.9091633865173
  0
MTEXT
  5
12F
330
1F
100
AcDbEntity
  8
題
100
AcDbMText
 10
3982.800088449528
 20
363.9091633865173
 30
0.0
 40
25.0
 41
100.0
 71
     5
 72
     5
  1
{\fHGSeikaishotaiPRO|b0|i0|c128|p66;日付}
 73
     1
 44
1.0
1001
ACAD
1000
MTEXTBEGIN
1070
    73
1070
     1
1070
    44
1040
1.0
1070
    74
1070
     0
1000
MTEXTEND
  0
LWPOLYLINE
  5
130
330
1F
100
AcDbEntity
  8
題
100
AcDbPolyline
 90
        4
 70
     1
 43
0.0
 10
4032.800088449528
 20
388.9091633865173
 10
3932.800088449528
 20
388.9091633865173
 10
3932.800088449528
 20
438.9091633865173
 10
4032.800088449528
 20
438.9091633865173
  0
MTEXT
  5
131
330
1F
100
AcDbEntity
  8
題
100
AcDbMText
 10
3982.800088449528
 20
413.9091633865173
 30
0.0
 40
25.0
 41
100.0
 71
     5
 72
     5
  1
{\fHGSeikaishotaiPRO|b0|i0|c128|p66;製図}
 73
     1
 44
1.0
1001
ACAD
1000
MTEXTBEGIN
1070
    73
1070
     1
1070
    44
1040
1.0
1070
    74
1070
     0
1000
MTEXTEND
  0
LWPOLYLINE
  5
132
330
1F
100
AcDbEntity
  8
題
100
AcDbPolyline
 90
        4
 70
     1
 43
0.0
 10
3932.800088449528
 20
438.9091633865173
 10
4032.800088449528
 20
438.9091633865173
 10
4032.800088449528
 20
538.9091633865173
 10
3932.800088449528
 20
538.9091633865173
  0
LWPOLYLINE
  5
133
330
1F
100
AcDbEntity
  8
題
100
AcDbPolyline
 90
        4
 70
     1
 43
0.0
 10
3932.800088449528
 20
338.9091633865173
 10
3332.800088449528
 20
338.9091633865173
 10
3332.800088449528
 20
438.9091633865173
 10
3932.800088449528
 20
438.9091633865173
  0
LWPOLYLINE
  5
134
330
1F
100
AcDbEntity
  8
題
100
AcDbPolyline
 90
        4
 70
     1
 43
0.0
 10
3932.800088449528
 20
438.9091633865173
 10
3332.800088449528
 20
438.9091633865173
 10
3332.800088449528
 20
538.9091633865173
 10
3932.800088449528
 20
538.9091633865173
  0
MTEXT
  5
135
330
1F
100
AcDbEntity
  8
題
100
AcDbMText
 10
3982.800088449528
 20
488.9091633865173
 30
0.0
 40
25.0
 41
100.0
 71
     5
 72
     5
  1
{\fHGSeikaishotaiPRO|b0|i0|c128|p66;縮尺}
 73
     1
 44
1.0
1001
ACAD
1000
MTEXTBEGIN
1070
    73
1070
     1
1070
    44
1040
1.0
1070
    74
1070
     0
1000
MTEXTEND
  0
LWPOLYLINE
  5
136
330
1F
100
AcDbEntity
  8
題
100
AcDbPolyline
 90
        4
 70
     1
 43
0.0
 10
4032.800088449528
 20
438.9091633865173
 10
4182.800088449528
 20
438.9091633865173
 10
4182.800088449528
 20
538.9091633865173
 10
4032.800088449528
 20
538.9091633865173
  0
MTEXT
  5
137
330
1F
100
AcDbEntity
  8
題
100
AcDbMText
 10
4107.800088449528
 20
488.9091633865173
 30
0.0
 40
25.0
 41
150.0
 71
     5
 72
     5
  1
1：10
 73
     1
 44
1.0
1001
ACAD
1000
MTEXTBEGIN
1070
    73
1070
     1
1070
    44
1040
1.0
1070
    74
1070
     0
1000
MTEXTEND
  0
MTEXT
  5
138
330
1F
100
AcDbEntity
  8
題
100
AcDbMText
 10
3257.800088449528
 20
488.9091633865173
 30
0.0
 40
25.0
 41
150.0
 71
     5
 72
     5
  1
{\fHGSeikaishotaiPRO|b0|i0|c128|p66;製品名}
 73
     1
 44
1.0
1001
ACAD
1000
MTEXTBEGIN
1070
    73
1070
     1
1070
    44
1040
1.0
1070
    74
1070
     0
1000
MTEXTEND
  0
MTEXT
  5
139
330
1F
100
AcDbEntity
  8
題
100
AcDbMText
 10
3257.800088449528
 20
388.9091633865173
 30
0.0
 40
25.0
 41
150.0
 71
     5
 72
     5
  1
{\fHGSeikaishotaiPRO|b0|i0|c128|p66;規格}
 73
     1
 44
1.0
1001
ACAD
1000
MTEXTBEGIN
1070
    73
1070
     1
1070
    44
1040
1.0
1070
    74
1070
     0
1000
MTEXTEND
  0
LWPOLYLINE
  5
163
330
1F
100
AcDbEntity
  8
題
100
AcDbPolyline
 90
        4
 70
     1
 43
0.0
 10
282.8000884495282
 20
188.9091633865173
 10
4182.800088449528
 20
188.9091633865173
 10
4182.800088449528
 20
2958.909163386517
 10
282.8000884495282
 20
2958.909163386517
  0
LINE
  5
18C
330
1F
100
AcDbEntity
  8
センター
100
AcDbLine
 10
1372.800088449528
 20
2488.909163386518
 30
0.0
 11
1372.800088449527
 21
1688.909163386517
 31
0.0
  0
DIMENSION
  5
78E
330
1F
100
AcDbEntity
  8
寸法
100
AcDbDimension
  2
*D3
 10
1807.800088449528
 20
2131.184784271342
 30
0.0
 11
1328.557115772692
 21
2131.184784271342
 31
0.0
 70
   160
 71
     5
 42
870.0
  3
ISO-25
100
AcDbAlignedDimension
 13
937.8000884495282
 23
1858.909163386517
 33
0.0
 14
1807.800088449528
 24
1858.909163386517
 34
0.0
100
AcDbRotatedDimension
1001
ACAD
1000
DSTYLE
1002
{
1070
    41
1040
20.0
1070
    42
1040
200.0
1070
    44
1040
50.0
1070
    77
1070
     2
1070
   140
1040
20.0
1070
   147
1040
10.0
1002
}
  0
DIMENSION
  5
977
330
1F
100
AcDbEntity
  8
寸法
100
AcDbDimension
  2
*D4
 10
1101.316764934039
 20
2458.909163386517
 30
0.0
 11
1101.316764934039
 21
2187.055730160566
 31
0.0
 70
   160
 71
     5
 42
599.9999999999998
  3
ISO-25
100
AcDbAlignedDimension
 13
1222.800088449528
 23
1858.909163386517
 33
0.0
 14
922.8000884495282
 24
2458.909163386517
 34
0.0
 50
90.0
100
AcDbRotatedDimension
1001
ACAD
1000
DSTYLE
1002
{
1070
    41
1040
20.0
1070
    42
1040
80.0
1070
    44
1040
10.0
1070
    77
1070
     2
1070
   140
1040
20.0
1070
   147
1040
10.0
1002
}
  0
LINE
  5
9A5
102
{ACAD_REACTORS
330
DE5
102
}
330
1F
100
AcDbEntity
  8
図
100
AcDbLine
 10
3027.800088449528
 20
2458.909163386517
 30
0.0
 11
3027.800088449528
 21
2348.909163386517
 31
0.0
  0
LINE
  5
9A6
330
1F
100
AcDbEntity
  8
図
100
AcDbLine
 10
3027.800088449528
 20
2348.909163386517
 30
0.0
 11
3062.800088449528
 21
2348.909163386517
 31
0.0
  0
LINE
  5
9A9
330
1F
100
AcDbEntity
  8
図
100
AcDbLine
 10
3027.800088449528
 20
2348.909163386517
 30
0.0
 11
3007.800088449528
 21
2333.909163386517
 31
0.0
  0
LINE
  5
9AB
330
1F
100
AcDbEntity
  8
図
100
AcDbLine
 10
3007.800088449528
 20
2333.909163386517
 30
0.0
 11
3007.800088449528
 21
1983.909163386517
 31
0.0
  0
LINE
  5
9B1
330
1F
100
AcDbEntity
  8
図
100
AcDbLine
 10
3007.800088449528
 20
1983.909163386517
 30
0.0
 11
2982.800088449528
 21
1853.909163386517
 31
0.0
  0
LINE
  5
9B5
330
1F
100
AcDbEntity
  8
影
100
AcDbLine
 10
3027.800088449528
 20
1998.909163386517
 30
0.0
 11
3027.800088449528
 21
1858.909163386517
 31
0.0
  0
LINE
  5
9B6
330
1F
100
AcDbEntity
  8
影
100
AcDbLine
 10
3027.800088449528
 20
1858.909163386517
 30
0.0
 11
2982.800088449528
 21
1853.909163386517
 31
0.0
  0
LINE
  5
9BC
330
1F
100
AcDbEntity
  8
影
100
AcDbLine
 10
3027.800088449528
 20
2348.909163386517
 30
0.0
 11
3027.800088449528
 21
2018.909163386517
 31
0.0
  0
LINE
  5
9BE
102
{ACAD_REACTORS
330
DE5
330
E0F
102
}
330
1F
100
AcDbEntity
  8
図
100
AcDbLine
 10
3097.800088449528
 20
2458.909163386517
 30
0.0
 11
3097.800088449529
 21
2348.909163386517
 31
0.0
  0
LINE
  5
9BF
330
1F
100
AcDbEntity
  8
図
100
AcDbLine
 10
3097.800088449529
 20
2348.909163386517
 30
0.0
 11
3062.800088449528
 21
2348.909163386517
 31
0.0
  0
LINE
  5
9C1
330
1F
100
AcDbEntity
  8
図
100
AcDbLine
 10
3097.800088449529
 20
2348.909163386517
 30
0.0
 11
3117.800088449529
 21
2333.909163386517
 31
0.0
  0
LINE
  5
9C2
330
1F
100
AcDbEntity
  8
図
100
AcDbLine
 10
3117.800088449529
 20
2333.909163386517
 30
0.0
 11
3117.800088449529
 21
1983.909163386517
 31
0.0
  0
LINE
  5
9C6
330
1F
100
AcDbEntity
  8
図
100
AcDbLine
 10
3117.800088449529
 20
1983.909163386517
 30
0.0
 11
3142.800088449528
 21
1853.909163386517
 31
0.0
  0
LINE
  5
9C7
330
1F
100
AcDbEntity
  8
影
100
AcDbLine
 10
3097.800088449529
 20
1998.909163386517
 30
0.0
 11
3097.800088449528
 21
1858.909163386517
 31
0.0
  0
LINE
  5
9C8
330
1F
100
AcDbEntity
  8
影
100
AcDbLine
 10
3097.800088449528
 20
1858.909163386517
 30
0.0
 11
3142.800088449528
 21
1853.909163386517
 31
0.0
  0
LINE
  5
9C9
330
1F
100
AcDbEntity
  8
影
100
AcDbLine
 10
3097.800088449529
 20
2348.909163386517
 30
0.0
 11
3097.800088449529
 21
2018.909163386517
 31
0.0
  0
LWPOLYLINE
  5
9CA
102
{ACAD_REACTORS
330
9E3
330
A95
330
E0F
102
}
330
1F
100
AcDbEntity
  8
図
100
AcDbPolyline
 90
        4
 70
     1
 43
0.0
 10
2982.800088449528
 20
1718.909163386517
 10
3142.800088449528
 20
1718.909163386517
 10
3142.800088449528
 20
2458.909163386517
 10
2982.800088449528
 20
2458.909163386517
  0
LINE
  5
9CB
330
1F
100
AcDbEntity
  8
影
100
AcDbLine
 10
2982.800088449528
 20
1858.909163386517
 30
0.0
 11
3142.800088449528
 21
1858.909163386517
 31
0.0
  0
DIMENSION
  5
9CC
102
{ACAD_XDICTIONARY
360
9D9
102
}
102
{ACAD_REACTORS
330
9E3
102
}
330
1F
100
AcDbEntity
  8
寸法
100
AcDbDimension
  2
*D5
 10
3229.273145904487
 20
1858.909163386517
 30
0.0
 11
3249.273145904486
 21
2158.909163386518
 31
0.0
 70
    32
 71
     5
 42
600.0000000000002
  3
ISO-25
100
AcDbAlignedDimension
 13
3142.800088449528
 23
2458.909163386517
 33
0.0
 14
3142.800088449528
 24
1858.909163386517
 34
0.0
 50
90.0
100
AcDbRotatedDimension
1001
ACAD
1000
DSTYLE
1002
{
1070
    41
1040
20.0
1070
    42
1040
30.0
1070
    44
1040
10.0
1070
   140
1040
20.0
1070
   147
1040
10.0
1002
}
  0
DIMENSION
  5
A00
330
1F
100
AcDbEntity
  8
寸法
100
AcDbDimension
  2
*D6
 10
3229.273145904486
 20
1858.909163386517
 30
0.0
 11
3249.273145904485
 21
1788.909163386518
 31
0.0
 70
    32
 71
     5
 42
140.0
  3
ISO-25
100
AcDbAlignedDimension
 13
3142.800088449528
 23
1718.909163386517
 33
0.0
 14
3142.800088449528
 24
1858.909163386517
 34
0.0
 50
90.0
100
AcDbRotatedDimension
1001
ACAD
1000
DSTYLE
1002
{
1070
    41
1040
20.0
1070
    42
1040
30.0
1070
    44
1040
10.0
1070
   140
1040
20.0
1070
   147
1040
10.0
1002
}
  0
DIMENSION
  5
A7E
102
{ACAD_XDICTIONARY
360
A8B
102
}
102
{ACAD_REACTORS
330
A95
102
}
330
1F
100
AcDbEntity
  8
寸法
100
AcDbDimension
  2
*D7
 10
3142.800088449528
 20
2567.755376642237
 30
0.0
 11
3062.800088449528
 21
2587.755376642237
 31
0.0
 70
    32
 71
     5
 42
160.0
  3
ISO-25
100
AcDbAlignedDimension
 13
2982.800088449528
 23
2458.909163386517
 33
0.0
 14
3142.800088449528
 24
2458.909163386517
 34
0.0
100
AcDbRotatedDimension
1001
ACAD
1000
DSTYLE
1002
{
1070
    41
1040
20.0
1070
    42
1040
30.0
1070
    44
1040
10.0
1070
   140
1040
20.0
1070
   147
1040
10.0
1002
}
  0
MTEXT
  5
AA1
330
1F
100
AcDbEntity
  8
題
100
AcDbMText
 10
3632.800088449528
 20
488.9091633865173
 30
0.0
 40
30.0
 41
600.0
 71
     5
 72
     5
  1
U型柵渠柱
 73
     1
 44
1.0
1001
ACAD
1000
MTEXTBEGIN
1070
    73
1070
     1
1070
    44
1040
1.0
1070
    74
1070
     0
1000
MTEXTEND
  0
LINE
  5
AA6
330
1F
100
AcDbEntity
  8
センター
100
AcDbLine
 10
1012.800088449528
 20
838.9091633865174
 30
0.0
 11
832.8000884495281
 21
838.9091633865175
 31
0.0
  0
LINE
  5
AAB
102
{ACAD_REACTORS
330
EB1
102
}
330
1F
100
AcDbEntity
  8
図
100
AcDbLine
 10
982.8000884495281
 20
838.9091633865174
 30
0.0
 11
982.8000884495281
 21
758.9091633865173
 31
0.0
  0
LINE
  5
AAD
102
{ACAD_REACTORS
330
E90
330
EB1
330
EEA
102
}
330
1F
100
AcDbEntity
  8
図
100
AcDbLine
 10
982.8000884495281
 20
758.9091633865173
 30
0.0
 11
937.8000884495282
 21
758.9091633865173
 31
0.0
  0
LINE
  5
AAE
102
{ACAD_REACTORS
330
EEA
330
F27
102
}
330
1F
100
AcDbEntity
  8
図
100
AcDbLine
 10
937.8000884495282
 20
758.9091633865173
 30
0.0
 11
932.8000884495281
 21
803.9091633865172
 31
0.0
  0
LINE
  5
AAF
102
{ACAD_REACTORS
330
EB1
330
F27
330
FDF
102
}
330
1F
100
AcDbEntity
  8
図
100
AcDbLine
 10
932.8000884495281
 20
803.9091633865172
 30
0.0
 11
882.8000884495281
 21
803.9091633865172
 31
0.0
  0
LINE
  5
AB2
330
1F
100
AcDbEntity
  8
図
100
AcDbLine
 10
982.8000884495281
 20
838.9091633865174
 30
0.0
 11
982.8000884495281
 21
918.9091633865174
 31
0.0
  0
LINE
  5
AB3
102
{ACAD_REACTORS
330
E6F
330
E90
102
}
330
1F
100
AcDbEntity
  8
図
100
AcDbLine
 10
982.8000884495281
 20
918.9091633865174
 30
0.0
 11
937.8000884495282
 21
918.9091633865174
 31
0.0
  0
LINE
  5
AB4
330
1F
100
AcDbEntity
  8
図
100
AcDbLine
 10
937.8000884495282
 20
918.9091633865174
 30
0.0
 11
932.8000884495281
 21
873.9091633865173
 31
0.0
  0
LINE
  5
AB5
330
1F
100
AcDbEntity
  8
図
100
AcDbLine
 10
932.8000884495281
 20
873.9091633865173
 30
0.0
 11
882.8000884495281
 21
873.9091633865173
 31
0.0
  0
LINE
  5
AB6
102
{ACAD_REACTORS
330
E6F
330
FDF
330
1013
102
}
330
1F
100
AcDbEntity
  8
図
100
AcDbLine
 10
882.8000884495281
 20
873.9091633865173
 30
0.0
 11
882.8000884495281
 21
803.9091633865172
 31
0.0
  0
LINE
  5
AB7
330
1F
100
AcDbEntity
  8
センター
100
AcDbLine
 10
1557.800088449528
 20
838.909163386517
 30
0.0
 11
1352.800088449528
 21
838.9091633865174
 31
0.0
  0
LINE
  5
AB8
330
1F
100
AcDbEntity
  8
図
100
AcDbLine
 10
1527.800088449528
 20
838.909163386517
 30
0.0
 11
1527.800088449528
 21
758.909163386517
 31
0.0
  0
LINE
  5
AB9
330
1F
100
AcDbEntity
  8
図
100
AcDbLine
 10
1527.800088449528
 20
758.909163386517
 30
0.0
 11
1482.800088449528
 21
758.909163386517
 31
0.0
  0
LINE
  5
ABA
102
{ACAD_REACTORS
330
11EF
102
}
330
1F
100
AcDbEntity
  8
図
100
AcDbLine
 10
1482.800088449528
 20
758.909163386517
 30
0.0
 11
1477.800088449528
 21
803.9091633865171
 31
0.0
  0
LINE
  5
ABB
102
{ACAD_REACTORS
330
11EF
102
}
330
1F
100
AcDbEntity
  8
図
100
AcDbLine
 10
1477.800088449528
 20
803.9091633865171
 30
0.0
 11
1422.800088449528
 21
803.9091633865171
 31
0.0
  0
LINE
  5
ABC
330
1F
100
AcDbEntity
  8
図
100
AcDbLine
 10
1527.800088449528
 20
838.909163386517
 30
0.0
 11
1527.800088449528
 21
918.9091633865171
 31
0.0
  0
LINE
  5
ABD
330
1F
100
AcDbEntity
  8
図
100
AcDbLine
 10
1527.800088449528
 20
918.9091633865171
 30
0.0
 11
1482.800088449528
 21
918.9091633865171
 31
0.0
  0
LINE
  5
ABE
330
1F
100
AcDbEntity
  8
図
100
AcDbLine
 10
1482.800088449528
 20
918.9091633865171
 30
0.0
 11
1477.800088449528
 21
873.909163386517
 31
0.0
  0
LINE
  5
ABF
330
1F
100
AcDbEntity
  8
図
100
AcDbLine
 10
1477.800088449528
 20
873.909163386517
 30
0.0
 11
1422.800088449528
 21
873.909163386517
 31
0.0
  0
LWPOLYLINE
  5
ACB
330
1F
100
AcDbEntity
  8
図
100
AcDbPolyline
 90
        4
 70
     1
 43
0.0
 10
2482.800088449528
 20
908.9091633865173
 10
2642.800088449528
 20
908.9091633865173
 10
2642.800088449528
 20
768.9091633865173
 10
2482.800088449528
 20
768.9091633865173
  0
DIMENSION
  5
B06
330
1F
100
AcDbEntity
  8
寸法
100
AcDbDimension
  2
*D8
 10
2642.800088449528
 20
1006.034259117131
 30
0.0
 11
2562.800088449528
 21
1026.034259117131
 31
0.0
 70
    32
 71
     5
 42
160.0
  3
ISO-25
100
AcDbAlignedDimension
 13
2482.800088449528
 23
908.9091633865173
 33
0.0
 14
2642.800088449528
 24
908.9091633865173
 34
0.0
100
AcDbRotatedDimension
1001
ACAD
1000
DSTYLE
1002
{
1070
    41
1040
20.0
1070
    42
1040
30.0
1070
    44
1040
10.0
1070
   140
1040
20.0
1070
   147
1040
10.0
1002
}
  0
DIMENSION
  5
D10
330
1F
100
AcDbEntity
  8
寸法
100
AcDbDimension
  2
*D9
 10
2738.677696000253
 20
768.9091633865173
 30
0.0
 11
2758.677696000253
 21
838.9091633865177
 31
0.0
 70
    32
 71
     5
 42
140.0
  3
ISO-25
100
AcDbAlignedDimension
 13
2642.800088449528
 23
908.9091633865173
 33
0.0
 14
2642.800088449528
 24
768.9091633865173
 34
0.0
 50
90.0
100
AcDbRotatedDimension
1001
ACAD
1000
DSTYLE
1002
{
1070
    41
1040
20.0
1070
    42
1040
30.0
1070
    44
1040
10.0
1070
    77
1070
     2
1070
   140
1040
20.0
1070
   147
1040
10.0
1002
}
  0
DIMENSION
  5
DCE
102
{ACAD_XDICTIONARY
360
DDB
102
}
102
{ACAD_REACTORS
330
DE5
102
}
330
1F
100
AcDbEntity
  8
寸法
100
AcDbDimension
  2
*D10
 10
3097.800088449528
 20
2521.594176966775
 30
0.0
 11
3062.800088449528
 21
2541.594176966775
 31
0.0
 70
    32
 71
     5
 42
70.0
  3
ISO-25
100
AcDbAlignedDimension
 13
3027.800088449528
 23
2458.909163386517
 33
0.0
 14
3097.800088449528
 24
2458.909163386517
 34
0.0
100
AcDbRotatedDimension
1001
ACAD
1000
DSTYLE
1002
{
1070
    41
1040
20.0
1070
    42
1040
30.0
1070
    44
1040
10.0
1070
   140
1040
20.0
1070
   147
1040
10.0
1002
}
  0
DIMENSION
  5
DF8
102
{ACAD_XDICTIONARY
360
E05
102
}
102
{ACAD_REACTORS
330
E0F
102
}
330
1F
100
AcDbEntity
  8
寸法
100
AcDbDimension
  2
*D11
 10
3142.800088449528
 20
2521.594176966775
 30
0.0
 11
3120.300088449528
 21
2521.594176966775
 31
0.0
 70
   160
 71
     5
 42
45.0
  3
ISO-25
100
AcDbAlignedDimension
 13
3097.800088449528
 23
2458.909163386517
 33
0.0
 14
3142.800088449528
 24
2458.909163386517
 34
0.0
100
AcDbRotatedDimension
1001
ACAD
1000
DSTYLE
1002
{
1070
    41
1040
20.0
1070
    42
1040
30.0
1070
    44
1040
10.0
1070
   140
1040
20.0
1070
   147
1040
10.0
1002
}
  0
DIMENSION
  5
E3C
330
1F
100
AcDbEntity
  8
寸法
100
AcDbDimension
  2
*D12
 10
3027.800088449528
 20
2521.594176966775
 30
0.0
 11
3005.300088449529
 21
2521.594176966775
 31
0.0
 70
   160
 71
     5
 42
45.0
  3
ISO-25
100
AcDbAlignedDimension
 13
2982.800088449528
 23
2458.909163386517
 33
0.0
 14
3027.800088449528
 24
2458.909163386517
 34
0.0
100
AcDbRotatedDimension
1001
ACAD
1000
DSTYLE
1002
{
1070
    41
1040
20.0
1070
    42
1040
30.0
1070
    44
1040
10.0
1070
   140
1040
20.0
1070
   147
1040
10.0
1002
}
  0
DIMENSION
  5
E58
102
{ACAD_XDICTIONARY
360
E65
102
}
102
{ACAD_REACTORS
330
E6F
102
}
330
1F
100
AcDbEntity
  8
寸法
100
AcDbDimension
  2
*D13
 10
882.8000884495281
 20
978.0960797051886
 30
0.0
 11
932.8000884495281
 21
998.0960797051885
 31
0.0
 70
    32
 71
     5
 42
100.0
  3
ISO-25
100
AcDbAlignedDimension
 13
982.8000884495281
 23
918.9091633865174
 33
0.0
 14
882.8000884495281
 24
873.9091633865173
 34
0.0
100
AcDbRotatedDimension
1001
ACAD
1000
DSTYLE
1002
{
1070
    41
1040
20.0
1070
    42
1040
30.0
1070
    44
1040
10.0
1070
   140
1040
20.0
1070
   147
1040
10.0
1002
}
  0
DIMENSION
  5
E79
102
{ACAD_XDICTIONARY
360
E86
102
}
102
{ACAD_REACTORS
330
E90
102
}
330
1F
100
AcDbEntity
  8
寸法
100
AcDbDimension
  2
*D14
 10
1094.762172364674
 20
758.9091633865173
 30
0.0
 11
1114.762172364673
 21
838.9091633865174
 31
0.0
 70
    32
 71
     5
 42
160.0000000000001
  3
ISO-25
100
AcDbAlignedDimension
 13
982.8000884495281
 23
918.9091633865174
 33
0.0
 14
982.8000884495281
 24
758.9091633865173
 34
0.0
 50
270.0
100
AcDbRotatedDimension
1001
ACAD
1000
DSTYLE
1002
{
1070
    41
1040
20.0
1070
    42
1040
30.0
1070
    44
1040
10.0
1070
    77
1070
     2
1070
   140
1040
20.0
1070
   147
1040
10.0
1002
}
  0
DIMENSION
  5
E9A
102
{ACAD_XDICTIONARY
360
EA7
102
}
102
{ACAD_REACTORS
330
EB1
102
}
330
1F
100
AcDbEntity
  8
寸法
100
AcDbDimension
  2
*D15
 10
1039.885373667193
 20
758.9091633865173
 30
0.0
 11
1039.885373667193
 21
781.4091633865174
 31
0.0
 70
   160
 71
     5
 42
45.0
  3
ISO-25
100
AcDbAlignedDimension
 13
982.8000884495281
 23
803.9091633865172
 33
0.0
 14
982.8000884495281
 24
758.9091633865173
 34
0.0
 50
270.0
100
AcDbRotatedDimension
1001
ACAD
1000
DSTYLE
1002
{
1070
    41
1040
20.0
1070
    42
1040
30.0
1070
    44
1040
10.0
1070
    77
1070
     2
1070
   140
1040
20.0
1070
   147
1040
10.0
1002
}
  0
DIMENSION
  5
ED3
102
{ACAD_XDICTIONARY
360
EE0
102
}
102
{ACAD_REACTORS
330
EEA
102
}
330
1F
100
AcDbEntity
  8
寸法
100
AcDbDimension
  2
*D16
 10
937.8000884495282
 20
687.6918637827875
 30
0.0
 11
960.3000884495282
 21
687.6918637827875
 31
0.0
 70
   160
 71
     5
 42
45.0
  3
ISO-25
100
AcDbAlignedDimension
 13
982.8000884495281
 23
758.9091633865173
 33
0.0
 14
937.8000884495282
 24
758.9091633865173
 34
0.0
100
AcDbRotatedDimension
1001
ACAD
1000
DSTYLE
1002
{
1070
    41
1040
20.0
1070
    42
1040
30.0
1070
    44
1040
10.0
1070
    77
1070
     2
1070
   140
1040
20.0
1070
   147
1040
10.0
1002
}
  0
DIMENSION
  5
F0C
102
{ACAD_XDICTIONARY
360
F1B
102
}
102
{ACAD_REACTORS
330
F27
102
}
330
1F
100
AcDbEntity
  8
寸法
100
AcDbDimension
  2
*D17
 10
932.8000884495281
 20
688.108530449454
 30
0.0
 11
935.3000884495282
 21
688.108530449454
 31
0.0
 70
   160
 71
     5
 42
5.0
  3
ISO-25
100
AcDbAlignedDimension
 13
937.8000884495282
 23
758.9091633865173
 33
0.0
 14
932.8000884495281
 24
803.9091633865172
 34
0.0
100
AcDbRotatedDimension
1001
ACAD
1000
DSTYLE
1002
{
1070
    77
1070
     2
1070
    41
1040
20.0
1070
    42
1040
30.0
1070
    44
1040
10.0
1070
   140
1040
20.0
1070
   147
1040
35.0
1002
}
  0
DIMENSION
  5
FC8
102
{ACAD_XDICTIONARY
360
FD5
102
}
102
{ACAD_REACTORS
330
FDF
102
}
330
1F
100
AcDbEntity
  8
寸法
100
AcDbDimension
  2
*D19
 10
882.8000884495281
 20
688.1085304494538
 30
0.0
 11
907.8000884495281
 21
688.1085304494538
 31
0.0
 70
   160
 71
     5
 42
50.0
  3
ISO-25
100
AcDbAlignedDimension
 13
932.8000884495281
 23
803.9091633865172
 33
0.0
 14
882.8000884495281
 24
803.9091633865172
 34
0.0
100
AcDbRotatedDimension
1001
ACAD
1000
DSTYLE
1002
{
1070
    41
1040
20.0
1070
    42
1040
30.0
1070
    44
1040
10.0
1070
    77
1070
     2
1070
   140
1040
20.0
1070
   147
1040
10.0
1002
}
  0
DIMENSION
  5
FFC
102
{ACAD_XDICTIONARY
360
1009
102
}
102
{ACAD_REACTORS
330
1013
102
}
330
1F
100
AcDbEntity
  8
寸法
100
AcDbDimension
  2
*D20
 10
800.5030089605803
 20
803.9091633865172
 30
0.0
 11
780.50300896058
 21
838.9091633865175
 31
0.0
 70
    32
 71
     5
 42
70.0
  3
ISO-25
100
AcDbAlignedDimension
 13
882.8000884495281
 23
873.9091633865173
 33
0.0
 14
882.8000884495281
 24
803.9091633865172
 34
0.0
 50
270.0
100
AcDbRotatedDimension
1001
ACAD
1000
DSTYLE
1002
{
1070
    41
1040
20.0
1070
    42
1040
30.0
1070
    44
1040
10.0
1070
   140
1040
20.0
1070
   147
1040
10.0
1002
}
  0
DIMENSION
  5
103A
330
1F
100
AcDbEntity
  8
寸法
100
AcDbDimension
  2
*D21
 10
1639.762172364674
 20
758.909163386517
 30
0.0
 11
1659.762172364673
 21
838.9091633865174
 31
0.0
 70
    32
 71
     5
 42
160.0
  3
ISO-25
100
AcDbAlignedDimension
 13
1527.800088449528
 23
918.9091633865171
 33
0.0
 14
1527.800088449528
 24
758.909163386517
 34
0.0
 50
270.0
100
AcDbRotatedDimension
1001
ACAD
1000
DSTYLE
1002
{
1070
    41
1040
20.0
1070
    42
1040
30.0
1070
    44
1040
10.0
1070
    77
1070
     2
1070
   140
1040
20.0
1070
   147
1040
10.0
1002
}
  0
DIMENSION
  5
1040
330
1F
100
AcDbEntity
  8
寸法
100
AcDbDimension
  2
*D22
 10
1482.800088449528
 20
687.6918637827873
 30
0.0
 11
1505.300088449528
 21
687.6918637827873
 31
0.0
 70
   160
 71
     5
 42
45.0
  3
ISO-25
100
AcDbAlignedDimension
 13
1527.800088449528
 23
758.909163386517
 33
0.0
 14
1482.800088449528
 24
758.909163386517
 34
0.0
100
AcDbRotatedDimension
1001
ACAD
1000
DSTYLE
1002
{
1070
    41
1040
20.0
1070
    42
1040
30.0
1070
    44
1040
10.0
1070
    77
1070
     2
1070
   140
1040
20.0
1070
   147
1040
10.0
1002
}
  0
DIMENSION
  5
1043
330
1F
100
AcDbEntity
  8
寸法
100
AcDbDimension
  2
*D23
 10
1477.800088449528
 20
688.1085304494538
 30
0.0
 11
1480.300088449528
 21
688.1085304494538
 31
0.0
 70
   160
 71
     5
 42
5.0
  3
ISO-25
100
AcDbAlignedDimension
 13
1482.800088449528
 23
758.909163386517
 33
0.0
 14
1477.800088449528
 24
803.9091633865171
 34
0.0
100
AcDbRotatedDimension
1001
ACAD
1000
DSTYLE
1002
{
1070
    77
1070
     2
1070
    41
1040
20.0
1070
    42
1040
30.0
1070
    44
1040
10.0
1070
   140
1040
20.0
1070
   147
1040
35.0
1002
}
  0
DIMENSION
  5
1046
330
1F
100
AcDbEntity
  8
寸法
100
AcDbDimension
  2
*D24
 10
1422.800088449528
 20
688.1085304494538
 30
0.0
 11
1450.300088449528
 21
688.1085304494538
 31
0.0
 70
   160
 71
     5
 42
55.0
  3
ISO-25
100
AcDbAlignedDimension
 13
1477.800088449528
 23
803.9091633865171
 33
0.0
 14
1422.800088449528
 24
803.9091633865171
 34
0.0
100
AcDbRotatedDimension
1001
ACAD
1000
DSTYLE
1002
{
1070
    41
1040
20.0
1070
    42
1040
30.0
1070
    44
1040
10.0
1070
    77
1070
     2
1070
   140
1040
20.0
1070
   147
1040
10.0
1002
}
  0
LINE
  5
10C9
102
{ACAD_REACTORS
330
10E3
102
}
330
1F
100
AcDbEntity
  8
図
100
AcDbLine
 10
1422.800088449528
 20
803.9091633865171
 30
0.0
 11
1412.800088449528
 21
783.9091633865173
 31
0.0
  0
LINE
  5
10CA
102
{ACAD_REACTORS
330
10E3
102
}
330
1F
100
AcDbEntity
  8
図
100
AcDbLine
 10
1412.800088449528
 20
783.9091633865173
 30
0.0
 11
1382.800088449528
 21
783.9091633865173
 31
0.0
  0
LINE
  5
10CB
330
1F
100
AcDbEntity
  8
図
100
AcDbLine
 10
1382.800088449528
 20
783.9091633865173
 30
0.0
 11
1382.800088449528
 21
838.9091633865174
 31
0.0
  0
DIMENSION
  5
10CC
102
{ACAD_XDICTIONARY
360
10D9
102
}
102
{ACAD_REACTORS
330
10E3
102
}
330
1F
100
AcDbEntity
  8
寸法
100
AcDbDimension
  2
*D25
 10
1412.800088449528
 20
688.1085304494534
 30
0.0
 11
1417.800088449528
 21
688.1085304494534
 31
0.0
 70
   160
 71
     5
 42
10.0
  3
ISO-25
100
AcDbAlignedDimension
 13
1422.800088449528
 23
803.9091633865171
 33
0.0
 14
1412.800088449528
 24
783.9091633865173
 34
0.0
100
AcDbRotatedDimension
1001
ACAD
1000
DSTYLE
1002
{
1070
    41
1040
20.0
1070
    42
1040
30.0
1070
    44
1040
10.0
1070
    77
1070
     2
1070
   140
1040
20.0
1070
   147
1040
35.0
1002
}
  0
LINE
  5
118E
330
1F
100
AcDbEntity
  8
図
100
AcDbLine
 10
1422.800088449528
 20
873.909163386517
 30
0.0
 11
1412.800088449528
 21
893.9091633865173
 31
0.0
  0
LINE
  5
118F
330
1F
100
AcDbEntity
  8
図
100
AcDbLine
 10
1412.800088449528
 20
893.9091633865173
 30
0.0
 11
1382.800088449528
 21
893.9091633865173
 31
0.0
  0
LINE
  5
1190
330
1F
100
AcDbEntity
  8
図
100
AcDbLine
 10
1382.800088449528
 20
893.9091633865173
 30
0.0
 11
1382.800088449528
 21
838.9091633865174
 31
0.0
  0
DIMENSION
  5
11D8
102
{ACAD_XDICTIONARY
360
11E5
102
}
102
{ACAD_REACTORS
330
11EF
102
}
330
1F
100
AcDbEntity
  8
寸法
100
AcDbDimension
  2
*D26
 10
1320.581122792686
 20
758.909163386517
 30
0.0
 11
1320.581122792686
 21
781.4091633865173
 31
0.0
 70
   160
 71
     5
 42
45.0
  3
ISO-25
100
AcDbAlignedDimension
 13
1477.800088449528
 23
803.9091633865171
 33
0.0
 14
1482.800088449528
 24
758.909163386517
 34
0.0
 50
270.0
100
AcDbRotatedDimension
1001
ACAD
1000
DSTYLE
1002
{
1070
    41
1040
20.0
1070
    42
1040
120.0
1070
    44
1040
10.0
1070
    77
1070
     2
1070
   140
1040
25.0
1070
   147
1040
10.0
1002
}
  0
MTEXT
  5
1609
330
1F
100
AcDbEntity
  8
図
100
AcDbMText
 10
1149.712113378709
 20
1881.583609862983
 30
0.0
 40
20.0
 41
32.52638210962323
 71
     5
 72
     5
  1
{\fMS Gothic|b0|i0|c128|p49;c}
 73
     1
 44
1.0
1001
ACAD
1000
MTEXTBEGIN
1070
    73
1070
     1
1070
    44
1040
1.0
1070
    74
1070
     0
1000
MTEXTEND
1000
ACAD_MTEXT_DEFINED_HEIGHT_BEGIN
1070
    46
1040
30.0
1000
ACAD_MTEXT_DEFINED_HEIGHT_END
  0
LEADER
  5
160C
330
1F
100
AcDbEntity
  8
図
100
AcDbLeader
  3
ISO-25
 76
     3
 10
1195.97530443352
 20
1896.583609862983
 30
0.0
 10
1165.975304433521
 20
1896.583609862983
 30
0.0
 10
1165.975304433521
 20
1866.583609862983
 30
0.0
211
-0.0000000000000001
221
-1.0
231
0.0
1001
ACAD
1000
DSTYLE
1002
{
1070
   341
1005
15F8
1070
    41
1040
10.0
1070
   147
1040
0.625
1070
    77
1070
     2
1002
}
  0
LEADER
  5
160E
330
1F
100
AcDbEntity
  8
図
100
AcDbLeader
  3
ISO-25
 76
     3
 10
1195.97530443352
 20
1660.030050149793
 30
0.0
 10
1165.975304433521
 20
1660.030050149793
 30
0.0
 10
1165.975304433521
 20
1690.030050149793
 30
0.0
211
-0.0000000000000001
221
1.0
231
0.0
1001
ACAD
1000
DSTYLE
1002
{
1070
   341
1005
15F8
1070
    41
1040
10.0
1070
   147
1040
0.625
1070
    77
1070
     2
1002
}
  0
MTEXT
  5
1610
330
1F
100
AcDbEntity
  8
図
100
AcDbMText
 10
1147.374860802164
 20
1674.627848234734
 30
0.0
 40
20.0
 41
30.0
 71
     5
 72
     5
  1
{\fMS Gothic|b0|i0|c128|p49;c'}
 73
     1
 44
1.0
1001
ACAD
1000
MTEXTBEGIN
1070
    73
1070
     1
1070
    44
1040
1.0
1070
    74
1070
     0
1000
MTEXTEND
  0
MTEXT
  5
1611
330
1F
100
AcDbEntity
  8
図
100
AcDbMText
 10
932.8000884495281
 20
1063.909163386517
 30
0.0
 40
40.0
 41
300.0
 71
     5
 72
     5
  1
{\fMS Gothic|b0|i0|c128|p49;a～a'}
 73
     1
 44
1.0
1001
ACAD
1000
MTEXTBEGIN
1070
    73
1070
     1
1070
    44
1040
1.0
1070
    74
1070
     0
1000
MTEXTEND
1000
ACAD_MTEXT_DEFINED_HEIGHT_BEGIN
1070
    46
1040
50.0
1000
ACAD_MTEXT_DEFINED_HEIGHT_END
  0
MTEXT
  5
1612
330
1F
100
AcDbEntity
  8
図
100
AcDbMText
 10
1432.800088449528
 20
1063.909163386517
 30
0.0
 40
40.0
 41
300.0
 71
     5
 72
     5
  1
{\fMS Gothic|b0|i0|c128|p49;b～b'}
 73
     1
 44
1.0
1001
ACAD
1000
MTEXTBEGIN
1070
    73
1070
     1
1070
    44
1040
1.0
1070
    74
1070
     0
1000
MTEXTEND
1000
ACAD_MTEXT_DEFINED_HEIGHT_BEGIN
1070
    46
1040
50.0
1000
ACAD_MTEXT_DEFINED_HEIGHT_END
  0
MTEXT
  5
1613
330
1F
100
AcDbEntity
  8
図
100
AcDbMText
 10
2532.800088449528
 20
1063.909163386517
 30
0.0
 40
40.0
 41
299.9999999999996
 71
     5
 72
     5
  1
{\fMS Gothic|b0|i0|c128|p49;c～c'}
 73
     1
 44
1.0
1001
ACAD
1000
MTEXTBEGIN
1070
    73
1070
     1
1070
    44
1040
1.0
1070
    74
1070
     0
1000
MTEXTEND
1000
ACAD_MTEXT_DEFINED_HEIGHT_BEGIN
1070
    46
1040
50.0
1000
ACAD_MTEXT_DEFINED_HEIGHT_END
  0
DIMENSION
  5
1A4E
330
1F
100
AcDbEntity
  8
寸法
100
AcDbDimension
  2
*D28
 10
1101.316764934039
 20
1718.909163386517
 30
0.0
 11
1081.316764934039
 21
1788.909163386517
 31
0.0
 70
    32
 71
     5
 42
140.0000000000002
  3
ISO-25
100
AcDbAlignedDimension
 13
1222.800088449528
 23
1858.909163386517
 33
0.0
 14
1222.800088449527
 24
1718.909163386517
 34
0.0
 50
90.0
100
AcDbRotatedDimension
1001
ACAD
1000
DSTYLE
1002
{
1070
    41
1040
20.0
1070
    42
1040
50.0
1070
    44
1040
10.0
1070
    77
1070
     2
1070
   140
1040
20.0
1070
   147
1040
10.0
1002
}
  0
MTEXT
  5
1A7B
330
1F
100
AcDbEntity
  8
題
100
AcDbMText
 10
3632.800088449528
 20
388.9091633865173
 30
0.0
 40
30.0
 41
600.0
 71
     5
 72
     5
  1
900\U+00D7600
 73
     1
 44
1.0
1001
ACAD
1000
MTEXTBEGIN
1070
    73
1070
     1
1070
    44
1040
1.0
1070
    74
1070
     0
1000
MTEXTEND
  0
LINE
  5
1F8F
330
1F
100
AcDbEntity
  8
図
100
AcDbLine
 10
1372.800088449527
 20
1718.909163386517
 30
0.0
 11
797.8000884495275
 21
1718.909163386517
 31
0.0
  0
LINE
  5
1F90
330
1F
100
AcDbEntity
  8
図
100
AcDbLine
 10
797.8000884495275
 20
1718.909163386517
 30
0.0
 11
782.8000884495275
 21
1733.909163386517
 31
0.0
  0
LINE
  5
1F91
330
1F
100
AcDbEntity
  8
図
100
AcDbLine
 10
782.8000884495281
 20
1733.909163386516
 30
0.0
 11
782.8000884495281
 21
2348.909163386517
 31
0.0
  0
LINE
  5
1F92
330
1F
100
AcDbEntity
  8
図
100
AcDbLine
 10
1372.800088449527
 20
1858.909163386517
 30
0.0
 11
1084.096956127597
 21
1858.909163386517
 31
0.0
  0
LINE
  5
1F93
330
1F
100
AcDbEntity
  8
図
100
AcDbLine
 10
934.1438091663787
 20
2005.160334712487
 30
0.0
 11
922.8000884495282
 21
2458.909163386517
 31
0.0
  0
LINE
  5
1F94
102
{ACAD_REACTORS
330
23BF
330
23FF
102
}
330
1F
100
AcDbEntity
  8
図
100
AcDbLine
 10
922.8000884495282
 20
2458.909163386517
 30
0.0
 11
822.8000884495282
 21
2458.909163386517
 31
0.0
  0
LINE
  5
1F95
330
1F
100
AcDbEntity
  8
図
100
AcDbLine
 10
822.8000884495282
 20
2458.909163386517
 30
0.0
 11
782.8000884495281
 21
2348.909163386517
 31
0.0
  0
DIMENSION
  5
1FEE
330
1F
100
AcDbEntity
  8
寸法
100
AcDbDimension
  2
*D29
 10
715.8948373019663
 20
1718.909163386517
 30
0.0
 11
715.8948373019661
 21
1726.409163386517
 31
0.0
 70
   160
 71
     5
 42
15.0
  3
ISO-25
100
AcDbAlignedDimension
 13
782.8000884495275
 23
1733.909163386517
 33
0.0
 14
797.8000884495275
 24
1718.909163386517
 34
0.0
 50
90.0
100
AcDbRotatedDimension
1001
ACAD
1000
DSTYLE
1002
{
1070
    41
1040
20.0
1070
    42
1040
30.0
1070
    44
1040
10.0
1070
   140
1040
20.0
1070
   147
1040
10.0
1002
}
  0
ARC
  5
2065
102
{ACAD_REACTORS
330
20AF
102
}
330
1F
100
AcDbEntity
  8
図
100
AcDbCircle
 10
1084.096956127598
 20
2008.909163386519
 30
0.0
 40
150.0000000000009
100
AcDbArc
 50
181.4320961841649
 51
270.0
  0
LINE
  5
2081
330
1F
100
AcDbEntity
  8
センター
 48
0.25
100
AcDbLine
 10
927.8000884495282
 20
1858.909163386517
 30
0.0
 11
947.8000884495282
 21
1858.909163386517
 31
0.0
  0
LINE
  5
2082
330
1F
100
AcDbEntity
  8
センター
 48
0.25
100
AcDbLine
 10
937.8000884495282
 20
1868.909163386517
 30
0.0
 11
937.8000884495282
 21
1848.909163386517
 31
0.0
  0
LINE
  5
208C
330
1F
100
AcDbEntity
  8
センター
 48
0.25
100
AcDbLine
 10
1817.800088449528
 20
1858.909163386517
 30
0.0
 11
1797.800088449528
 21
1858.909163386517
 31
0.0
  0
LINE
  5
208D
330
1F
100
AcDbEntity
  8
センター
 48
0.25
100
AcDbLine
 10
1807.800088449528
 20
1868.909163386517
 30
0.0
 11
1807.800088449528
 21
1848.909163386517
 31
0.0
  0
DIMENSION
  5
20A0
102
{ACAD_XDICTIONARY
360
20A9
102
}
102
{ACAD_REACTORS
330
20AF
102
}
330
1F
100
AcDbEntity
  8
寸法
100
AcDbDimension
  2
*D30
 10
1084.096956127598
 20
2008.909163386519
 30
0.0
 11
1039.328784665571
 21
1968.338429660622
 31
0.0
 70
   164
 71
     5
 42
150.0
  3
ISO-25
100
AcDbRadialDimension
 15
972.9483924977365
 25
1908.181824480844
 35
0.0
 40
0.0
1001
ACAD
1000
DSTYLE
1002
{
1070
    41
1040
20.0
1070
    42
1040
30.0
1070
    44
1040
10.0
1070
   140
1040
25.0
1070
   147
1040
10.0
1002
}
  0
LEADER
  5
20B5
330
1F
100
AcDbEntity
  8
図
100
AcDbLeader
  3
ISO-25
 76
     3
 10
775.712780534533
 20
2428.909163386518
 30
0.0
 10
775.712780534533
 20
2458.909163386517
 30
0.0
 10
805.7127805345331
 20
2458.909163386517
 30
0.0
1001
ACAD
1000
DSTYLE
1002
{
1070
   341
1005
15F8
1070
    41
1040
10.0
1070
   147
1040
0.625
1070
    77
1070
     2
1002
}
  0
MTEXT
  5
20B6
330
1F
100
AcDbEntity
  8
図
100
AcDbMText
 10
790.712780534533
 20
2470.954219547734
 30
0.0
 40
20.0
 41
30.0
 71
     5
 72
     5
  1
{\fMS Gothic|b0|i0|c128|p49;a}
 73
     1
 44
1.0
1001
ACAD
1000
MTEXTBEGIN
1070
    73
1070
     1
1070
    44
1040
1.0
1070
    74
1070
     0
1000
MTEXTEND
  0
LEADER
  5
20B7
330
1F
100
AcDbEntity
  8
図
100
AcDbLeader
  3
ISO-25
 76
     3
 10
969.8873963645233
 20
2428.909163386518
 30
0.0
 10
969.8873963645233
 20
2458.909163386517
 30
0.0
 10
939.8873963645232
 20
2458.909163386517
 30
0.0
211
-1.0
221
0.0
231
0.0
1001
ACAD
1000
DSTYLE
1002
{
1070
   341
1005
15F8
1070
    41
1040
10.0
1070
   147
1040
0.625
1070
    77
1070
     2
1002
}
  0
MTEXT
  5
20B8
330
1F
100
AcDbEntity
  8
図
100
AcDbMText
 10
954.8873963645233
 20
2470.954219547734
 30
0.0
 40
20.0
 41
30.0
 71
     5
 72
     5
  1
{\fMS Gothic|b0|i0|c128|p49;a'}
 73
     1
 44
1.0
1001
ACAD
1000
MTEXTBEGIN
1070
    73
1070
     1
1070
    44
1040
1.0
1070
    74
1070
     0
1000
MTEXTEND
  0
LEADER
  5
20B9
330
1F
100
AcDbEntity
  8
図
100
AcDbLeader
  3
ISO-25
 76
     3
 10
736.5213645268572
 20
2189.703509382036
 30
0.0
 10
736.5213645268572
 20
2219.703509382036
 30
0.0
 10
766.5213645268572
 20
2219.703509382036
 30
0.0
1001
ACAD
1000
DSTYLE
1002
{
1070
   341
1005
15F8
1070
    41
1040
10.0
1070
   147
1040
0.625
1070
    77
1070
     2
1002
}
  0
MTEXT
  5
20BA
330
1F
100
AcDbEntity
  8
図
100
AcDbMText
 10
751.5213645268572
 20
2231.748565543252
 30
0.0
 40
20.0
 41
30.0
 71
     5
 72
     5
  1
{\fMS Gothic|b0|i0|c128|p49;b}
 73
     1
 44
1.0
1001
ACAD
1000
MTEXTBEGIN
1070
    73
1070
     1
1070
    44
1040
1.0
1070
    74
1070
     0
1000
MTEXTEND
  0
LEADER
  5
20BB
330
1F
100
AcDbEntity
  8
図
100
AcDbLeader
  3
ISO-25
 76
     3
 10
969.8873963645233
 20
2189.703509382036
 30
0.0
 10
969.8873963645233
 20
2219.703509382036
 30
0.0
 10
939.8873963645232
 20
2219.703509382036
 30
0.0
211
-1.0
221
0.0
231
0.0
1001
ACAD
1000
DSTYLE
1002
{
1070
   341
1005
15F8
1070
    41
1040
10.0
1070
   147
1040
0.625
1070
    77
1070
     2
1002
}
  0
MTEXT
  5
20BC
330
1F
100
AcDbEntity
  8
図
100
AcDbMText
 10
954.8873963645233
 20
2231.748565543252
 30
0.0
 40
20.0
 41
30.0
 71
     5
 72
     5
  1
{\fMS Gothic|b0|i0|c128|p49;b'}
 73
     1
 44
1.0
1001
ACAD
1000
MTEXTBEGIN
1070
    73
1070
     1
1070
    44
1040
1.0
1070
    74
1070
     0
1000
MTEXTEND
  0
LINE
  5
2106
330
1F
100
AcDbEntity
  8
図
100
AcDbLine
 10
877.7860281461073
 20
2458.909163386517
 30
0.0
 11
892.8672527829819
 21
1855.66017791152
 31
0.0
  0
LINE
  5
2107
330
1F
100
AcDbEntity
  8
図
100
AcDbLine
 10
892.8672527829819
 20
1855.66017791152
 30
0.0
 11
822.889156563008
 21
1853.909163386517
 31
0.0
  0
LINE
  5
2108
330
1F
100
AcDbEntity
  8
図
100
AcDbLine
 10
822.889156563008
 20
1853.909163386517
 30
0.0
 11
810.8891565630083
 21
2333.909163386517
 31
0.0
  0
LINE
  5
2109
330
1F
100
AcDbEntity
  8
図
100
AcDbLine
 10
782.8000884495281
 20
2348.909163386517
 30
0.0
 11
820.5172810748795
 21
2348.909163386517
 31
0.0
  0
LINE
  5
210B
330
1F
100
AcDbEntity
  8
図
100
AcDbLine
 10
782.8000884495281
 20
2333.909163386517
 30
0.0
 11
810.8891565630083
 21
2333.909163386517
 31
0.0
  0
LINE
  5
210C
330
1F
100
AcDbEntity
  8
図
100
AcDbLine
 10
820.5172810748795
 20
2348.909163386517
 30
0.0
 11
810.8891565630083
 21
2333.909163386517
 31
0.0
  0
LINE
  5
210D
330
1F
100
AcDbEntity
  8
図
100
AcDbLine
 10
820.5172810748795
 20
2348.909163386517
 30
0.0
 11
832.7610330270893
 21
1859.159085298119
 31
0.0
  0
LINE
  5
210E
330
1F
100
AcDbEntity
  8
図
100
AcDbLine
 10
832.7610330270893
 20
1859.159085298119
 30
0.0
 11
887.7438535795361
 21
1860.533655811931
 31
0.0
  0
LINE
  5
210F
330
1F
100
AcDbEntity
  8
図
100
AcDbLine
 10
887.7438535795361
 20
1860.533655811931
 30
0.0
 11
872.7844658901718
 21
2458.909163386517
 31
0.0
  0
LINE
  5
2110
330
1F
100
AcDbEntity
  8
図
100
AcDbLine
 10
822.889156563008
 20
1853.909163386517
 30
0.0
 11
832.7610330270893
 21
1859.159085298119
 31
0.0
  0
LINE
  5
2111
330
1F
100
AcDbEntity
  8
図
100
AcDbLine
 10
892.8672527829819
 20
1855.66017791152
 30
0.0
 11
887.7438535795361
 21
1860.533655811931
 31
0.0
  0
DIMENSION
  5
2115
330
1F
100
AcDbEntity
  8
寸法
100
AcDbDimension
  2
*D31
 10
782.8000884495281
 20
2567.755376642237
 30
0.0
 11
802.8000884495281
 21
2567.755376642237
 31
0.0
 70
   160
 71
     5
 42
40.0
  3
ISO-25
100
AcDbAlignedDimension
 13
822.8000884495282
 23
2458.909163386517
 33
0.0
 14
782.8000884495281
 24
2458.909163386517
 34
0.0
100
AcDbRotatedDimension
1001
ACAD
1000
DSTYLE
1002
{
1070
    41
1040
20.0
1070
    42
1040
30.0
1070
    44
1040
10.0
1070
   140
1040
20.0
1070
   147
1040
10.0
1002
}
  0
DIMENSION
  5
2118
330
1F
100
AcDbEntity
  8
寸法
100
AcDbDimension
  2
*D32
 10
690.8948373019661
 20
2348.909163386517
 30
0.0
 11
670.8948373019657
 21
2403.909163386517
 31
0.0
 70
    33
 71
     5
 42
110.0
  3
ISO-25
100
AcDbAlignedDimension
 13
782.8000884495281
 23
2458.909163386517
 33
0.0
 14
782.8000884495281
 24
2348.909163386517
 34
0.0
1001
ACAD
1000
DSTYLE
1002
{
1070
    41
1040
20.0
1070
    42
1040
30.0
1070
    44
1040
10.0
1070
   140
1040
20.0
1070
   147
1040
10.0
1002
}
  0
DIMENSION
  5
2167
330
1F
100
AcDbEntity
  8
寸法
100
AcDbDimension
  2
*D33
 10
690.8948373019663
 20
2333.909163386518
 30
0.0
 11
690.8948373019659
 21
2341.409163386518
 31
0.0
 70
   160
 71
     5
 42
15.0
  3
ISO-25
100
AcDbAlignedDimension
 13
782.8000884495281
 23
2348.909163386518
 33
0.0
 14
782.4032630527028
 24
2333.909163386518
 34
0.0
 50
90.0
100
AcDbRotatedDimension
1001
ACAD
1000
DSTYLE
1002
{
1070
    41
1040
0.0
1070
    42
1040
30.0
1070
    44
1040
10.0
1070
   140
1040
15.0
1070
   147
1040
15.0
1002
}
  0
DIMENSION
  5
2182
330
1F
100
AcDbEntity
  8
寸法
100
AcDbDimension
  2
*D34
 10
690.8948373019661
 20
1858.909163386517
 30
0.0
 11
670.8948373019658
 21
2096.409163386518
 31
0.0
 70
    32
 71
     5
 42
474.9999999999998
  3
ISO-25
100
AcDbAlignedDimension
 13
782.8000884495281
 23
2333.909163386517
 33
0.0
 14
822.7641565630081
 24
1858.909163386517
 34
0.0
 50
90.0
100
AcDbRotatedDimension
1001
ACAD
1000
DSTYLE
1002
{
1070
    41
1040
20.0
1070
    42
1040
30.0
1070
    44
1040
10.0
1070
   140
1040
20.0
1070
   147
1040
10.0
1002
}
  0
DIMENSION
  5
21C3
330
1F
100
AcDbEntity
  8
寸法
100
AcDbDimension
  2
*D35
 10
690.8948373019661
 20
1853.909163386517
 30
0.0
 11
690.8948373019657
 21
1856.409163386517
 31
0.0
 70
   160
 71
     5
 42
5.0
  3
ISO-25
100
AcDbAlignedDimension
 13
822.7641565630081
 23
1858.909163386517
 33
0.0
 14
822.8000884495282
 24
1853.909163386517
 34
0.0
 50
90.0
100
AcDbRotatedDimension
1001
ACAD
1000
DSTYLE
1002
{
1070
    41
1040
20.0
1070
    42
1040
30.0
1070
    44
1040
10.0
1070
   140
1040
15.0
1070
   147
1040
15.0
1002
}
  0
DIMENSION
  5
23A8
102
{ACAD_XDICTIONARY
360
23B5
102
}
102
{ACAD_REACTORS
330
23BF
102
}
330
1F
100
AcDbEntity
  8
寸法
100
AcDbDimension
  2
*D36
 10
1822.800088449528
 20
2567.755376642237
 30
0.0
 11
1372.800088449528
 21
2587.755376642237
 31
0.0
 70
    32
 71
     5
 42
900.0
  3
ISO-25
100
AcDbAlignedDimension
 13
922.8000884495282
 23
2458.909163386517
 33
0.0
 14
1822.800088449528
 24
2458.909163386517
 34
0.0
100
AcDbRotatedDimension
1001
ACAD
1000
DSTYLE
1002
{
1070
    41
1040
20.0
1070
    42
1040
30.0
1070
    44
1040
10.0
1070
   140
1040
20.0
1070
   147
1040
10.0
1002
}
  0
DIMENSION
  5
23E8
102
{ACAD_XDICTIONARY
360
23F5
102
}
102
{ACAD_REACTORS
330
23FF
102
}
330
1F
100
AcDbEntity
  8
寸法
100
AcDbDimension
  2
*D37
 10
922.8000884495282
 20
2567.755376642237
 30
0.0
 11
872.8000884495282
 21
2587.755376642237
 31
0.0
 70
    32
 71
     5
 42
100.0
  3
ISO-25
100
AcDbAlignedDimension
 13
822.8000884495282
 23
2458.909163386517
 33
0.0
 14
922.8000884495282
 24
2458.909163386517
 34
0.0
100
AcDbRotatedDimension
1001
ACAD
1000
DSTYLE
1002
{
1070
    41
1040
20.0
1070
    42
1040
30.0
1070
    44
1040
10.0
1070
   140
1040
20.0
1070
   147
1040
10.0
1002
}
  0
LINE
  5
245C
330
1F
100
AcDbEntity
  8
図
100
AcDbLine
 10
1372.800088449527
 20
1718.909163386517
 30
0.0
 11
1947.800088449529
 21
1718.909163386517
 31
0.0
  0
LINE
  5
245D
102
{ACAD_REACTORS
330
4379
102
}
330
1F
100
AcDbEntity
  8
図
100
AcDbLine
 10
1947.800088449529
 20
1718.909163386517
 30
0.0
 11
1962.800088449529
 21
1733.909163386517
 31
0.0
  0
LINE
  5
245E
102
{ACAD_REACTORS
330
4379
102
}
330
1F
100
AcDbEntity
  8
図
100
AcDbLine
 10
1962.800088449528
 20
1733.909163386516
 30
0.0
 11
1962.800088449528
 21
2348.909163386517
 31
0.0
  0
LINE
  5
245F
330
1F
100
AcDbEntity
  8
図
100
AcDbLine
 10
1372.800088449527
 20
1858.909163386517
 30
0.0
 11
1661.503220771459
 21
1858.909163386517
 31
0.0
  0
LINE
  5
2460
330
1F
100
AcDbEntity
  8
図
100
AcDbLine
 10
1811.456367732677
 20
2005.160334712487
 30
0.0
 11
1822.800088449528
 21
2458.909163386517
 31
0.0
  0
LINE
  5
2461
330
1F
100
AcDbEntity
  8
図
100
AcDbLine
 10
1822.800088449528
 20
2458.909163386517
 30
0.0
 11
1922.800088449528
 21
2458.909163386517
 31
0.0
  0
LINE
  5
2462
330
1F
100
AcDbEntity
  8
図
100
AcDbLine
 10
1922.800088449528
 20
2458.909163386517
 30
0.0
 11
1962.800088449528
 21
2348.909163386517
 31
0.0
  0
ARC
  5
2463
330
1F
100
AcDbEntity
  8
図
100
AcDbCircle
 10
1661.503220771458
 20
2008.909163386519
 30
0.0
 40
150.0000000000009
100
AcDbArc
 50
270.0
 51
358.567903815835
  0
DIMENSION
  5
270C
330
1F
100
AcDbEntity
  8
寸法
100
AcDbDimension
  2
*D38
 10
1962.800088449528
 20
1583.452364950199
 30
0.0
 11
1372.800088449528
 21
1563.452364950199
 31
0.0
 70
    32
 71
     5
 42
1180.0
  3
ISO-25
100
AcDbAlignedDimension
 13
782.8000884495281
 23
1733.909163386517
 33
0.0
 14
1962.800088449528
 24
1733.909163386516
 34
0.0
100
AcDbRotatedDimension
1001
ACAD
1000
DSTYLE
1002
{
1070
    41
1040
20.0
1070
    42
1040
30.0
1070
    44
1040
10.0
1070
   140
1040
20.0
1070
   147
1040
10.0
1002
}
  0
DIMENSION
  5
2AA5
330
1F
100
AcDbEntity
  8
寸法
100
AcDbDimension
  2
*D39
 10
1962.800088449528
 20
2567.755376642237
 30
0.0
 11
1942.800088449528
 21
2567.755376642237
 31
0.0
 70
   160
 71
     5
 42
40.0
  3
ISO-25
100
AcDbAlignedDimension
 13
1922.800088449528
 23
2458.909163386517
 33
0.0
 14
1962.800088449528
 24
2458.909163386517
 34
0.0
 50
180.0
100
AcDbRotatedDimension
1001
ACAD
1000
DSTYLE
1002
{
1070
    41
1040
20.0
1070
    42
1040
30.0
1070
    44
1040
10.0
1070
   140
1040
20.0
1070
   147
1040
10.0
1002
}
  0
DIMENSION
  5
2AA6
330
1F
100
AcDbEntity
  8
寸法
100
AcDbDimension
  2
*D40
 10
1822.800088449528
 20
2567.755376642237
 30
0.0
 11
1872.800088449528
 21
2587.755376642237
 31
0.0
 70
    32
 71
     5
 42
100.0
  3
ISO-25
100
AcDbAlignedDimension
 13
1922.800088449528
 23
2458.909163386517
 33
0.0
 14
1822.800088449528
 24
2458.909163386517
 34
0.0
 50
180.0
100
AcDbRotatedDimension
1001
ACAD
1000
DSTYLE
1002
{
1070
    41
1040
20.0
1070
    42
1040
30.0
1070
    44
1040
10.0
1070
   140
1040
20.0
1070
   147
1040
10.0
1002
}
  0
DIMENSION
  5
34B3
330
1F
100
AcDbEntity
  8
寸法
100
AcDbDimension
  2
*D49
 10
1039.885373667193
 20
918.9091633865173
 30
0.0
 11
1039.885373667193
 21
896.4091633865175
 31
0.0
 70
   160
 71
     5
 42
45.0
  3
ISO-25
100
AcDbAlignedDimension
 13
982.8000884495281
 23
873.9091633865173
 33
0.0
 14
982.8000884495281
 24
918.9091633865173
 34
0.0
 50
90.00000000000003
100
AcDbRotatedDimension
1001
ACAD
1000
DSTYLE
1002
{
1070
    41
1040
20.0
1070
    42
1040
30.0
1070
    44
1040
10.0
1070
    77
1070
     2
1070
   140
1040
20.0
1070
   147
1040
10.0
1002
}
  0
MTEXT
  5
3B30
330
1F
100
AcDbEntity
  8
寸法
100
AcDbMText
 10
3757.800088449529
 20
688.9091633865173
 30
0.0
 40
30.0
 41
850.0000000000005
 71
     5
 72
     5
  1
参考重量113kg
 73
     1
 44
1.0
1001
ACAD
1000
MTEXTBEGIN
1070
    73
1070
     1
1070
    44
1040
1.0
1070
    74
1070
     0
1000
MTEXTEND
  0
DIMENSION
  5
3FDE
330
1F
100
AcDbEntity
  8
寸法
100
AcDbDimension
  2
*D82
 10
2029.70533959709
 20
1718.909163386517
 30
0.0
 11
2029.705339597089
 21
1726.409163386517
 31
0.0
 70
   160
 71
     5
 42
14.99999999999954
  3
ISO-25
100
AcDbAlignedDimension
 13
1962.800088449528
 23
1733.909163386517
 33
0.0
 14
1947.800088449529
 24
1718.909163386517
 34
0.0
 50
90.0
100
AcDbRotatedDimension
1001
ACAD
1000
DSTYLE
1002
{
1070
    41
1040
20.0
1070
    42
1040
30.0
1070
    44
1040
10.0
1070
   140
1040
20.0
1070
   147
1040
10.0
1002
}
  0
LINE
  5
4012
330
1F
100
AcDbEntity
  8
図
100
AcDbLine
 10
1867.814148752949
 20
2458.909163386517
 30
0.0
 11
1852.732924116074
 21
1855.66017791152
 31
0.0
  0
LINE
  5
4013
330
1F
100
AcDbEntity
  8
図
100
AcDbLine
 10
1852.732924116074
 20
1855.66017791152
 30
0.0
 11
1922.711020336048
 21
1853.909163386517
 31
0.0
  0
LINE
  5
4014
330
1F
100
AcDbEntity
  8
図
100
AcDbLine
 10
1922.711020336048
 20
1853.909163386517
 30
0.0
 11
1934.711020336048
 21
2333.909163386517
 31
0.0
  0
LINE
  5
4015
330
1F
100
AcDbEntity
  8
図
100
AcDbLine
 10
1962.800088449528
 20
2348.909163386517
 30
0.0
 11
1925.082895824177
 21
2348.909163386517
 31
0.0
  0
LINE
  5
4016
330
1F
100
AcDbEntity
  8
図
100
AcDbLine
 10
1962.800088449528
 20
2333.909163386517
 30
0.0
 11
1934.711020336048
 21
2333.909163386517
 31
0.0
  0
LINE
  5
4017
330
1F
100
AcDbEntity
  8
図
100
AcDbLine
 10
1925.082895824177
 20
2348.909163386517
 30
0.0
 11
1934.711020336048
 21
2333.909163386517
 31
0.0
  0
LINE
  5
4018
330
1F
100
AcDbEntity
  8
図
100
AcDbLine
 10
1925.082895824177
 20
2348.909163386517
 30
0.0
 11
1912.839143871967
 21
1859.159085298119
 31
0.0
  0
LINE
  5
4019
330
1F
100
AcDbEntity
  8
図
100
AcDbLine
 10
1912.839143871967
 20
1859.159085298119
 30
0.0
 11
1857.85632331952
 21
1860.533655811931
 31
0.0
  0
LINE
  5
401A
330
1F
100
AcDbEntity
  8
図
100
AcDbLine
 10
1857.85632331952
 20
1860.533655811931
 30
0.0
 11
1872.815711008884
 21
2458.909163386517
 31
0.0
  0
LINE
  5
401B
330
1F
100
AcDbEntity
  8
図
100
AcDbLine
 10
1922.711020336048
 20
1853.909163386517
 30
0.0
 11
1912.839143871967
 21
1859.159085298119
 31
0.0
  0
LINE
  5
401C
330
1F
100
AcDbEntity
  8
図
100
AcDbLine
 10
1852.732924116074
 20
1855.66017791152
 30
0.0
 11
1857.85632331952
 21
1860.533655811931
 31
0.0
  0
DIMENSION
  5
4362
102
{ACAD_XDICTIONARY
360
436F
102
}
102
{ACAD_REACTORS
330
4379
102
}
330
1F
100
AcDbEntity
  8
寸法
100
AcDbDimension
  2
*D85
 10
1962.800088449528
 20
1642.509730001299
 30
0.0
 11
1884.466755116196
 21
1642.509730001299
 31
0.0
 70
   160
 71
     5
 42
14.99999999999909
  3
ISO-25
100
AcDbAlignedDimension
 13
1947.800088449529
 23
1718.909163386517
 33
0.0
 14
1962.800088449528
 24
1733.909163386516
 34
0.0
100
AcDbRotatedDimension
1001
ACAD
1000
DSTYLE
1002
{
1070
    41
1040
20.0
1070
    42
1040
30.0
1070
    44
1040
10.0
1070
   140
1040
20.0
1070
   147
1040
10.0
1002
}
  0
DIMENSION
  5
4390
330
1F
100
AcDbEntity
  8
寸法
100
AcDbDimension
  2
*D86
 10
782.8000884495268
 20
1642.509730001299
 30
0.0
 11
861.1334217828593
 21
1642.509730001299
 31
0.0
 70
   160
 71
     5
 42
14.99999999999909
  3
ISO-25
100
AcDbAlignedDimension
 13
797.8000884495259
 23
1718.909163386517
 33
0.0
 14
782.8000884495268
 24
1733.909163386516
 34
0.0
 50
180.0
100
AcDbRotatedDimension
1001
ACAD
1000
DSTYLE
1002
{
1070
    41
1040
20.0
1070
    42
1040
30.0
1070
    44
1040
10.0
1070
   140
1040
20.0
1070
   147
1040
10.0
1002
}
  0
ENDSEC
  0
SECTION
  2
OBJECTS
  0
DICTIONARY
  5
C
330
0
100
AcDbDictionary
281
     1
  3
ACAD_2007HEADERVARS_RT
350
498C
  3
ACAD_CIP_PREVIOUS_PRODUCT_INFO
350
4721
  3
ACAD_COLOR
350
6B
  3
ACAD_GROUP
350
D
  3
ACAD_LAYOUT
350
1A
  3
ACAD_MATERIAL
350
6A
  3
ACAD_MLEADERSTYLE
350
471A
  3
ACAD_MLINESTYLE
350
17
  3
ACAD_PLOTSETTINGS
350
19
  3
ACAD_PLOTSTYLENAME
350
E
  3
ACAD_SCALELIST
350
4708
  3
ACAD_TABLESTYLE
350
7E
  3
ACAD_VISUALSTYLE
350
46EF
  3
ACDB_RECOMPOSE_DATA
350
498A
  3
AcDbVariableDictionary
350
5E
  3
DWGPROPS
350
498B
  0
DICTIONARY
  5
101
330
2
100
AcDbDictionary
280
     1
281
     1
  3
ACAD_LAYERFILTERS
360
1F97
  3
ACAD_LAYERSTATES
360
102
  3
ACLYDICTIONARY
360
1F96
  0
DICTIONARY
  5
4726
330
10
100
AcDbDictionary
280
     1
281
     1
  3
ADSK_XREC_LAYER_RECONCILED
360
4727
  0
DICTIONARY
  5
4728
330
FC
100
AcDbDictionary
280
     1
281
     1
  3
ADSK_XREC_LAYER_RECONCILED
360
4729
  0
DICTIONARY
  5
472A
330
FE
100
AcDbDictionary
280
     1
281
     1
  3
ADSK_XREC_LAYER_RECONCILED
360
472B
  0
DICTIONARY
  5
472C
330
FF
100
AcDbDictionary
280
     1
281
     1
  3
ADSK_XREC_LAYER_RECONCILED
360
472D
  0
DICTIONARY
  5
472E
330
14B
100
AcDbDictionary
280
     1
281
     1
  3
ADSK_XREC_LAYER_RECONCILED
360
472F
  0
DICTIONARY
  5
4730
330
14F
100
AcDbDictionary
280
     1
281
     1
  3
ADSK_XREC_LAYER_RECONCILED
360
4731
  0
DICTIONARY
  5
4732
330
1E1
100
AcDbDictionary
280
     1
281
     1
  3
ADSK_XREC_LAYER_RECONCILED
360
4733
  0
DICTIONARY
  5
4734
330
1E2
100
AcDbDictionary
280
     1
281
     1
  3
ADSK_XREC_LAYER_RECONCILED
360
4735
  0
DICTIONARY
  5
4736
330
201
100
AcDbDictionary
280
     1
281
     1
  3
ADSK_XREC_LAYER_RECONCILED
360
4737
  0
DICTIONARY
  5
4738
330
9B7
100
AcDbDictionary
280
     1
281
     1
  3
ADSK_XREC_LAYER_RECONCILED
360
4739
  0
DICTIONARY
  5
1A0
330
1F
100
AcDbDictionary
280
     1
281
     1
  3
ACAD_SORTENTS
360
1A1
  0
DICTIONARY
  5
9D9
330
9CC
100
AcDbDictionary
280
     1
281
     1
  3
ACAD_DIMASSOC
360
9E3
  0
DICTIONARY
  5
A8B
330
A7E
100
AcDbDictionary
280
     1
281
     1
  3
ACAD_DIMASSOC
360
A95
  0
DICTIONARY
  5
DDB
330
DCE
100
AcDbDictionary
280
     1
281
     1
  3
ACAD_DIMASSOC
360
DE5
  0
DICTIONARY
  5
E05
330
DF8
100
AcDbDictionary
280
     1
281
     1
  3
ACAD_DIMASSOC
360
E0F
  0
DICTIONARY
  5
E65
330
E58
100
AcDbDictionary
280
     1
281
     1
  3
ACAD_DIMASSOC
360
E6F
  0
DICTIONARY
  5
E86
330
E79
100
AcDbDictionary
280
     1
281
     1
  3
ACAD_DIMASSOC
360
E90
  0
DICTIONARY
  5
EA7
330
E9A
100
AcDbDictionary
280
     1
281
     1
  3
ACAD_DIMASSOC
360
EB1
  0
DICTIONARY
  5
EE0
330
ED3
100
AcDbDictionary
280
     1
281
     1
  3
ACAD_DIMASSOC
360
EEA
  0
DICTIONARY
  5
F1B
330
F0C
100
AcDbDictionary
280
     1
281
     1
  3
ACAD_DIMASSOC
360
F27
  0
DICTIONARY
  5
FD5
330
FC8
100
AcDbDictionary
280
     1
281
     1
  3
ACAD_DIMASSOC
360
FDF
  0
DICTIONARY
  5
1009
330
FFC
100
AcDbDictionary
280
     1
281
     1
  3
ACAD_DIMASSOC
360
1013
  0
DICTIONARY
  5
10D9
330
10CC
100
AcDbDictionary
280
     1
281
     1
  3
ACAD_DIMASSOC
360
10E3
  0
DICTIONARY
  5
11E5
330
11D8
100
AcDbDictionary
280
     1
281
     1
  3
ACAD_DIMASSOC
360
11EF
  0
DICTIONARY
  5
20A9
330
20A0
100
AcDbDictionary
280
     1
281
     1
  3
ACAD_DIMASSOC
360
20AF
  0
DICTIONARY
  5
23B5
330
23A8
100
AcDbDictionary
280
     1
281
     1
  3
ACAD_DIMASSOC
360
23BF
  0
DICTIONARY
  5
23F5
330
23E8
100
AcDbDictionary
280
     1
281
     1
  3
ACAD_DIMASSOC
360
23FF
  0
DICTIONARY
  5
436F
330
4362
100
AcDbDictionary
280
     1
281
     1
  3
ACAD_DIMASSOC
360
4379
  0
DICTIONARY
  5
498C
102
{ACAD_REACTORS
330
C
102
}
330
C
100
AcDbDictionary
281
     1
  3
DIMFXL
350
498D
  3
DIMJOGANG
350
498E
  0
XRECORD
  5
4721
102
{ACAD_REACTORS
330
C
102
}
330
C
100
AcDbXrecord
280
     1
300
ACD
300
2012
300
ACD_F_S
  0
DICTIONARY
  5
6B
102
{ACAD_REACTORS
330
C
102
}
330
C
100
AcDbDictionary
281
     1
  0
DICTIONARY
  5
D
102
{ACAD_REACTORS
330
C
102
}
330
C
100
AcDbDictionary
281
     1
  0
DICTIONARY
  5
1A
102
{ACAD_REACTORS
330
C
102
}
330
C
100
AcDbDictionary
281
     1
  3
Model
350
22
  3
レイアウト1
350
D3
  3
レイアウト2
350
D7
  0
DICTIONARY
  5
6A
102
{ACAD_REACTORS
330
C
102
}
330
C
100
AcDbDictionary
281
     1
  3
ByBlock
350
46DF
  3
ByLayer
350
46D7
  3
Global
350
46E7
  0
DICTIONARY
  5
471A
102
{ACAD_REACTORS
330
C
102
}
330
C
100
AcDbDictionary
281
     1
  3
Standard
350
471B
  0
DICTIONARY
  5
17
102
{ACAD_REACTORS
330
C
102
}
330
C
100
AcDbDictionary
281
     1
  3
Standard
350
18
  0
DICTIONARY
  5
19
102
{ACAD_REACTORS
330
C
102
}
330
C
100
AcDbDictionary
281
     1
  0
ACDBDICTIONARYWDFLT
  5
E
102
{ACAD_REACTORS
330
C
102
}
330
C
100
AcDbDictionary
281
     1
  3
Normal
350
F
100
AcDbDictionaryWithDefault
340
F
  0
DICTIONARY
  5
4708
102
{ACAD_REACTORS
330
C
102
}
330
C
100
AcDbDictionary
281
     1
  3
A0
350
4709
  3
A1
350
470A
  3
A2
350
470B
  3
A3
350
470C
  3
A4
350
470D
  3
A5
350
470E
  3
A6
350
470F
  3
A7
350
4710
  3
A8
350
4711
  3
A9
350
4712
  3
B0
350
4713
  3
B1
350
4714
  3
B2
350
4715
  3
B3
350
4716
  3
B4
350
4717
  3
B5
350
4718
  3
B6
350
4719
  0
DICTIONARY
  5
7E
102
{ACAD_REACTORS
330
C
102
}
330
C
100
AcDbDictionary
281
     1
  3
Standard
350
7F
  0
DICTIONARY
  5
46EF
102
{ACAD_REACTORS
330
C
102
}
330
C
100
AcDbDictionary
281
     1
  3
2dWireframe
350
46F5
  3
Basic
350
46F4
  3
Brighten
350
46FB
  3
ColorChange
350
46FF
  3
Conceptual
350
46F8
  3
Dim
350
46FA
  3
EdgeColorOff
350
4707
  3
Facepattern
350
46FE
  3
Flat
350
46F0
  3
FlatWithEdges
350
46F1
  3
Gouraud
350
46F2
  3
GouraudWithEdges
350
46F3
  3
Hidden
350
46F7
  3
JitterOff
350
4705
  3
Linepattern
350
46FD
  3
OverhangOff
350
4706
  3
Realistic
350
46F9
  3
Shaded
350
4704
  3
Shaded with edges
350
4703
  3
Shades of Gray
350
4700
  3
Sketchy
350
4701
  3
Thicken
350
46FC
  3
Wireframe
350
46F6
  3
X-Ray
350
4702
  0
XRECORD
  5
498A
102
{ACAD_REACTORS
330
C
102
}
330
C
100
AcDbXrecord
280
     1
 90
        1
330
7F
  0
DICTIONARY
  5
5E
102
{ACAD_REACTORS
330
C
102
}
330
C
100
AcDbDictionary
281
     1
  3
CANNOSCALE
350
4750
  3
CMLEADERSTYLE
350
474E
  3
CTABLESTYLE
350
84
  3
DIMASSOC
350
5F
  3
HIDETEXT
350
63
  3
INDEXCTL
350
4984
  3
LAYEREVAL
350
4752
  3
LAYERNOTIFY
350
4753
  3
LIGHTINGUNITS
350
4751
  3
MSLTSCALE
350
474F
  3
SORTENTS
350
4983
  3
XCLIPFRAME
350
4985
  0
XRECORD
  5
498B
102
{ACAD_REACTORS
330
C
102
}
330
C
100
AcDbXrecord
280
     1
  1
DWGPROPS COOKIE
  2

  3

  4

  6

  7

  8
tom
  9

300
=
301
=
302
=
303
=
304
=
305
=
306
=
307
=
308
=
309
=
 40
0.8590779745370371
 41
2454427.395492431
 42
2457029.362234815
  1

 90
        0
  0
DICTIONARY
  5
1F97
102
{ACAD_REACTORS
330
101
102
}
330
101
100
AcDbDictionary
281
     1
  0
DICTIONARY
  5
102
102
{ACAD_REACTORS
330
101
102
}
330
101
100
AcDbDictionary
281
     1
  0
DICTIONARY
  5
1F96
102
{ACAD_REACTORS
330
101
102
}
330
101
100
AcDbDictionary
281
     1
1001
ACAD
1000
<All
  0
XRECORD
  5
4727
102
{ACAD_REACTORS
330
4726
102
}
330
4726
100
AcDbXrecord
280
     1
290
     1
  0
XRECORD
  5
4729
102
{ACAD_REACTORS
330
4728
102
}
330
4728
100
AcDbXrecord
280
     1
290
     1
  0
XRECORD
  5
472B
102
{ACAD_REACTORS
330
472A
102
}
330
472A
100
AcDbXrecord
280
     1
290
     1
  0
XRECORD
  5
472D
102
{ACAD_REACTORS
330
472C
102
}
330
472C
100
AcDbXrecord
280
     1
290
     1
  0
XRECORD
  5
472F
102
{ACAD_REACTORS
330
472E
102
}
330
472E
100
AcDbXrecord
280
     1
290
     1
  0
XRECORD
  5
4731
102
{ACAD_REACTORS
330
4730
102
}
330
4730
100
AcDbXrecord
280
     1
290
     1
  0
XRECORD
  5
4733
102
{ACAD_REACTORS
330
4732
102
}
330
4732
100
AcDbXrecord
280
     1
290
     1
  0
XRECORD
  5
4735
102
{ACAD_REACTORS
330
4734
102
}
330
4734
100
AcDbXrecord
280
     1
290
     1
  0
XRECORD
  5
4737
102
{ACAD_REACTORS
330
4736
102
}
330
4736
100
AcDbXrecord
280
     1
290
     1
  0
XRECORD
  5
4739
102
{ACAD_REACTORS
330
4738
102
}
330
4738
100
AcDbXrecord
280
     1
290
     1
  0
SORTENTSTABLE
  5
1A1
102
{ACAD_REACTORS
330
1A0
102
}
330
1A0
100
AcDbSortentsTable
330
1F
331
4390
  5
4600
331
AB8
  5
1F0F
331
2462
  5
2A9D
331
9C2
  5
1229
331
9CA
  5
1233
331
2115
  5
2577
331
10CA
  5
20BB
331
1043
  5
20B8
331
4012
  5
401A
331
401A
  5
416A
331
D10
  5
1F8E
331
18C
  5
103A
331
AA1
  5
15F7
331
125
  5
AF1
331
12D
  5
BA7
331
1609
  5
2206
331
3B30
  5
3C70
331
FFC
  5
208C
331
9AB
  5
118E
331
135
  5
E79
331
20B6
  5
24CD
331
1611
  5
220A
331
2106
  5
24D8
331
1F90
  5
2212
331
210E
  5
2570
331
AB9
  5
1F17
331
DF8
  5
1FF1
331
2463
  5
2A9E
331
9CB
  5
1236
331
10CB
  5
20BC
331
4013
  5
401B
331
401B
  5
421F
331
126
  5
AF2
331
12E
  5
BC3
331
E58
  5
2081
331
AB2
  5
1615
331
136
  5
E9A
331
20B7
  5
24CE
331
1612
  5
220B
331
245C
  5
268C
331
2107
  5
24D9
331
1F91
  5
2213
331
210F
  5
2574
331
4362
  5
45FF
331
ABA
  5
1F18
331
9BC
  5
1199
331
9CC
  5
1286
331
10CC
  5
2201
331
20A0
  5
2493
331
4014
  5
401C
331
401C
  5
4232
331
127
  5
AF5
331
AAB
  5
15FF
331
9A5
  5
10C9
331
12F
  5
D10
331
AB3
  5
1616
331
137
  5
ED3
331
20B8
  5
24CF
331
1613
  5
220C
331
2167
  5
2579
331
245D
  5
268D
331
1F92
  5
2214
331
2108
  5
24DC
331
ABB
  5
1F19
331
9B5
  5
1193
331
78E
  5
1040
331
ACB
  5
1F8C
331
E79
  5
2082
331
2110
  5
2575
331
2081
  5
248F
331
1A7B
  5
220E
331
2118
  5
2578
331
1046
  5
20B9
331
4015
  5
4061
331
128
  5
AF6
331
9A6
  5
10CB
331
130
  5
D87
331
160C
  5
2207
331
AB4
  5
1683
331
20B9
  5
24D3
331
245E
  5
26CE
331
2109
  5
24DE
331
1F93
  5
2215
331
2AA5
  5
2B0B
331
3FDE
  5
4019
331
138
  5
F0C
331
ABC
  5
1F44
331
9B6
  5
1194
331
9BE
  5
11A1
331
9C6
  5
122E
331
977
  5
1046
331
2111
  5
2576
331
2082
  5
2490
331
FC8
  5
2088
331
4016
  5
4079
331
E9A
  5
2084
331
129
  5
B04
331
131
  5
DCE
331
AAD
  5
1602
331
AB5
  5
1848
331
20BA
  5
24D4
331
118E
  5
2202
331
245F
  5
27A9
331
1F94
  5
248B
331
2AA6
  5
2B0C
331
139
  5
FC8
331
ABD
  5
1F4B
331
23A8
  5
2584
331
9BF
  5
11A3
331
A7E
  5
130E
331
9C7
  5
122F
331
1040
  5
20B7
331
34B3
  5
3582
331
4017
  5
40F8
331
23E8
  5
258A
331
AA6
  5
15FE
331
12A
  5
B06
331
E3C
  5
2065
331
132
  5
DF8
331
AAE
  5
1603
331
160E
  5
2208
331
AB6
  5
1A4E
331
20BB
  5
24D5
331
118F
  5
2203
331
1A4E
  5
220D
331
210B
  5
24DF
331
1F95
  5
248C
331
ED3
  5
2085
331
ABE
  5
1F60
331
2460
  5
28AB
331
B06
  5
1F8D
331
9C8
  5
1230
331
270C
  5
2AE3
331
2182
  5
257B
331
208C
  5
2491
331
4018
  5
40F9
331
123
  5
AD9
331
12B
  5
B27
331
DCE
  5
1FEE
331
AAF
  5
1614
331
A00
  5
12F6
331
9A9
  5
10CC
331
133
  5
E3C
331
AB7
  5
1A7C
331
20BC
  5
24D7
331
1190
  5
2204
331
11D8
  5
2205
331
210C
  5
256E
331
2065
  5
248E
331
9B1
  5
1190
331
ABF
  5
1F63
331
9C1
  5
11D8
331
163
  5
FFC
331
2461
  5
2A90
331
9C9
  5
1232
331
103A
  5
20B6
331
10C9
  5
20BA
331
208D
  5
2492
331
1FEE
  5
248D
331
4019
  5
40FA
331
124
  5
AF0
331
12C
  5
B69
331
134
  5
E58
331
1610
  5
2209
331
21C3
  5
2582
331
F0C
  5
2087
331
20B5
  5
2495
331
1F8F
  5
2211
331
210D
  5
256F
  0
DIMASSOC
  5
9E3
102
{ACAD_REACTORS
330
9D9
102
}
330
9D9
100
AcDbDimAssoc
330
9CC
 90
        1
 70
     0
 71
     0
  1
AcDbOsnapPointRef
 72
     1
331
9CA
 73
     2
 91
        2
 40
1.0
 10
0.0
 20
0.0
 30
2.000000000000000E+50
 75
     0
  0
DIMASSOC
  5
A95
102
{ACAD_REACTORS
330
A8B
102
}
330
A8B
100
AcDbDimAssoc
330
A7E
 90
        3
 70
     0
 71
     0
  1
AcDbOsnapPointRef
 72
     1
331
9CA
 73
     2
 91
        3
 40
1.0
 10
0.0
 20
0.0
 30
2.000000000000000E+50
 75
     0
  1
AcDbOsnapPointRef
 72
     1
331
9CA
 73
     2
 91
        2
 40
1.0
 10
0.0
 20
0.0
 30
2.000000000000000E+50
 75
     0
  0
DIMASSOC
  5
DE5
102
{ACAD_REACTORS
330
DDB
102
}
330
DDB
100
AcDbDimAssoc
330
DCE
 90
        3
 70
     0
 71
     0
  1
AcDbOsnapPointRef
 72
    13
331
9A5
 73
     2
 91
        0
 40
0.0
 10
0.0
 20
0.0
 30
2.000000000000000E+50
 75
     0
  1
AcDbOsnapPointRef
 72
    13
331
9BE
 73
     2
 91
        0
 40
0.0
 10
0.0
 20
0.0
 30
2.000000000000000E+50
 75
     0
  0
DIMASSOC
  5
E0F
102
{ACAD_REACTORS
330
E05
102
}
330
E05
100
AcDbDimAssoc
330
DF8
 90
        3
 70
     0
 71
     0
  1
AcDbOsnapPointRef
 72
    13
331
9BE
 73
     2
 91
        0
 40
0.0
 10
0.0
 20
0.0
 30
2.000000000000000E+50
 75
     0
  1
AcDbOsnapPointRef
 72
     1
331
9CA
 73
     2
 91
        2
 40
1.0
 10
0.0
 20
0.0
 30
2.000000000000000E+50
 75
     0
  0
DIMASSOC
  5
E6F
102
{ACAD_REACTORS
330
E65
102
}
330
E65
100
AcDbDimAssoc
330
E58
 90
        3
 70
     0
 71
     0
  1
AcDbOsnapPointRef
 72
    13
331
AB3
 73
     2
 91
        0
 40
0.0
 10
0.0
 20
0.0
 30
2.000000000000000E+50
 75
     0
  1
AcDbOsnapPointRef
 72
    13
331
AB6
 73
     2
 91
        0
 40
0.0
 10
0.0
 20
0.0
 30
2.000000000000000E+50
 75
     0
  0
DIMASSOC
  5
E90
102
{ACAD_REACTORS
330
E86
102
}
330
E86
100
AcDbDimAssoc
330
E79
 90
        3
 70
     0
 71
     0
  1
AcDbOsnapPointRef
 72
    13
331
AB3
 73
     2
 91
        0
 40
0.0
 10
0.0
 20
0.0
 30
2.000000000000000E+50
 75
     0
  1
AcDbOsnapPointRef
 72
    13
331
AAD
 73
     2
 91
        0
 40
0.0
 10
0.0
 20
0.0
 30
2.000000000000000E+50
 75
     0
  0
DIMASSOC
  5
EB1
102
{ACAD_REACTORS
330
EA7
102
}
330
EA7
100
AcDbDimAssoc
330
E9A
 90
        3
 70
     0
 71
     0
  1
AcDbOsnapPointRef
 72
     6
331
AAF
 73
     2
 91
        0
 40
-1.0
 10
0.0
 20
0.0
 30
0.0
332
AAB
 74
     2
 92
        0
 75
     0
  1
AcDbOsnapPointRef
 72
    13
331
AAD
 73
     2
 91
        0
 40
0.0
 10
0.0
 20
0.0
 30
2.000000000000000E+50
 75
     0
  0
DIMASSOC
  5
EEA
102
{ACAD_REACTORS
330
EE0
102
}
330
EE0
100
AcDbDimAssoc
330
ED3
 90
        3
 70
     0
 71
     0
  1
AcDbOsnapPointRef
 72
    13
331
AAD
 73
     2
 91
        0
 40
0.0
 10
0.0
 20
0.0
 30
2.000000000000000E+50
 75
     0
  1
AcDbOsnapPointRef
 72
    13
331
AAE
 73
     2
 91
        0
 40
0.0
 10
0.0
 20
0.0
 30
2.000000000000000E+50
 75
     0
  0
DIMASSOC
  5
F27
102
{ACAD_REACTORS
330
F1B
102
}
330
F1B
100
AcDbDimAssoc
330
F0C
 90
        3
 70
     0
 71
     0
  1
AcDbOsnapPointRef
 72
    13
331
AAE
 73
     2
 91
        0
 40
0.0
 10
0.0
 20
0.0
 30
2.000000000000000E+50
 75
     0
  1
AcDbOsnapPointRef
 72
    13
331
AAF
 73
     2
 91
        0
 40
0.0
 10
0.0
 20
0.0
 30
2.000000000000000E+50
 75
     0
  0
DIMASSOC
  5
FDF
102
{ACAD_REACTORS
330
FD5
102
}
330
FD5
100
AcDbDimAssoc
330
FC8
 90
        3
 70
     0
 71
     0
  1
AcDbOsnapPointRef
 72
    13
331
AAF
 73
     2
 91
        0
 40
0.0
 10
0.0
 20
0.0
 30
2.000000000000000E+50
 75
     0
  1
AcDbOsnapPointRef
 72
     1
331
AB6
 73
     2
 91
        0
 40
1.0
 10
0.0
 20
0.0
 30
2.000000000000000E+50
 75
     0
  0
DIMASSOC
  5
1013
102
{ACAD_REACTORS
330
1009
102
}
330
1009
100
AcDbDimAssoc
330
FFC
 90
        3
 70
     0
 71
     0
  1
AcDbOsnapPointRef
 72
    13
331
AB6
 73
     2
 91
        0
 40
0.0
 10
0.0
 20
0.0
 30
2.000000000000000E+50
 75
     0
  1
AcDbOsnapPointRef
 72
     1
331
AB6
 73
     2
 91
        0
 40
1.0
 10
0.0
 20
0.0
 30
2.000000000000000E+50
 75
     0
  0
DIMASSOC
  5
10E3
102
{ACAD_REACTORS
330
10D9
102
}
330
10D9
100
AcDbDimAssoc
330
10CC
 90
        3
 70
     0
 71
     0
  1
AcDbOsnapPointRef
 72
    13
331
10C9
 73
     2
 91
        0
 40
0.0
 10
0.0
 20
0.0
 30
2.000000000000000E+50
 75
     0
  1
AcDbOsnapPointRef
 72
    13
331
10CA
 73
     2
 91
        0
 40
0.0
 10
0.0
 20
0.0
 30
2.000000000000000E+50
 75
     0
  0
DIMASSOC
  5
11EF
102
{ACAD_REACTORS
330
11E5
102
}
330
11E5
100
AcDbDimAssoc
330
11D8
 90
        3
 70
     0
 71
     0
  1
AcDbOsnapPointRef
 72
    13
331
ABB
 73
     2
 91
        0
 40
0.0
 10
0.0
 20
0.0
 30
2.000000000000000E+50
 75
     0
  1
AcDbOsnapPointRef
 72
    13
331
ABA
 73
     2
 91
        0
 40
0.0
 10
0.0
 20
0.0
 30
2.000000000000000E+50
 75
     0
  0
DIMASSOC
  5
20AF
102
{ACAD_REACTORS
330
20A9
102
}
330
20A9
100
AcDbDimAssoc
330
20A0
 90
        2
 70
     0
 71
     0
  1
AcDbOsnapPointRef
 72
     3
331
2065
 73
     2
 91
        0
 40
0.0
 10
0.0
 20
0.0
 30
0.0
 75
     0
  0
DIMASSOC
  5
23BF
102
{ACAD_REACTORS
330
23B5
102
}
330
23B5
100
AcDbDimAssoc
330
23A8
 90
        1
 70
     0
 71
     0
  1
AcDbOsnapPointRef
 72
    13
331
1F94
 73
     2
 91
        0
 40
0.0
 10
0.0
 20
0.0
 30
2.000000000000000E+50
 75
     0
  0
DIMASSOC
  5
23FF
102
{ACAD_REACTORS
330
23F5
102
}
330
23F5
100
AcDbDimAssoc
330
23E8
 90
        2
 70
     0
 71
     0
  1
AcDbOsnapPointRef
 72
    13
331
1F94
 73
     2
 91
        0
 40
0.0
 10
0.0
 20
0.0
 30
2.000000000000000E+50
 75
     0
  0
DIMASSOC
  5
4379
102
{ACAD_REACTORS
330
436F
102
}
330
436F
100
AcDbDimAssoc
330
4362
 90
        3
 70
     0
 71
     0
  1
AcDbOsnapPointRef
 72
    13
331
245D
 73
     2
 91
        0
 40
0.0
 10
0.0
 20
0.0
 30
2.000000000000000E+50
 75
     0
  1
AcDbOsnapPointRef
 72
     6
331
245E
 73
     2
 91
        0
 40
0.0
 10
0.0
 20
0.0
 30
0.0
332
245D
 74
     2
 92
        0
 75
     0
  0
XRECORD
  5
498D
102
{ACAD_REACTORS
330
498C
102
}
330
498C
100
AcDbXrecord
280
     1
 40
1.25
  0
XRECORD
  5
498E
102
{ACAD_REACTORS
330
498C
102
}
330
498C
100
AcDbXrecord
280
     1
 40
1.570796326794896
  0
LAYOUT
  5
22
102
{ACAD_XDICTIONARY
360
4749
102
}
102
{ACAD_REACTORS
330
1A
102
}
330
1A
100
AcDbPlotSettings
  1

  2
Bullzip PDF Printer
  4
A3
  6

 40
3.174999952316284
 41
3.174999952316284
 42
3.17498779296875
 43
3.17498779296875
 44
297.0530090332031
 45
420.1583251953125
 46
-3.148489356040954
 47
-3.095831274986267
 48
82.80008844952817
 49
88.90916338651733
140
4282.800088449529
141
3058.909163386517
142
1.0
143
10.0
 70
 11956
 72
     1
 73
     1
 74
     4
  7
monochrome.ctb
 75
    20
147
0.1
148
-82.80008844952817
149
-88.90916338651733
100
AcDbLayout
  1
Model
 70
     1
 71
     0
 10
0.0
 20
0.0
 11
12.0
 21
9.0
 12
0.0
 22
0.0
 32
0.0
 14
0.0
 24
0.0
 34
0.0
 15
0.0
 25
0.0
 35
0.0
146
0.0
 13
0.0
 23
0.0
 33
0.0
 16
1.0
 26
0.0
 36
0.0
 17
0.0
 27
1.0
 37
0.0
 76
     0
330
1F
331
46D5
1001
ACAD_PSEXT
1000
Bullzip PDF Printer
1000
Bullzip PDF Printer
1000
BULLZIP
1000
Bullzip PDF Printer 9.6.0.1582
1070
     0
  0
LAYOUT
  5
D3
102
{ACAD_XDICTIONARY
360
4991
102
}
102
{ACAD_REACTORS
330
1A
102
}
330
1A
100
AcDbPlotSettings
  1

  2
C:\Documents and Settings\basas\Application Data\Autodesk\AutoCAD 2005\R16.1\enu\plotters\Default Windows System Printer.pc3
  4

  6

 40
0.0
 41
0.0
 42
0.0
 43
0.0
 44
0.0
 45
0.0
 46
0.0
 47
0.0
 48
0.0
 49
0.0
140
0.0
141
0.0
142
1.0
143
1.0
 70
   688
 72
     0
 73
     0
 74
     5
  7
monochrome.ctb
 75
    16
147
1.0
148
0.0
149
0.0
100
AcDbLayout
  1
レイアウト1
 70
     1
 71
     1
 10
0.0
 20
0.0
 11
12.0
 21
9.0
 12
0.0
 22
0.0
 32
0.0
 14
0.0
 24
0.0
 34
0.0
 15
0.0
 25
0.0
 35
0.0
146
0.0
 13
0.0
 23
0.0
 33
0.0
 16
1.0
 26
0.0
 36
0.0
 17
0.0
 27
1.0
 37
0.0
 76
     0
330
D2
  0
LAYOUT
  5
D7
102
{ACAD_XDICTIONARY
360
4993
102
}
102
{ACAD_REACTORS
330
1A
102
}
330
1A
100
AcDbPlotSettings
  1

  2
C:\Documents and Settings\basas\Application Data\Autodesk\AutoCAD 2005\R16.1\enu\plotters\Default Windows System Printer.pc3
  4

  6

 40
0.0
 41
0.0
 42
0.0
 43
0.0
 44
0.0
 45
0.0
 46
0.0
 47
0.0
 48
0.0
 49
0.0
140
0.0
141
0.0
142
1.0
143
1.0
 70
   688
 72
     0
 73
     0
 74
     5
  7
monochrome.ctb
 75
    16
147
1.0
148
0.0
149
0.0
100
AcDbLayout
  1
レイアウト2
 70
     1
 71
     2
 10
0.0
 20
0.0
 11
12.0
 21
9.0
 12
0.0
 22
0.0
 32
0.0
 14
0.0
 24
0.0
 34
0.0
 15
0.0
 25
0.0
 35
0.0
146
0.0
 13
0.0
 23
0.0
 33
0.0
 16
1.0
 26
0.0
 36
0.0
 17
0.0
 27
1.0
 37
0.0
 76
     0
330
D6
  0
MATERIAL
  5
46DF
102
{ACAD_XDICTIONARY
360
46E0
102
}
102
{ACAD_REACTORS
330
6A
102
}
330
6A
100
AcDbMaterial
  1
ByBlock
 72
     0
 43
0.0008202099737533
 43
0.0
 43
0.0
 43
0.0
 43
0.0
 43
0.0008202099737533
 43
0.0
 43
0.0
 43
0.0
 43
0.0
 43
1.0
 43
0.0
 43
0.0
 43
0.0
 43
0.0
 43
1.0
 77
     0
 47
0.0008202099737533
 47
0.0
 47
0.0
 47
0.0
 47
0.0
 47
0.0008202099737533
 47
0.0
 47
0.0
 47
0.0
 47
0.0
 47
1.0
 47
0.0
 47
0.0
 47
0.0
 47
0.0
 47
1.0
171
     0
 49
0.0008202099737533
 49
0.0
 49
0.0
 49
0.0
 49
0.0
 49
0.0008202099737533
 49
0.0
 49
0.0
 49
0.0
 49
0.0
 49
1.0
 49
0.0
 49
0.0
 49
0.0
 49
0.0
 49
1.0
175
     0
142
0.0008202099737533
142
0.0
142
0.0
142
0.0
142
0.0
142
0.0008202099737533
142
0.0
142
0.0
142
0.0
142
0.0
142
1.0
142
0.0
142
0.0
142
0.0
142
0.0
142
1.0
179
     0
144
0.0008202099737533
144
0.0
144
0.0
144
0.0
144
0.0
144
0.0008202099737533
144
0.0
144
0.0
144
0.0
144
0.0
144
1.0
144
0.0
144
0.0
144
0.0
144
0.0
144
1.0
147
0.0008202099737533
147
0.0
147
0.0
147
0.0
147
0.0
147
0.0008202099737533
147
0.0
147
0.0
147
0.0
147
0.0
147
1.0
147
0.0
147
0.0
147
0.0
147
0.0
147
1.0
  0
MATERIAL
  5
46D7
102
{ACAD_XDICTIONARY
360
46D8
102
}
102
{ACAD_REACTORS
330
6A
102
}
330
6A
100
AcDbMaterial
  1
ByLayer
 72
     0
 43
0.0008202099737533
 43
0.0
 43
0.0
 43
0.0
 43
0.0
 43
0.0008202099737533
 43
0.0
 43
0.0
 43
0.0
 43
0.0
 43
1.0
 43
0.0
 43
0.0
 43
0.0
 43
0.0
 43
1.0
 77
     0
 47
0.0008202099737533
 47
0.0
 47
0.0
 47
0.0
 47
0.0
 47
0.0008202099737533
 47
0.0
 47
0.0
 47
0.0
 47
0.0
 47
1.0
 47
0.0
 47
0.0
 47
0.0
 47
0.0
 47
1.0
171
     0
 49
0.0008202099737533
 49
0.0
 49
0.0
 49
0.0
 49
0.0
 49
0.0008202099737533
 49
0.0
 49
0.0
 49
0.0
 49
0.0
 49
1.0
 49
0.0
 49
0.0
 49
0.0
 49
0.0
 49
1.0
175
     0
142
0.0008202099737533
142
0.0
142
0.0
142
0.0
142
0.0
142
0.0008202099737533
142
0.0
142
0.0
142
0.0
142
0.0
142
1.0
142
0.0
142
0.0
142
0.0
142
0.0
142
1.0
179
     0
144
0.0008202099737533
144
0.0
144
0.0
144
0.0
144
0.0
144
0.0008202099737533
144
0.0
144
0.0
144
0.0
144
0.0
144
1.0
144
0.0
144
0.0
144
0.0
144
0.0
144
1.0
147
0.0008202099737533
147
0.0
147
0.0
147
0.0
147
0.0
147
0.0008202099737533
147
0.0
147
0.0
147
0.0
147
0.0
147
1.0
147
0.0
147
0.0
147
0.0
147
0.0
147
1.0
  0
MATERIAL
  5
46E7
102
{ACAD_XDICTIONARY
360
46E8
102
}
102
{ACAD_REACTORS
330
6A
102
}
330
6A
100
AcDbMaterial
  1
Global
 72
     0
 43
0.0008202099737533
 43
0.0
 43
0.0
 43
0.0
 43
0.0
 43
0.0008202099737533
 43
0.0
 43
0.0
 43
0.0
 43
0.0
 43
1.0
 43
0.0
 43
0.0
 43
0.0
 43
0.0
 43
1.0
 77
     0
 47
0.0008202099737533
 47
0.0
 47
0.0
 47
0.0
 47
0.0
 47
0.0008202099737533
 47
0.0
 47
0.0
 47
0.0
 47
0.0
 47
1.0
 47
0.0
 47
0.0
 47
0.0
 47
0.0
 47
1.0
171
     0
 49
0.0008202099737533
 49
0.0
 49
0.0
 49
0.0
 49
0.0
 49
0.0008202099737533
 49
0.0
 49
0.0
 49
0.0
 49
0.0
 49
1.0
 49
0.0
 49
0.0
 49
0.0
 49
0.0
 49
1.0
175
     0
142
0.0008202099737533
142
0.0
142
0.0
142
0.0
142
0.0
142
0.0008202099737533
142
0.0
142
0.0
142
0.0
142
0.0
142
1.0
142
0.0
142
0.0
142
0.0
142
0.0
142
1.0
179
     0
144
0.0008202099737533
144
0.0
144
0.0
144
0.0
144
0.0
144
0.0008202099737533
144
0.0
144
0.0
144
0.0
144
0.0
144
1.0
144
0.0
144
0.0
144
0.0
144
0.0
144
1.0
147
0.0008202099737533
147
0.0
147
0.0
147
0.0
147
0.0
147
0.0008202099737533
147
0.0
147
0.0
147
0.0
147
0.0
147
1.0
147
0.0
147
0.0
147
0.0
147
0.0
147
1.0
  0
MLEADERSTYLE
  5
471B
102
{ACAD_XDICTIONARY
360
4988
102
}
102
{ACAD_REACTORS
330
471A
102
}
330
471A
100
AcDbMLeaderStyle
170
     2
171
     1
172
     0
 90
        2
 40
0.0
 41
0.0
173
     1
 91
-1056964608
340
14
 92
       -2
290
     1
 42
2.0
291
     1
 43
0.36
  3
Standard
 44
4.0
300

342
11
174
     1
178
     6
175
     1
176
     0
 93
-1056964608
 45
4.0
292
     0
297
     0
 46
4.0
 94
-1056964608
 47
1.0
 49
1.0
140
1.0
293
     1
141
0.0
294
     1
177
     0
142
1.0
295
     0
296
     0
143
0.125
1001
ACAD_MLEADERVER
1070
     2
  0
MLINESTYLE
  5
18
102
{ACAD_REACTORS
330
17
102
}
330
17
100
AcDbMlineStyle
  2
STANDARD
 70
     0
  3

 62
   256
 51
90.0
 52
90.0
 71
     2
 49
0.5
 62
   256
  6
BYLAYER
 49
-0.5
 62
   256
  6
BYLAYER
  0
ACDBPLACEHOLDER
  5
F
102
{ACAD_REACTORS
330
E
102
}
330
E
  0
SCALE
  5
4709
102
{ACAD_REACTORS
330
4708
102
}
330
4708
100
AcDbScale
 70
     0
300
1:1
140
1.0
141
1.0
290
     1
  0
SCALE
  5
470A
102
{ACAD_REACTORS
330
4708
102
}
330
4708
100
AcDbScale
 70
     0
300
1:2
140
1.0
141
2.0
290
     0
  0
SCALE
  5
470B
102
{ACAD_REACTORS
330
4708
102
}
330
4708
100
AcDbScale
 70
     0
300
1:4
140
1.0
141
4.0
290
     0
  0
SCALE
  5
470C
102
{ACAD_REACTORS
330
4708
102
}
330
4708
100
AcDbScale
 70
     0
300
1:5
140
1.0
141
5.0
290
     0
  0
SCALE
  5
470D
102
{ACAD_REACTORS
330
4708
102
}
330
4708
100
AcDbScale
 70
     0
300
1:8
140
1.0
141
8.0
290
     0
  0
SCALE
  5
470E
102
{ACAD_REACTORS
330
4708
102
}
330
4708
100
AcDbScale
 70
     0
300
1:10
140
1.0
141
10.0
290
     0
  0
SCALE
  5
470F
102
{ACAD_REACTORS
330
4708
102
}
330
4708
100
AcDbScale
 70
     0
300
1:16
140
1.0
141
16.0
290
     0
  0
SCALE
  5
4710
102
{ACAD_REACTORS
330
4708
102
}
330
4708
100
AcDbScale
 70
     0
300
1:20
140
1.0
141
20.0
290
     0
  0
SCALE
  5
4711
102
{ACAD_REACTORS
330
4708
102
}
330
4708
100
AcDbScale
 70
     0
300
1:30
140
1.0
141
30.0
290
     0
  0
SCALE
  5
4712
102
{ACAD_REACTORS
330
4708
102
}
330
4708
100
AcDbScale
 70
     0
300
1:40
140
1.0
141
40.0
290
     0
  0
SCALE
  5
4713
102
{ACAD_REACTORS
330
4708
102
}
330
4708
100
AcDbScale
 70
     0
300
1:50
140
1.0
141
50.0
290
     0
  0
SCALE
  5
4714
102
{ACAD_REACTORS
330
4708
102
}
330
4708
100
AcDbScale
 70
     0
300
1:100
140
1.0
141
100.0
290
     0
  0
SCALE
  5
4715
102
{ACAD_REACTORS
330
4708
102
}
330
4708
100
AcDbScale
 70
     0
300
2:1
140
2.0
141
1.0
290
     0
  0
SCALE
  5
4716
102
{ACAD_REACTORS
330
4708
102
}
330
4708
100
AcDbScale
 70
     0
300
4:1
140
4.0
141
1.0
290
     0
  0
SCALE
  5
4717
102
{ACAD_REACTORS
330
4708
102
}
330
4708
100
AcDbScale
 70
     0
300
8:1
140
8.0
141
1.0
290
     0
  0
SCALE
  5
4718
102
{ACAD_REACTORS
330
4708
102
}
330
4708
100
AcDbScale
 70
     0
300
10:1
140
10.0
141
1.0
290
     0
  0
SCALE
  5
4719
102
{ACAD_REACTORS
330
4708
102
}
330
4708
100
AcDbScale
 70
     0
300
100:1
140
100.0
141
1.0
290
     0
  0
TABLESTYLE
  5
7F
102
{ACAD_XDICTIONARY
360
4986
102
}
102
{ACAD_REACTORS
330
7E
102
}
330
7E
100
AcDbTableStyle
  3
Standard
 70
     0
 71
     0
 40
1.5
 41
1.5
280
     0
281
     0
  7
Standard
140
4.5
170
     2
 62
     0
 63
     7
283
     0
274
    -2
284
     1
 64
     0
275
    -2
285
     1
 65
     0
276
    -2
286
     1
 66
     0
277
    -2
287
     1
 67
     0
278
    -2
288
     1
 68
     0
279
    -2
289
     1
 69
     0
  7
Standard
140
6.0
170
     5
 62
     0
 63
     7
283
     0
274
    -2
284
     1
 64
     0
275
    -2
285
     1
 65
     0
276
    -2
286
     1
 66
     0
277
    -2
287
     1
 67
     0
278
    -2
288
     1
 68
     0
279
    -2
289
     1
 69
     0
  7
Standard
140
4.5
170
     5
 62
     0
 63
     7
283
     0
274
    -2
284
     1
 64
     0
275
    -2
285
     1
 65
     0
276
    -2
286
     1
 66
     0
277
    -2
287
     1
 67
     0
278
    -2
288
     1
 68
     0
279
    -2
289
     1
 69
     0
  0
VISUALSTYLE
  5
46F5
102
{ACAD_XDICTIONARY
360
49A2
102
}
102
{ACAD_REACTORS
330
46EF
102
}
330
46EF
100
AcDbVisualStyle
  2
2dWireframe
 70
     4
 71
     0
 72
     2
 73
     0
 90
        0
 40
-0.6
 41
-30.0
 62
     5
 63
     7
 74
     1
 91
        4
 64
     7
 65
   257
 75
     1
175
     1
 42
1.0
 92
        0
 66
   257
 43
1.0
 76
     1
 77
     6
 78
     2
 67
     7
 79
     5
170
     0
171
     0
290
     0
174
     0
 93
        1
 44
0.0
173
     0
291
     0
 45
0.0
1001
ACAD
1000
AcDbSavedByObjectVersion
1070
     0
  0
VISUALSTYLE
  5
46F4
102
{ACAD_XDICTIONARY
360
49A0
102
}
102
{ACAD_REACTORS
330
46EF
102
}
330
46EF
100
AcDbVisualStyle
  2
Basic
 70
     7
 71
     1
 72
     0
 73
     1
 90
        0
 40
-0.6
 41
-30.0
 62
     5
 63
     7
 74
     0
 91
        4
 64
     7
 65
   257
 75
     1
175
     1
 42
1.0
 92
        8
 66
     7
 43
1.0
 76
     1
 77
     6
 78
     2
 67
     7
 79
     5
170
     0
171
     0
290
     0
174
     0
 93
        1
 44
0.0
173
     0
291
     1
 45
0.0
1001
ACAD
1000
AcDbSavedByObjectVersion
1070
     0
  0
VISUALSTYLE
  5
46FB
102
{ACAD_XDICTIONARY
360
49AE
102
}
102
{ACAD_REACTORS
330
46EF
102
}
330
46EF
100
AcDbVisualStyle
  2
Brighten
 70
    12
 71
     2
 72
     2
 73
     0
 90
        0
 40
-0.6
 41
-30.0
 62
     5
 63
     7
 74
     1
 91
        4
 64
     7
 65
   257
 75
     1
175
     1
 42
1.0
 92
        8
 66
     7
 43
1.0
 76
     1
 77
     6
 78
     2
 67
     7
 79
     5
170
     0
171
     0
290
     0
174
     0
 93
        1
 44
50.0
173
     0
291
     1
 45
0.0
1001
ACAD
1000
AcDbSavedByObjectVersion
1070
     0
  0
VISUALSTYLE
  5
46FF
102
{ACAD_XDICTIONARY
360
49B6
102
}
102
{ACAD_REACTORS
330
46EF
102
}
330
46EF
100
AcDbVisualStyle
  2
ColorChange
 70
    16
 71
     2
 72
     2
 73
     3
 90
        0
 40
-0.6
 41
-30.0
 62
     5
 63
     8
 74
     1
 91
        4
 64
     7
 65
   257
 75
     1
175
     1
 42
1.0
 92
        8
 66
     8
 43
1.0
 76
     1
 77
     6
 78
     2
 67
     7
 79
     5
170
     0
171
     0
290
     0
174
     0
 93
        1
 44
0.0
173
     0
291
     1
 45
0.0
1001
ACAD
1000
AcDbSavedByObjectVersion
1070
     0
  0
VISUALSTYLE
  5
46F8
102
{ACAD_XDICTIONARY
360
49A8
102
}
102
{ACAD_REACTORS
330
46EF
102
}
330
46EF
100
AcDbVisualStyle
  2
Conceptual
 70
     9
 71
     3
 72
     2
 73
     0
 90
        0
 40
-0.6
 41
-30.0
 62
     5
 63
     7
 74
     2
 91
        2
 64
     7
 65
   257
 75
     1
175
     1
 42
179.0
 92
        8
 66
     7
 43
1.0
 76
     1
 77
     6
 78
     2
 67
     7
 79
     3
170
     0
171
     0
290
     0
174
     0
 93
        1
 44
0.0
173
     0
291
     0
 45
0.0
1001
ACAD
1000
AcDbSavedByObjectVersion
1070
     0
  0
VISUALSTYLE
  5
46FA
102
{ACAD_XDICTIONARY
360
49AC
102
}
102
{ACAD_REACTORS
330
46EF
102
}
330
46EF
100
AcDbVisualStyle
  2
Dim
 70
    11
 71
     2
 72
     2
 73
     0
 90
        0
 40
-0.6
 41
-30.0
 62
     5
 63
     7
 74
     1
 91
        4
 64
     7
 65
   257
 75
     1
175
     1
 42
1.0
 92
        8
 66
     7
 43
1.0
 76
     1
 77
     6
 78
     2
 67
     7
 79
     5
170
     0
171
     0
290
     0
174
     0
 93
        1
 44
-50.0
173
     0
291
     1
 45
0.0
1001
ACAD
1000
AcDbSavedByObjectVersion
1070
     0
  0
VISUALSTYLE
  5
4707
102
{ACAD_XDICTIONARY
360
49C6
102
}
102
{ACAD_REACTORS
330
46EF
102
}
330
46EF
100
AcDbVisualStyle
  2
EdgeColorOff
 70
    22
 71
     2
 72
     2
 73
     0
 90
        0
 40
-0.6
 41
-30.0
 62
     5
 63
     7
 74
     1
 91
        4
 64
     7
 65
   257
 75
     1
175
     1
 42
1.0
 92
        8
 66
     7
 43
1.0
 76
     1
 77
     6
 78
     2
 67
     7
 79
     5
170
     0
171
     0
290
     0
174
     0
 93
        1
 44
0.0
173
     0
291
     1
 45
0.0
1001
ACAD
1000
AcDbSavedByObjectVersion
1070
     0
  0
VISUALSTYLE
  5
46FE
102
{ACAD_XDICTIONARY
360
49B4
102
}
102
{ACAD_REACTORS
330
46EF
102
}
330
46EF
100
AcDbVisualStyle
  2
Facepattern
 70
    15
 71
     2
 72
     2
 73
     0
 90
        0
 40
-0.6
 41
-30.0
 62
     5
 63
     7
 74
     1
 91
        4
 64
     7
 65
   257
 75
     1
175
     1
 42
1.0
 92
        8
 66
     7
 43
1.0
 76
     1
 77
     6
 78
     2
 67
     7
 79
     5
170
     0
171
     0
290
     0
174
     0
 93
        1
 44
0.0
173
     0
291
     1
 45
0.0
1001
ACAD
1000
AcDbSavedByObjectVersion
1070
     0
  0
VISUALSTYLE
  5
46F0
102
{ACAD_XDICTIONARY
360
4998
102
}
102
{ACAD_REACTORS
330
46EF
102
}
330
46EF
100
AcDbVisualStyle
  2
Flat
 70
     0
 71
     2
 72
     1
 73
     1
 90
        2
 40
-0.6
 41
30.0
 62
     5
 63
     7
 74
     0
 91
        0
 64
     7
 65
   257
 75
     1
175
     1
 42
1.0
 92
        8
 66
     7
 43
1.0
 76
     1
 77
     6
 78
     2
 67
     7
 79
     5
170
     0
171
     0
290
     0
174
     0
 93
       13
 44
0.0
173
     0
291
     1
 45
0.0
1001
ACAD
1000
AcDbSavedByObjectVersion
1070
     0
  0
VISUALSTYLE
  5
46F1
102
{ACAD_XDICTIONARY
360
499A
102
}
102
{ACAD_REACTORS
330
46EF
102
}
330
46EF
100
AcDbVisualStyle
  2
FlatWithEdges
 70
     1
 71
     2
 72
     1
 73
     1
 90
        2
 40
-0.6
 41
30.0
 62
     5
 63
     7
 74
     1
 91
        0
 64
     7
 65
   257
 75
     1
175
     1
 42
1.0
 92
        0
 66
   257
 43
1.0
 76
     1
 77
     6
 78
     2
 67
     7
 79
     5
170
     0
171
     0
290
     0
174
     0
 93
       13
 44
0.0
173
     0
291
     1
 45
0.0
1001
ACAD
1000
AcDbSavedByObjectVersion
1070
     0
  0
VISUALSTYLE
  5
46F2
102
{ACAD_XDICTIONARY
360
499C
102
}
102
{ACAD_REACTORS
330
46EF
102
}
330
46EF
100
AcDbVisualStyle
  2
Gouraud
 70
     2
 71
     2
 72
     2
 73
     1
 90
        2
 40
-0.6
 41
30.0
 62
     5
 63
     7
 74
     0
 91
        0
 64
     7
 65
   257
 75
     1
175
     1
 42
1.0
 92
        0
 66
     7
 43
1.0
 76
     1
 77
     6
 78
     2
 67
     7
 79
     5
170
     0
171
     0
290
     0
174
     0
 93
       13
 44
0.0
173
     0
291
     1
 45
0.0
1001
ACAD
1000
AcDbSavedByObjectVersion
1070
     0
  0
VISUALSTYLE
  5
46F3
102
{ACAD_XDICTIONARY
360
499E
102
}
102
{ACAD_REACTORS
330
46EF
102
}
330
46EF
100
AcDbVisualStyle
  2
GouraudWithEdges
 70
     3
 71
     2
 72
     2
 73
     1
 90
        2
 40
-0.6
 41
30.0
 62
     5
 63
     7
 74
     1
 91
        0
 64
     7
 65
   257
 75
     1
175
     1
 42
1.0
 92
        0
 66
   257
 43
1.0
 76
     1
 77
     6
 78
     2
 67
     7
 79
     5
170
     0
171
     0
290
     0
174
     0
 93
       13
 44
0.0
173
     0
291
     1
 45
0.0
1001
ACAD
1000
AcDbSavedByObjectVersion
1070
     0
  0
VISUALSTYLE
  5
46F7
102
{ACAD_XDICTIONARY
360
49A6
102
}
102
{ACAD_REACTORS
330
46EF
102
}
330
46EF
100
AcDbVisualStyle
  2
Hidden
 70
     6
 71
     1
 72
     2
 73
     2
 90
        0
 40
-0.6
 41
-30.0
 62
     5
 63
     7
 74
     2
 91
        2
 64
     7
 65
   257
 75
     2
175
     1
 42
40.0
 92
        0
 66
   257
 43
1.0
 76
     1
 77
     6
 78
     2
 67
     7
 79
     3
170
     0
171
     0
290
     0
174
     0
 93
        1
 44
0.0
173
     0
291
     0
 45
0.0
1001
ACAD
1000
AcDbSavedByObjectVersion
1070
     0
  0
VISUALSTYLE
  5
4705
102
{ACAD_XDICTIONARY
360
49C2
102
}
102
{ACAD_REACTORS
330
46EF
102
}
330
46EF
100
AcDbVisualStyle
  2
JitterOff
 70
    20
 71
     2
 72
     2
 73
     0
 90
        0
 40
-0.6
 41
-30.0
 62
     5
 63
     7
 74
     1
 91
        4
 64
     7
 65
   257
 75
     1
175
     1
 42
1.0
 92
       10
 66
     7
 43
1.0
 76
     1
 77
     6
 78
     2
 67
     7
 79
     5
170
     0
171
     0
290
     0
174
     0
 93
        1
 44
0.0
173
     0
291
     1
 45
0.0
1001
ACAD
1000
AcDbSavedByObjectVersion
1070
     0
  0
VISUALSTYLE
  5
46FD
102
{ACAD_XDICTIONARY
360
49B2
102
}
102
{ACAD_REACTORS
330
46EF
102
}
330
46EF
100
AcDbVisualStyle
  2
Linepattern
 70
    14
 71
     2
 72
     2
 73
     0
 90
        0
 40
-0.6
 41
-30.0
 62
     5
 63
     7
 74
     1
 91
        4
 64
     7
 65
   257
 75
     7
175
     7
 42
1.0
 92
        8
 66
     7
 43
1.0
 76
     1
 77
     6
 78
     2
 67
     7
 79
     5
170
     0
171
     0
290
     0
174
     0
 93
        1
 44
0.0
173
     0
291
     1
 45
0.0
1001
ACAD
1000
AcDbSavedByObjectVersion
1070
     0
  0
VISUALSTYLE
  5
4706
102
{ACAD_XDICTIONARY
360
49C4
102
}
102
{ACAD_REACTORS
330
46EF
102
}
330
46EF
100
AcDbVisualStyle
  2
OverhangOff
 70
    21
 71
     2
 72
     2
 73
     0
 90
        0
 40
-0.6
 41
-30.0
 62
     5
 63
     7
 74
     1
 91
        4
 64
     7
 65
   257
 75
     1
175
     1
 42
1.0
 92
        9
 66
     7
 43
1.0
 76
     1
 77
     6
 78
     2
 67
     7
 79
     5
170
     0
171
     0
290
     0
174
     0
 93
        1
 44
0.0
173
     0
291
     1
 45
0.0
1001
ACAD
1000
AcDbSavedByObjectVersion
1070
     0
  0
VISUALSTYLE
  5
46F9
102
{ACAD_XDICTIONARY
360
49AA
102
}
102
{ACAD_REACTORS
330
46EF
102
}
330
46EF
100
AcDbVisualStyle
  2
Realistic
 70
     8
 71
     2
 72
     3
 73
     0
 90
        2
 40
-0.6
 41
30.0
 62
     5
 63
     7
 74
     0
 91
        0
 64
     7
 65
   257
 75
     1
175
     1
 42
1.0
 92
        8
 66
   257
 43
1.0
 76
     1
 77
     6
 78
     2
 67
     7
 79
     3
170
     0
171
     0
290
     0
174
     0
 93
       13
 44
0.0
173
     0
291
     0
 45
0.0
1001
ACAD
1000
AcDbSavedByObjectVersion
1070
     0
  0
VISUALSTYLE
  5
4704
102
{ACAD_XDICTIONARY
360
49C0
102
}
102
{ACAD_REACTORS
330
46EF
102
}
330
46EF
100
AcDbVisualStyle
  2
Shaded
 70
    27
 71
     2
 72
     2
 73
     1
 90
        2
 40
-0.6
 41
30.0
 62
     5
 63
     7
 74
     0
 91
        4
 64
     7
 65
   257
 75
     1
175
     1
 42
1.0
 92
        8
 66
   257
 43
1.0
 76
     1
 77
     6
 78
     2
 67
     8
 79
     3
170
     0
171
     0
290
     0
174
     0
 93
        5
 44
0.0
173
     0
291
     0
 45
0.0
1001
ACAD
1000
AcDbSavedByObjectVersion
1070
     0
  0
VISUALSTYLE
  5
4703
102
{ACAD_XDICTIONARY
360
49BE
102
}
102
{ACAD_REACTORS
330
46EF
102
}
330
46EF
100
AcDbVisualStyle
  2
Shaded with edges
 70
    26
 71
     2
 72
     2
 73
     1
 90
        2
 40
-0.6
 41
30.0
 62
     5
 63
     7
 74
     1
 91
       10
 64
     7
 65
   257
 75
     2
175
     1
 42
1.0
 92
        8
 66
   257
 43
1.0
 76
     1
 77
     6
 78
     2
 67
     7
 79
     3
170
     0
171
     0
290
     0
174
     0
 93
        5
 44
0.0
173
     0
291
     0
 45
0.0
1001
ACAD
1000
AcDbSavedByObjectVersion
1070
     0
  0
VISUALSTYLE
  5
4700
102
{ACAD_XDICTIONARY
360
49B8
102
}
102
{ACAD_REACTORS
330
46EF
102
}
330
46EF
100
AcDbVisualStyle
  2
Shades of Gray
 70
    23
 71
     2
 72
     2
 73
     3
 90
        0
 40
-0.6
 41
-30.0
 62
     5
 63
     7
 74
     2
 91
        2
 64
     7
 65
     7
 75
     1
175
     1
 42
40.0
 92
        8
 66
     7
 43
1.0
 76
     1
 77
     6
 78
     2
 67
     7
 79
     3
170
     0
171
     0
290
     0
174
     0
 93
        1
 44
0.0
173
     0
291
     0
 45
0.0
1001
ACAD
1000
AcDbSavedByObjectVersion
1070
     0
  0
VISUALSTYLE
  5
4701
102
{ACAD_XDICTIONARY
360
49BA
102
}
102
{ACAD_REACTORS
330
46EF
102
}
330
46EF
100
AcDbVisualStyle
  2
Sketchy
 70
    24
 71
     1
 72
     2
 73
     2
 90
        0
 40
-0.6
 41
-30.0
 62
     5
 63
     7
 74
     2
 91
        2
 64
     7
 65
     7
 75
     1
175
     1
 42
40.0
 92
       11
 66
     7
 43
1.0
 76
     1
 77
     6
 78
     2
 67
     7
 79
     6
170
     0
171
     0
290
     0
174
     0
 93
        1
 44
0.0
173
     0
291
     0
 45
0.0
1001
ACAD
1000
AcDbSavedByObjectVersion
1070
     0
  0
VISUALSTYLE
  5
46FC
102
{ACAD_XDICTIONARY
360
49B0
102
}
102
{ACAD_REACTORS
330
46EF
102
}
330
46EF
100
AcDbVisualStyle
  2
Thicken
 70
    13
 71
     2
 72
     2
 73
     0
 90
        0
 40
-0.6
 41
-30.0
 62
     5
 63
     7
 74
     1
 91
        4
 64
     7
 65
   257
 75
     1
175
     1
 42
1.0
 92
       12
 66
     7
 43
1.0
 76
     1
 77
     6
 78
     2
 67
     7
 79
     5
170
     0
171
     0
290
     0
174
     0
 93
        1
 44
0.0
173
     0
291
     1
 45
0.0
1001
ACAD
1000
AcDbSavedByObjectVersion
1070
     0
  0
VISUALSTYLE
  5
46F6
102
{ACAD_XDICTIONARY
360
49A4
102
}
102
{ACAD_REACTORS
330
46EF
102
}
330
46EF
100
AcDbVisualStyle
  2
Wireframe
 70
     5
 71
     0
 72
     2
 73
     0
 90
        0
 40
-0.6
 41
-30.0
 62
     5
 63
     7
 74
     1
 91
        4
 64
     7
 65
   257
 75
     1
175
     1
 42
1.0
 92
        0
 66
   257
 43
1.0
 76
     1
 77
     6
 78
     2
 67
     7
 79
     3
170
     0
171
     0
290
     0
174
     0
 93
        1
 44
0.0
173
     0
291
     0
 45
0.0
1001
ACAD
1000
AcDbSavedByObjectVersion
1070
     0
  0
VISUALSTYLE
  5
4702
102
{ACAD_XDICTIONARY
360
49BC
102
}
102
{ACAD_REACTORS
330
46EF
102
}
330
46EF
100
AcDbVisualStyle
  2
X-Ray
 70
    25
 71
     2
 72
     2
 73
     1
 90
        1
 40
0.5
 41
-30.0
 62
     5
 63
     7
 74
     1
 91
        0
 64
     7
 65
   257
 75
     1
175
     1
 42
1.0
 92
        8
 66
     7
 43
1.0
 76
     1
 77
     6
 78
     2
 67
     7
 79
     3
170
     0
171
     0
290
     0
174
     0
 93
       13
 44
0.0
173
     0
291
     0
 45
0.0
1001
ACAD
1000
AcDbSavedByObjectVersion
1070
     0
  0
DICTIONARYVAR
  5
4750
102
{ACAD_REACTORS
330
5E
102
}
330
5E
100
DictionaryVariables
280
     0
  1
1:1
  0
DICTIONARYVAR
  5
474E
102
{ACAD_REACTORS
330
5E
102
}
330
5E
100
DictionaryVariables
280
     0
  1
STANDARD
  0
DICTIONARYVAR
  5
84
102
{ACAD_REACTORS
330
5E
102
}
330
5E
100
DictionaryVariables
280
     0
  1
STANDARD
  0
DICTIONARYVAR
  5
5F
102
{ACAD_REACTORS
330
5E
102
}
330
5E
100
DictionaryVariables
280
     0
  1
2
  0
DICTIONARYVAR
  5
63
102
{ACAD_REACTORS
330
5E
102
}
330
5E
100
DictionaryVariables
280
     0
  1
1
  0
DICTIONARYVAR
  5
4984
102
{ACAD_REACTORS
330
5E
102
}
330
5E
100
DictionaryVariables
280
     0
  1
0
  0
DICTIONARYVAR
  5
4752
102
{ACAD_REACTORS
330
5E
102
}
330
5E
100
DictionaryVariables
280
     0
  1
1
  0
DICTIONARYVAR
  5
4753
102
{ACAD_REACTORS
330
5E
102
}
330
5E
100
DictionaryVariables
280
     0
  1
15
  0
DICTIONARYVAR
  5
4751
102
{ACAD_REACTORS
330
5E
102
}
330
5E
100
DictionaryVariables
280
     0
  1
0
  0
DICTIONARYVAR
  5
474F
102
{ACAD_REACTORS
330
5E
102
}
330
5E
100
DictionaryVariables
280
     0
  1
0
  0
DICTIONARYVAR
  5
4983
102
{ACAD_REACTORS
330
5E
102
}
330
5E
100
DictionaryVariables
280
     0
  1
127
  0
DICTIONARYVAR
  5
4985
102
{ACAD_REACTORS
330
5E
102
}
330
5E
100
DictionaryVariables
280
     0
  1
0
  0
DICTIONARY
  5
4749
330
22
100
AcDbDictionary
280
     1
281
     1
  3
ACAD_XREC_ROUNDTRIP
360
498F
  3
ADSK_XREC_LAYOUTTHUMBNAIL
360
474A
  0
DICTIONARY
  5
4991
330
D3
100
AcDbDictionary
280
     1
281
     1
  3
ACAD_XREC_ROUNDTRIP
360
4992
  0
DICTIONARY
  5
4993
330
D7
100
AcDbDictionary
280
     1
281
     1
  3
ACAD_XREC_ROUNDTRIP
360
4994
  0
DICTIONARY
  5
46E0
330
46DF
100
AcDbDictionary
280
     1
281
     1
  3
ACAD_XREC_ROUNDTRIP
360
4996
  3
BUMPTILE
360
46E2
  3
DIFFUSETILE
360
46E1
  3
OPACITYTILE
360
46E5
  3
REFLECTIONTILE
360
46E4
  3
REFRACTIONTILE
360
46E6
  3
SPECULARTILE
360
46E3
  0
DICTIONARY
  5
46D8
330
46D7
100
AcDbDictionary
280
     1
281
     1
  3
ACAD_XREC_ROUNDTRIP
360
4995
  3
BUMPTILE
360
46DA
  3
DIFFUSETILE
360
46D9
  3
OPACITYTILE
360
46DD
  3
REFLECTIONTILE
360
46DC
  3
REFRACTIONTILE
360
46DE
  3
SPECULARTILE
360
46DB
  0
DICTIONARY
  5
46E8
330
46E7
100
AcDbDictionary
280
     1
281
     1
  3
ACAD_XREC_ROUNDTRIP
360
4997
  3
BUMPTILE
360
46EA
  3
DIFFUSETILE
360
46E9
  3
OPACITYTILE
360
46ED
  3
REFLECTIONTILE
360
46EC
  3
REFRACTIONTILE
360
46EE
  3
SPECULARTILE
360
46EB
  0
DICTIONARY
  5
4988
330
471B
100
AcDbDictionary
280
     1
281
     1
  3
ACAD_XREC_ROUNDTRIP
360
4989
  0
DICTIONARY
  5
4986
330
7F
100
AcDbDictionary
280
     1
281
     1
  3
ACAD_ROUNDTRIP_2008_TABLESTYLE_CELLSTYLEMAP
360
4987
  3
ACAD_XREC_ROUNDTRIP
360
4990
  0
DICTIONARY
  5
49A2
330
46F5
100
AcDbDictionary
280
     1
281
     1
  3
ACAD_XREC_ROUNDTRIP
360
49A3
  0
DICTIONARY
  5
49A0
330
46F4
100
AcDbDictionary
280
     1
281
     1
  3
ACAD_XREC_ROUNDTRIP
360
49A1
  0
DICTIONARY
  5
49AE
330
46FB
100
AcDbDictionary
280
     1
281
     1
  3
ACAD_XREC_ROUNDTRIP
360
49AF
  0
DICTIONARY
  5
49B6
330
46FF
100
AcDbDictionary
280
     1
281
     1
  3
ACAD_XREC_ROUNDTRIP
360
49B7
  0
DICTIONARY
  5
49A8
330
46F8
100
AcDbDictionary
280
     1
281
     1
  3
ACAD_XREC_ROUNDTRIP
360
49A9
  0
DICTIONARY
  5
49AC
330
46FA
100
AcDbDictionary
280
     1
281
     1
  3
ACAD_XREC_ROUNDTRIP
360
49AD
  0
DICTIONARY
  5
49C6
330
4707
100
AcDbDictionary
280
     1
281
     1
  3
ACAD_XREC_ROUNDTRIP
360
49C7
  0
DICTIONARY
  5
49B4
330
46FE
100
AcDbDictionary
280
     1
281
     1
  3
ACAD_XREC_ROUNDTRIP
360
49B5
  0
DICTIONARY
  5
4998
330
46F0
100
AcDbDictionary
280
     1
281
     1
  3
ACAD_XREC_ROUNDTRIP
360
4999
  0
DICTIONARY
  5
499A
330
46F1
100
AcDbDictionary
280
     1
281
     1
  3
ACAD_XREC_ROUNDTRIP
360
499B
  0
DICTIONARY
  5
499C
330
46F2
100
AcDbDictionary
280
     1
281
     1
  3
ACAD_XREC_ROUNDTRIP
360
499D
  0
DICTIONARY
  5
499E
330
46F3
100
AcDbDictionary
280
     1
281
     1
  3
ACAD_XREC_ROUNDTRIP
360
499F
  0
DICTIONARY
  5
49A6
330
46F7
100
AcDbDictionary
280
     1
281
     1
  3
ACAD_XREC_ROUNDTRIP
360
49A7
  0
DICTIONARY
  5
49C2
330
4705
100
AcDbDictionary
280
     1
281
     1
  3
ACAD_XREC_ROUNDTRIP
360
49C3
  0
DICTIONARY
  5
49B2
330
46FD
100
AcDbDictionary
280
     1
281
     1
  3
ACAD_XREC_ROUNDTRIP
360
49B3
  0
DICTIONARY
  5
49C4
330
4706
100
AcDbDictionary
280
     1
281
     1
  3
ACAD_XREC_ROUNDTRIP
360
49C5
  0
DICTIONARY
  5
49AA
330
46F9
100
AcDbDictionary
280
     1
281
     1
  3
ACAD_XREC_ROUNDTRIP
360
49AB
  0
DICTIONARY
  5
49C0
330
4704
100
AcDbDictionary
280
     1
281
     1
  3
ACAD_XREC_ROUNDTRIP
360
49C1
  0
DICTIONARY
  5
49BE
330
4703
100
AcDbDictionary
280
     1
281
     1
  3
ACAD_XREC_ROUNDTRIP
360
49BF
  0
DICTIONARY
  5
49B8
330
4700
100
AcDbDictionary
280
     1
281
     1
  3
ACAD_XREC_ROUNDTRIP
360
49B9
  0
DICTIONARY
  5
49BA
330
4701
100
AcDbDictionary
280
     1
281
     1
  3
ACAD_XREC_ROUNDTRIP
360
49BB
  0
DICTIONARY
  5
49B0
330
46FC
100
AcDbDictionary
280
     1
281
     1
  3
ACAD_XREC_ROUNDTRIP
360
49B1
  0
DICTIONARY
  5
49A4
330
46F6
100
AcDbDictionary
280
     1
281
     1
  3
ACAD_XREC_ROUNDTRIP
360
49A5
  0
DICTIONARY
  5
49BC
330
4702
100
AcDbDictionary
280
     1
281
     1
  3
ACAD_XREC_ROUNDTRIP
360
49BD
  0
XRECORD
  5
498F
102
{ACAD_REACTORS
330
4749
102
}
330
4749
100
AcDbXrecord
280
     1
102
SHADEPLOT
 70
     0
102
SHADEPLOTRESLEVEL
 70
     2
102
SHADEPLOTCUSTOMDPI
 70
   300
  0
XRECORD
  5
474A
102
{ACAD_REACTORS
330
4749
102
}
330
4749
100
AcDbXrecord
280
     1
310
28000000000100009C0000000100080000000000009C0000000000000000000000010000000000003028210000000000C8C8C8000000000000000000000000000000000000000000000000000000000000000000330000006600000099000000CC000000FF00000000330000333300006633000099330000CC330000FF3300
310
0000660000336600006666000099660000CC660000FF66000000990000339900006699000099990000CC990000FF99000000CC000033CC000066CC000099CC0000CCCC0000FFCC000000FF000033FF000066FF000099FF0000CCFF0000FFFF000000003300330033006600330099003300CC003300FF003300003333003333
310
33006633330099333300CC333300FF33330000663300336633006666330099663300CC663300FF66330000993300339933006699330099993300CC993300FF99330000CC330033CC330066CC330099CC3300CCCC3300FFCC330000FF330033FF330066FF330099FF3300CCFF3300FFFF330000006600330066006600660099
310
006600CC006600FF00660000336600333366006633660099336600CC336600FF33660000666600336666006666660099666600CC666600FF66660000996600339966006699660099996600CC996600FF99660000CC660033CC660066CC660099CC6600CCCC6600FFCC660000FF660033FF660066FF660099FF6600CCFF6600
310
FFFF660000009900330099006600990099009900CC009900FF00990000339900333399006633990099339900CC339900FF33990000669900336699006666990099669900CC669900FF66990000999900339999006699990099999900CC999900FF99990000CC990033CC990066CC990099CC9900CCCC9900FFCC990000FF99
310
0033FF990066FF990099FF9900CCFF9900FFFF99000000CC003300CC006600CC009900CC00CC00CC00FF00CC000033CC003333CC006633CC009933CC00CC33CC00FF33CC000066CC003366CC006666CC009966CC00CC66CC00FF66CC000099CC003399CC006699CC009999CC00CC99CC00FF99CC0000CCCC0033CCCC0066CC
310
CC0099CCCC00CCCCCC00FFCCCC0000FFCC0033FFCC0066FFCC0099FFCC00CCFFCC00FFFFCC000000FF003300FF006600FF009900FF00CC00FF00FF00FF000033FF003333FF006633FF009933FF00CC33FF00FF33FF000066FF003366FF006666FF009966FF00CC66FF00FF66FF000099FF003399FF006699FF009999FF00CC
310
99FF00FF99FF0000CCFF0033CCFF0066CCFF0099CCFF00CCCCFF00FFCCFF0000FFFF0033FFFF0066FFFF0099FFFF00CCFFFF00FFFFFF00000000000D0D0D001A1A1A00282828003535350043434300505050005D5D5D006B6B6B00787878008686860093939300A1A1A100AEAEAE00BBBBBB00C9C9C900D6D6D600E4E4E400
310
F1F1F100FFFFFF000000000000000000000000000000000000000000000000000000000000000000000000000000000000000000000000000000000000000000000000000000000000000000000000000000000000000000000000000000000000000000000000000000000000000000000000000000000000000000000000
310
00000000000000000000000000000000000000000000000000000000000000000000000000000000000000000000000000000000000000000000000000000000000000000000000000000000000000000000000000000000000000000000000000000000000000000000000000000000000000000000000000000000000000
310
0000000000000000000000000000000000000000000000000000000000000000000000000000000000000000000000000000000000000000000000000000000000000000BEBEBEBEBEBEBEBEBEBEBEBEBEBEBEBEBEBEBEBEBEBEBEBEBEBEBEBEBEBEBEBEBEBEBEBEBEBEBEBEBEBEBEBEBEBEBEBEBEBEBEBEBEBEBEBEBEBEBE
310
BEBEBEBEBEBEBEBEBEBEBEBEBEBEBEBEBEBEBEBEBEBEBEBEBEBEBEBEBEBEBEBEBEBEBEBEBEBEBEBEBEBEBEBEBEBEBEBEBEBEBEBEBEBEBEBEBEBEBEBEBEBEBEBEBEBEBEBEBEBEBEBEBEBEBEBEBEBEBEBEBEBEBEBEBEBEBEBEBEBEBEBEBEBEBEBEBEBEBEBEBEBEBEBEBEBEBEBEBEBEBEBEBEBEBEBEBEBEBEBEBEBEBEBEBEBEBE
310
BEBEBEBEBEBEBEBEBEBEBEBEBEBEBEBEBEBEBEBEBEBEBEBEBEBEBEBEBEBEBEBEBEBE000000000000000000000000000000000000000000000000000000000000000000000000BE0000000000000000000000000000000000000000000000000000000000000000000000000000000000000000000000000000000000000000
310
00000000000000000000000000000000000000000000000000000000000000000000000000000000000000000000000000000000000000000000000000000000000000000000000000000000000000000000000000000000000000000000000000000000000000000000000000000000000000000000000000000000000000
310
0000000000000000000000000000000000000000000000000000000000000000000000BE000000000000000000000000000000000000000000000000000000000000000000000000BE000000000000000000000000000000000000000000000000000000000000000000000000000000000000000000000000000000000000
310
00000000000000000000000000000000000000000000000000000000000000000000000000000000000000000000000000000000000000000000000000000000000000000000000000000000000000000000000000000000000000000000000000000000000000000000000000000000000000000000000000000000000000
310
00000000000000000000000000000000000000000000000000000000000000000000000000BE000000000000000000000000000000000000000000000000000000000000000000000000BE00000000000000000000000000000000000000000000000000000000000000000000000000000000000000000000000000000000
310
00000000000000000000000000000000000000000000000000000000000000000000000000000000000000000000000000000000000000000000000000000000000000000000000000000000000000000000000000000000000000000000000000000000000000000000000000000000000000000000000000000000000000
310
000000000000000000000000000000000000000000000000000000000000000000000000000000BE000000000000000000000000000000000000000000000000000000000000000000000000BE0000000000000000000000000000000000000000000000000000000000000000000000000000000000000000000000000000
310
00000000000000000000000000000000000000000000000000000000000000000000000000000000000000000000000000000000000000000000000000000000000000000000000000000000000000000000000000000000000000000000000000000000000000000000000000000000000000000000000000000000000000
310
0000000000000000000000000000000000000000000000000000000000000000000000000000000000BE000000000000000000000000000000000000000000000000000000000000000000000000BE000000000000000000F5F5F5F5F5F5F5F5F5F5F5F5F5F5F5F5F5F5F5F5F5F5F5F5F5F5F5F5F5F5F5F5F5F5F5F5F5F5F5
310
F5F5F5F5F5F5F5F5F5F5F5F5F5F5F5F5F5F5F5F5F5F5F5F5F5F5F5F5F5F5F5F5F5F5F5F5F5F5F5F5F5F5F5F5F5F5F5F5F5F5F5F5F5F5F5F5F5F5F5F5F5F5F5F5F5F5F5F5F5F5F5F5F5F5F5F5F5F5F5F5F5F5F5F5F5F5F5F5F5F5F5F5F5F5F5F5F5F5F5F5F5F5F5F5F5F5F5F5F5F5F5F5F5F5F5F5F5F5F5F5F5F5F5F5F5F5F5
310
F5F5F5F5F5F5F5F5F5F5F5F5F5F5F5F5F5F5F5F5F5F5F5F5F5F5F5F5F5F5F5F5F5F5F5F5F5F5F500000000BE000000000000000000000000000000000000000000000000000000000000000000000000BE000000000000000000F5000000000000000000000000000000000000000000000000000000000000000000000000
310
00000000000000000000000000000000000000000000000000000000000000000000000000000000000000000000000000000000000000000000000000000000000000000000000000000000000000000000000000000000000000000000000000000000000000000000000000000000000000F500F5F5F5F500F5F5F5F5F5
310
F5F5F5F5F5F5F5F5F5F5F5F5F5F5F5F5F5F5F5F5F5F5F5F5F5F5F5F5F5F5F5F5F5F5F5F5F5F50000F500000000BE000000000000000000000000000000000000000000000000000000000000000000000000BE000000000000000000F500000000000000000000000000000000000000000000000000000000000000000000
310
000000000000000000000000000000000000000000000000000000000000000000000000000000000000000000000000000000000000000000000000000000000000000000000000000000000000000000000000000000000000000000000000000000000000000000000000000000000000000000F5F5F5F5F5F5F5000000
310
000000000000000000000000000000000000000000000000000000000000000000000000000000000000F500000000BE000000000000000000000000000000000000000000000000000000000000000000000000BE000000000000000000F50000000000000000000000000000000000000000000000000000000000000000
310
0000000000000000000000000000000000000000000000000000000000000000000000000000000000000000000000000000000000000000000000000000000000000000000000000000000000000000000000000000000000000000000000000000000000000000000000000000000000000000000000F5F5F5F5F5F5F5F5
310
F5F5F5F5F5F5F5F5F5F5F5F5F5F5F5F5F5F5F5F5F5F5F5F5F5F5F5F5F5F5F5F5F5F500000000000000000000F500000000BE000000000000000000000000000000000000000000000000000000000000000000000000BE000000000000000000F5000000000000000000000000000000000000000000000000000000000000
310
00000000000000000000000000000000000000000000000000000000000000000000000000000000000000000000000000000000000000000000000000000000000000000000000000000000000000000000000000000000000000000000000000000000000000000000000000000000000000000000000000F5F5F5F5F5F5
310
F5F5F5F5F5F5F5F5F5F5F5F5F5F5F5F5F5F5F5F5F5F5F5F5F5F5F5F5F5F5F5F5F5F5F5F500000000000000000000F500000000BE000000000000000000000000000000000000000000000000000000000000000000000000BE000000000000000000F500000000000000000000000000000000000000000000000000000000
310
000000000000000000000000000000000000000000000000000000000000000000000000000000000000000000000000000000000000000000000000000000000000000000000000000000000000000000000000000000000000000000000000000000000000000000000000000000000000000000000000000000F5F5F5F5
310
F5F5F5F5F5F5F5F5F5F5F5F5F5F5F5F5F5F5F5F5F5F5F5F5F5F5F5F5F5F5F5F5F5F5F5F5F5F500000000000000000000F500000000BE000000000000000000000000000000000000000000000000000000000000000000000000BE000000000000000000F50000000000000000000000000000000000000000000000000000
310
0000000000000000000000000000000000000000000000000000000000000000000000000000000000000000000000000000000000000000000000000000000000000000000000000000000000000000000000000000000000000000000000000000000000000000000000000000000000000000000000000000000000F500
310
F5F5F5F500F5F5F5F5F5F5F5F5F5F5F5F5F5F5F5F5F5F5F5F5F5F5F5F5F5F5F5F5F5F5F5F5F5F5F500000000000000000000F500000000BE000000000000000000000000000000000000000000000000000000000000000000000000BE000000000000000000F5000000000000000000000000000000000000000000000000
310
00000000000000000000000000000000000000000000000000000000000000000000000000000000000000000000000000000000000000000000000000000000000000000000000000000000000000000000000000000000000000000000000000000000000000000000000000000000000000000000000000000000000000
310
F5000000000000000000000000000000000000000000000000000000000000000000000000000000000000000000000000000000F500000000BE000000000000000000000000000000000000000000000000000000000000000000000000BE000000000000000000F500000000000000000000000000000000000000000000
310
00000000000000000000000000000000000000000000000000000000000000000000000000000000000000000000000000000000000000000000000000000000000000000000000000000000000000000000000000000000000000000000000000000000000000000000000000000000000000000000000000000000000000
310
0000F5F5F5F5F5F5F5F5F5F5F5F5F5F5F5F5F5F5F5F5F5F5F5F5F5F5F5F5F5F5F5F5F5F5F5F5F5F5F5F5F5F5F5F5F5F5F5F5F5F5F5F5F500000000BE000000000000000000000000000000000000000000000000000000000000000000000000BE000000000000000000F50000000000000000000000000000000000000000
310
00000000000000000000000000000000000000000000000000000000000000000000000000000000000000000000000000000000000000000000000000000000000000000000000000000000000000000000000000000000000000000000000000000000000000000000000000000000000000000000000000000000000000
310
00000000F500F5F5F50000F50000000000000000000000F5F5F5F50000F5F5F5F500000000000000000000F5F5F5F500F5F5F5F5F5F5F5F5F500000000BE000000000000000000000000000000000000000000000000000000000000000000000000BE000000000000000000F5000000000000000000000000000000000000
310
00000000000000000000000000000000000000000000000000000000000000000000000000000000000000000000000000000000000000000000000000000000000000000000000000000000000000000000000000000000000000000000000000000000000000000000000000000000000000000000000000000000000000
310
000000000000F500F5F5F50000F500000000000000000000F5F5F5F5F5F5F5F5F5F5F500000000000000000000F5F5F5F5F5F5F5F5F5F5F5F5F5F500000000BE000000000000000000000000000000000000000000000000000000000000000000000000BE000000000000000000F500000000000000000000000000000000
310
00000000000000000000000000000000000000000000000000000000000000000000000000000000000000000000000000000000000000000000000000000000000000000000000000000000000000000000000000000000000000000000000000000000000000000000000000000000000000000000000000000000000000
310
0000000000000000F5000000000000F500000000000000000000F5F5F5F5F5F5F5F5F5F5F500000000000000000000F5F5F5F500F500F5F500F5F500F500000000BE000000000000000000000000000000000000000000000000000000000000000000000000BE000000000000000000F50000000000000000000000000000
310
00000000000000000000000000000000000000000000000000000000000000000000000000000000000000000000000000000000000000000000000000000000000000000000000000000000000000000000000000000000000000000000000000000000000000000000000000000000000000000000000000000000000000
310
00000000000000000000F5000000000000F500000000000000000000000000000000000000000000000000000000000000F500000000F500F5F500F5F500F500000000BE000000000000000000000000000000000000000000000000000000000000000000000000BE000000000000000000F5000000000000000000000000
310
00000000000000000000000000000000000000000000000000000000000000000000000000000000000000000000000000000000000000000000000000000000000000000000000000000000000000000000000000000000000000000000000000000000000000000000000000000000000000000000000000000000000000
310
000000000000000000000000F5F5F5F5F5F5F5F5F5F5F5F5F5F5F5F5F5F5F5F5F5F5F5F5F5F5F5F5F5F5F5F5F5F5F5F5F5F5F5F5F5F5F5F5F5F5F5F5F5F5F5F5F500000000BE000000000000000000000000000000000000000000000000000000000000000000000000BE000000000000000000F500000000000000000000
310
00000000000000000000000000000000000000000000000000000000000000000000000000000000000000000000000000000000000000000000000000000000000000000000000000000000000000000000000000000000000000000000000000000000000000000000000000000000000000000000000000000000000000
310
0000000000000000000000000000F5F5F5F5F5F500F500000000000000000000000000000000000000000000000000000000000000F5F5F5F500F500000000000000F500000000BE000000000000000000000000000000000000000000000000000000000000000000000000BE000000000000000000F50000000000000000
310
00000000000000000000000000000000000000000000000000000000000000000000000000000000000000000000000000000000000000000000000000000000000000000000000000000000000000000000000000000000000000000000000000000000000000000000000000000000000000000000000000000000000000
310
00000000000000000000000000000000F5F5F5F5F5F500F50000000000000000000000F5F5F5F5F5F5F5F5F50000000000000000000000F5F5F5F500F500F5F5F5F5F500F500000000BE000000000000000000000000000000000000000000000000000000000000000000000000BE000000000000000000F5000000000000
310
00000000000000000000000000000000000000000000000000000000000000000000000000000000000000000000000000000000000000000000000000000000000000000000000000000000000000000000000000000000000000000000000000000000000000000000000000000000000000000000000000000000000000
310
000000000000000000000000000000000000F5000000000000F50000000000000000000000F5F5F5F5F5F5F5F5F50000000000000000000000F500000000F500F5F5F5F5F500F500000000BE000000000000000000000000000000000000000000000000000000000000000000000000BE000000000000000000F500000000
310
00000000000000000000000000000000000000000000000000000000000000000000000000000000000000000000000000000000000000000000000000000000000000000000000000000000000000000000000000000000000000000000000000000000000000000000000000000000000000000000000000000000000000
310
0000000000000000000000000000000000000000F5000000000000F500000000000000000000000000000000000000000000000000000000000000F500000000F500000000000000F500000000BE000000000000000000000000000000000000000000000000000000000000000000000000BE000000000000000000F50000
310
00000000000000000000000000000000000000000000000000000000000000000000000000000000000000000000000000000000000000000000000000000000000000000000000000000000000000000000000000000000000000000000000000000000000000000000000000000000000000000000000000000000000000
310
00000000000000000000000000000000000000000000F5F5F5F5F5F5F5F5F5F5F5F5F5F5F5F5F5F5F5F5F5F5F5F5F5F5F5F5F5F5F5F5F5F5F5F5F5F5F5F5F5F5F5F5F5F5F5F5F5F5F5F5F500000000BE000000000000000000000000000000000000000000000000000000000000000000000000BE000000000000000000F5
310
00000000000000000000000000000000000000000000000000000000000000000000000000000000000000000000000000000000000000000000000000000000000000000000000000000000000000000000000000000000000000000000000000000000000000000000000000000000000000000000000000000000000000
310
00000000000000000000000000000000000000000000000000000000000000000000000000000000000000000000000000000000000000000000000000000000000000000000000000000000F500000000BE000000000000000000000000000000000000000000000000000000000000000000000000BE0000000000000000
310
00F50000000000000000000000000000000000000000000000000000000000000000000000000000000000000000000000000000000000000000000000000000000000000000000000000000000000000000000000000000000000000000000000000000000000000000000000000000000000000000000000000000000000
310
000000000000000000000000000000000000000000000000000000000000000000000000000000000000000000000000000000000000000000000000000000000000000000000000000000000000F500000000BE000000000000000000000000000000000000000000000000000000000000000000000000BE000000000000
310
000000F5000000000000000000000000000000000000000000000000000000000000000000000000000000000000000000000000000000000000000000000000000000000000000000000000000000000000000000000000000000000000000000000000000000000000000000000000000000000000000000000000000000
310
0000000000000000000000000000000000000000000000000000000000000000000000000000000000000000000000000000000000000000000000000000000000000000000000000000000000000000F500000000BE000000000000000000000000000000000000000000000000000000000000000000000000BE00000000
310
0000000000F500000000000000000000000000000000000000000000000000000000000000000000000000000000000000000000000000000000000000000000000000000000000000000000000000000000000000000000000000000000000000000000000000000000000000000000000000000000000000000000000000
310
00000000000000000000000000000000000000000000000000000000000000000000000000000000000000000000000000000000000000000000000000000000000000000000000000000000000000000000F500000000BE000000000000000000000000000000000000000000000000000000000000000000000000BE0000
310
00000000000000F5000000000000000000000000000000000000000000000000000000000000000000F5F50000000000000000000000000000000000000000000000F5F50000F50000000000000000000000000000000000000000000000000000000000000000000000000000000000000000000000000000000000000000
310
000000000000000000000000000000000000000000000000000000000000000000000000000000000000000000000000000000000000000000000000000000000000000000000000000000000000000000000000F500000000BE000000000000000000000000000000000000000000000000000000000000000000000000BE
310
000000000000000000F500000000000000000000000000000000000000000000000000000000000000F5F5F5F5F5F5000000000000000000000000000000000000000000F5F5F5F5F5F5F500000000000000000000000000000000000000000000000000000000000000000000000000000000000000000000000000000000
310
0000000000000000000000000000000000000000000000000000000000000000000000000000000000000000000000000000000000000000000000000000000000000000000000000000000000000000000000000000F500000000BE0000000000000000000000000000000000000000000000000000000000000000000000
310
00BE000000000000000000F5000000000000000000000000000000000000000000000000000000000000F5F5F5F5F5F5F5F500000000000000000000000000000000000000F5F5F5F5F5F5F5F5F500000000000000000000000000000000000000000000000000000000000000000000000000000000000000000000000000
310
0000000000000000000000000000000000000000000000000000000000000000000000000000000000000000000000000000000000000000000000F5F500F5F5F5F5F5F5F5F5F5F5F5F50000000000000000000000000000F500000000BE000000000000000000000000000000000000000000000000000000000000000000
310
000000BE000000000000000000F50000000000000000000000000000000000000000000000000000000000F5F5F5F5F5F5F5F5F5F50000000000000000000000000000000000F5F5F5F5F5F5F5F5F5F5F500000000000000000000000000000000000000000000000000000000000000000000000000000000000000000000
310
00000000000000000000000000000000000000000000000000000000000000000000000000000000000000000000000000000000000000000000000000F5F5F5F5F5F5F5F5F5F5F5F5F5F5F50000000000000000000000000000F500000000BE00000000000000000000000000000000000000000000000000000000000000
310
0000000000BE000000000000000000F500000000000000000000000000000000000000000000000000000000000000F500F5F500F50000F50000000000000000000000000000F5000000F5F50000F500F500000000000000000000000000000000000000000000000000000000000000000000000000000000000000000000
310
000000000000000000000000000000000000000000000000000000000000000000000000000000000000000000000000000000000000000000000000000000F5F5F5F5F5F5F5F5F5F5F5F50000000000000000000000000000000000F500000000BE0000000000000000000000000000000000000000000000000000000000
310
00000000000000BE000000000000000000F500000000000000000000000000000000000000000000000000000000000000F500F5F500F50000F500000000000000000000000000F5F5000000F5F50000F500F50000000000000000000000000000000000000000000000000000000000000000000000000000000000000000
310
00000000000000000000000000000000000000000000000000000000000000000000000000000000000000000000000000000000000000000000000000000000000000000000000000000000000000000000000000000000000000000000F500000000BE000000000000000000000000000000000000000000000000000000
310
000000000000000000BE000000000000000000F500000000000000000000000000000000000000000000000000000000000000F500F5F5F5F5F5F5F5F5F5F500000000000000000000F5F5F5F500F5F50000F5F5F500F5F5F5F5F5F50000000000000000000000000000000000000000000000000000000000000000000000
310
000000000000000000000000000000000000000000000000000000000000000000000000000000000000000000000000000000000000000000000000000000000000000000000000000000000000000000000000000000000000000000000000F500000000BE00000000000000000000000000000000000000000000000000
310
0000000000000000000000BE000000000000000000F500000000000000000000000000000000000000000000000000000000000000F500F5F500F50000F5F500F5000000000000000000F5F5F500000000F50000F500F50000000000F500000000000000000000000000000000000000000000000000000000000000000000
310
000000000000000000F5F5F5F5F5F5F5F5F500F5F5F5F5F50000000000000000000000000000000000000000000000000000000000000000000000000000000000000000000000000000000000000000000000000000000000000000000000000000F500000000BE0000000000000000000000000000000000000000000000
310
00000000000000000000000000BE000000000000000000F5000000000000000000000000000000000000000000000000000000000000000000F50000F50000F5F500F5000000000000000000F5F5F50000F5F5000000F500F50000000000F50000000000000000000000000000000000000000000000000000000000000000
310
0000000000000000000000F500000000000000F500000000F5F50000000000000000000000000000000000000000000000000000000000000000000000000000000000000000000000000000000000000000000000000000000000000000000000000000F500000000BE000000000000000000000000000000000000000000
310
000000000000000000000000000000BE000000000000000000F50000000000000000000000000000000000000000000000000000F5F5F5F500F5F5F50000F5F5F5F50000F5F50000000000000000F5F5F5F500F500F5F5F5F500F50000000000F5F5F500000000000000000000000000000000000000000000000000000000
310
00000000000000000000000000F500000000000000F500000000F5F5F500000000000000000000000000000000000000000000000000000000000000000000000000000000000000000000000000000000000000000000000000000000000000000000000000F500000000BE00000000000000000000000000000000000000
310
0000000000000000000000000000000000BE000000000000000000F500000000000000000000000000000000000000000000000000F5F5F52D2D2DF52D2D2D2DF52D00F50000F5F5000000000000000000F5F52D2DF52D2D2D2D2D2DF52D2D000000F5F5F50000000000000000000000000000000000000000000000000000
310
000000000000000000000000000000F500000000000000F500000000F500F500000000000000000000000000000000000000000000000000000000000000000000000000000000000000000000000000000000000000000000000000000000000000000000000000F500000000BE0000000000000000000000000000000000
310
00000000000000000000000000000000000000BE000000000000000000F500000000000000000000000000000000000000000000000000F5F5F5000000F500000000F50000F50000F5F500000000000000000000F50000F5000000000000F50000000000F5F5F5000000000000000000000000000000000000000000000000
310
0000000000000000000000000000000000F500000000000000F500000000F5F5F500000000000000000000000000000000000000000000000000000000000000000000000000000000000000000000000000000000000000000000000000000000000000000000000000F500000000BE000000000000000000000000000000
310
000000000000000000000000000000000000000000BE000000000000000000F50000000000000000000000000000000000000000000000000000F5F5F5F500F5F5F50000F5F5F5F50000F5F500000000000000000000000000F500F5F5F5F500F50000000000F5F5F500000000000000000000000000000000000000000000
310
00000000000000000000000000000000000000F500000000000000F500000000F5F5F500000000000000000000000000000000000000000000000000000000000000000000000000000000000000000000000000000000000000000000000000000000000000000000000000F500000000BE00000000000000000000000000
310
0000000000000000000000000000000000000000000000BE000000000000000000F5000000000000000000000000000000000000000000000000000000000000000000F50000F50000F5F500F50000000000000000000000000000F5F5000000F500F50000000000F500000000000000000000000000000000000000000000
310
000000000000000000000000000000000000000000F500000000000000F500000000F5F50000000000000000000000000000000000000000000000000000000000000000000000000000000000000000000000000000000000000000000000000000000000000000000000000000F500000000BE0000000000000000000000
310
00000000000000000000000000000000000000000000000000BE000000000000000000F500000000000000000000000000000000000000000000000000000000000000F50000F500F50000F5F500F500000000000000000000000000000000000000F500F50000000000F50000000000000000000000000000000000000000
310
0000000000000000000000000000000000000000000000F5F5F5F5F5F5F5F5F500F5F5F5F5F50000000000000000000000000000000000000000000000000000000000000000000000000000000000000000000000000000000000000000000000000000000000000000000000000000F500000000BE000000000000000000
310
000000000000000000000000000000000000000000000000000000BE000000000000000000F500000000000000000000000000000000000000000000000000000000000000F50000F5F5F5F5F5F5F5F5F500000000000000000000000000000000000000F5F5F500F5F5F5F5F5F50000000000000000000000000000000000
310
000000000000000000000000000000000000000000000000000000000000000000000000000000000000000000000000000000000000000000000000000000000000000000000000000000000000000000000000000000000000000000000000000000000000000000000000000000000000F500000000BE00000000000000
310
0000000000000000000000000000000000000000000000000000000000BE000000000000000000F500000000000000000000000000000000000000000000000000000000000000F500000000F50000F50000000000000000000000000000000000000000000000000000000000000000000000000000000000000000000000
310
000000000000000000000000000000000000000000000000000000F500000000000000F50000000000000000000000000000000000000000000000000000000000000000000000000000000000000000000000000000000000000000000000000000000000000000000000000000000000000000F500000000BE0000000000
310
00000000000000000000000000000000000000000000000000000000000000BE000000000000000000F500000000000000000000000000000000000000000000000000000000000000F5F50000F5F50000F5000000000000000000000000000000000000000000000000000000000000000000000000000000000000000000
310
0000000000000000000000000000000000000000000000000000000000F500000000000000F50000000000000000000000000000000000000000000000000000000000000000000000000000000000000000000000000000000000000000000000000000000000000000000000000000000000000000F500000000BE000000
310
000000000000000000000000000000000000000000000000000000000000000000BE000000000000000000F500000000000000000000000000000000000000000000000000000000000000F5F5F5F5F5F500000000000000000000000000000000000000000000000000000000000000000000000000000000000000000000
310
00000000000000000000000000000000000000000000000000000000000000F500000000000000F50000000000000000000000000000000000000000000000000000000000000000000000000000000000000000000000000000000000000000000000000000000000000000000000000000000000000000F500000000BE00
310
0000000000000000000000000000000000000000000000000000000000000000000000BE000000000000000000F50000000000000000000000000000000000000000000000000000000000000000F5F5F500000000000000000000000000000000000000000000000000000000000000000000000000000000000000000000
310
000000000000000000000000000000000000000000000000000000000000000000F5F5F5F5F5F5F5F5F50000000000000000000000000000000000000000000000000000000000000000000000000000000000000000000000000000000000000000000000000000000000000000000000000000000000000000F500000000
310
BE000000000000000000000000000000000000000000000000000000000000000000000000BE000000000000000000F500000000000000000000000000000000000000000000000000000000000000000000000000000000000000000000000000000000000000000000000000000000000000000000000000000000000000
310
0000000000000000000000000000000000000000000000000000000000000000000000F50000F5F5F50000F50000000000000000000000000000000000000000000000000000000000000000000000000000000000000000000000000000000000000000000000000000000000000000000000000000000000000000F50000
310
0000BE000000000000000000000000000000000000000000000000000000000000000000000000BE000000000000000000F5000000000000000000000000000000000000000000000000000000000000F5F5F5F5F5F5F500000000000000000000000000000000000000F5F5F5F5F5F5F50000000000000000000000000000
310
00000000000000000000000000000000000000000000000000000000000000000000000000F5F5F5F5F5F5F500000000000000000000000000000000000000000000000000000000000000000000000000000000000000000000000000000000000000000000000000000000000000000000000000000000000000000000F5
310
00000000BE000000000000000000000000000000000000000000000000000000000000000000000000BE000000000000000000F5000000000000000000000000000000000000000000000000000000000000F5F5F5F5F5F5F500000000000000000000000000000000000000F5F5F5F5F5F5F5000000000000000000000000
310
000000000000000000000000000000000000000000000000000000000000000000000000000000F5F5F5F5F5F5F5000000000000000000000000000000000000000000000000000000000000000000000000000000000000000000000000000000000000000000000000000000000000000000000000000000000000000000
310
00F500000000BE000000000000000000000000000000000000000000000000000000000000000000000000BE000000000000000000F500000000000000000000000000000000000000000000000000000000000000000000000000000000000000000000000000000000000000000000000000000000000000000000000000
310
00000000000000000000000000000000000000000000000000000000000000000000000000000000000000000000000000000000000000000000000000000000000000000000000000000000000000000000000000000000000000000000000000000000000000000000000000000000000000000000000000000000000000
310
000000F500000000BE000000000000000000000000000000000000000000000000000000000000000000000000BE000000000000000000F50000000000000000000000000000000000000000000000000000000000000000000000000000000000000000000000000000000000000000000000000000000000000000000000
310
00000000000000000000000000000000000000000000000000000000000000000000000000000000000000000000000000000000000000000000000000000000000000000000000000000000000000000000000000000000000000000000000000000000000000000000000000000000000000000000000000000000000000
310
0000000000F500000000BE000000000000000000000000000000000000000000000000000000000000000000000000BE000000000000000000F5000000000000000000000000000000000000000000000000000000000000000000000000000000000000000000000000000000000000000000000000000000000000000000
310
00000000000000000000000000000000000000000000000000000000000000000000000000000000000000000000000000000000000000000000000000000000000000000000000000000000000000000000000000000000000000000000000000000000000000000000000000000000000000000000000000000000000000
310
00000000000000F500000000BE000000000000000000000000000000000000000000000000000000000000000000000000BE000000000000000000F500000000000000000000000000000000000000000000000000000000000000000000000000000000000000000000000000000000000000000000000000000000000000
310
00000000000000000000000000000000000000000000000000000000000000000000000000000000000000000000000000000000000000000000000000000000000000000000000000000000000000000000000000000000000000000000000000000000000000000000000000000000000000000000000000000000000000
310
000000000000000000F500000000BE000000000000000000000000000000000000000000000000000000000000000000000000BE000000000000000000F50000000000000000000000000000000000000000000000000000000000000000000000000000000000000000000000000000000000000000000000000000000000
310
00000000000000000000000000000000000000000000000000000000000000000000000000000000000000000000000000000000000000000000000000000000000000000000000000000000000000000000000000000000000000000000000000000000000000000000000000000000000000000000000000000000000000
310
0000000000000000000000F500000000BE000000000000000000000000000000000000000000000000000000000000000000000000BE000000000000000000F5000000000000000000000000000000000000000000000000000000000000000000000000000000000000000000000000000000000000000000000000000000
310
00000000000000000000000000000000000000000000000000000000000000000000000000000000000000000000000000000000000000000000000000000000000000000000000000000000000000000000000000000000000000000000000000000000000000000000000000000000000000000000000000000000000000
310
00000000000000000000000000F500000000BE000000000000000000000000000000000000000000000000000000000000000000000000BE000000000000000000F500000000000000000000000000000000000000000000000000000000000000000000000000000000000000000000000000000000000000000000000000
310
00000000000000000000000000000000000000000000000000000000000000000000000000000000000000000000000000000000000000000000000000000000000000000000000000000000000000000000000000000000000000000000000000000000000000000000000000000000000000000000000000000000000000
310
000000000000000000000000000000F500000000BE000000000000000000000000000000000000000000000000000000000000000000000000BE000000000000000000F50000000000000000000000000000000000000000000000000000000000000000000000000000000000000000000000000000000000000000000000
310
00000000000000000000000000000000000000000000000000000000000000000000000000000000000000000000000000000000000000000000000000000000000000000000000000000000000000000000000000000000000000000000000000000000000000000000000000000000000000000000000000000000000000
310
0000000000000000000000000000000000F500000000BE000000000000000000000000000000000000000000000000000000000000000000000000BE000000000000000000F5000000000000000000000000000000000000000000000000000000000000000000000000000000000000000000000000000000000000000000
310
00000000000000000000000000000000000000000000000000000000000000000000000000000000000000000000000000000000000000000000000000000000000000000000000000000000000000000000000000000000000000000000000000000000000000000000000000000000000000000000000000000000000000
310
00000000000000000000000000000000000000F500000000BE000000000000000000000000000000000000000000000000000000000000000000000000BE000000000000000000F500000000000000000000000000000000000000000000000000000000000000000000000000000000000000000000000000000000000000
310
00000000000000000000000000000000000000000000000000000000000000000000000000000000000000000000000000000000000000000000000000000000000000000000000000000000000000000000000000000000000000000000000000000000000000000000000000000000000000000000000000000000000000
310
000000000000000000000000000000000000000000F500000000BE000000000000000000000000000000000000000000000000000000000000000000000000BE000000000000000000F50000000000000000000000000000000000000000000000000000000000000000000000000000000000000000000000000000000000
310
00000000000000000000000000000000000000000000000000000000000000000000000000000000000000000000000000000000000000000000000000000000000000000000000000000000000000000000000000000000000000000000000000000000000000000000000000000000000000000000000000000000000000
310
0000000000000000000000000000000000000000000000F500000000BE000000000000000000000000000000000000000000000000000000000000000000000000BE000000000000000000F5000000000000000000000000000000000000000000000000000000000000000000000000000000000000000000000000000000
310
00000000000000000000000000000000000000000000000000000000000000000000000000000000000000000000000000000000000000000000000000000000000000000000000000000000000000000000000000000000000000000000000000000000000000000000000000000000000000000000000000000000000000
310
00000000000000000000000000000000000000000000000000F500000000BE000000000000000000000000000000000000000000000000000000000000000000000000BE000000000000000000F500000000000000000000000000000000000000000000000000000000000000000000000000000000000000000000000000
310
00000000000000000000000000000000000000000000000000000000000000000000000000000000000000000000000000000000000000000000000000000000000000000000000000000000000000000000000000000000000000000000000000000000000000000000000000000000000000000000000000000000000000
310
000000000000000000000000000000000000000000000000000000F500000000BE000000000000000000000000000000000000000000000000000000000000000000000000BE000000000000000000F50000000000000000000000000000000000000000000000000000000000000000000000000000000000000000000000
310
00000000000000000000000000000000000000000000000000000000000000000000000000000000000000000000000000000000000000000000000000000000000000000000000000000000000000000000000000000000000000000000000000000000000000000000000000000000000000000000000000000000000000
310
0000000000000000000000000000000000000000000000000000000000F500000000BE000000000000000000000000000000000000000000000000000000000000000000000000BE000000000000000000F5000000000000000000000000000000000000000000000000000000000000000000000000000000000000000000
310
00000000000000000000000000000000000000000000000000000000000000000000000000000000000000000000000000000000000000000000000000000000000000000000000000000000000000000000000000000000000000000000000000000000000000000000000000000000000000000000000000000000000000
310
00000000000000000000000000000000000000000000000000000000000000F500000000BE000000000000000000000000000000000000000000000000000000000000000000000000BE000000000000000000F500000000000000000000000000000000000000000000000000000000000000000000000000000000000000
310
00000000000000000000000000000000000000000000000000000000000000000000000000000000000000000000000000000000000000000000000000000000000000000000000000000000000000000000000000000000000000000000000000000000000000000000000000000000000000000000000000000000000000
310
000000000000000000000000000000000000000000000000000000000000000000F500000000BE000000000000000000000000000000000000000000000000000000000000000000000000BE000000000000000000F50000000000000000000000000000000000000000000000000000000000000000000000000000000000
310
00000000000000000000000000000000000000000000000000000000000000000000000000000000000000000000000000000000000000000000000000000000000000000000000000000000000000000000000000000000000000000000000000000000000000000000000000000000000000000000000000000000000000
310
0000000000000000000000000000000000000000000000000000000000000000000000F500000000BE000000000000000000000000000000000000000000000000000000000000000000000000BE000000000000000000F5000000000000000000000000000000000000000000000000000000000000000000000000000000
310
00000000000000000000000000000000000000000000000000000000000000000000000000000000000000000000000000000000000000000000000000000000000000000000000000000000000000000000000000000000000000000000000000000000000000000000000000000000000000000000000000000000000000
310
00000000000000000000000000000000000000000000000000000000000000000000000000F500000000BE000000000000000000000000000000000000000000000000000000000000000000000000BE000000000000000000F500000000000000000000000000000000000000000000000000000000000000000000000000
310
00000000000000000000000000000000000000000000000000000000000000000000000000000000000000000000000000000000000000000000000000000000000000000000000000000000000000000000000000000000000000000000000000000000000000000000000000000000000000000000000000000000000000
310
000000000000000000000000000000000000000000000000000000000000000000000000000000F500000000BE000000000000000000000000000000000000000000000000000000000000000000000000BE000000000000000000F50000000000000000000000000000000000000000000000000000000000000000000000
310
00000000000000000000000000000000000000000000000000000000000000000000000000000000000000000000000000000000000000000000000000000000000000000000000000000000000000000000000000000000000000000000000000000000000000000000000000000000000000000000000000000000000000
310
0000000000000000000000000000000000000000000000000000000000000000000000000000000000F500000000BE000000000000000000000000000000000000000000000000000000000000000000000000BE000000000000000000F5000000000000000000000000000000000000000000000000000000000000000000
310
00000000000000000000000000000000000000000000000000000000000000000000000000000000000000000000000000000000000000000000000000000000000000000000000000000000000000000000000000000000000000000000000000000000000000000000000000000000000000000000000000000000000000
310
00000000000000000000000000000000000000000000000000000000000000000000000000000000000000F500000000BE000000000000000000000000000000000000000000000000000000000000000000000000BE000000000000000000F500000000000000000000000000000000000000000000000000000000000000
310
00000000000000000000000000000000000000000000000000000000000000000000000000000000000000000000000000000000000000000000000000000000000000000000000000000000000000000000000000000000000000000000000000000000000000000000000000000000000000000000000000000000000000
310
000000000000000000000000000000000000000000000000000000000000000000000000000000000000000000F500000000BE000000000000000000000000000000000000000000000000000000000000000000000000BE000000000000000000F50000000000000000000000000000000000000000000000000000000000
310
00000000000000000000000000000000000000000000000000000000000000000000000000000000000000000000000000000000000000000000000000000000000000000000000000000000000000000000000000000000000000000000000000000000000000000000000000000000000000000000000000000000000000
310
0000000000000000000000000000000000000000000000000000000000000000000000000000000000000000000000F500000000BE000000000000000000000000000000000000000000000000000000000000000000000000BE000000000000000000F5000000000000000000000000000000000000000000000000000000
310
00000000000000000000000000000000000000000000000000000000000000000000000000000000000000000000000000000000000000000000000000000000000000000000000000000000000000000000000000000000000000000000000000000000000000000000000000000000000000000000000000000000000000
310
00000000000000000000000000000000000000000000000000000000000000000000000000000000000000000000000000F500000000BE000000000000000000000000000000000000000000000000000000000000000000000000BE000000000000000000F500000000000000000000000000000000000000000000000000
310
000000000000000000000000000000000000000000000000000000000000F5F5F5F5000000000000000000000000000000000000000000000000000000000000000000000000000000000000000000000000000000000000000000000000000000000000000000000000000000000000000000000000000000000000000000
310
000000000000000000000000000000000000000000000000000000000000000000000000000000000000000000000000000000F500000000BE000000000000000000000000000000000000000000000000000000000000000000000000BE000000000000000000F50000000000000000000000000000000000000000000000
310
000000F500000000000000000000000000000000000000000000000000000000F5F5F5F500000000000000000000000000000000000000000000000000000000F50000000000000000000000000000000000000000000000000000000000000000000000000000000000000000000000000000000000000000000000000000
310
0000000000000000000000000000000000000000000000000000000000000000000000000000000000000000000000000000000000F500000000BE000000000000000000000000000000000000000000000000000000000000000000000000BE000000000000000000F5000000000000000000000000000000000000000000
310
0000000000F5F5F5F5F5F5F5F5F5F5F5F5F5F5F5F5F5F5F5F5F5F5F5F5F5F5F5F5F5F5F5F5F5F5F5F5F5F5F5F5F5F5F5F5F5F5F5F5F5F5F5F5F5F5F5F5F5F5F5F5F5F5000000000000000000000000000000000000000000000000000000000000000000000000000000000000000000000000000000000000000000000000
310
00000000000000000000000000000000000000000000000000000000000000000000000000000000000000000000000000000000000000F500000000BE000000000000000000000000000000000000000000000000000000000000000000000000BE000000000000000000F500000000000000000000000000000000000000
310
00000000000000F50000F5F5000000000000000000000000000000000000000000000000000000000000000000000000000000000000000000000000000000F5F5000000F500000000000000000000000000000000000000000000000000000000000000000000000000000000000000000000000000000000000000000000
310
000000000000000000000000000000000000000000000000000000000000000000000000000000000000000000000000000000000000000000F500000000BE000000000000000000000000000000000000000000000000000000000000000000000000BE000000000000000000F50000000000000000000000000000000000
310
000000000000000000F50000F5F5000000000000000000000000000000000000000000000000000000000000000000000000000000000000000000000000000000F5F5F50000F50000000000000000000000000000000000000000000000000000000000000000000000000000000000000000000000000000000000000000
310
0000000000000000000000000000000000000000000000000000000000000000000000000000000000000000000000000000000000000000000000F500000000BE000000000000000000000000000000000000000000000000000000000000000000000000BE000000000000000000F5000000000000000000000000000000
310
0000000000000000F5F5F5F5F5F5F5F5F50000000000000000000000000000000000000000000000000000000000000000000000000000000000000000000000000000F5F5F5F5F5F5F5F500000000000000000000000000000000000000000000000000000000000000000000000000000000000000000000000000000000
310
00000000000000000000000000000000000000000000000000000000000000000000000000000000000000000000000000000000000000000000000000F500000000BE000000000000000000000000000000000000000000000000000000000000000000000000BE000000000000000000F500000000000000000000000000
310
00000000000000000000000000F50000000000000000000000000000000000F5F5F5F50000000000000000000000000000000000000000000000000000000000000000000000000000F5F500000000000000000000000000000000000000000000000000000000000000000000000000000000000000000000000000000000
310
000000000000000000000000000000000000000000000000000000000000000000000000000000000000000000000000000000000000000000000000000000F500000000BE000000000000000000000000000000000000000000000000000000000000000000000000BE000000000000000000F50000000000000000000000
310
0000000000000000000000F5000000F5000000000000000000000000000000000000F5000000000000000000002D0000000000000000000000000000000000000000000000000000000000F5F5000000F500000000000000000000000000000000000000000000000000000000000000000000000000000000000000000000
310
0000000000000000000000000000000000000000000000000000000000000000000000000000000000000000000000000000000000000000000000000000000000F500000000BE000000000000000000000000000000000000000000000000000000000000000000000000BE000000000000000000F5000000000000000000
310
00000000000000000000000000F5000000F5000000000000000000000000000000000000F5000000000000000000002D000000000000000000000000000000000000000000000000000000000000F50000F5F50000000000000000000000000000000000000000000000000000000000000000000000000000000000000000
310
00000000000000000000000000000000000000000000000000000000000000000000000000000000000000000000000000000000000000000000000000000000000000F500000000BE000000000000000000000000000000000000000000000000000000000000000000000000BE000000000000000000F500000000000000
310
00000000000000000000000000F5F5F5F5F5F5F5F5F5F5F5F5F5F5F5F5F5F5F5F5F5F5F5F5F5F5F5F5F5F5F5F5F5F5F5F5F5F5F5F5F5F5F5F5F5F5F5F5F5F5F5F5F5F5F5F5F5F5F5F5F5F5F5F5F5F5F500F5F5F5F5F50000000000000000000000000000000000000000000000000000000000000000000000000000000000
310
000000000000F5F5F5F5F5F5F5F5F5F5F5F5F5F5F5000000000000000000000000000000000000000000000000000000000000000000000000000000000000000000000000F500000000BE000000000000000000000000000000000000000000000000000000000000000000000000BE000000000000000000F50000000000
310
000000000000000000000000000000F5F5F5F5F500F5000000000000000000000000000000F5000000000000000000000000002D000000000000000000000000000000000000000000000000000000000000F500F5F5F5F5000000000000000000000000000000000000000000000000000000000000000000000000000000
310
0000000000000000F50000000000000000F5000000F500000000000000000000000000000000000000000000000000000000000000000000000000000000000000000000000000F500000000BE000000000000000000000000000000000000000000000000000000000000000000000000BE000000000000000000F5000000
310
00000000000000000000000000000000000000F5000000F5000000000000000000000000000000F5000000000000000000000000002D000000000000000000000000000000000000000000000000000000000000F50000F5F50000000000000000000000000000000000000000000000000000000000000000000000000000
310
00000000000000000000F50000000000000000F5000000F500000000000000000000000000000000000000000000000000000000000000000000000000000000000000000000000000F500000000BE000000000000000000000000000000000000000000000000000000000000000000000000BE000000000000000000F500
310
000000000000000000000000000000000000000000F5000000F50000000000000000000000000000F5F5000000000000000000000000002D000000000000000000000000000000000000000000000000000000000000F5000000F5000000000000000000000000000000000000000000000000000000000000000000000000
310
000000000000000000000000F50000000000000000F5000000F5F5F50000000000000000000000000000000000000000000000000000000000000000000000000000000000000000000000F500000000BE000000000000000000000000000000000000000000000000000000000000000000000000BE000000000000000000
310
F50000000000000000000000000000000000000000000000000000F50000000000000000000000000000F5F5000000000000000000000000002D000000000000000000000000000000000000000000000000000000000000F50000000000000000000000000000000000000000000000000000000000000000000000000000
310
0000000000000000000000000000F50000000000000000F5000000F5F5F50000000000000000000000000000000000000000000000000000000000000000000000000000000000000000000000F500000000BE000000000000000000000000000000000000000000000000000000000000000000000000BE00000000000000
310
0000F5000000000000000000000000000000000000000000F500000000F50000000000000000000000000000F5F5000000000000000000000000002D000000000000000000000000000000000000000000000000000000000000F5000000000000000000000000000000000000000000000000000000000000000000000000
310
00000000000000000000000000000000F50000000000000000F5000000F5F5F50000000000000000000000000000000000000000000000000000000000000000000000000000000000000000000000F500000000BE000000000000000000000000000000000000000000000000000000000000000000000000BE0000000000
310
00000000F5000000000000000000000000000000000000000000F500000000F5000000000000000000000000000000F5000000000000000000000000002D000000000000000000000000000000000000000000000000000000000000F500000000000000000000000000000000000000000000000000000000000000000000
310
000000000000000000000000000000000000F50000000000000000F5000000F500000000000000000000000000000000000000000000000000000000000000000000000000000000000000000000000000F500000000BE000000000000000000000000000000000000000000000000000000000000000000000000BE000000
310
000000000000F500000000000000000000000000000000000000F5F5F5F5F5F5F5F500F5F5F5F5002D2D0000000000F5F5F5F5F5F5F5F5F5F5F5F5F5F5F5F5F5F5F5F5F5F5F5F5F5F5F5F5F5F5F5F5F500000000002D2D00F5F5F5F5F500F50000000000000000000000000000000000000000000000000000000000000000
310
00000000000000000000000000000000000000000F0F0F0F0F0F0F0F0FF5F5F5F5F5F5000000000000000000000000000000000000000000000000000000000000000000000000000000000000000000000000F500000000BE000000000000000000000000000000000000000000000000000000000000000000000000BE00
310
0000000000000000F5000000000000000000000000000000000000000000F500000000F500F50000F500002D0000F5F5F50000F500F5F5000000000000000000002D00000000000000000000000000000000F5F5F50000002D00F5F500F5F500F5000000000000000000000000000000000000000000000000000000000000
310
00000000000000000000000000000000000000000000F500000F00000F0000F5000000F500000000000000000000000000000000000000000000000000000000000000000000000000000000000000000000000000F500000000BE000000000000000000000000000000000000000000000000000000000000000000000000
310
BE000000000000000000F5000000000000000000000000000000000000000000F500000000F500F50000F500000000F50000000000F50000F5F5F500000000000000002D00000000000000000000000000000000000000F500000000F5F500F5F500F500000000000000000000000000000000000000000000000000000000
310
000000000000000000000000000000000000000000000000F5F5000F00000F00F5F5000000F500000000000000000000000000000000000000000000000000000000000000000000000000000000000000000000000000F500000000BE00000000000000000000000000000000000000000000000000000000000000000000
310
0000BE000000000000000000F5000000000000000000000000000000000000000000F500000000F500F50000F5000000F5F50000000000F5000000000000000000000000002D0000000000000000000000000000000000000000F5000000F5F500F5F500F50000000000000000000000000000000000000000000000000000
310
0000000000000000000000000000000000000000000000000000F5F5000F00000F00F5F5000000F500000000000000000000000000000000000000000000000000000000000000000000000000000000000000000000000000F500000000BE0000000000000000000000000000000000000000000000000000000000000000
310
00000000BE000000000000000000F5000000000000000000000000000000000000000000F500000000F500F50000F5000000F5F50000000000F5000000000000000000000000002D000000000000000000000000000000000000000000F50000F5F500F5F500F5000000000000000000000000000000000000000000000000
310
00000000000000000000000000000000000000000000000000000000F5F5000F00000F00F5F5000000F500000000000000000000000000000000000000000000000000000000000000000000000000000000000000000000000000F500000000BE000000000000000000000000000000000000000000000000000000000000
310
000000000000BE000000000000000000F5000000000000000000000000000000000000000000F500000000F500F50000F50000F50000F500000000F5000000000000000000000000002D000000000000000000000000000000000000000000F50000F5F500F5F500F500000000000000000000000000000000000000000000
310
000000000000000000000000000000000000000000000000000000000000F5F5000F00000F00F5F5000000F500000000000000000000000000000000000000000000000000000000000000000000000000000000000000000000000000F500000000BE00000000000000000000000000000000000000000000000000000000
310
0000000000000000BE000000000000000000F5000000000000000000000000000000000000000000F500000000F500F50000F50000F500F5F5F5F50000F5000000000000000000000000002D00000000000000000000000000000000000000000000F500F5F500F5F500F50000000000000000000000000000000000000000
310
0000000000000000000000000000000000000000000000000000000000000000F500F50F00000FF500F5000000F500000000000000000000000000000000000000000000000000000000000000000000000000000000000000000000000000F500000000BE0000000000000000000000000000000000000000000000000000
310
00000000000000000000BE000000000000000000F5000000000000000000000000000000000000000000F500000000F500F50000F500F5000000F5F5F5F500F5000000000000000000000000002D00000000000000000000000000000000000000000000F500F5F500F5F500F5000000000000000000000000000000000000
310
00000000000000000000000000000000000000000000000000000000000000000000F500F50F00000FF500F5000000F500000000000000000000000000000000000000000000000000000000000000000000000000000000000000000000000000F500000000BE000000000000000000000000000000000000000000000000
310
000000000000000000000000BE000000000000000000F5000000000000000000000000000000000000000000F500000000F500F50000F500F500000000F5F5F5F5F5000000000000000000000000002D00000000000000000000000000000000000000000000F500F5F500F5F500F500000000000000000000000000000000
310
000000000000000000000000000000000000000000000000000000000000000000000000F500F50F00000FF500F5000000F500000000000000000000000000000000000000000000000000000000000000000000000000000000000000000000000000F500000000BE00000000000000000000000000000000000000000000
310
0000000000000000000000000000BE000000000000000000F5000000000000000000000000000000000000000000F500000000F500F50000F500F50000000000000000F5000000000000000000000000002D00000000000000000000000000000000000000000000F500F5F500F5F500F50000000000000000000000000000
310
0000000000000000000000000000000000000000000000000000000000000000000000000000F500F50F00000FF500F5000000F500000000000000000000000000000000000000000000000000000000000000000000000000000000000000000000000000F500000000BE0000000000000000000000000000000000000000
310
00000000000000000000000000000000BE000000000000000000F5000000000000000000000000000000000000000000F500000000F500F50000F500F50000000000000000F5000000000000000000000000002D00000000000000000000000000000000000000000000F500F5F500F5F500F5000000000000000000000000
310
00000000000000000000000000000000000000000000000000000000000000000000000000000000F500F50F00000FF500F5000000F500000000000000000000000000000000000000000000000000000000000000000000000000000000000000000000000000F500000000BE000000000000000000000000000000000000
310
000000000000000000000000000000000000BE000000000000000000F50000000000000000000000000000000000000000F5F500000000F500F50000F500F5F500000000000000F5000000000000000000000000002D00000000000000000000000000000000000000000000F500F5F500F5F500F500000000000000000000
310
000000000000000000000000000000000000000000000000000000000000000000000000000000000000F500F50F00000FF500F5000000F500000000000000000000000000000000000000000000000000000000000000000000000000000000000000000000000000F500000000BE00000000000000000000000000000000
310
0000000000000000000000000000000000000000BE000000000000000000F500000000000000000000000000000000000000F5F5F500000000F500F50000F500F5F500000000000000F5000000000000000000000000002D00000000000000000000000000000000000000000000F500F5F500F5F500F50000000000000000
310
0000000000000000000000000000000000000000000000000000000000000000000000000000000000000000F500F50F00000FF500F5000000F500000000000000000000000000000000000000000000000000000000000000000000000000000000000000000000000000F500000000BE0000000000000000000000000000
310
00000000000000000000000000000000000000000000BE000000000000000000F500000000000000000000000000000000000000F5F5F500000000F5F5000000F500F5F500000000000000F5000000000000000000000000002D00000000000000000000000000000000000000000000F500F5F500F500F5F5000000000000
310
00000000000000000000000000000000000000000000000000000000000000000000000000000000000000000000F500F50F00000FF500F5000000F500000000000000000000000000000000000000000000000000000000000000000000000000000000000000000000000000F500000000BE000000000000000000000000
310
000000000000000000000000000000000000000000000000BE000000000000000000F500000000000000000000000000000000000000F5F5F500000000F5F5000000F500F5F5F5F5F5F5F5F5F5F5F5F5F5F5F5F5F5F5F5F5F5F5F5F5F5F5F5F5F5F5F5F5F5F5F5F5F5F5F5F5F5F5F5F5F5F5F500F5F50000F5F5F500000000
310
000000000000000000000000000000000000000000000000000000000000000000000000000000000000000000000000F500F50F00000FF500F5000000F500000000000000000000000000000000000000000000000000000000000000000000000000000000000000000000000000F500000000BE00000000000000000000
310
0000000000000000000000000000000000000000000000000000BE000000000000000000F5000000000000000000000000000000000000000000F500000000F5F5000000F500F5F5F5000000000000F500000000000000000000F5F5F52D000000000000000000000000000000000000000000F5F500F5F50000F5F5F50000
310
0000000000000000000000000000000000000000000000000000000000000000000000000000000000000000000000000000F500F50F00000FF500F5000000F5F5F50000000000000000000000000000000000000000000000000000000000000000000000000000000000000000000000F500000000BE0000000000000000
310
00000000000000000000000000000000000000000000000000000000BE000000000000000000F5000000000000000000000000000000000000000000F500000000F5F50000F50000F5F5000000000000F5F500000000000000000000F5F5F52D00000000000000000000000000000000000000000000F50000F50000F5F5F5
310
00000000000000000000000000000000000000000000000000000000000000000000000000000000000000000000000000000000F500F50F00000FF500F5000000F5F5F50000000000000000000000000000000000000000000000000000000000000000000000000000000000000000000000F500000000BE000000000000
310
000000000000000000000000000000000000000000000000000000000000BE000000000000000000F5000000000000000000000000000000000000000000F500F50000F5F50000F50000F5F5F50000000000F5F5000000000000000000000000002D00000000000000000000000000000000000000000000F50000F50000F5
310
F5F500000000000000000000000000000000000000000000000000000000000000000000000000000000000000000000000000000000F500F50F00000FF500F5000000F5F5F50000000000000000000000000000000000000000000000000000000000000000000000000000000000000000000000F500000000BE00000000
310
0000000000000000000000000000000000000000000000000000000000000000BE000000000000000000F5000000000000000000000000000000000000000000F500F5F500F5F50000F50000F500F50000000000F5F5000000000000000000000000002D00000000000000000000000000000000000000000000F50000F500
310
00F5F5F500000000000000000000000000000000000000000000000000000000000000000000000000000000000000000000000000000000F500F50F00000FF500F5000000F500000000000000000000000000000000000000000000000000000000000000000000000000000000000000000000000000F500000000BE0000
310
00000000000000000000000000000000000000000000000000000000000000000000BE000000000000000000F5000000000000000000000000000000000000000000F500F5F5F5F5F50000F50000F5F5F5000000000000F5000000000000000000000000002D00000000000000000000000000000000000000000000F50000
310
F50000F5F5F500000000000000000000000000000000000000000000000000000000000000000000000000000000000000000000000000000000F500F50F00000FF500F5000000F500000000000000000000000000000000000000000000000000000000000000000000000000000000000000000000000000F500000000BE
310
000000000000000000000000000000000000000000000000000000000000000000000000BE000000000000000000F5000000000000000000000000000000000000000000F500000000F5F50000F50000F50000000000000000F5000000000000000000000000002D0000000000000000000000000000000000000000000000
310
F500F50000F5F5F500000000000000000000000000000000000000000000000000000000000000000000000000000000000000000000000000000000F500F50F00000FF500F5000000F500000000000000000000000000000000000000000000000000000000000000000000000000000000000000000000000000F5000000
310
00BE000000000000000000000000000000000000000000000000000000000000000000000000BE000000000000000000F5000000000000000000000000000000000000000000F500000000F5F50000F50000F50000000000000000F5000000000000000000000000002D000000000000000000000000000000000000000000
310
0000F500F50000F5F5F500000000000000000000000000000000000000000000000000000000000000000000000000000000000000000000000000000000F500F50F00000FF500F5000000F500000000000000000000000000000000000000000000000000000000000000000000000000000000000000000000000000F500
310
000000BE000000000000000000000000000000000000000000000000000000000000000000000000BE000000000000000000F5000000000000000000000000000000000000000000F500000000F5F50000F50000F50000000000000000F5000000000000000000000000002D00000000000000000000000000000000000000
310
00000000F500F50000F5F5F500000000000000000000000000000000000000000000000000000000000000000000000000000000000000000000000000000000F500F50F00000FF500F5000000F500000000000000000000000000000000000000000000000000000000000000000000000000000000000000000000000000
310
F500000000BE000000000000000000000000000000000000000000000000000000000000000000000000BE000000000000000000F5000000000000000000000000000000000000000000F500000000F5F50000F50000F50000000000000000F5000000000000000000000000002D0000000000000000000000000000000000
310
000000000000F500F50000F5F5F500000000000000000000000000000000000000000000000000000000000000000000000000000000000000000000000000000000F500F50F00000FF500F5000000F50000000000000000000000000000000000000000000000000000000000000000000000000000000000000000000000
310
0000F500000000BE000000000000000000000000000000000000000000000000000000000000000000000000BE000000000000000000F5000000000000000000000000000000000000000000F500000000F5F50000F50000F50000000000000000F5000000000000000000000000002D000000000000000000000000000000
310
0000000000000000F500F50000F5F5F500000000000000000000000000000000000000000000000000000000000000000000000000000000000000000000000000000000F500F50F00000FF500F5000000F5000000000000000000000000000000000000000000000000000000000000000000000000000000000000000000
310
00000000F500000000BE000000000000000000000000000000000000000000000000000000000000000000000000BE000000000000000000F500000000000000000000000000000000000000F5F5F5F5F5F5F5F5F50000F50000F50000000000000000F5000000000000000000000000002D00000000000000000000000000
310
00000000000000000000F500F50000F5F5F500000000000000000000000000000000000000000000000000000000000000000000000000000000000000000000000000000000F500F50F00000FF500F5000000F500000000000000000000000000000000000000000000000000000000000000000000000000000000000000
310
000000000000F500000000BE000000000000000000000000000000000000000000000000000000000000000000000000BE000000000000000000F500000000000000000000000000000000000000F5F5F5F5F5F500F5F50000F50000F50000000000000000F5000000000000000000000000002D0000000000000000000000
310
000000000000000000000000F500F50000F5F5F500000000000000000000000000000000000000000000000000000000000000000000000000000000000000000000000000000000F500000FF5F50F0000F5000000F50000000000000000000000000000000000000000000000000000000000000000000000000000000000
310
0000000000000000F500000000BE000000000000000000000000000000000000000000000000000000000000000000000000BE000000000000000000F5000000000000000000000000000000000000000000F500000000F5000000F50000F50000000000000000F5000000000000000000000000002D000000000000000000
310
0000000000000000000000000000F500F500000000F500000000000000000000000000000000000000000000000000000000000000000000000000000000000000000000000000000000F50000F50000F50000F5000000F5000000000000000000000000000000000000000000000000000000000000000000000000000000
310
00000000000000000000F500000000BE000000000000000000000000000000000000000000000000000000000000000000000000BE000000000000000000F500000000000000000000000000000000000000F5F5F50000000000F50000F50000F50000000000000000F5000000000000000000000000002D00000000000000
310
00000000000000000000000000000000F500F5000000F50000000000000000000000000000000000000000000000000000000000000000000000000000000000000000000000000000000000F50000F50000F50000F5000000F500000000000000000000000000000000000000000000000000000000000000000000000000
310
000000000000000000000000F500000000BE000000000000000000000000000000000000000000000000000000000000000000000000BE000000000000000000F500000000000000000000000000000000000000F5F5F50000000000F50000F50000F50000000000000000F5000000000000000000000000002D0000000000
310
000000000000000000000000000000000000F500F5000000F50000000000000000000000000000000000000000000000000000000000000000000000000000000000000000000000000000000000F50000F50000F50000F5000000F50000000000000000000000000000000000000000000000000000000000000000000000
310
0000000000000000000000000000F500000000BE000000000000000000000000000000000000000000000000000000000000000000000000BE000000000000000000F5000000000000000000000000000000000000000000F5000000F5F500F500F50000F500F5000000000000F5000000000000000000000000002D000000
310
0000000000000000000000000000000000000000F500F50000F5000000000000000000000000000000000000000000000000000000000000000000000000000000000000000000000000000000000000F50000F50000F50000F5000000F5000000000000000000000000000000000000000000000000000000000000000000
310
00000000000000000000000000000000F500000000BE000000000000000000000000000000000000000000000000000000000000000000000000BE000000000000000000F50000000000000000000000000000000000000000F5F5F5F5F5F5F5F5F5F5F5F5F5F5F5F500F5F5F5F5F5F5F50000000000000000000000002D00
310
00000000000000000000000000000000000000000000F5F5F5F5F5F500F500000000000000000000000000000000000000000000000000000000000000000000000000000000000000000000000000000000F5F5F5F5F5F5F5F5F5F5F5F5F5F5F5000000000000000000000000000000000000000000000000000000000000
310
000000000000000000000000000000000000F500000000BE000000000000000000000000000000000000000000000000000000000000000000000000BE000000000000000000F50000000000000000000000000000000000000000000000000000F500000000000000F5000000000000000000000000000000000000000000
310
2D000000000000000000000000000000000000000000000000000000000000000000000000000000000000000000000000000000000000000000000000000000000000000000000000000000000000000000000000000000000000000000000000000000000000000000000000000000000000000000000000000000000000
310
0000000000000000000000000000000000000000F500000000BE000000000000000000000000000000000000000000000000000000000000000000000000BE000000000000000000F50000000000000000000000000000000000000000000000000000F500F500000000F50000000000000000000000000000000000000000
310
00002D0000000000000000000000000000000000000000000000F500000000F500F500000000000000000000000000000000000000000000000000000000000000000000000000000000000000000000000000000000F50000F50000F50000F500000000000000000000000000000000000000000000000000000000000000
310
00000000000000000000000000000000000000000000F500000000BE000000000000000000000000000000000000000000000000000000000000000000000000BE000000000000000000F50000000000000000000000000000000000000000000000000000F500F500000000F5000000000000000000000000000000000000
310
00000000000000000000000000000000000000000000000000000000F500000000F500F5000000000000000000000000000000000000000000000000000000000000000000000000000000000000000000000000000000F5F50000F5F5F5F50000F5F500000000000000000000000000000000000000000000000000000000
310
000000000000000000000000000000000000000000000000F500000000BE000000000000000000000000000000000000000000000000000000000000000000000000BE000000000000000000F50000000000000000000000000000000000000000000000000000F500F500000000F500000000000000000000000000000000
310
000000000000000000000000000000000000000000000000000000000000F500000000F500F50000000000000000000000000000000000000000000000000000000000000000000000000000000000000000000000000000F5F5F5F5F5F5F5F5F5F5F5F5F5F500000000000000000000000000000000000000000000000000
310
0000000000000000000000000000000000000000000000000000F500000000BE000000000000000000000000000000000000000000000000000000000000000000000000BE000000000000000000F50000000000000000000000000000000000000000000000000000F500F500000000F50000000000000000000000000000
310
0000000000000000000000000000000000000000000000000000000000000000F500000000F500F500000000000000000000000000000000000000000000000000000000000000000000000000000000000000000000000000000000F5F5F500F5F500F5F5F500000000000000000000000000000000000000000000000000
310
00000000000000000000000000000000000000000000000000000000F500000000BE000000000000000000000000000000000000000000000000000000000000000000000000BE000000000000000000F50000000000000000000000000000000000000000000000F5F5F5F5F5F5F5F5F5F5F5F5F5F5F5F5F5F5F5F5F5F5F5
310
F5F5F5F5F5F5F5F5F5F5F5F5F5F5F5F5F5F5F5F5F5F5F5F5F5F5F5F5F5F5F5F5F5F5F5F5F5F5F5F5F5F5F5F50000000000000000000000000000000000000000000000000000000000000000000000000000000000000000000000000000F5F5F5F5F5F5F5F5F5F50000000000000000000000000000000000000000000000
310
000000000000000000000000000000000000000000000000000000000000F500000000BE000000000000000000000000000000000000000000000000000000000000000000000000BE000000000000000000F50000000000000000000000000000000000000000000000000000F5F500F5F5F5000000000000000000000000
310
0000000000000000000000F5F5F50000000000000000000000000000000000000000000000F5F5F500F5F5F500000000000000000000000000000000000000000000000000000000000000000000000000000000000000000000000000000000000000F5F5F5F5000000000000000000000000000000000000000000000000
310
0000000000000000000000000000000000000000000000000000000000000000F500000000BE000000000000000000000000000000000000000000000000000000000000000000000000BE000000000000000000F50000000000000000000000000000000000000000000000000000F5F500F5F5F500000000000000000000
310
00000000000000000000000000F5F5F50000000000000000000000000000000000000000000000F5F5F50000F5F500000000000000000000000000000000000000000000000000000000000000000000000000000000000000000000000000000000000000F5F5F50000000000000000000000000000000000000000000000
310
00000000000000000000000000000000000000000000000000000000000000000000F500000000BE000000000000000000000000000000000000000000000000000000000000000000000000BE000000000000000000F500000000000000000000000000000000000000000000000000000000000000000000000000000000
310
00000000000000000000000000000000000000000000000000000000000000000000000000000000000000000000000000000000000000000000000000000000000000000000000000000000000000000000000000000000000000000000000000000000000000000000000000000000000000000000000000000000000000
310
000000000000000000000000000000000000000000000000000000000000000000000000F500000000BE000000000000000000000000000000000000000000000000000000000000000000000000BE000000000000000000F50000000000000000000000000000000000000000000000000000000000000000000000000000
310
00000000000000000000000000000000000000000000000000000000000000000000000000000000000000000000000000000000000000000000000000000000000000000000000000000000000000000000000000000000000000000000000000000000000000000000000000000000000000000000000000000000000000
310
0000000000000000000000000000000000000000000000000000000000000000000000000000F500000000BE000000000000000000000000000000000000000000000000000000000000000000000000BE000000000000000000F5000000000000000000000000000000000000000000000000000000000000000000000000
310
00000000000000000000000000000000000000000000000000000000000000000000000000000000000000000000000000000000000000000000000000000000000000000000000000000000000000000000000000000000000000000000000000000000000000000000000000000000000000000000000000000000000000
310
00000000000000000000000000000000000000000000000000000000000000000000000000000000F500000000BE000000000000000000000000000000000000000000000000000000000000000000000000BE000000000000000000F500000000000000000000000000000000000000000000000000000000000000000000
310
00000000000000000000000000000000000000000000000000000000000000000000000000000000000000000000000000000000000000000000000000000000000000000000000000000000000000000000000000000000000000000000000000000000000000000000000000000000000000000000000000000000000000
310
000000000000000000000000000000000000000000000000000000000000000000000000000000000000F500000000BE000000000000000000000000000000000000000000000000000000000000000000000000BE000000000000000000F50000000000000000000000000000000000000000000000000000000000000000
310
00000000000000000000000000000000000000000000000000000000000000000000000000000000000000000000000000000000000000000000000000000000000000000000000000000000000000000000000000000000000000000000000000000000000000000000000000000000000000000000000000000000000000
310
0000000000000000000000000000000000000000000000000000000000000000000000000000000000000000F500000000BE000000000000000000000000000000000000000000000000000000000000000000000000BE000000000000000000F5000000000000000000000000000000000000000000000000000000000000
310
00000000000000000000000000000000000000000000000000000000000000000000000000000000000000000000000000000000000000000000000000000000000000000000000000000000000000000000000000000000000000000000000000000000000000000000000000000000000000000000000000000000000000
310
00000000000000000000000000000000000000000000000000000000000000000000000000000000000000000000F500000000BE000000000000000000000000000000000000000000000000000000000000000000000000BE000000000000000000F500000000000000000000000000000000000000000000000000000000
310
00000000000000000000000000000000000000000000000000000000000000000000000000000000000000000000000000000000000000000000000000000000000000000000000000000000000000000000000000000000000000000000000000000000000000000000000000000000000000000000000000000000000000
310
000000000000000000000000000000000000000000000000000000000000000000000000000000000000000000000000F500000000BE000000000000000000000000000000000000000000000000000000000000000000000000BE000000000000000000F50000000000000000000000000000000000000000000000000000
310
00000000000000000000000000000000000000000000000000000000000000000000000000000000000000000000000000000000000000000000000000000000000000000000000000000000000000000000000000000000000000000000000000000000000000000000000000000000000000000000000000000000000000
310
0000000000000000000000000000000000000000000000000000000000000000000000000000000000000000000000000000F500000000BE000000000000000000000000000000000000000000000000000000000000000000000000BE000000000000000000F5000000000000000000000000000000000000000000000000
310
00000000000000000000000000000000000000000000000000000000000000000000000000000000000000000000000000000000000000000000000000000000000000000000000000000000000000000000000000000000000000000000000000000000000000000000000000000000000000000000000000000000000000
310
00000000000000000000000000000000000000000000000000000000000000000000000000000000000000000000000000000000F500000000BE000000000000000000000000000000000000000000000000000000000000000000000000BE000000000000000000F500000000000000000000000000000000000000000000
310
00000000000000000000000000000000000000000000000000000000000000000000000000000000000000000000000000000000000000000000000000000000000000000000000000000000000000000000000000000000000000000000000000000000000000000000000000000000000000000000000000000000000000
310
000000000000000000000000000000000000000000000000000000000000000000000000000000000000000000000000000000000000F500000000BE000000000000000000000000000000000000000000000000000000000000000000000000BE000000000000000000F50000000000000000000000000000000000000000
310
00000000000000000000000000000000000000000000000000000000000000000000000000000000000000000000000000000000000000000000000000000000000000000000000000000000000000000000000000000000000000000000000000000000000000000000000000000000000000000000000000000000000000
310
0000000000000000000000000000000000000000000000000000000000000000000000000000000000000000000000000000000000000000F500000000BE000000000000000000000000000000000000000000000000000000000000000000000000BE000000000000000000F5000000000000000000000000000000000000
310
00000000000000000000000000000000000000000000000000000000000000000000000000000000000000000000000000000000000000000000000000000000000000000000000000000000000000000000000000000000000000000000000000000000000000000000000000000000000000000000000000000000000000
310
00000000000000000000000000000000000000000000000000000000000000000000000000000000000000000000000000000000000000000000F500000000BE000000000000000000000000000000000000000000000000000000000000000000000000BE000000000000000000F500000000000000000000000000000000
310
00000000000000000000000000000000000000000000000000000000000000000000000000000000000000000000000000000000000000000000000000000000000000000000000000000000000000000000000000000000000000000000000000000000000000000000000000000000000000000000000000000000000000
310
000000000000000000000000000000000000000000000000000000000000000000000000000000000000000000000000000000000000000000000000F500000000BE000000000000000000000000000000000000000000000000000000000000000000000000BE000000000000000000F50000000000000000000000000000
310
00000000000000000000000000000000000000000000000000000000000000000000000000000000000000000000000000000000000000000000000000000000000000000000000000000000000000000000000000000000000000000000000000000000000000000000000000000000000000000000000000000000000000
310
0000000000000000000000000000000000000000000000000000000000000000000000000000000000000000000000000000000000000000000000000000F500000000BE000000000000000000000000000000000000000000000000000000000000000000000000BE000000000000000000F5000000000000000000000000
310
00000000000000000000000000000000000000000000000000000000000000000000000000000000000000000000000000000000000000000000000000000000000000000000000000000000000000000000000000000000000000000000000000000000000000000000000000000000000000000000000000000000000000
310
00000000000000000000000000000000000000000000000000000000000000000000000000000000000000000000000000000000000000000000000000000000F500000000BE000000000000000000000000000000000000000000000000000000000000000000000000BE000000000000000000F500000000000000000000
310
00000000000000000000000000000000000000000000000000000000000000000000000000000000000000000000000000000000000000000000000000000000000000000000000000000000000000000000000000000000000000000000000000000000000000000000000000000000000000000000000000000000000000
310
000000000000000000000000000000000000000000000000000000000000000000000000000000000000000000000000000000000000000000000000000000000000F500000000BE000000000000000000000000000000000000000000000000000000000000000000000000BE000000000000000000F50000000000000000
310
00000000000000000000000000000000000000000000000000000000000000000000000000000000000000000000000000000000000000000000000000000000000000000000000000000000000000000000000000000000000000000000000000000000000000000000000000000000000000000000000000000000000000
310
0000000000000000000000000000000000000000000000000000000000000000000000000000000000000000000000000000000000000000000000000000000000000000F500000000BE000000000000000000000000000000000000000000000000000000000000000000000000BE000000000000000000F5F5F5F5F5F5F5
310
F5F5F5F5F5F5F5F5F5F5F5F5F5F5F5F5F5F5F5F5F5F5F5F5F5F5F5F5F5F5F5F5F5F5F5F5F5F5F5F5F5F5F5F5F5F5F5F5F5F5F5F5F5F5F5F5F5F5F5F5F5F5F5F5F5F5F5F5F5F5F5F5F5F5F5F5F5F5F5F5F5F5F5F5F5F5F5F5F5F5F5F5F5F5F5F5F5F5F5F5F5F5F5F5F5F5F5F5F5F5F5F5F5F5F5F5F5F5F5F5F5F5F5F5F5F5F5
310
F5F5F5F5F5F5F5F5F5F5F5F5F5F5F5F5F5F5F5F5F5F5F5F5F5F5F5F5F5F5F5F5F5F5F5F5F5F5F5F5F5F5F5F5F5F5F5F5F5F5F5F5F5F5F5F5F5F5F5F5F5F5F5F5F5F5F5F5F5F5F500000000BE000000000000000000000000000000000000000000000000000000000000000000000000BE0000000000000000000000000000
310
00000000000000000000000000000000000000000000000000000000000000000000000000000000000000000000000000000000000000000000000000000000000000000000000000000000000000000000000000000000000000000000000000000000000000000000000000000000000000000000000000000000000000
310
0000000000000000000000000000000000000000000000000000000000000000000000000000000000000000000000000000000000000000000000000000000000000000000000000000000000BE000000000000000000000000000000000000000000000000000000000000000000000000BE000000000000000000000000
310
00000000000000000000000000000000000000000000000000000000000000000000000000000000000000000000000000000000000000000000000000000000000000000000000000000000000000000000000000000000000000000000000000000000000000000000000000000000000000000000000000000000000000
310
00000000000000000000000000000000000000000000000000000000000000000000000000000000000000000000000000000000000000000000000000000000000000000000000000000000000000BE000000000000000000000000000000000000000000000000000000000000000000000000BE00000000000000000000
310
00000000000000000000000000000000000000000000000000000000000000000000000000000000000000000000000000000000000000000000000000000000000000000000000000000000000000000000000000000000000000000000000000000000000000000000000000000000000000000000000000000000000000
310
000000000000000000000000000000000000000000000000000000000000000000000000000000000000000000000000000000000000000000000000000000000000000000000000000000000000000000BE000000000000000000000000000000000000000000000000000000000000000000000000BE0000000000000000
310
00000000000000000000000000000000000000000000000000000000000000000000000000000000000000000000000000000000000000000000000000000000000000000000000000000000000000000000000000000000000000000000000000000000000000000000000000000000000000000000000000000000000000
310
0000000000000000000000000000000000000000000000000000000000000000000000000000000000000000000000000000000000000000000000000000000000000000000000000000000000000000000000BE000000000000000000000000000000000000000000000000000000000000000000000000BEBEBEBEBEBEBE
310
BEBEBEBEBEBEBEBEBEBEBEBEBEBEBEBEBEBEBEBEBEBEBEBEBEBEBEBEBEBEBEBEBEBEBEBEBEBEBEBEBEBEBEBEBEBEBEBEBEBEBEBEBEBEBEBEBEBEBEBEBEBEBEBEBEBEBEBEBEBEBEBEBEBEBEBEBEBEBEBEBEBEBEBEBEBEBEBEBEBEBEBEBEBEBEBEBEBEBEBEBEBEBEBEBEBEBEBEBEBEBEBEBEBEBEBEBEBEBEBEBEBEBEBEBEBEBE
310
BEBEBEBEBEBEBEBEBEBEBEBEBEBEBEBEBEBEBEBEBEBEBEBEBEBEBEBEBEBEBEBEBEBEBEBEBEBEBEBEBEBEBEBEBEBEBEBEBEBEBEBEBEBEBEBEBEBEBEBEBEBEBEBEBEBEBEBEBEBEBEBEBEBEBEBEBEBEBEBEBEBEBEBEBEBE0000000000000000000000000000000000000000000000000000000000000000000000000000000000
310
00000000000000000000000000000000000000000000000000000000000000000000000000000000000000000000000000000000000000000000000000000000000000000000000000000000000000000000000000000000000000000000000000000000000000000000000000000000000000000000000000000000000000
310
00000000000000000000000000000000000000000000000000000000000000000000000000000000000000000000000000000000000000000000000000000000000000000000000000000000000000000000000000000000000000000000000000000000000000000000
  0
XRECORD
  5
4992
102
{ACAD_REACTORS
330
4991
102
}
330
4991
100
AcDbXrecord
280
     1
102
SHADEPLOT
 70
     0
102
SHADEPLOTRESLEVEL
 70
     2
102
SHADEPLOTCUSTOMDPI
 70
   300
  0
XRECORD
  5
4994
102
{ACAD_REACTORS
330
4993
102
}
330
4993
100
AcDbXrecord
280
     1
102
SHADEPLOT
 70
     0
102
SHADEPLOTRESLEVEL
 70
     2
102
SHADEPLOTCUSTOMDPI
 70
   300
  0
XRECORD
  5
4996
102
{ACAD_REACTORS
330
46E0
102
}
330
46E0
100
AcDbXrecord
280
     1
102
MATERIAL
148
0.0
149
0.0
149
0.0
 93
        0
 94
      127
282
     0
 72
     0
 77
     0
171
     0
175
     0
179
     0
273
     0
  0
XRECORD
  5
46E2
102
{ACAD_REACTORS
330
46E0
102
}
330
46E0
100
AcDbXrecord
280
     1
270
     1
271
     1
  0
XRECORD
  5
46E1
102
{ACAD_REACTORS
330
46E0
102
}
330
46E0
100
AcDbXrecord
280
     1
270
     1
271
     1
  0
XRECORD
  5
46E5
102
{ACAD_REACTORS
330
46E0
102
}
330
46E0
100
AcDbXrecord
280
     1
270
     1
271
     1
  0
XRECORD
  5
46E4
102
{ACAD_REACTORS
330
46E0
102
}
330
46E0
100
AcDbXrecord
280
     1
270
     1
271
     1
  0
XRECORD
  5
46E6
102
{ACAD_REACTORS
330
46E0
102
}
330
46E0
100
AcDbXrecord
280
     1
270
     1
271
     1
  0
XRECORD
  5
46E3
102
{ACAD_REACTORS
330
46E0
102
}
330
46E0
100
AcDbXrecord
280
     1
270
     1
271
     1
  0
XRECORD
  5
4995
102
{ACAD_REACTORS
330
46D8
102
}
330
46D8
100
AcDbXrecord
280
     1
102
MATERIAL
148
0.0
149
0.0
149
0.0
 93
        0
 94
      127
282
     0
 72
     0
 77
     0
171
     0
175
     0
179
     0
273
     0
  0
XRECORD
  5
46DA
102
{ACAD_REACTORS
330
46D8
102
}
330
46D8
100
AcDbXrecord
280
     1
270
     1
271
     1
  0
XRECORD
  5
46D9
102
{ACAD_REACTORS
330
46D8
102
}
330
46D8
100
AcDbXrecord
280
     1
270
     1
271
     1
  0
XRECORD
  5
46DD
102
{ACAD_REACTORS
330
46D8
102
}
330
46D8
100
AcDbXrecord
280
     1
270
     1
271
     1
  0
XRECORD
  5
46DC
102
{ACAD_REACTORS
330
46D8
102
}
330
46D8
100
AcDbXrecord
280
     1
270
     1
271
     1
  0
XRECORD
  5
46DE
102
{ACAD_REACTORS
330
46D8
102
}
330
46D8
100
AcDbXrecord
280
     1
270
     1
271
     1
  0
XRECORD
  5
46DB
102
{ACAD_REACTORS
330
46D8
102
}
330
46D8
100
AcDbXrecord
280
     1
270
     1
271
     1
  0
XRECORD
  5
4997
102
{ACAD_REACTORS
330
46E8
102
}
330
46E8
100
AcDbXrecord
280
     1
102
MATERIAL
148
0.0
149
0.0
149
0.0
 93
        0
 94
      127
282
     0
 72
     0
 77
     0
171
     0
175
     0
179
     0
273
     0
  0
XRECORD
  5
46EA
102
{ACAD_REACTORS
330
46E8
102
}
330
46E8
100
AcDbXrecord
280
     1
270
     1
271
     1
  0
XRECORD
  5
46E9
102
{ACAD_REACTORS
330
46E8
102
}
330
46E8
100
AcDbXrecord
280
     1
270
     1
271
     1
  0
XRECORD
  5
46ED
102
{ACAD_REACTORS
330
46E8
102
}
330
46E8
100
AcDbXrecord
280
     1
270
     1
271
     1
  0
XRECORD
  5
46EC
102
{ACAD_REACTORS
330
46E8
102
}
330
46E8
100
AcDbXrecord
280
     1
270
     1
271
     1
  0
XRECORD
  5
46EE
102
{ACAD_REACTORS
330
46E8
102
}
330
46E8
100
AcDbXrecord
280
     1
270
     1
271
     1
  0
XRECORD
  5
46EB
102
{ACAD_REACTORS
330
46E8
102
}
330
46E8
100
AcDbXrecord
280
     1
270
     1
271
     1
  0
XRECORD
  5
4989
102
{ACAD_REACTORS
330
4988
102
}
330
4988
100
AcDbXrecord
280
     1
102
ACAD_ROUNDTRIP_2012_MLEADER_STYLE
298
     1
  0
CELLSTYLEMAP
  5
4987
102
{ACAD_REACTORS
330
4986
102
}
330
4986
100
AcDbCellStyleMap
 90
        3
300
CELLSTYLE
  1
TABLEFORMAT_BEGIN
 90
        5
170
     1
 91
        0
 92
    32768
 62
   257
 93
        1
300
CONTENTFORMAT
  1
CONTENTFORMAT_BEGIN
 90
        0
 91
        0
 92
        4
 93
        0
300

 40
0.0
140
1.0
 94
        5
 62
     0
340
11
144
6.0
309
CONTENTFORMAT_END
171
     1
301
MARGIN
  1
CELLMARGIN_BEGIN
 40
1.5
 40
1.5
 40
1.5
 40
1.5
 40
0.18
 40
0.18
309
CELLMARGIN_END
 94
        6
 95
        1
302
GRIDFORMAT
  1
GRIDFORMAT_BEGIN
 90
        0
 91
        1
 62
     0
 92
       -2
340
0
 93
        0
 40
0.045
309
GRIDFORMAT_END
 95
        2
302
GRIDFORMAT
  1
GRIDFORMAT_BEGIN
 90
        0
 91
        1
 62
     0
 92
       -2
340
0
 93
        0
 40
0.045
309
GRIDFORMAT_END
 95
        4
302
GRIDFORMAT
  1
GRIDFORMAT_BEGIN
 90
        0
 91
        1
 62
     0
 92
       -2
340
0
 93
        0
 40
0.045
309
GRIDFORMAT_END
 95
        8
302
GRIDFORMAT
  1
GRIDFORMAT_BEGIN
 90
        0
 91
        1
 62
     0
 92
       -2
340
0
 93
        0
 40
0.045
309
GRIDFORMAT_END
 95
       16
302
GRIDFORMAT
  1
GRIDFORMAT_BEGIN
 90
        0
 91
        1
 62
     0
 92
       -2
340
0
 93
        0
 40
0.045
309
GRIDFORMAT_END
 95
       32
302
GRIDFORMAT
  1
GRIDFORMAT_BEGIN
 90
        0
 91
        1
 62
     0
 92
       -2
340
0
 93
        0
 40
0.045
309
GRIDFORMAT_END
309
TABLEFORMAT_END
  1
CELLSTYLE_BEGIN
 90
        1
 91
        1
300
_TITLE
309
CELLSTYLE_END
300
CELLSTYLE
  1
TABLEFORMAT_BEGIN
 90
        5
170
     1
 91
        0
 92
        0
 62
   257
 93
        1
300
CONTENTFORMAT
  1
CONTENTFORMAT_BEGIN
 90
        0
 91
        0
 92
        4
 93
        0
300

 40
0.0
140
1.0
 94
        5
 62
     0
340
11
144
4.5
309
CONTENTFORMAT_END
171
     1
301
MARGIN
  1
CELLMARGIN_BEGIN
 40
1.5
 40
1.5
 40
1.5
 40
1.5
 40
0.18
 40
0.18
309
CELLMARGIN_END
 94
        6
 95
        1
302
GRIDFORMAT
  1
GRIDFORMAT_BEGIN
 90
        0
 91
        1
 62
     0
 92
       -2
340
0
 93
        0
 40
0.045
309
GRIDFORMAT_END
 95
        2
302
GRIDFORMAT
  1
GRIDFORMAT_BEGIN
 90
        0
 91
        1
 62
     0
 92
       -2
340
0
 93
        0
 40
0.045
309
GRIDFORMAT_END
 95
        4
302
GRIDFORMAT
  1
GRIDFORMAT_BEGIN
 90
        0
 91
        1
 62
     0
 92
       -2
340
0
 93
        0
 40
0.045
309
GRIDFORMAT_END
 95
        8
302
GRIDFORMAT
  1
GRIDFORMAT_BEGIN
 90
        0
 91
        1
 62
     0
 92
       -2
340
0
 93
        0
 40
0.045
309
GRIDFORMAT_END
 95
       16
302
GRIDFORMAT
  1
GRIDFORMAT_BEGIN
 90
        0
 91
        1
 62
     0
 92
       -2
340
0
 93
        0
 40
0.045
309
GRIDFORMAT_END
 95
       32
302
GRIDFORMAT
  1
GRIDFORMAT_BEGIN
 90
        0
 91
        1
 62
     0
 92
       -2
340
0
 93
        0
 40
0.045
309
GRIDFORMAT_END
309
TABLEFORMAT_END
  1
CELLSTYLE_BEGIN
 90
        2
 91
        1
300
_HEADER
309
CELLSTYLE_END
300
CELLSTYLE
  1
TABLEFORMAT_BEGIN
 90
        5
170
     1
 91
        0
 92
        0
 62
   257
 93
        1
300
CONTENTFORMAT
  1
CONTENTFORMAT_BEGIN
 90
        0
 91
        0
 92
        4
 93
        0
300

 40
0.0
140
1.0
 94
        2
 62
     0
340
11
144
4.5
309
CONTENTFORMAT_END
171
     1
301
MARGIN
  1
CELLMARGIN_BEGIN
 40
1.5
 40
1.5
 40
1.5
 40
1.5
 40
0.18
 40
0.18
309
CELLMARGIN_END
 94
        6
 95
        1
302
GRIDFORMAT
  1
GRIDFORMAT_BEGIN
 90
        0
 91
        1
 62
     0
 92
       -2
340
0
 93
        0
 40
0.045
309
GRIDFORMAT_END
 95
        2
302
GRIDFORMAT
  1
GRIDFORMAT_BEGIN
 90
        0
 91
        1
 62
     0
 92
       -2
340
0
 93
        0
 40
0.045
309
GRIDFORMAT_END
 95
        4
302
GRIDFORMAT
  1
GRIDFORMAT_BEGIN
 90
        0
 91
        1
 62
     0
 92
       -2
340
0
 93
        0
 40
0.045
309
GRIDFORMAT_END
 95
        8
302
GRIDFORMAT
  1
GRIDFORMAT_BEGIN
 90
        0
 91
        1
 62
     0
 92
       -2
340
0
 93
        0
 40
0.045
309
GRIDFORMAT_END
 95
       16
302
GRIDFORMAT
  1
GRIDFORMAT_BEGIN
 90
        0
 91
        1
 62
     0
 92
       -2
340
0
 93
        0
 40
0.045
309
GRIDFORMAT_END
 95
       32
302
GRIDFORMAT
  1
GRIDFORMAT_BEGIN
 90
        0
 91
        1
 62
     0
 92
       -2
340
0
 93
        0
 40
0.045
309
GRIDFORMAT_END
309
TABLEFORMAT_END
  1
CELLSTYLE_BEGIN
 90
        3
 91
        2
300
_DATA
309
CELLSTYLE_END
  0
XRECORD
  5
4990
102
{ACAD_REACTORS
330
4986
102
}
330
4986
100
AcDbXrecord
280
     1
102
ACAD_ROUNDTRIP_PRE2007_TABLESTYLE
 90
        4
 91
        0
  1

 92
        4
 93
        0
  2

 94
        4
 95
        0
  3

  0
XRECORD
  5
49A3
102
{ACAD_REACTORS
330
49A2
102
}
330
49A2
100
AcDbXrecord
280
     1
102
RTVSPropertyOp0
 70
     1
102
RTVSPropertyOp1
 70
     1
102
RTVSPropertyOp2
 70
     1
102
RTVSPropertyOp3
 70
     1
102
RTVSPropertyOp4
 70
     1
102
RTVSPropertyOp5
 70
     1
102
RTVSPropertyOp6
 70
     1
102
RTVSPropertyOp7
 70
     1
102
RTVSPropertyOp8
 70
     1
102
RTVSPropertyOp9
 70
     1
102
RTVSPropertyOp10
 70
     1
102
RTVSPropertyOp11
 70
     1
102
RTVSPropertyOp12
 70
     1
102
RTVSPropertyOp13
 70
     1
102
RTVSPropertyOp14
 70
     1
102
RTVSPropertyOp15
 70
     1
102
RTVSPropertyOp16
 70
     1
102
RTVSPropertyOp17
 70
     1
102
RTVSPropertyOp18
 70
     1
102
RTVSPropertyOp19
 70
     1
102
RTVSPropertyOp20
 70
     1
102
RTVSPropertyOp21
 70
     1
102
RTVSPropertyOp22
 70
     1
102
RTVSPropertyOp23
 70
     1
102
RTVSPropertyOp24
 70
     1
102
RTVSPropertyOp25
 70
     1
102
RTVSPropertyOp26
 70
     1
102
RTVSPropertyOp27
 70
     1
102
RTVSPropertyOp28
 70
     1
102
RTVSPropertyOp29
 70
     1
102
RTVSPropertyOp30
 70
     1
102
RTVSPropertyOp31
 70
     1
102
RTVSPropertyOp32
 70
     1
  0
XRECORD
  5
49A1
102
{ACAD_REACTORS
330
49A0
102
}
330
49A0
100
AcDbXrecord
280
     1
102
RTVSPropertyOp0
 70
     1
102
RTVSPropertyOp1
 70
     1
102
RTVSPropertyOp2
 70
     1
102
RTVSPropertyOp3
 70
     1
102
RTVSPropertyOp4
 70
     1
102
RTVSPropertyOp5
 70
     1
102
RTVSPropertyOp6
 70
     1
102
RTVSPropertyOp7
 70
     1
102
RTVSPropertyOp8
 70
     1
102
RTVSPropertyOp9
 70
     1
102
RTVSPropertyOp10
 70
     1
102
RTVSPropertyOp11
 70
     1
102
RTVSPropertyOp12
 70
     1
102
RTVSPropertyOp13
 70
     1
102
RTVSPropertyOp14
 70
     1
102
RTVSPropertyOp15
 70
     1
102
RTVSPropertyOp16
 70
     1
102
RTVSPropertyOp17
 70
     1
102
RTVSPropertyOp18
 70
     1
102
RTVSPropertyOp19
 70
     1
102
RTVSPropertyOp20
 70
     1
102
RTVSPropertyOp21
 70
     1
102
RTVSPropertyOp22
 70
     1
102
RTVSPropertyOp23
 70
     1
102
RTVSPropertyOp24
 70
     1
102
RTVSPropertyOp25
 70
     1
102
RTVSPropertyOp26
 70
     1
102
RTVSPropertyOp27
 70
     1
102
RTVSPropertyOp28
 70
     1
102
RTVSPropertyOp29
 70
     1
102
RTVSPropertyOp30
 70
     1
102
RTVSPropertyOp31
 70
     1
102
RTVSPropertyOp32
 70
     1
  0
XRECORD
  5
49AF
102
{ACAD_REACTORS
330
49AE
102
}
330
49AE
100
AcDbXrecord
280
     1
102
RTVSPropertyOp0
 70
     1
102
RTVSPropertyOp1
 70
     1
102
RTVSPropertyOp2
 70
     1
102
RTVSPropertyOp3
 70
     1
102
RTVSPropertyOp4
 70
     1
102
RTVSPropertyOp5
 70
     1
102
RTVSPropertyOp6
 70
     1
102
RTVSPropertyOp7
 70
     1
102
RTVSPropertyOp8
 70
     1
102
RTVSPropertyOp9
 70
     1
102
RTVSPropertyOp10
 70
     1
102
RTVSPropertyOp11
 70
     1
102
RTVSPropertyOp12
 70
     1
102
RTVSPropertyOp13
 70
     1
102
RTVSPropertyOp14
 70
     1
102
RTVSPropertyOp15
 70
     1
102
RTVSPropertyOp16
 70
     1
102
RTVSPropertyOp17
 70
     1
102
RTVSPropertyOp18
 70
     1
102
RTVSPropertyOp19
 70
     1
102
RTVSPropertyOp20
 70
     1
102
RTVSPropertyOp21
 70
     1
102
RTVSPropertyOp22
 70
     1
102
RTVSPropertyOp23
 70
     1
102
RTVSPropertyOp24
 70
     1
102
RTVSPropertyOp25
 70
     1
102
RTVSPropertyOp26
 70
     1
102
RTVSPropertyOp27
 70
     1
102
RTVSPropertyOp28
 70
     1
102
RTVSPropertyOp29
 70
     1
102
RTVSPropertyOp30
 70
     1
102
RTVSPropertyOp31
 70
     1
102
RTVSPropertyOp32
 70
     1
  0
XRECORD
  5
49B7
102
{ACAD_REACTORS
330
49B6
102
}
330
49B6
100
AcDbXrecord
280
     1
102
RTVSPropertyOp0
 70
     1
102
RTVSPropertyOp1
 70
     1
102
RTVSPropertyOp2
 70
     1
102
RTVSPropertyOp3
 70
     1
102
RTVSPropertyOp4
 70
     1
102
RTVSPropertyOp5
 70
     1
102
RTVSPropertyOp6
 70
     1
102
RTVSPropertyOp7
 70
     1
102
RTVSPropertyOp8
 70
     1
102
RTVSPropertyOp9
 70
     1
102
RTVSPropertyOp10
 70
     1
102
RTVSPropertyOp11
 70
     1
102
RTVSPropertyOp12
 70
     1
102
RTVSPropertyOp13
 70
     1
102
RTVSPropertyOp14
 70
     1
102
RTVSPropertyOp15
 70
     1
102
RTVSPropertyOp16
 70
     1
102
RTVSPropertyOp17
 70
     1
102
RTVSPropertyOp18
 70
     1
102
RTVSPropertyOp19
 70
     1
102
RTVSPropertyOp20
 70
     1
102
RTVSPropertyOp21
 70
     1
102
RTVSPropertyOp22
 70
     1
102
RTVSPropertyOp23
 70
     1
102
RTVSPropertyOp24
 70
     1
102
RTVSPropertyOp25
 70
     1
102
RTVSPropertyOp26
 70
     1
102
RTVSPropertyOp27
 70
     1
102
RTVSPropertyOp28
 70
     1
102
RTVSPropertyOp29
 70
     1
102
RTVSPropertyOp30
 70
     1
102
RTVSPropertyOp31
 70
     1
102
RTVSPropertyOp32
 70
     1
  0
XRECORD
  5
49A9
102
{ACAD_REACTORS
330
49A8
102
}
330
49A8
100
AcDbXrecord
280
     1
102
RTVSPropertyOp0
 70
     1
102
RTVSPropertyOp1
 70
     1
102
RTVSPropertyOp2
 70
     1
102
RTVSPropertyOp3
 70
     1
102
RTVSPropertyOp4
 70
     1
102
RTVSPropertyOp5
 70
     1
102
RTVSPropertyOp6
 70
     1
102
RTVSPropertyOp7
 70
     1
102
RTVSPropertyOp8
 70
     1
102
RTVSPropertyOp9
 70
     1
102
RTVSPropertyOp10
 70
     1
102
RTVSPropertyOp11
 70
     1
102
RTVSPropertyOp12
 70
     1
102
RTVSPropertyOp13
 70
     1
102
RTVSPropertyOp14
 70
     1
102
RTVSPropertyOp15
 70
     1
102
RTVSPropertyOp16
 70
     1
102
RTVSPropertyOp17
 70
     1
102
RTVSPropertyOp18
 70
     1
102
RTVSPropertyOp19
 70
     1
102
RTVSPropertyOp20
 70
     1
102
RTVSPropertyOp21
 70
     1
102
RTVSPropertyOp22
 70
     1
102
RTVSPropertyOp23
 70
     1
102
RTVSPropertyOp24
 70
     1
102
RTVSPropertyOp25
 70
     1
102
RTVSPropertyOp26
 70
     1
102
RTVSPropertyOp27
 70
     1
102
RTVSPropertyOp28
 70
     1
102
RTVSPropertyOp29
 70
     1
102
RTVSPropertyOp30
 70
     1
102
RTVSPropertyOp31
 70
     1
102
RTVSPropertyOp32
 70
     1
  0
XRECORD
  5
49AD
102
{ACAD_REACTORS
330
49AC
102
}
330
49AC
100
AcDbXrecord
280
     1
102
RTVSPropertyOp0
 70
     1
102
RTVSPropertyOp1
 70
     1
102
RTVSPropertyOp2
 70
     1
102
RTVSPropertyOp3
 70
     1
102
RTVSPropertyOp4
 70
     1
102
RTVSPropertyOp5
 70
     1
102
RTVSPropertyOp6
 70
     1
102
RTVSPropertyOp7
 70
     1
102
RTVSPropertyOp8
 70
     1
102
RTVSPropertyOp9
 70
     1
102
RTVSPropertyOp10
 70
     1
102
RTVSPropertyOp11
 70
     1
102
RTVSPropertyOp12
 70
     1
102
RTVSPropertyOp13
 70
     1
102
RTVSPropertyOp14
 70
     1
102
RTVSPropertyOp15
 70
     1
102
RTVSPropertyOp16
 70
     1
102
RTVSPropertyOp17
 70
     1
102
RTVSPropertyOp18
 70
     1
102
RTVSPropertyOp19
 70
     1
102
RTVSPropertyOp20
 70
     1
102
RTVSPropertyOp21
 70
     1
102
RTVSPropertyOp22
 70
     1
102
RTVSPropertyOp23
 70
     1
102
RTVSPropertyOp24
 70
     1
102
RTVSPropertyOp25
 70
     1
102
RTVSPropertyOp26
 70
     1
102
RTVSPropertyOp27
 70
     1
102
RTVSPropertyOp28
 70
     1
102
RTVSPropertyOp29
 70
     1
102
RTVSPropertyOp30
 70
     1
102
RTVSPropertyOp31
 70
     1
102
RTVSPropertyOp32
 70
     1
  0
XRECORD
  5
49C7
102
{ACAD_REACTORS
330
49C6
102
}
330
49C6
100
AcDbXrecord
280
     1
102
RTVSPropertyOp0
 70
     0
102
RTVSPropertyOp1
 70
     0
102
RTVSPropertyOp2
 70
     0
102
RTVSPropertyOp3
 70
     0
102
RTVSPropertyOp4
 70
     0
102
RTVSPropertyOp5
 70
     0
102
RTVSPropertyOp6
 70
     0
102
RTVSPropertyOp7
 70
     0
102
RTVSPropertyOp8
 70
     0
102
RTVSPropertyOp9
 70
     0
102
RTVSPropertyOp10
 70
     0
102
RTVSPropertyOp11
 70
     0
102
RTVSPropertyOp12
 70
     0
102
RTVSPropertyOp13
 70
     0
102
RTVSPropertyOp14
 70
     2
102
RTVSPropertyOp15
 70
     0
102
RTVSPropertyOp16
 70
     0
102
RTVSPropertyOp17
 70
     0
102
RTVSPropertyOp18
 70
     0
102
RTVSPropertyOp19
 70
     0
102
RTVSPropertyOp20
 70
     0
102
RTVSPropertyOp21
 70
     0
102
RTVSPropertyOp22
 70
     0
102
RTVSPropertyOp23
 70
     0
102
RTVSPropertyOp24
 70
     0
102
RTVSPropertyOp25
 70
     0
102
RTVSPropertyOp26
 70
     0
102
RTVSPropertyOp27
 70
     0
102
RTVSPropertyOp28
 70
     1
102
RTVSPropertyOp29
 70
     1
102
RTVSPropertyOp30
 70
     1
102
RTVSPropertyOp31
 70
     1
102
RTVSPropertyOp32
 70
     1
  0
XRECORD
  5
49B5
102
{ACAD_REACTORS
330
49B4
102
}
330
49B4
100
AcDbXrecord
280
     1
102
RTVSPropertyOp0
 70
     1
102
RTVSPropertyOp1
 70
     1
102
RTVSPropertyOp2
 70
     1
102
RTVSPropertyOp3
 70
     1
102
RTVSPropertyOp4
 70
     1
102
RTVSPropertyOp5
 70
     1
102
RTVSPropertyOp6
 70
     1
102
RTVSPropertyOp7
 70
     1
102
RTVSPropertyOp8
 70
     1
102
RTVSPropertyOp9
 70
     1
102
RTVSPropertyOp10
 70
     1
102
RTVSPropertyOp11
 70
     1
102
RTVSPropertyOp12
 70
     1
102
RTVSPropertyOp13
 70
     1
102
RTVSPropertyOp14
 70
     1
102
RTVSPropertyOp15
 70
     1
102
RTVSPropertyOp16
 70
     1
102
RTVSPropertyOp17
 70
     1
102
RTVSPropertyOp18
 70
     1
102
RTVSPropertyOp19
 70
     1
102
RTVSPropertyOp20
 70
     1
102
RTVSPropertyOp21
 70
     1
102
RTVSPropertyOp22
 70
     1
102
RTVSPropertyOp23
 70
     1
102
RTVSPropertyOp24
 70
     1
102
RTVSPropertyOp25
 70
     1
102
RTVSPropertyOp26
 70
     1
102
RTVSPropertyOp27
 70
     1
102
RTVSPropertyOp28
 70
     1
102
RTVSPropertyOp29
 70
     1
102
RTVSPropertyOp30
 70
     1
102
RTVSPropertyOp31
 70
     1
102
RTVSPropertyOp32
 70
     1
  0
XRECORD
  5
4999
102
{ACAD_REACTORS
330
4998
102
}
330
4998
100
AcDbXrecord
280
     1
102
RTVSPropertyOp0
 70
     1
102
RTVSPropertyOp1
 70
     1
102
RTVSPropertyOp2
 70
     1
102
RTVSPropertyOp3
 70
     1
102
RTVSPropertyOp4
 70
     1
102
RTVSPropertyOp5
 70
     1
102
RTVSPropertyOp6
 70
     1
102
RTVSPropertyOp7
 70
     1
102
RTVSPropertyOp8
 70
     1
102
RTVSPropertyOp9
 70
     1
102
RTVSPropertyOp10
 70
     1
102
RTVSPropertyOp11
 70
     1
102
RTVSPropertyOp12
 70
     1
102
RTVSPropertyOp13
 70
     1
102
RTVSPropertyOp14
 70
     1
102
RTVSPropertyOp15
 70
     1
102
RTVSPropertyOp16
 70
     1
102
RTVSPropertyOp17
 70
     1
102
RTVSPropertyOp18
 70
     1
102
RTVSPropertyOp19
 70
     1
102
RTVSPropertyOp20
 70
     1
102
RTVSPropertyOp21
 70
     1
102
RTVSPropertyOp22
 70
     1
102
RTVSPropertyOp23
 70
     1
102
RTVSPropertyOp24
 70
     1
102
RTVSPropertyOp25
 70
     1
102
RTVSPropertyOp26
 70
     1
102
RTVSPropertyOp27
 70
     1
102
RTVSPropertyOp28
 70
     1
102
RTVSPropertyOp29
 70
     1
102
RTVSPropertyOp30
 70
     1
102
RTVSPropertyOp31
 70
     1
102
RTVSPropertyOp32
 70
     1
  0
XRECORD
  5
499B
102
{ACAD_REACTORS
330
499A
102
}
330
499A
100
AcDbXrecord
280
     1
102
RTVSPropertyOp0
 70
     1
102
RTVSPropertyOp1
 70
     1
102
RTVSPropertyOp2
 70
     1
102
RTVSPropertyOp3
 70
     1
102
RTVSPropertyOp4
 70
     1
102
RTVSPropertyOp5
 70
     1
102
RTVSPropertyOp6
 70
     1
102
RTVSPropertyOp7
 70
     1
102
RTVSPropertyOp8
 70
     1
102
RTVSPropertyOp9
 70
     1
102
RTVSPropertyOp10
 70
     1
102
RTVSPropertyOp11
 70
     1
102
RTVSPropertyOp12
 70
     1
102
RTVSPropertyOp13
 70
     1
102
RTVSPropertyOp14
 70
     1
102
RTVSPropertyOp15
 70
     1
102
RTVSPropertyOp16
 70
     1
102
RTVSPropertyOp17
 70
     1
102
RTVSPropertyOp18
 70
     1
102
RTVSPropertyOp19
 70
     1
102
RTVSPropertyOp20
 70
     1
102
RTVSPropertyOp21
 70
     1
102
RTVSPropertyOp22
 70
     1
102
RTVSPropertyOp23
 70
     1
102
RTVSPropertyOp24
 70
     1
102
RTVSPropertyOp25
 70
     1
102
RTVSPropertyOp26
 70
     1
102
RTVSPropertyOp27
 70
     1
102
RTVSPropertyOp28
 70
     1
102
RTVSPropertyOp29
 70
     1
102
RTVSPropertyOp30
 70
     1
102
RTVSPropertyOp31
 70
     1
102
RTVSPropertyOp32
 70
     1
  0
XRECORD
  5
499D
102
{ACAD_REACTORS
330
499C
102
}
330
499C
100
AcDbXrecord
280
     1
102
RTVSPropertyOp0
 70
     1
102
RTVSPropertyOp1
 70
     1
102
RTVSPropertyOp2
 70
     1
102
RTVSPropertyOp3
 70
     1
102
RTVSPropertyOp4
 70
     1
102
RTVSPropertyOp5
 70
     1
102
RTVSPropertyOp6
 70
     1
102
RTVSPropertyOp7
 70
     1
102
RTVSPropertyOp8
 70
     1
102
RTVSPropertyOp9
 70
     1
102
RTVSPropertyOp10
 70
     1
102
RTVSPropertyOp11
 70
     1
102
RTVSPropertyOp12
 70
     1
102
RTVSPropertyOp13
 70
     1
102
RTVSPropertyOp14
 70
     1
102
RTVSPropertyOp15
 70
     1
102
RTVSPropertyOp16
 70
     1
102
RTVSPropertyOp17
 70
     1
102
RTVSPropertyOp18
 70
     1
102
RTVSPropertyOp19
 70
     1
102
RTVSPropertyOp20
 70
     1
102
RTVSPropertyOp21
 70
     1
102
RTVSPropertyOp22
 70
     1
102
RTVSPropertyOp23
 70
     1
102
RTVSPropertyOp24
 70
     1
102
RTVSPropertyOp25
 70
     1
102
RTVSPropertyOp26
 70
     1
102
RTVSPropertyOp27
 70
     1
102
RTVSPropertyOp28
 70
     1
102
RTVSPropertyOp29
 70
     1
102
RTVSPropertyOp30
 70
     1
102
RTVSPropertyOp31
 70
     1
102
RTVSPropertyOp32
 70
     1
  0
XRECORD
  5
499F
102
{ACAD_REACTORS
330
499E
102
}
330
499E
100
AcDbXrecord
280
     1
102
RTVSPropertyOp0
 70
     1
102
RTVSPropertyOp1
 70
     1
102
RTVSPropertyOp2
 70
     1
102
RTVSPropertyOp3
 70
     1
102
RTVSPropertyOp4
 70
     1
102
RTVSPropertyOp5
 70
     1
102
RTVSPropertyOp6
 70
     1
102
RTVSPropertyOp7
 70
     1
102
RTVSPropertyOp8
 70
     1
102
RTVSPropertyOp9
 70
     1
102
RTVSPropertyOp10
 70
     1
102
RTVSPropertyOp11
 70
     1
102
RTVSPropertyOp12
 70
     1
102
RTVSPropertyOp13
 70
     1
102
RTVSPropertyOp14
 70
     1
102
RTVSPropertyOp15
 70
     1
102
RTVSPropertyOp16
 70
     1
102
RTVSPropertyOp17
 70
     1
102
RTVSPropertyOp18
 70
     1
102
RTVSPropertyOp19
 70
     1
102
RTVSPropertyOp20
 70
     1
102
RTVSPropertyOp21
 70
     1
102
RTVSPropertyOp22
 70
     1
102
RTVSPropertyOp23
 70
     1
102
RTVSPropertyOp24
 70
     1
102
RTVSPropertyOp25
 70
     1
102
RTVSPropertyOp26
 70
     1
102
RTVSPropertyOp27
 70
     1
102
RTVSPropertyOp28
 70
     1
102
RTVSPropertyOp29
 70
     1
102
RTVSPropertyOp30
 70
     1
102
RTVSPropertyOp31
 70
     1
102
RTVSPropertyOp32
 70
     1
  0
XRECORD
  5
49A7
102
{ACAD_REACTORS
330
49A6
102
}
330
49A6
100
AcDbXrecord
280
     1
102
RTVSPropertyOp0
 70
     1
102
RTVSPropertyOp1
 70
     1
102
RTVSPropertyOp2
 70
     1
102
RTVSPropertyOp3
 70
     1
102
RTVSPropertyOp4
 70
     1
102
RTVSPropertyOp5
 70
     1
102
RTVSPropertyOp6
 70
     1
102
RTVSPropertyOp7
 70
     1
102
RTVSPropertyOp8
 70
     1
102
RTVSPropertyOp9
 70
     1
102
RTVSPropertyOp10
 70
     1
102
RTVSPropertyOp11
 70
     1
102
RTVSPropertyOp12
 70
     1
102
RTVSPropertyOp13
 70
     1
102
RTVSPropertyOp14
 70
     1
102
RTVSPropertyOp15
 70
     1
102
RTVSPropertyOp16
 70
     1
102
RTVSPropertyOp17
 70
     1
102
RTVSPropertyOp18
 70
     1
102
RTVSPropertyOp19
 70
     1
102
RTVSPropertyOp20
 70
     1
102
RTVSPropertyOp21
 70
     1
102
RTVSPropertyOp22
 70
     1
102
RTVSPropertyOp23
 70
     1
102
RTVSPropertyOp24
 70
     1
102
RTVSPropertyOp25
 70
     1
102
RTVSPropertyOp26
 70
     1
102
RTVSPropertyOp27
 70
     1
102
RTVSPropertyOp28
 70
     1
102
RTVSPropertyOp29
 70
     1
102
RTVSPropertyOp30
 70
     1
102
RTVSPropertyOp31
 70
     1
102
RTVSPropertyOp32
 70
     1
  0
XRECORD
  5
49C3
102
{ACAD_REACTORS
330
49C2
102
}
330
49C2
100
AcDbXrecord
280
     1
102
RTVSPropertyOp0
 70
     0
102
RTVSPropertyOp1
 70
     0
102
RTVSPropertyOp2
 70
     0
102
RTVSPropertyOp3
 70
     0
102
RTVSPropertyOp4
 70
     0
102
RTVSPropertyOp5
 70
     0
102
RTVSPropertyOp6
 70
     0
102
RTVSPropertyOp7
 70
     0
102
RTVSPropertyOp8
 70
     0
102
RTVSPropertyOp9
 70
     0
102
RTVSPropertyOp10
 70
     0
102
RTVSPropertyOp11
 70
     0
102
RTVSPropertyOp12
 70
     0
102
RTVSPropertyOp13
 70
     0
102
RTVSPropertyOp14
 70
     2
102
RTVSPropertyOp15
 70
     0
102
RTVSPropertyOp16
 70
     0
102
RTVSPropertyOp17
 70
     0
102
RTVSPropertyOp18
 70
     0
102
RTVSPropertyOp19
 70
     0
102
RTVSPropertyOp20
 70
     0
102
RTVSPropertyOp21
 70
     0
102
RTVSPropertyOp22
 70
     0
102
RTVSPropertyOp23
 70
     0
102
RTVSPropertyOp24
 70
     0
102
RTVSPropertyOp25
 70
     0
102
RTVSPropertyOp26
 70
     0
102
RTVSPropertyOp27
 70
     0
102
RTVSPropertyOp28
 70
     1
102
RTVSPropertyOp29
 70
     1
102
RTVSPropertyOp30
 70
     1
102
RTVSPropertyOp31
 70
     1
102
RTVSPropertyOp32
 70
     1
  0
XRECORD
  5
49B3
102
{ACAD_REACTORS
330
49B2
102
}
330
49B2
100
AcDbXrecord
280
     1
102
RTVSPropertyOp0
 70
     1
102
RTVSPropertyOp1
 70
     1
102
RTVSPropertyOp2
 70
     1
102
RTVSPropertyOp3
 70
     1
102
RTVSPropertyOp4
 70
     1
102
RTVSPropertyOp5
 70
     1
102
RTVSPropertyOp6
 70
     1
102
RTVSPropertyOp7
 70
     1
102
RTVSPropertyOp8
 70
     1
102
RTVSPropertyOp9
 70
     1
102
RTVSPropertyOp10
 70
     1
102
RTVSPropertyOp11
 70
     1
102
RTVSPropertyOp12
 70
     1
102
RTVSPropertyOp13
 70
     1
102
RTVSPropertyOp14
 70
     1
102
RTVSPropertyOp15
 70
     1
102
RTVSPropertyOp16
 70
     1
102
RTVSPropertyOp17
 70
     1
102
RTVSPropertyOp18
 70
     1
102
RTVSPropertyOp19
 70
     1
102
RTVSPropertyOp20
 70
     1
102
RTVSPropertyOp21
 70
     1
102
RTVSPropertyOp22
 70
     1
102
RTVSPropertyOp23
 70
     1
102
RTVSPropertyOp24
 70
     1
102
RTVSPropertyOp25
 70
     1
102
RTVSPropertyOp26
 70
     1
102
RTVSPropertyOp27
 70
     1
102
RTVSPropertyOp28
 70
     1
102
RTVSPropertyOp29
 70
     1
102
RTVSPropertyOp30
 70
     1
102
RTVSPropertyOp31
 70
     1
102
RTVSPropertyOp32
 70
     1
  0
XRECORD
  5
49C5
102
{ACAD_REACTORS
330
49C4
102
}
330
49C4
100
AcDbXrecord
280
     1
102
RTVSPropertyOp0
 70
     0
102
RTVSPropertyOp1
 70
     0
102
RTVSPropertyOp2
 70
     0
102
RTVSPropertyOp3
 70
     0
102
RTVSPropertyOp4
 70
     0
102
RTVSPropertyOp5
 70
     0
102
RTVSPropertyOp6
 70
     0
102
RTVSPropertyOp7
 70
     0
102
RTVSPropertyOp8
 70
     0
102
RTVSPropertyOp9
 70
     0
102
RTVSPropertyOp10
 70
     0
102
RTVSPropertyOp11
 70
     0
102
RTVSPropertyOp12
 70
     0
102
RTVSPropertyOp13
 70
     0
102
RTVSPropertyOp14
 70
     2
102
RTVSPropertyOp15
 70
     0
102
RTVSPropertyOp16
 70
     0
102
RTVSPropertyOp17
 70
     0
102
RTVSPropertyOp18
 70
     0
102
RTVSPropertyOp19
 70
     0
102
RTVSPropertyOp20
 70
     0
102
RTVSPropertyOp21
 70
     0
102
RTVSPropertyOp22
 70
     0
102
RTVSPropertyOp23
 70
     0
102
RTVSPropertyOp24
 70
     0
102
RTVSPropertyOp25
 70
     0
102
RTVSPropertyOp26
 70
     0
102
RTVSPropertyOp27
 70
     0
102
RTVSPropertyOp28
 70
     1
102
RTVSPropertyOp29
 70
     1
102
RTVSPropertyOp30
 70
     1
102
RTVSPropertyOp31
 70
     1
102
RTVSPropertyOp32
 70
     1
  0
XRECORD
  5
49AB
102
{ACAD_REACTORS
330
49AA
102
}
330
49AA
100
AcDbXrecord
280
     1
102
RTVSPropertyOp0
 70
     1
102
RTVSPropertyOp1
 70
     1
102
RTVSPropertyOp2
 70
     1
102
RTVSPropertyOp3
 70
     1
102
RTVSPropertyOp4
 70
     1
102
RTVSPropertyOp5
 70
     1
102
RTVSPropertyOp6
 70
     1
102
RTVSPropertyOp7
 70
     1
102
RTVSPropertyOp8
 70
     1
102
RTVSPropertyOp9
 70
     1
102
RTVSPropertyOp10
 70
     1
102
RTVSPropertyOp11
 70
     1
102
RTVSPropertyOp12
 70
     1
102
RTVSPropertyOp13
 70
     1
102
RTVSPropertyOp14
 70
     1
102
RTVSPropertyOp15
 70
     1
102
RTVSPropertyOp16
 70
     1
102
RTVSPropertyOp17
 70
     1
102
RTVSPropertyOp18
 70
     1
102
RTVSPropertyOp19
 70
     1
102
RTVSPropertyOp20
 70
     1
102
RTVSPropertyOp21
 70
     1
102
RTVSPropertyOp22
 70
     1
102
RTVSPropertyOp23
 70
     1
102
RTVSPropertyOp24
 70
     1
102
RTVSPropertyOp25
 70
     1
102
RTVSPropertyOp26
 70
     1
102
RTVSPropertyOp27
 70
     1
102
RTVSPropertyOp28
 70
     1
102
RTVSPropertyOp29
 70
     1
102
RTVSPropertyOp30
 70
     1
102
RTVSPropertyOp31
 70
     1
102
RTVSPropertyOp32
 70
     1
  0
XRECORD
  5
49C1
102
{ACAD_REACTORS
330
49C0
102
}
330
49C0
100
AcDbXrecord
280
     1
102
RTVSPropertyOp0
 70
     1
102
RTVSPropertyOp1
 70
     1
102
RTVSPropertyOp2
 70
     1
102
RTVSPropertyOp3
 70
     1
102
RTVSPropertyOp4
 70
     1
102
RTVSPropertyOp5
 70
     1
102
RTVSPropertyOp6
 70
     1
102
RTVSPropertyOp7
 70
     1
102
RTVSPropertyOp8
 70
     1
102
RTVSPropertyOp9
 70
     1
102
RTVSPropertyOp10
 70
     1
102
RTVSPropertyOp11
 70
     1
102
RTVSPropertyOp12
 70
     1
102
RTVSPropertyOp13
 70
     1
102
RTVSPropertyOp14
 70
     1
102
RTVSPropertyOp15
 70
     1
102
RTVSPropertyOp16
 70
     1
102
RTVSPropertyOp17
 70
     1
102
RTVSPropertyOp18
 70
     1
102
RTVSPropertyOp19
 70
     1
102
RTVSPropertyOp20
 70
     1
102
RTVSPropertyOp21
 70
     1
102
RTVSPropertyOp22
 70
     1
102
RTVSPropertyOp23
 70
     1
102
RTVSPropertyOp24
 70
     1
102
RTVSPropertyOp25
 70
     1
102
RTVSPropertyOp26
 70
     1
102
RTVSPropertyOp27
 70
     1
102
RTVSPropertyOp28
 70
     1
102
RTVSPropertyOp29
 70
     1
102
RTVSPropertyOp30
 70
     1
102
RTVSPropertyOp31
 70
     1
102
RTVSPropertyOp32
 70
     1
  0
XRECORD
  5
49BF
102
{ACAD_REACTORS
330
49BE
102
}
330
49BE
100
AcDbXrecord
280
     1
102
RTVSPropertyOp0
 70
     1
102
RTVSPropertyOp1
 70
     1
102
RTVSPropertyOp2
 70
     1
102
RTVSPropertyOp3
 70
     1
102
RTVSPropertyOp4
 70
     1
102
RTVSPropertyOp5
 70
     1
102
RTVSPropertyOp6
 70
     1
102
RTVSPropertyOp7
 70
     1
102
RTVSPropertyOp8
 70
     1
102
RTVSPropertyOp9
 70
     1
102
RTVSPropertyOp10
 70
     1
102
RTVSPropertyOp11
 70
     1
102
RTVSPropertyOp12
 70
     1
102
RTVSPropertyOp13
 70
     1
102
RTVSPropertyOp14
 70
     1
102
RTVSPropertyOp15
 70
     1
102
RTVSPropertyOp16
 70
     1
102
RTVSPropertyOp17
 70
     1
102
RTVSPropertyOp18
 70
     1
102
RTVSPropertyOp19
 70
     1
102
RTVSPropertyOp20
 70
     1
102
RTVSPropertyOp21
 70
     1
102
RTVSPropertyOp22
 70
     1
102
RTVSPropertyOp23
 70
     1
102
RTVSPropertyOp24
 70
     1
102
RTVSPropertyOp25
 70
     1
102
RTVSPropertyOp26
 70
     1
102
RTVSPropertyOp27
 70
     1
102
RTVSPropertyOp28
 70
     1
102
RTVSPropertyOp29
 70
     1
102
RTVSPropertyOp30
 70
     1
102
RTVSPropertyOp31
 70
     1
102
RTVSPropertyOp32
 70
     1
  0
XRECORD
  5
49B9
102
{ACAD_REACTORS
330
49B8
102
}
330
49B8
100
AcDbXrecord
280
     1
102
RTVSPropertyOp0
 70
     1
102
RTVSPropertyOp1
 70
     1
102
RTVSPropertyOp2
 70
     1
102
RTVSPropertyOp3
 70
     1
102
RTVSPropertyOp4
 70
     1
102
RTVSPropertyOp5
 70
     1
102
RTVSPropertyOp6
 70
     1
102
RTVSPropertyOp7
 70
     1
102
RTVSPropertyOp8
 70
     1
102
RTVSPropertyOp9
 70
     1
102
RTVSPropertyOp10
 70
     1
102
RTVSPropertyOp11
 70
     1
102
RTVSPropertyOp12
 70
     1
102
RTVSPropertyOp13
 70
     1
102
RTVSPropertyOp14
 70
     1
102
RTVSPropertyOp15
 70
     1
102
RTVSPropertyOp16
 70
     1
102
RTVSPropertyOp17
 70
     1
102
RTVSPropertyOp18
 70
     1
102
RTVSPropertyOp19
 70
     1
102
RTVSPropertyOp20
 70
     1
102
RTVSPropertyOp21
 70
     1
102
RTVSPropertyOp22
 70
     1
102
RTVSPropertyOp23
 70
     1
102
RTVSPropertyOp24
 70
     1
102
RTVSPropertyOp25
 70
     1
102
RTVSPropertyOp26
 70
     1
102
RTVSPropertyOp27
 70
     1
102
RTVSPropertyOp28
 70
     1
102
RTVSPropertyOp29
 70
     1
102
RTVSPropertyOp30
 70
     1
102
RTVSPropertyOp31
 70
     1
102
RTVSPropertyOp32
 70
     1
  0
XRECORD
  5
49BB
102
{ACAD_REACTORS
330
49BA
102
}
330
49BA
100
AcDbXrecord
280
     1
102
RTVSPropertyOp0
 70
     1
102
RTVSPropertyOp1
 70
     1
102
RTVSPropertyOp2
 70
     1
102
RTVSPropertyOp3
 70
     1
102
RTVSPropertyOp4
 70
     1
102
RTVSPropertyOp5
 70
     1
102
RTVSPropertyOp6
 70
     1
102
RTVSPropertyOp7
 70
     1
102
RTVSPropertyOp8
 70
     1
102
RTVSPropertyOp9
 70
     1
102
RTVSPropertyOp10
 70
     1
102
RTVSPropertyOp11
 70
     1
102
RTVSPropertyOp12
 70
     1
102
RTVSPropertyOp13
 70
     1
102
RTVSPropertyOp14
 70
     1
102
RTVSPropertyOp15
 70
     1
102
RTVSPropertyOp16
 70
     1
102
RTVSPropertyOp17
 70
     1
102
RTVSPropertyOp18
 70
     1
102
RTVSPropertyOp19
 70
     1
102
RTVSPropertyOp20
 70
     1
102
RTVSPropertyOp21
 70
     1
102
RTVSPropertyOp22
 70
     1
102
RTVSPropertyOp23
 70
     1
102
RTVSPropertyOp24
 70
     1
102
RTVSPropertyOp25
 70
     1
102
RTVSPropertyOp26
 70
     1
102
RTVSPropertyOp27
 70
     1
102
RTVSPropertyOp28
 70
     1
102
RTVSPropertyOp29
 70
     1
102
RTVSPropertyOp30
 70
     1
102
RTVSPropertyOp31
 70
     1
102
RTVSPropertyOp32
 70
     1
  0
XRECORD
  5
49B1
102
{ACAD_REACTORS
330
49B0
102
}
330
49B0
100
AcDbXrecord
280
     1
102
RTVSPropertyOp0
 70
     1
102
RTVSPropertyOp1
 70
     1
102
RTVSPropertyOp2
 70
     1
102
RTVSPropertyOp3
 70
     1
102
RTVSPropertyOp4
 70
     1
102
RTVSPropertyOp5
 70
     1
102
RTVSPropertyOp6
 70
     1
102
RTVSPropertyOp7
 70
     1
102
RTVSPropertyOp8
 70
     1
102
RTVSPropertyOp9
 70
     1
102
RTVSPropertyOp10
 70
     1
102
RTVSPropertyOp11
 70
     1
102
RTVSPropertyOp12
 70
     1
102
RTVSPropertyOp13
 70
     1
102
RTVSPropertyOp14
 70
     1
102
RTVSPropertyOp15
 70
     1
102
RTVSPropertyOp16
 70
     1
102
RTVSPropertyOp17
 70
     1
102
RTVSPropertyOp18
 70
     1
102
RTVSPropertyOp19
 70
     1
102
RTVSPropertyOp20
 70
     1
102
RTVSPropertyOp21
 70
     1
102
RTVSPropertyOp22
 70
     1
102
RTVSPropertyOp23
 70
     1
102
RTVSPropertyOp24
 70
     1
102
RTVSPropertyOp25
 70
     1
102
RTVSPropertyOp26
 70
     1
102
RTVSPropertyOp27
 70
     1
102
RTVSPropertyOp28
 70
     1
102
RTVSPropertyOp29
 70
     1
102
RTVSPropertyOp30
 70
     1
102
RTVSPropertyOp31
 70
     1
102
RTVSPropertyOp32
 70
     1
  0
XRECORD
  5
49A5
102
{ACAD_REACTORS
330
49A4
102
}
330
49A4
100
AcDbXrecord
280
     1
102
RTVSPropertyOp0
 70
     1
102
RTVSPropertyOp1
 70
     1
102
RTVSPropertyOp2
 70
     1
102
RTVSPropertyOp3
 70
     1
102
RTVSPropertyOp4
 70
     1
102
RTVSPropertyOp5
 70
     1
102
RTVSPropertyOp6
 70
     1
102
RTVSPropertyOp7
 70
     1
102
RTVSPropertyOp8
 70
     1
102
RTVSPropertyOp9
 70
     1
102
RTVSPropertyOp10
 70
     1
102
RTVSPropertyOp11
 70
     1
102
RTVSPropertyOp12
 70
     1
102
RTVSPropertyOp13
 70
     1
102
RTVSPropertyOp14
 70
     1
102
RTVSPropertyOp15
 70
     1
102
RTVSPropertyOp16
 70
     1
102
RTVSPropertyOp17
 70
     1
102
RTVSPropertyOp18
 70
     1
102
RTVSPropertyOp19
 70
     1
102
RTVSPropertyOp20
 70
     1
102
RTVSPropertyOp21
 70
     1
102
RTVSPropertyOp22
 70
     1
102
RTVSPropertyOp23
 70
     1
102
RTVSPropertyOp24
 70
     1
102
RTVSPropertyOp25
 70
     1
102
RTVSPropertyOp26
 70
     1
102
RTVSPropertyOp27
 70
     1
102
RTVSPropertyOp28
 70
     1
102
RTVSPropertyOp29
 70
     1
102
RTVSPropertyOp30
 70
     1
102
RTVSPropertyOp31
 70
     1
102
RTVSPropertyOp32
 70
     1
  0
XRECORD
  5
49BD
102
{ACAD_REACTORS
330
49BC
102
}
330
49BC
100
AcDbXrecord
280
     1
102
RTVSPropertyOp0
 70
     1
102
RTVSPropertyOp1
 70
     1
102
RTVSPropertyOp2
 70
     1
102
RTVSPropertyOp3
 70
     1
102
RTVSPropertyOp4
 70
     1
102
RTVSPropertyOp5
 70
     1
102
RTVSPropertyOp6
 70
     1
102
RTVSPropertyOp7
 70
     1
102
RTVSPropertyOp8
 70
     1
102
RTVSPropertyOp9
 70
     1
102
RTVSPropertyOp10
 70
     1
102
RTVSPropertyOp11
 70
     1
102
RTVSPropertyOp12
 70
     1
102
RTVSPropertyOp13
 70
     1
102
RTVSPropertyOp14
 70
     1
102
RTVSPropertyOp15
 70
     1
102
RTVSPropertyOp16
 70
     1
102
RTVSPropertyOp17
 70
     1
102
RTVSPropertyOp18
 70
     1
102
RTVSPropertyOp19
 70
     1
102
RTVSPropertyOp20
 70
     1
102
RTVSPropertyOp21
 70
     1
102
RTVSPropertyOp22
 70
     1
102
RTVSPropertyOp23
 70
     1
102
RTVSPropertyOp24
 70
     1
102
RTVSPropertyOp25
 70
     1
102
RTVSPropertyOp26
 70
     1
102
RTVSPropertyOp27
 70
     1
102
RTVSPropertyOp28
 70
     1
102
RTVSPropertyOp29
 70
     1
102
RTVSPropertyOp30
 70
     1
102
RTVSPropertyOp31
 70
     1
102
RTVSPropertyOp32
 70
     1
  0
ENDSEC
  0
EOF
